osu file format v14

[General]
AudioFilename: audio.ogg
AudioLeadIn: 0
PreviewTime: 43533
Countdown: 0
SampleSet: Soft
StackLeniency: 0.4
Mode: 0
LetterboxInBreaks: 0
WidescreenStoryboard: 1

[Editor]
DistanceSpacing: 1.4
BeatDivisor: 4
GridSize: 16
TimelineZoom: 2.2

[Metadata]
Title:Love Song ga Utaenai
TitleUnicode:ラブソングが歌えない
Artist:kessoku band
ArtistUnicode:結束バンド
Creator:pnky
Version:Kanui's Insane
Source:ぼっち・ざ・ろっく!
Tags:anime sekai sekaii sekai-nyan freezinganimenz kanui bokamin 喜多郁代 Kita Ikuyo 長谷川育美 Hasegawa Ikumi japanese jrock j-rock rock bocchi the rock rock! ZAQ 坪田耕平 tsubota kouhei akkin
BeatmapID:3944413
BeatmapSetID:1910004

[Difficulty]
HPDrainRate:5.2
CircleSize:4
OverallDifficulty:8
ApproachRate:9
SliderMultiplier:1.7
SliderTickRate:1

[Events]
//Background and Video events
0,0,"102595998_p0.jpg",0,0
//Break Periods
2,10976,20392
2,91408,94987
//Storyboard Layer 0 (Background)
//Storyboard Layer 1 (Fail)
//Storyboard Layer 2 (Pass)
//Storyboard Layer 3 (Foreground)
//Storyboard Layer 4 (Overlay)
//Storyboard Sound Samples

[TimingPoints]
398,324.324324324324,4,2,1,60,1,0
2992,-100,4,2,1,50,0,0
5587,-100,4,2,1,65,0,0
10776,-100,4,2,1,50,0,0
21154,-111.111111111111,4,2,1,60,0,0
31532,-111.111111111111,4,2,1,70,0,0
32019,-99.9999999999999,4,2,1,70,0,0
32506,-125,4,2,1,70,0,0
34127,-111.111111111111,4,2,1,70,0,0
34614,-99.9999999999999,4,2,1,70,0,0
35100,-125,4,2,1,70,0,0
36722,-111.111111111111,4,2,1,70,0,0
37208,-100,4,2,1,70,0,0
37695,-125,4,2,1,70,0,0
38343,-111.111111111111,4,2,1,70,0,0
41911,-99.9999999999999,4,2,1,75,0,0
43046,-125,4,2,1,75,0,0
43208,-125,4,2,1,40,0,0
43533,-500,4,2,1,30,0,0
44506,-90.9090909090909,4,2,1,75,0,1
44830,-142.857142857143,4,2,1,75,0,1
45154,-90.9090909090909,4,2,1,75,0,1
45478,-142.857142857143,4,2,1,75,0,1
45803,-90.9090909090909,4,2,1,75,0,1
46127,-142.857142857143,4,2,1,75,0,1
46452,-100,4,2,1,75,0,1
54803,-100,4,2,1,75,0,0
54884,-90.9090909090909,4,2,1,75,0,1
55208,-142.857142857143,4,2,1,75,0,1
55533,-90.9090909090909,4,2,1,75,0,1
55857,-142.857142857143,4,2,1,75,0,1
56181,-90.9090909090909,4,2,1,75,0,1
56505,-142.857142857143,4,2,1,75,0,1
56668,-100,4,2,1,75,0,1
63641,-83.3333333333333,4,2,1,75,0,1
64127,-100,4,2,1,75,0,1
65262,-133.333333333333,4,2,3,50,0,0
67857,-111.111111111111,4,2,1,40,0,0
67938,-111.111111111111,4,2,1,41,0,0
68019,-111.111111111111,4,2,1,42,0,0
68100,-111.111111111111,4,2,1,43,0,0
68181,-111.111111111111,4,2,1,44,0,0
68262,-111.111111111111,4,2,1,45,0,0
68343,-111.111111111111,4,2,1,46,0,0
68424,-111.111111111111,4,2,1,47,0,0
68505,-111.111111111111,4,2,1,48,0,0
68586,-111.111111111111,4,2,1,49,0,0
68667,-111.111111111111,4,2,1,50,0,0
68749,-111.111111111111,4,2,1,51,0,0
68830,-111.111111111111,4,2,1,52,0,0
68911,-111.111111111111,4,2,1,53,0,0
68992,-111.111111111111,4,2,1,54,0,0
69073,-111.111111111111,4,2,1,55,0,0
69154,-111.111111111111,4,2,1,50,0,0
70452,-90.9090909090908,4,2,1,50,0,0
75641,-111.111111111111,4,2,1,55,0,0
79208,-99.9999999999999,4,2,1,55,0,0
80830,-99.9999999999999,4,2,1,65,0,0
86019,-99.9999999999999,4,2,1,75,0,0
91208,-99.9999999999999,4,2,1,35,0,0
95586,-99.9999999999999,4,2,1,50,0,0
95911,-166.666666666667,4,2,1,50,0,0
96397,-133.333333333333,4,2,1,55,0,0
101587,-111.111111111111,4,2,1,60,0,0
111965,-111.111111111111,4,2,1,70,0,0
112452,-99.9999999999999,4,2,1,70,0,0
112938,-125,4,2,1,70,0,0
114560,-111.111111111111,4,2,1,70,0,0
115046,-99.9999999999999,4,2,1,70,0,0
115533,-125,4,2,1,70,0,0
117154,-111.111111111111,4,2,1,70,0,0
117641,-100,4,2,1,70,0,0
118127,-125,4,2,1,70,0,0
118776,-111.111111111111,4,2,1,70,0,0
122343,-99.9999999999999,4,2,1,75,0,0
123479,-125,4,2,1,75,0,0
123640,-125,4,2,1,40,0,0
123965,-500,4,2,1,40,0,0
124938,-90.9090909090909,4,2,1,75,0,1
125262,-142.857142857143,4,2,1,75,0,1
125587,-90.9090909090909,4,2,1,75,0,1
125911,-142.857142857143,4,2,1,75,0,1
126235,-90.9090909090909,4,2,1,75,0,1
126560,-142.857142857143,4,2,1,75,0,1
126884,-100,4,2,1,75,0,1
135235,-100,4,2,1,75,0,0
135316,-90.9090909090909,4,2,1,75,0,1
135641,-142.857142857143,4,2,1,75,0,1
135965,-90.9090909090909,4,2,1,75,0,1
136289,-142.857142857143,4,2,1,75,0,1
136614,-90.9090909090909,4,2,1,75,0,1
136938,-142.857142857143,4,2,1,75,0,1
137262,-100,4,2,1,75,0,1
144073,-83.3333333333333,4,2,1,75,0,1
144559,-100,4,2,1,75,0,1
145695,-100,4,2,1,40,0,0
147640,-100,4,2,1,65,0,0
148289,-95.2380952380952,4,2,1,75,0,1
155992,-95.2380952380952,4,2,1,75,0,0
156073,-95.2380952380952,4,2,1,75,0,1
164830,-76.9230769230769,4,2,1,75,0,1
165316,-95.2380952380952,4,2,1,75,0,1
166452,-133.333333333333,4,2,3,50,0,0
169046,-100,4,2,1,40,0,0
169127,-100,4,2,1,41,0,0
169208,-100,4,2,1,42,0,0
169289,-100,4,2,1,43,0,0
169370,-100,4,2,1,44,0,0
169451,-100,4,2,1,45,0,0
169532,-100,4,2,1,46,0,0
169613,-100,4,2,1,47,0,0
169694,-100,4,2,1,49,0,0
169776,-100,4,2,1,51,0,0
169857,-100,4,2,1,53,0,0
169938,-100,4,2,1,55,0,0
170019,-100,4,2,1,57,0,0
170100,-100,4,2,1,59,0,0
170181,-100,4,2,1,61,0,0
170262,-100,4,2,1,63,0,0
170343,-100,4,2,1,50,0,0
171154,-166.666666666667,4,2,1,50,0,0
171641,-100,4,2,1,65,0,0
176830,-100,4,2,1,75,0,0
182019,-100,4,2,1,40,0,0
183965,-100,4,2,1,60,0,0
184452,-133.333333333333,4,2,1,60,0,0
184776,-133.333333333333,4,2,1,5,0,0

[Colours]
Combo1 : 240,240,140
Combo2 : 250,170,210
Combo3 : 40,150,240
Combo4 : 240,110,110

[HitObjects]
49,331,2992,5,0,3:2:0:0:
52,346,3316,1,0,3:2:0:0:
55,361,3641,1,0,3:2:0:0:
58,376,3965,1,0,3:2:0:0:
153,193,4289,5,0,3:2:0:0:
150,208,4613,1,0,3:2:0:0:
147,223,4938,1,0,3:2:0:0:
144,238,5262,1,0,3:2:0:0:
259,307,5587,6,0,B|288:263|345:263|345:263|374:288|415:285,1,170,12|8,0:0|0:0,0:0:0:0:
510,172,6073,2,0,P|496:129|488:76,1,85,0|8,3:2|0:0,0:0:0:0:
401,204,6397,1,0,3:2:0:0:
288,97,6560,2,0,P|329:104|370:117,1,85,8|0,0:0|3:2,0:0:0:0:
270,231,6884,6,0,P|227:245|174:253,1,85,8|0,0:0|3:2,0:0:0:0:
80,160,7208,1,8,0:0:0:0:
173,72,7370,2,0,P|196:108|197:148,1,85,0|8,3:2|0:0,0:0:0:0:
97,48,7695,1,0,3:2:0:0:
28,219,7857,2,0,P|4:184|4:142,1,85,8|0,0:0|3:2,0:0:0:0:
192,56,8181,6,0,B|282:33|274:77|377:50,1,170,8|8,0:0|0:0,0:0:0:0:
226,195,8668,2,0,P|268:201|310:209,1,85,0|8,3:2|0:0,0:0:0:0:
441,170,8992,1,0,3:2:0:0:
349,132,9154,1,8,0:0:0:0:
283,305,9316,5,4,3:2:0:0:
256,192,9397,12,0,10776,3:2:0:0:
460,338,20992,5,8,0:0:0:0:
460,338,21073,1,8,0:0:0:0:
460,338,21154,2,0,P|405:328|357:322,1,76.4999976654053,6|0,3:2|0:0,0:0:0:0:
296,357,21479,1,10,0:0:0:0:
368,246,21641,2,0,P|389:214|390:176,1,76.4999976654053,2|0,0:0|3:2,0:0:0:0:
297,89,21965,2,0,P|277:121|277:158,1,76.4999976654053,2|8,0:0|0:0,0:0:0:0:
173,212,22289,6,0,P|119:193|21:173,1,152.999995330811,2|0,0:0|0:0,0:0:0:0:
90,82,22776,2,0,P|122:97|176:106,1,76.4999976654053,8|0,0:0|0:0,0:0:0:0:
270,16,23100,2,0,P|315:8|373:63,1,114.749996498108,2|0,3:2|0:0,0:0:0:0:
384,71,23425,2,0,P|371:113|362:159,1,76.4999976654053,10|0,0:0|0:0,0:0:0:0:
325,256,23749,6,0,B|392:279|408:211|480:239,1,152.999995330811,2|10,3:2|0:0,0:0:0:0:
344,350,24235,2,0,P|301:338|247:330,1,76.4999976654053,2|0,0:0|3:2,0:0:0:0:
212,190,24560,2,0,P|249:183|286:172,1,76.4999976654053,2|8,0:0|0:0,0:0:0:0:
388,83,24884,6,0,P|354:46|250:53,1,152.999995330811,2|0,0:0|0:0,0:0:0:0:
140,121,25370,2,0,P|112:86|116:37,1,76.4999976654053,8|0,0:0|0:0,0:0:0:0:
237,133,25695,2,0,P|232:170|206:198,1,76.4999976654053,2|0,3:2|0:0,0:0:0:0:
93,275,26019,2,0,P|166:275|248:304,1,152.999995330811,10|0,0:0|3:2,0:0:0:0:
431,187,26668,6,0,P|435:149|446:112,1,76.4999976654053,10|0,0:0|0:0,0:0:0:0:
399,277,26992,2,0,P|368:253|342:226,1,76.4999976654053,2|0,3:2|0:0,0:0:0:0:
460,350,27316,2,0,P|424:364|387:373,1,76.4999976654053,10|0,0:0|0:0,0:0:0:0:
241,300,27641,6,0,P|169:275|93:275,2,152.999995330811,0|8|2,3:2|0:0|3:2,0:0:0:0:
304,229,28452,1,0,0:0:0:0:
239,161,28614,2,0,P|213:124|218:84,1,76.4999976654053,10|0,0:0|0:0,0:0:0:0:
322,20,28938,6,0,P|363:64|367:155,1,152.999995330811,2|10,3:2|0:0,0:0:0:0:
477,233,29425,2,0,P|422:246|394:257,1,76.4999976654053,2|0,0:0|3:2,0:0:0:0:
319,325,29749,2,0,P|282:312|245:305,1,76.4999976654053,2|8,0:0|0:0,0:0:0:0:
159,349,30073,1,2,0:0:0:0:
235,224,30235,6,0,P|225:186|218:149,1,76.4999976654053,0|0,3:2|1:2,0:0:0:0:
119,38,30560,2,0,B|112:85|89:123|89:123|95:170|76:199,1,152.999995330811,8|0,0:0|3:2,0:0:0:0:
249,56,31127,5,8,0:0:0:0:
266,64,31208,2,0,B|312:42|355:46|355:46|389:23,1,114.749996498108,8|0,0:0|0:0,0:0:0:0:
445,4,31533,6,0,P|403:36|406:133,1,152.999995330811,4|8,3:2|0:0,0:0:0:0:
512,233,32019,2,0,B|453:221|453:221|407:232|407:232|345:221,1,170,4|0,3:2|3:2,0:0:0:0:
215,242,32506,6,0,B|344:220|344:220|275:267,1,204,12|0,0:0|3:2,0:0:0:0:
398,141,33154,1,8,0:0:0:0:
407,122,33479,5,0,3:2:0:0:
321,22,33641,1,8,2:2:0:0:
293,19,33722,1,8,2:2:0:0:
266,21,33803,1,8,2:2:0:0:
239,25,33884,1,8,2:2:0:0:
214,33,33965,1,8,2:2:0:0:
190,48,34046,1,8,2:2:0:0:
171,65,34127,6,0,B|204:76|204:76|220:97|220:97|266:101|314:130,1,152.999995330811,4|8,3:2|2:2,0:0:0:0:
422,203,34614,2,0,B|445:194|450:167|450:167|392:193|314:205,1,170,4|0,3:2|3:2,0:0:0:0:
214,288,35100,6,0,P|325:303|433:322,1,204,12|0,0:0|3:2,0:0:0:0:
309,341,35749,1,12,0:0:0:0:
288,322,36073,5,0,3:2:0:0:
285,290,36154,1,0,3:2:0:0:
282,261,36235,1,0,3:2:0:0:
277,235,36316,1,0,3:2:0:0:
272,214,36397,1,8,3:0:0:0:
267,196,36479,1,8,3:0:0:0:
262,181,36559,1,4,3:0:0:0:
258,169,36640,1,4,3:0:0:0:
253,159,36722,6,0,B|269:111|274:61|274:61|285:89|289:116,1,152.999995330811,4|8,3:2|0:0,0:0:0:0:
372,50,37208,2,0,P|301:38|176:21,1,170,4|0,3:2|3:2,0:0:0:0:
48,127,37695,6,0,P|115:115|182:106,1,136,12|0,0:0|0:0,0:0:0:0:
182,105,38181,1,0,3:2:0:0:
113,195,38343,2,0,P|92:225|91:265,1,76.4999976654053,12|0,0:0|0:0,0:0:0:0:
188,336,38668,1,8,3:2:0:0:
206,318,38749,1,8,2:0:0:0:
227,303,38830,1,8,2:0:0:0:
250,292,38911,1,8,2:0:0:0:
274,285,38992,1,8,3:2:0:0:
299,283,39073,1,8,2:0:0:0:
325,285,39154,1,8,2:0:0:0:
350,292,39235,1,8,2:0:0:0:
373,302,39316,6,0,P|383:233|404:151,2,152.999995330811,4|8|0,3:2|0:0|3:2,0:0:0:0:
373,302,40127,1,0,3:2:0:0:
272,371,40289,2,0,P|234:359|187:348,1,76.4999976654053,8|0,0:0|3:2,0:0:0:0:
68,267,40614,6,0,B|126:242|131:278|189:251,1,114.749996498108,4|0,3:2|0:0,0:0:0:0:
204,234,40938,2,0,P|218:195|209:150,1,76.4999976654053,8|0,0:0|0:0,0:0:0:0:
155,71,41262,2,0,B|139:60|124:48|124:48|133:69|142:97,1,76.4999976654053,0|0,3:2|3:2,0:0:0:0:
237,144,41587,1,8,0:0:0:0:
104,172,41749,2,0,P|120:165|147:154,1,38.2499988327027,0|0,3:2|0:0,0:0:0:0:
314,75,41911,6,0,P|271:64|230:53,1,85,12|0,0:0|3:2,0:0:0:0:
397,153,42235,2,0,P|355:165|314:175,1,85,8|0,0:0|3:2,0:0:0:0:
512,184,42560,2,0,P|481:214|451:244,1,85,8|0,0:0|3:2,0:0:0:0:
472,104,42884,1,8,0:0:0:0:
328,24,43046,6,0,L|338:72,1,34,0|0,3:2|0:0,0:0:0:0:
335,57,43533,6,0,L|328:24,2,34,2|2|2,0:0|0:0|0:0,0:0:0:0:
232,212,44506,6,0,P|170:201|106:245,1,140.25000428009,6|0,3:2|0:0,0:0:0:0:
54,299,44830,2,0,P|77:316|109:321,1,59.4999981842042,10|0,0:0|0:0,0:0:0:0:
243,200,45154,6,0,P|221:140|151:107,1,140.25000428009,2|0,3:2|0:0,0:0:0:0:
78,89,45478,2,0,P|74:117|86:147,1,59.4999981842042,10|0,0:0|0:0,0:0:0:0:
258,203,45803,6,0,P|298:154|292:77,1,140.25000428009,2|0,3:2|0:0,0:0:0:0:
272,6,46127,2,0,P|245:17|225:42,1,59.4999981842042,10|0,0:0|3:2,0:0:0:0:
222,60,46370,1,0,3:2:0:0:
222,60,46452,1,0,3:2:0:0:
134,32,46614,1,0,3:2:0:0:
86,167,46776,2,0,P|132:154|175:144,1,85,8|0,0:0|0:0,0:0:0:0:
293,80,47100,6,0,P|356:93|460:116,2,170,4|8|0,3:2|2:2|3:2,0:0:0:0:
382,183,47911,1,0,3:2:0:0:
281,252,48073,2,0,P|268:181|262:141,1,85,8|0,0:0|0:0,0:0:0:0:
298,336,48397,6,0,P|247:332|222:310,1,85,0|0,3:2|0:0,0:0:0:0:
112,238,48722,2,0,P|163:234|188:212,1,85,8|0,0:0|1:2,0:0:0:0:
198,198,48965,1,0,1:2:0:0:
198,198,49046,1,0,3:2:0:0:
61,305,49208,1,0,3:2:0:0:
27,214,49370,1,8,0:0:0:0:
280,330,49695,6,0,B|337:315|343:375|411:360,1,127.5,6|0,3:2|0:0,0:0:0:0:
427,355,50019,2,0,P|449:317|427:262,1,85,10|0,0:0|3:2,0:0:0:0:
434,260,50262,1,0,3:2:0:0:
434,260,50343,1,2,3:2:0:0:
356,199,50506,1,0,3:2:0:0:
500,150,50668,2,0,P|458:142|416:135,1,85,10|0,0:0|0:0,0:0:0:0:
263,158,50992,5,2,3:2:0:0:
356,199,51154,1,0,0:0:0:0:
261,60,51316,2,0,B|152:93|152:93|207:52,1,170,10|0,2:2|3:2,0:0:0:0:
273,137,51803,1,0,3:2:0:0:
78,70,51965,2,0,L|212:113,1,127.5,8|0,0:0|0:0,0:0:0:0:
273,137,52289,5,4,3:2:0:0:
162,171,52452,1,0,3:2:0:0:
51,205,52614,1,8,0:0:0:0:
236,284,52776,5,0,3:2:0:0:
125,250,52939,1,0,3:2:0:0:
125,250,53100,1,8,3:0:0:0:
210,333,53262,6,0,L|161:170,1,170,12|0,0:0|3:2,0:0:0:0:
311,188,53749,1,8,0:0:0:0:
311,188,53830,1,8,0:0:0:0:
311,188,53911,2,0,L|326:233,1,42.5,8|8,0:0|0:0,0:0:0:0:
384,147,54073,1,4,3:2:0:0:
256,116,54235,5,8,0:0:0:0:
256,116,54316,1,8,0:0:0:0:
256,116,54397,2,0,L|235:158,1,42.5,8|8,0:0|0:0,0:0:0:0:
398,137,54559,1,4,3:2:0:0:
269,26,54722,6,0,L|224:40,1,42.5,8|8,2:0|2:0,0:0:0:0:
81,10,54884,6,0,B|65:44|90:84|90:84|123:94|133:127,1,140.25000428009,6|0,3:2|0:0,0:0:0:0:
104,193,55208,2,0,P|70:174|60:150,1,59.4999981842042,10|0,0:0|0:0,0:0:0:0:
236,154,55533,6,0,B|198:157|176:199|176:199|184:233|160:257,1,140.25000428009,2|0,3:2|0:0,0:0:0:0:
89,265,55857,2,0,P|88:226|104:205,1,59.4999981842042,10|0,0:0|0:0,0:0:0:0:
188,360,56181,6,0,B|166:329|118:331|118:331|93:354|60:346,1,140.25000428009,2|0,3:2|0:0,0:0:0:0:
19,288,56505,2,0,P|52:268|78:271,1,59.4999981842042,10|0,0:0|3:2,0:0:0:0:
93,269,56749,1,0,3:2:0:0:
93,269,56830,1,0,3:2:0:0:
182,200,56992,1,0,3:2:0:0:
112,124,57154,2,0,P|103:84|88:40,1,85,8|0,2:2|0:0,0:0:0:0:
240,6,57479,6,0,P|223:68|203:178,2,170,0|8|0,3:2|0:0|3:2,0:0:0:0:
301,85,58289,1,0,3:2:0:0:
401,37,58452,2,0,P|446:28|487:17,1,85,8|0,0:0|0:0,0:0:0:0:
369,174,58776,6,0,P|324:183|283:194,1,85,0|0,3:2|0:0,0:0:0:0:
388,310,59100,2,0,P|429:301|470:290,1,85,8|0,0:0|1:2,0:0:0:0:
296,281,59425,2,0,P|304:322|315:363,1,85,0|0,3:2|3:2,0:0:0:0:
460,195,59749,2,0,P|451:150|440:109,1,85,8|0,0:0|0:0,0:0:0:0:
425,40,59992,1,0,1:2:0:0:
425,40,60073,5,12,0:0:0:0:
267,5,60397,5,8,0:0:0:0:
252,80,60560,1,0,3:2:0:0:
154,34,60722,5,8,0:0:0:0:
184,123,60885,1,0,3:2:0:0:
58,116,61046,5,8,0:0:0:0:
147,194,61209,1,0,3:2:0:0:
9,229,61370,5,8,0:0:0:0:
242,367,61695,5,8,0:0:0:0:
257,292,61858,1,0,3:2:0:0:
355,338,62020,5,8,0:0:0:0:
325,249,62181,1,0,3:2:0:0:
451,256,62344,5,8,0:0:0:0:
362,178,62507,1,0,3:2:0:0:
498,171,62668,6,0,B|442:173|406:134|406:134|371:131|342:153,1,170,12|0,0:0|3:2,0:0:0:0:
140,208,63154,2,0,B|196:206|232:245|232:245|267:248|295:225,1,170,12|0,0:0|3:2,0:0:0:0:
298,89,63641,6,0,P|317:166|349:303,1,203.999993774414,12|0,0:0|3:2,0:0:0:0:
433,120,64127,2,0,P|412:125|392:131,1,42.5,0|0,3:2|0:0,0:0:0:0:
217,210,64289,2,0,P|258:220|298:232,1,85,8|0,0:0|3:2,0:0:0:0:
321,241,64533,1,0,3:2:0:0:
321,241,64614,1,8,0:0:0:0:
391,131,64776,2,0,P|412:124|433:120,2,42.5,0|0|8,3:0|3:0|3:3,0:0:0:0:
258,81,65100,1,4,3:3:0:0:
305,10,65262,6,0,P|299:59|284:202,1,191.250007295609,4|0,3:2|3:2,0:0:0:0:
417,255,65911,2,0,P|354:252|305:291,1,127.500004863739,10|2,0:0|0:0,0:0:0:0:
159,373,66560,5,2,3:2:0:0:
159,373,66722,2,0,P|108:382|71:392,1,63.7500024318696,8|2,0:0|0:0,0:0:0:0:
112,300,67046,1,4,0:3:0:0:
3,255,67208,2,0,P|65:267|128:278,1,127.500004863739,10|2,0:0|0:0,0:0:0:0:
294,70,67857,6,0,P|289:46|283:25,3,38.2499988327027,4|0|0|0,3:2|1:2|1:2|1:2,0:0:0:0:
374,12,68181,2,0,P|378:35|384:56,3,38.2499988327027,0|0|0|0,3:2|1:2|1:2|1:2,0:0:0:0:
489,132,68506,5,8,3:2:0:0:
456,115,68587,1,0,3:2:0:0:
423,114,68668,1,0,3:2:0:0:
391,128,68749,1,0,3:2:0:0:
366,152,68830,1,8,3:2:0:0:
343,177,68911,1,0,3:2:0:0:
310,190,68992,1,0,3:2:0:0:
276,188,69073,1,0,3:2:0:0:
245,173,69154,5,8,2:0:0:0:
297,91,69316,1,0,3:2:0:0:
297,91,69803,5,8,0:0:0:0:
337,260,69965,1,0,3:2:0:0:
337,260,70452,6,0,P|334:288|330:319,1,46.7500014266968,8|0,0:0|0:0,0:0:0:0:
443,306,70938,6,0,P|445:334|450:365,1,46.7500014266968,8|0,0:0|0:0,0:0:0:0:
175,260,71425,6,0,P|177:288|182:319,1,46.7500014266968,8|0,0:0|0:0,0:0:0:0:
69,306,71911,6,0,P|66:334|62:365,1,46.7500014266968,8|0,0:0|0:0,0:0:0:0:
260,203,72397,5,0,3:2:0:0:
246,198,72479,1,0,3:2:0:0:
246,184,72560,1,0,3:2:0:0:
260,179,72641,1,0,3:2:0:0:
268,191,72722,1,8,0:0:0:0:
180,306,73046,6,0,P|177:283|175:260,1,46.7500014266968,8|0,0:0|0:0,0:0:0:0:
332,306,73532,6,0,P|335:283|336:260,1,46.7500014266968,8|0,0:0|0:0,0:0:0:0:
69,305,74019,6,0,P|67:329|64:352,1,46.7500014266968,8|0,0:0|0:0,0:0:0:0:
443,306,74505,6,0,P|446:334|450:365,1,46.7500014266968,8|0,0:0|0:0,0:0:0:0:
54,151,75641,6,0,P|153:138|212:125,1,152.999995330811,8|8,3:2|0:0,0:0:0:0:
303,22,76127,2,0,P|293:69|288:102,1,76.4999976654053,0|8,3:2|0:0,0:0:0:0:
240,220,76452,1,0,0:0:0:0:
351,153,76614,2,0,P|408:142|454:132,1,76.4999976654053,8|0,0:0|3:2,0:0:0:0:
277,116,76938,1,8,0:0:0:0:
366,233,77100,6,0,P|403:225|441:218,2,76.4999976654053,0|8|0,3:2|0:0|0:0,0:0:0:0:
321,378,77587,2,0,P|313:340|306:302,1,76.4999976654053,8|0,0:0|3:2,0:0:0:0:
222,192,77911,2,0,P|214:229|207:267,1,76.4999976654053,8|0,0:0|3:2,0:0:0:0:
70,322,78235,6,0,P|42:287|50:181,1,152.999995330811,8|8,3:2|0:0,0:0:0:0:
76,53,78722,2,0,P|114:63|152:67,1,76.4999976654053,0|8,0:0|0:0,0:0:0:0:
3,109,79046,1,0,3:2:0:0:
145,187,79208,6,0,B|240:181|196:246|302:239,1,170,8|0,0:0|3:2,0:0:0:0:
299,239,79695,1,4,3:0:0:0:
438,96,79857,6,0,B|343:90|387:155|281:148,1,170,12|0,0:0|3:2,0:0:0:0:
326,23,80343,1,8,0:0:0:0:
335,49,80424,1,8,0:0:0:0:
343,76,80505,1,8,0:0:0:0:
351,103,80586,1,8,0:0:0:0:
359,131,80667,1,8,0:0:0:0:
366,158,80748,1,8,0:0:0:0:
372,186,80830,6,0,P|357:265|347:361,1,170,4|8,3:2|0:0,0:0:0:0:
193,315,81316,2,0,P|230:290|279:285,1,85,0|0,3:2|0:0,0:0:0:0:
259,372,81641,1,0,3:2:0:0:
183,229,81803,2,0,P|146:204|97:199,1,85,8|0,0:0|0:0,0:0:0:0:
95,370,82127,6,0,P|100:321|108:277,1,85,0|0,3:2|3:2,0:0:0:0:
8,223,82452,1,8,0:0:0:0:
132,121,82614,2,0,B|194:110|194:110|237:115|237:115|302:104,1,170,0|0,3:2|3:2,0:0:0:0:
458,36,83100,2,0,P|419:64|424:151,1,127.5,8|0,0:0|0:0,0:0:0:0:
444,167,83425,6,0,B|360:162|370:223|280:224,1,170,0|8,3:2|0:0,0:0:0:0:
497,284,83911,2,0,P|449:272|407:260,1,85,0|0,3:2|0:0,0:0:0:0:
385,384,84235,1,0,3:2:0:0:
247,326,84397,2,0,P|288:315|329:304,1,85,12|0,0:0|0:0,0:0:0:0:
168,225,84722,5,0,3:2:0:0:
132,330,84884,1,0,3:2:0:0:
269,219,85046,2,0,P|262:177|252:135,1,85,12|0,0:0|0:0,0:0:0:0:
134,22,85370,1,8,0:0:0:0:
134,22,85452,1,8,0:0:0:0:
134,22,85533,2,0,P|130:42|125:66,1,42.5,8|8,0:0|0:0,0:0:0:0:
22,124,85695,5,8,3:3:0:0:
63,114,85776,1,8,3:3:0:0:
105,105,85857,1,8,3:3:0:0:
146,97,85938,1,8,3:3:0:0:
188,88,86019,6,0,P|270:105|366:112,1,170,12|8,0:0|0:0,0:0:0:0:
318,200,86506,1,0,3:2:0:0:
426,52,86668,2,0,P|445:94|443:133,1,85,8|0,0:0|3:2,0:0:0:0:
305,219,86992,2,0,P|258:230|209:238,1,85,8|0,0:0|3:2,0:0:0:0:
419,293,87316,6,0,P|466:282|515:274,1,85,8|0,0:0|3:2,0:0:0:0:
300,367,87641,2,0,P|253:378|204:386,1,85,8|0,0:0|3:2,0:0:0:0:
49,300,87965,1,8,0:0:0:0:
127,145,88127,2,0,B|132:174|131:205|131:205|150:239|160:316,1,170,0|0,3:2|3:2,0:0:0:0:
18,165,88614,5,4,1:2:0:0:
65,90,88776,1,0,1:2:0:0:
65,90,88857,1,0,1:2:0:0:
65,90,88938,1,0,1:2:0:0:
206,91,89100,5,0,3:2:0:0:
125,0,89262,1,0,1:2:0:0:
125,0,89343,1,0,1:2:0:0:
125,0,89425,2,0,P|129:20|133:48,2,42.5,0|0|0,1:2|1:2|3:2,0:0:0:0:
266,149,89749,6,0,B|300:145|325:132|325:132|357:144|357:144|392:131|449:127,1,170,12|8,0:0|0:0,0:0:0:0:
373,284,90235,1,8,3:2:0:0:
314,229,90397,1,0,1:2:0:0:
314,229,90479,1,0,1:2:0:0:
314,229,90560,1,4,3:2:0:0:
465,278,90722,5,8,2:2:0:0:
460,310,90803,1,8,2:2:0:0:
445,339,90884,1,8,0:0:0:0:
421,361,90965,1,8,0:0:0:0:
389,373,91046,1,8,0:0:0:0:
356,372,91127,1,8,0:0:0:0:
324,360,91208,1,0,3:2:0:0:
163,348,95587,5,0,3:2:0:0:
242,286,95749,1,8,0:0:0:0:
242,286,95911,2,0,B|221:239|224:181|224:181,1,101.999996887207,0|0,3:2|1:2,0:0:0:0:
229,160,96316,1,0,1:2:0:0:
229,160,96397,5,4,3:2:0:0:
324,132,96560,1,0,1:2:0:0:
342,114,96884,5,0,3:2:0:0:
266,12,97046,2,0,P|261:43|258:75,1,63.7500024318696,8|0,0:0|3:2,0:0:0:0:
423,190,97533,5,0,1:2:0:0:
423,190,97614,1,0,1:2:0:0:
423,190,97695,1,0,3:2:0:0:
438,101,97857,1,8,0:0:0:0:
274,299,98181,5,0,3:2:0:0:
289,210,98343,1,8,0:0:0:0:
289,210,98830,5,0,1:2:0:0:
289,210,98911,1,0,1:2:0:0:
289,210,98992,1,0,3:2:0:0:
198,229,99154,1,0,1:2:0:0:
38,116,99478,5,0,3:2:0:0:
129,135,99641,1,8,0:0:0:0:
285,20,100127,5,0,1:2:0:0:
285,20,100208,1,0,1:2:0:0:
285,20,100289,1,0,3:2:0:0:
330,89,100452,1,0,1:2:0:0:
407,60,100614,2,0,P|461:46|493:41,1,63.7500024318696,0|0,0:0|3:2,0:0:0:0:
350,209,100938,1,8,0:0:0:0:
504,171,101100,6,0,P|475:146|385:142,1,127.500004863739,0|8,3:2|0:0,0:0:0:0:
360,171,101506,1,8,0:0:0:0:
360,171,101587,6,0,P|305:179|277:182,1,76.4999976654053,6|0,3:2|0:0,0:0:0:0:
155,113,101911,1,10,0:0:0:0:
249,39,102073,2,0,P|211:33|173:28,1,76.4999976654053,2|0,0:0|3:2,0:0:0:0:
60,169,102397,2,0,P|65:131|70:93,1,76.4999976654053,2|8,3:2|0:0,0:0:0:0:
240,115,102722,6,0,P|230:190|219:266,1,152.999995330811,2|0,0:0|0:0,0:0:0:0:
108,352,103208,2,0,P|82:323|44:311,1,76.4999976654053,8|0,0:0|0:0,0:0:0:0:
136,219,103533,1,2,3:2:0:0:
136,219,103695,1,0,3:2:0:0:
244,280,103857,2,0,P|295:267|373:256,1,114.749996498108,10|0,0:0|0:0,0:0:0:0:
380,255,104181,6,0,P|426:321|386:400,1,152.999995330811,2|10,3:2|0:0,0:0:0:0:
237,291,104668,2,0,P|225:241|213:197,1,76.4999976654053,2|0,0:0|3:2,0:0:0:0:
293,120,104992,2,0,P|304:169|316:213,1,76.4999976654053,2|8,3:2|0:0,0:0:0:0:
200,97,105316,1,2,0:0:0:0:
324,34,105479,6,0,P|401:23|499:4,1,152.999995330811,0|8,3:2|0:0,0:0:0:0:
475,10,105965,1,0,0:0:0:0:
352,166,106127,2,0,P|318:149|272:141,1,76.4999976654053,2|0,3:2|3:2,0:0:0:0:
213,17,106452,2,0,P|167:25|123:125,1,152.999995330811,10|0,0:0|3:2,0:0:0:0:
11,302,107100,6,0,P|52:290|88:281,1,76.4999976654053,10|0,0:0|0:0,0:0:0:0:
191,256,107425,1,2,3:2:0:0:
191,256,107587,1,0,3:2:0:0:
289,338,107749,2,0,P|325:348|362:358,1,76.4999976654053,10|0,0:0|0:0,0:0:0:0:
503,224,108073,6,0,B|435:200|426:245|341:223,2,152.999995330811,0|8|2,3:2|0:0|3:2,0:0:0:0:
393,144,108884,1,0,3:2:0:0:
459,49,109046,2,0,P|474:96|486:155,1,76.4999976654053,10|0,0:0|0:0,0:0:0:0:
317,68,109370,6,0,P|243:77|187:28,1,152.999995330811,2|10,3:2|0:0,0:0:0:0:
46,120,109857,2,0,P|93:111|136:101,1,76.4999976654053,2|0,0:0|3:2,0:0:0:0:
233,243,110181,1,2,3:2:0:0:
143,201,110343,6,0,P|96:210|53:220,1,76.4999976654053,12|2,0:0|0:0,0:0:0:0:
131,371,110668,6,0,P|133:353|139:332,3,38.2499988327027,0|0|0|0,1:2|1:2|1:2|1:2,0:0:0:0:
223,295,110992,2,0,P|217:276|215:257,3,38.2499988327027,8|0|0|0,2:2|1:2|3:2|1:2,0:0:0:0:
305,351,111316,5,8,2:2:0:0:
328,344,111397,1,0,3:2:0:0:
351,338,111478,1,0,3:2:0:0:
374,333,111559,1,0,3:2:0:0:
397,327,111640,1,8,3:2:0:0:
420,321,111721,1,8,3:3:0:0:
443,315,111802,1,8,3:0:0:0:
467,309,111883,1,8,3:0:0:0:
491,306,111965,6,0,P|446:249|365:264,1,152.999995330811,4|8,3:2|0:0,0:0:0:0:
197,210,112452,2,0,B|239:190|280:190|280:190|312:157|364:149,1,170,4|0,3:2|3:2,0:0:0:0:
506,64,112938,6,0,P|444:57|291:36,1,204,12|0,0:0|3:2,0:0:0:0:
441,158,113587,1,8,0:0:0:0:
456,177,113911,5,0,3:2:0:0:
365,262,114073,1,8,2:2:0:0:
336,264,114154,1,8,2:2:0:0:
308,268,114235,1,8,2:2:0:0:
280,271,114316,1,8,2:2:0:0:
252,275,114397,1,8,2:2:0:0:
224,279,114478,1,8,2:2:0:0:
196,284,114560,6,0,B|177:232|170:185|170:185|160:215|147:238,1,152.999995330811,4|8,3:2|2:2,0:0:0:0:
82,132,115046,2,0,P|160:147|271:162,1,170,4|0,3:2|3:2,0:0:0:0:
403,82,115533,6,0,P|378:29|243:52,1,204,12|0,0:0|3:2,0:0:0:0:
281,160,116181,1,12,0:0:0:0:
277,188,116506,5,0,3:2:0:0:
296,227,116587,1,0,3:2:0:0:
333,242,116668,1,0,3:2:0:0:
366,234,116749,1,0,3:2:0:0:
390,215,116830,1,8,3:0:0:0:
410,199,116911,1,8,3:0:0:0:
432,198,116992,1,4,3:0:0:0:
446,209,117073,1,4,3:0:0:0:
452,223,117154,6,0,P|436:307|423:376,1,152.999995330811,4|8,3:2|0:0,0:0:0:0:
292,321,117641,2,0,B|258:286|200:291|200:291|185:337|123:351,1,170,4|0,3:2|3:2,0:0:0:0:
20,214,118127,6,0,P|85:212|120:277,1,136,12|0,0:0|0:0,0:0:0:0:
120,266,118614,1,0,3:2:0:0:
243,178,118776,2,0,P|249:131|256:85,1,76.4999976654053,12|0,0:0|0:0,0:0:0:0:
172,22,119100,1,8,3:2:0:0:
148,12,119181,1,8,2:0:0:0:
123,8,119262,1,8,2:0:0:0:
98,10,119343,1,8,2:0:0:0:
73,17,119424,1,8,3:2:0:0:
52,30,119506,1,8,2:0:0:0:
33,47,119586,1,8,2:0:0:0:
19,68,119667,1,8,2:0:0:0:
9,92,119749,6,0,B|87:70|84:135|174:112,2,152.999995330811,4|8|0,3:2|0:0|3:2,0:0:0:0:
9,92,120560,1,0,3:2:0:0:
93,188,120722,2,0,P|108:226|117:273,1,76.4999976654053,8|0,0:0|3:2,0:0:0:0:
221,167,121046,6,0,P|232:116|267:31,1,114.749996498108,4|0,3:2|0:0,0:0:0:0:
269,27,121370,2,0,P|309:24|346:45,1,76.4999976654053,8|0,0:0|0:0,0:0:0:0:
426,145,121695,2,0,B|454:143|462:117|462:117|449:128|424:130,1,76.4999976654053,0|0,3:2|3:2,0:0:0:0:
292,104,122019,1,8,0:0:0:0:
425,14,122181,2,0,P|421:33|419:55,1,38.2499988327027,0|0,3:2|0:0,0:0:0:0:
346,174,122343,6,0,P|354:212|363:266,1,85,12|0,0:0|3:2,0:0:0:0:
182,153,122668,2,0,P|188:194|197:236,1,85,8|0,0:0|3:2,0:0:0:0:
52,248,122992,2,0,P|61:289|67:331,1,85,8|0,0:0|3:2,0:0:0:0:
103,180,123316,1,8,0:0:0:0:
218,262,123479,6,0,P|214:278|210:295,1,34,0|0,3:2|0:0,0:0:0:0:
210,295,123965,6,0,P|214:278|218:262,2,34,2|2|2,0:0|0:0|0:0,0:0:0:0:
318,348,124938,6,0,P|374:335|487:317,1,140.25000428009,6|0,3:2|0:0,0:0:0:0:
512,254,125262,2,0,P|470:244|441:234,1,59.4999981842042,10|0,0:0|0:0,0:0:0:0:
249,232,125587,6,0,P|305:219|418:201,1,140.25000428009,2|0,3:2|0:0,0:0:0:0:
443,138,125911,2,0,P|401:128|372:118,1,59.4999981842042,10|0,0:0|0:0,0:0:0:0:
169,143,126235,6,0,P|225:130|338:112,1,140.25000428009,2|0,3:2|0:0,0:0:0:0:
363,49,126560,2,0,P|321:39|292:29,1,59.4999981842042,10|0,0:0|3:2,0:0:0:0:
287,27,126803,1,0,3:2:0:0:
287,27,126884,1,0,3:2:0:0:
332,133,127046,1,0,3:2:0:0:
211,214,127208,2,0,P|158:180|95:185,1,127.5,8|0,0:0|0:0,0:0:0:0:
69,203,127533,6,0,P|84:266|99:380,2,170,4|8|0,3:2|2:2|3:2,0:0:0:0:
125,294,128343,1,0,3:2:0:0:
255,226,128506,2,0,P|213:217|171:209,1,85,8|0,0:0|0:0,0:0:0:0:
319,289,128830,6,0,P|341:248|335:197,1,85,0|0,3:2|0:0,0:0:0:0:
258,133,129154,2,0,P|237:96|237:54,1,85,8|0,0:0|1:2,0:0:0:0:
245,37,129397,1,0,1:2:0:0:
245,37,129479,1,0,3:2:0:0:
168,131,129641,1,0,3:2:0:0:
324,75,129803,1,8,0:0:0:0:
499,272,130127,6,0,B|457:271|419:307|419:307|387:293|348:307,1,127.5,6|0,3:2|0:0,0:0:0:0:
359,286,130452,2,0,P|347:228|332:181,1,85,10|0,0:0|3:2,0:0:0:0:
338,182,130695,1,0,3:2:0:0:
338,182,130776,1,2,3:2:0:0:
428,212,130938,1,0,3:2:0:0:
346,95,131100,2,0,P|305:100|271:126,1,85,10|0,0:0|0:0,0:0:0:0:
191,244,131425,6,0,P|154:222|113:210,1,85,2|0,3:2|0:0,0:0:0:0:
32,315,131749,2,0,P|93:353|206:370,1,170,10|0,2:2|3:2,0:0:0:0:
299,299,132234,1,0,3:2:0:0:
196,213,132397,2,0,B|162:175|182:122|182:122|201:161,1,127.5,8|0,0:0|0:0,0:0:0:0:
267,176,132722,5,4,3:2:0:0:
360,76,132884,1,0,3:2:0:0:
196,39,133046,1,8,0:0:0:0:
349,100,133208,5,0,3:2:0:0:
277,6,133370,1,0,3:2:0:0:
277,6,133533,1,8,3:0:0:0:
451,68,133695,6,0,P|432:121|410:256,1,170,12|0,0:0|3:2,0:0:0:0:
277,341,134181,1,8,0:0:0:0:
277,341,134262,1,8,0:0:0:0:
277,341,134343,2,0,P|234:322|212:317,1,42.5,8|8,0:0|0:0,0:0:0:0:
334,175,134506,1,4,3:2:0:0:
231,240,134668,5,8,0:0:0:0:
231,240,134749,1,8,0:0:0:0:
231,240,134830,2,0,P|268:212|284:195,1,42.5,8|8,0:0|0:0,0:0:0:0:
353,368,134992,1,4,3:2:0:0:
341,250,135154,6,0,P|346:296|352:318,1,42.5,8|8,2:0|2:0,0:0:0:0:
167,287,135316,6,0,B|117:261|68:264|68:264|39:228,1,140.25000428009,6|0,3:2|0:0,0:0:0:0:
27,198,135641,2,0,P|64:186|94:180,1,59.4999981842042,10|0,0:0|0:0,0:0:0:0:
231,240,135965,6,0,B|214:186|177:153|177:153|182:107,1,140.25000428009,2|0,3:2|0:0,0:0:0:0:
194,78,136290,2,0,P|228:95|254:112,1,59.4999981842042,10|0,0:0|0:0,0:0:0:0:
309,252,136614,6,0,B|335:202|332:153|332:153|368:124,1,140.25000428009,2|0,3:2|0:0,0:0:0:0:
397,111,136939,2,0,P|409:148|415:178,1,59.4999981842042,10|0,0:0|3:2,0:0:0:0:
423,189,137181,1,0,3:2:0:0:
423,189,137262,1,0,3:2:0:0:
460,45,137425,1,0,3:2:0:0:
301,83,137587,2,0,P|250:74|144:60,1,127.5,8|0,2:2|0:0,0:0:0:0:
155,71,137911,6,0,P|116:110|135:215,2,170,0|8|0,3:2|0:0|3:2,0:0:0:0:
65,176,138722,1,0,3:2:0:0:
197,153,138884,2,0,P|241:158|286:169,1,85,8|0,0:0|0:0,0:0:0:0:
428,233,139208,6,0,P|384:238|339:249,1,85,0|0,3:2|0:0,0:0:0:0:
294,82,139533,2,0,P|251:77|210:67,1,85,8|0,0:0|1:2,0:0:0:0:
452,25,139857,2,0,P|409:29|368:39,1,85,0|0,3:2|3:2,0:0:0:0:
272,165,140181,2,0,P|229:160|188:150,1,85,8|0,0:0|0:0,0:0:0:0:
139,91,140425,1,0,0:0:0:0:
139,91,140506,5,12,0:0:0:0:
34,356,140830,5,8,0:0:0:0:
118,335,140992,1,0,3:2:0:0:
87,183,141154,5,8,0:0:0:0:
60,274,141316,1,0,3:2:0:0:
224,331,141479,5,8,0:0:0:0:
150,253,141641,1,0,3:2:0:0:
23,373,141803,5,8,0:0:0:0:
258,184,142127,5,8,0:0:0:0:
342,205,142289,1,0,3:2:0:0:
311,357,142451,5,8,0:0:0:0:
284,266,142613,1,0,3:2:0:0:
448,209,142776,5,8,0:0:0:0:
374,287,142938,1,0,3:2:0:0:
240,166,143100,6,0,B|188:128|129:142|129:142|139:119|180:105,1,170,12|0,0:0|3:2,0:0:0:0:
355,97,143587,2,0,B|407:59|466:73|466:73|456:50|415:36,1,170,12|0,0:0|3:2,0:0:0:0:
241,30,144073,6,0,P|258:109|278:243,1,203.999993774414,12|0,0:0|3:2,0:0:0:0:
148,131,144560,2,0,P|168:138|188:143,1,42.5,0|0,3:2|0:0,0:0:0:0:
388,62,144722,2,0,P|359:70|299:89,1,85,8|0,0:0|1:0,0:0:0:0:
290,97,144965,1,0,1:0:0:0:
290,97,145046,1,8,0:0:0:0:
198,218,145208,1,0,3:2:0:0:
292,263,145370,1,4,3:0:0:0:
273,340,145533,1,8,3:0:0:0:
215,366,147641,6,0,P|210:344|205:318,1,42.5,8|0,0:0|0:0,0:0:0:0:
49,220,147803,2,0,B|108:216|143:273|143:273|166:248|212:242,1,170,4|0,3:2|1:2,0:0:0:0:
268,201,148208,1,0,1:2:0:0:
268,201,148289,6,0,P|281:148|213:40,2,178.499994552612,4|8|0,3:2|2:2|3:2,0:0:0:0:
356,107,149100,1,0,3:2:0:0:
187,140,149262,2,0,P|131:135|91:120,1,89.2499972763062,8|0,0:0|0:0,0:0:0:0:
75,261,149587,6,0,P|131:266|171:281,1,89.2499972763062,0|0,3:2|0:0,0:0:0:0:
268,226,149911,2,0,P|310:212|354:210,1,89.2499972763062,8|0,0:0|1:2,0:0:0:0:
378,216,150154,1,0,1:2:0:0:
378,216,150235,1,0,3:2:0:0:
246,147,150397,1,0,3:2:0:0:
205,272,150560,2,0,P|213:321|224:363,1,89.2499972763062,8|0,0:0|0:0,0:0:0:0:
79,196,150884,6,0,P|72:129|48:35,1,133.874995914459,6|0,3:2|0:0,0:0:0:0:
42,40,151208,2,0,P|73:6|135:14,1,89.2499972763062,10|0,0:0|3:2,0:0:0:0:
138,13,151452,1,0,3:2:0:0:
138,13,151533,1,2,3:2:0:0:
105,126,151695,1,0,3:2:0:0:
269,102,151857,2,0,P|216:91|160:84,1,89.2499972763062,10|0,0:0|0:0,0:0:0:0:
88,212,152181,5,2,3:2:0:0:
168,185,152343,1,0,0:0:0:0:
14,130,152506,2,0,P|29:179|59:315,1,178.499994552612,10|0,2:2|3:2,0:0:0:0:
144,371,152992,1,0,3:2:0:0:
234,254,153154,2,0,B|297:236|294:298|364:272,1,133.874995914459,8|0,0:0|0:0,0:0:0:0:
425,237,153479,5,4,3:2:0:0:
441,107,153641,1,0,3:2:0:0:
320,56,153803,1,8,0:0:0:0:
463,119,153965,5,0,3:2:0:0:
365,124,154127,1,0,3:2:0:0:
365,124,154289,1,8,3:0:0:0:
251,239,154452,6,0,L|75:271,1,178.499994552612,12|0,0:0|3:2,0:0:0:0:
153,341,154938,1,0,1:2:0:0:
153,341,155019,1,0,1:2:0:0:
153,341,155100,2,0,P|148:363|145:387,3,44.6249986381531,0|0|0|0,3:2|3:2|3:2|3:2,0:0:0:0:
63,260,155425,5,0,3:2:0:0:
63,260,155506,1,0,1:2:0:0:
63,260,155587,2,0,P|58:237|55:214,1,44.6249986381531,0|0,1:2|1:2,0:0:0:0:
0,107,155749,5,0,3:2:0:0:
43,118,155830,1,0,1:0:0:0:
86,127,155911,1,0,1:0:0:0:
131,131,155992,1,0,1:0:0:0:
175,133,156073,6,0,P|244:102|331:78,1,133.874995914459,6|0,3:2|0:0,0:0:0:0:
361,24,156397,2,0,P|403:38|462:51,1,89.2499972763062,14|0,0:0|0:0,0:0:0:0:
361,242,156722,6,0,P|292:211|205:187,1,133.874995914459,2|0,3:2|0:0,0:0:0:0:
175,133,157046,2,0,P|133:147|74:160,1,89.2499972763062,14|0,0:0|0:0,0:0:0:0:
175,351,157370,6,0,P|244:320|331:296,1,133.874995914459,2|0,3:2|0:0,0:0:0:0:
361,242,157694,2,0,P|403:256|462:269,1,89.2499972763062,14|0,0:0|3:2,0:0:0:0:
474,276,157938,1,0,3:2:0:0:
474,276,158019,1,0,3:2:0:0:
374,340,158181,1,0,3:2:0:0:
280,224,158343,2,0,P|271:177|308:93,1,133.874995914459,12|0,2:2|0:0,0:0:0:0:
322,72,158668,6,0,P|274:61|232:49,1,89.2499972763062,0|0,3:2|0:0,0:0:0:0:
148,162,158992,2,0,P|105:174|61:183,1,89.2499972763062,12|0,0:0|1:2,0:0:0:0:
37,300,159316,1,0,3:2:0:0:
135,249,159479,1,0,3:2:0:0:
31,165,159641,2,0,P|18:108|1:44,1,89.2499972763062,12|0,0:0|0:0,0:0:0:0:
157,0,159965,6,0,P|146:43|136:86,1,89.2499972763062,0|0,3:2|0:0,0:0:0:0:
287,121,160289,2,0,P|297:77|307:34,1,89.2499972763062,12|0,0:0|1:2,0:0:0:0:
224,241,160614,1,0,3:2:0:0:
206,152,160776,1,0,3:2:0:0:
99,283,160938,2,0,B|157:290|181:328|181:328|204:323|235:326,1,133.874995914459,12|0,0:0|0:0,0:0:0:0:
295,341,161262,5,12,0:0:0:0:
234,230,161425,1,0,3:2:0:0:
386,308,161587,2,0,P|433:313|488:326,1,89.2499972763062,8|0,0:0|3:2,0:0:0:0:
356,151,161911,1,8,0:0:0:0:
309,259,162073,1,0,3:2:0:0:
158,148,162235,2,0,P|111:138|37:128,1,89.2499972763062,8|0,0:0|3:2,0:0:0:0:
284,47,162560,6,0,P|239:53|196:63,1,89.2499972763062,8|0,0:0|3:2,0:0:0:0:
57,213,162884,2,0,P|101:219|144:229,1,89.2499972763062,8|0,0:0|3:2,0:0:0:0:
287,283,163208,1,8,0:0:0:0:
185,156,163370,1,0,3:2:0:0:
348,93,163533,2,0,P|368:132|356:182,1,89.2499972763062,8|0,0:0|3:2,0:0:0:0:
204,309,163857,6,0,B|117:294|126:373|14:367,1,178.499994552612,12|0,0:0|3:2,0:0:0:0:
342,195,164343,2,0,B|429:180|420:259|532:253,1,178.499994552612,12|0,0:0|3:2,0:0:0:0:
279,364,164830,6,0,P|237:318|265:153,1,220.999989883423,12|0,0:0|3:2,0:0:0:0:
342,277,165316,2,0,P|351:307|357:332,1,44.6249986381531,0|0,3:2|0:0,0:0:0:0:
168,378,165479,2,0,P|156:334|142:292,1,89.2499972763062,12|0,0:0|1:2,0:0:0:0:
139,271,165722,1,0,1:2:0:0:
139,271,165803,1,0,3:2:0:0:
233,195,165965,5,8,2:2:0:0:
202,186,166046,1,0,1:2:0:0:
171,178,166127,1,0,3:0:0:0:
140,171,166208,1,0,1:0:0:0:
108,164,166289,1,0,1:0:0:0:
77,157,166370,1,0,1:0:0:0:
46,152,166452,6,0,P|87:80|191:95,1,191.250007295609,4|0,3:2|3:2,0:0:0:0:
293,143,167100,2,0,P|333:128|431:113,1,127.500004863739,10|2,0:0|0:0,0:0:0:0:
325,280,167749,5,2,3:2:0:0:
325,280,167911,2,0,P|289:270|242:250,1,63.7500024318696,8|2,0:0|0:0,0:0:0:0:
183,288,168235,1,4,0:3:0:0:
302,359,168397,2,0,P|342:320|419:317,1,127.500004863739,10|2,0:0|0:0,0:0:0:0:
428,95,169046,6,0,P|416:63|414:37,3,42.5,4|0|0|0,3:2|1:2|1:2|1:2,0:0:0:0:
319,79,169370,2,0,P|331:111|333:137,3,42.5,0|0|0|0,3:2|1:2|1:2|1:2,0:0:0:0:
264,203,169695,5,8,3:2:0:0:
234,213,169776,1,0,3:2:0:0:
202,210,169857,1,8,3:2:0:0:
176,194,169938,1,8,3:2:0:0:
159,167,170019,1,8,2:2:0:0:
141,140,170100,1,0,3:0:0:0:
114,123,170181,1,8,3:2:0:0:
83,120,170262,1,8,3:2:0:0:
54,131,170343,5,8,2:0:0:0:
87,209,170506,1,0,3:2:0:0:
87,209,170992,5,8,0:0:0:0:
166,64,171154,2,0,B|196:63|217:53|217:53|240:63|240:63|263:51|301:49,1,127.499996109009,0|0,3:2|0:0,0:0:0:0:
309,40,171641,6,0,P|351:67|347:181,1,170,4|8,3:2|0:0,0:0:0:0:
260,252,172127,2,0,P|222:239|177:233,1,85,0|0,3:2|0:0,0:0:0:0:
98,178,172452,1,0,3:2:0:0:
16,304,172614,2,0,P|56:290|98:285,1,85,8|0,0:0|0:0,0:0:0:0:
178,149,172938,6,0,P|167:107|161:59,1,85,0|0,3:2|3:2,0:0:0:0:
91,195,173262,1,8,0:0:0:0:
251,96,173425,2,0,B|291:83|334:88|334:88|367:61|424:51,1,170,0|0,3:2|3:2,0:0:0:0:
324,219,173911,2,0,P|287:205|232:196,1,85,8|0,0:0|0:0,0:0:0:0:
369,313,174235,6,0,P|410:278|405:157,1,170,0|8,3:2|0:0,0:0:0:0:
269,294,174722,2,0,P|284:338|290:382,1,85,0|0,3:2|0:0,0:0:0:0:
340,215,175046,1,0,3:2:0:0:
179,300,175208,2,0,P|185:258|199:218,1,85,12|0,0:0|0:0,0:0:0:0:
86,180,175533,5,0,3:2:0:0:
189,65,175695,1,0,3:2:0:0:
85,101,175857,2,0,P|37:92|-3:87,1,85,12|0,0:0|0:0,0:0:0:0:
177,213,176181,6,0,P|220:172|310:179,1,127.5,12|8,0:0|0:0,0:0:0:0:
322,194,176506,1,8,3:3:0:0:
327,151,176587,1,8,3:3:0:0:
335,109,176668,1,8,3:3:0:0:
346,68,176749,1,8,3:3:0:0:
357,28,176830,6,0,P|426:97|418:176,1,170,12|8,0:0|0:0,0:0:0:0:
313,318,177316,1,0,3:2:0:0:
433,245,177479,2,0,P|477:225|537:216,1,85,8|0,0:0|3:2,0:0:0:0:
379,366,177803,2,0,P|335:346|275:337,1,85,8|0,0:0|3:2,0:0:0:0:
132,267,178127,6,0,P|143:317|154:368,1,85,8|0,0:0|3:2,0:0:0:0:
292,235,178452,2,0,P|281:185|270:134,1,85,8|0,0:0|3:2,0:0:0:0:
358,379,178776,1,8,0:0:0:0:
214,259,178938,2,0,B|176:247|176:247|148:253|148:253|106:226|39:230,1,170,0|0,3:2|3:2,0:0:0:0:
159,106,179425,5,12,0:0:0:0:
48,80,179587,1,8,0:0:0:0:
48,80,179668,1,8,0:0:0:0:
48,80,179749,1,8,0:0:0:0:
152,130,179911,5,0,3:2:0:0:
64,216,180073,2,0,P|71:184|77:163,3,42.5,0|0|0|0,1:2|1:2|1:2|1:2,0:0:0:0:
163,252,180397,6,0,P|213:241|257:231,1,85,0|8,3:2|2:2,0:0:0:0:
272,233,180641,1,8,2:2:0:0:
272,233,180722,2,0,P|266:265|264:285,1,42.5,8|8,2:2|2:2,0:0:0:0:
247,369,180884,5,0,3:2:0:0:
366,227,181046,1,8,2:2:0:0:
366,227,181127,1,8,2:2:0:0:
366,227,181208,2,0,P|370:247|373:268,1,42.5,8|8,2:2|2:2,0:0:0:0:
403,364,181370,1,0,3:2:0:0:
272,233,181533,5,8,2:2:0:0:
277,201,181614,1,8,2:2:0:0:
292,172,181695,1,8,0:0:0:0:
316,150,181776,1,8,0:0:0:0:
348,138,181857,1,8,0:0:0:0:
381,139,181938,1,8,0:0:0:0:
413,151,182019,1,0,3:2:0:0:
445,42,183965,6,0,P|388:33|341:29,1,85,8|0,0:0|3:2,0:0:0:0:
338,35,184208,1,0,3:2:0:0:
338,35,184289,1,8,3:0:0:0:
188,32,184452,6,0,P|134:25|52:7,1,127.500004863739,12|0,0:0|0:0,0:0:0:0:
