osu file format v14

[General]
AudioFilename: audio.mp3
AudioLeadIn: 0
PreviewTime: 43454
Countdown: 0
SampleSet: Soft
StackLeniency: 0.7
Mode: 0
LetterboxInBreaks: 0
WidescreenStoryboard: 0

[Editor]
Bookmarks: 400,5589,10778,21156,31535,44508,70454,75643,80832,91210,101589,111967,124940,145697,148291,171643,182021,184616
DistanceSpacing: 1
BeatDivisor: 4
GridSize: 4
TimelineZoom: 2.1

[Metadata]
Title:Love Song ga Utaenai
TitleUnicode:ラブソングが歌えない
Artist:kessoku band
ArtistUnicode:結束バンド
Creator:Amateurre
Version:Spotlight
Source:ぼっち・ざ・ろっく!
Tags:bocchi the rock btr japanese anime j-rock jrock j-pop jpop can't sing a gotoh hitori 後藤ひとり yamada ryo 山田リョウ kita ikuyo 喜多郁代 ijichi nijika 伊地知虹夏 shizuku- ayesha altugle shikibe mayu kazato asa jiysea asagi dahkjdas nanoya satonodiamond midorijeon
BeatmapID:3966293
BeatmapSetID:1921553

[Difficulty]
HPDrainRate:5
CircleSize:4
OverallDifficulty:9
ApproachRate:9.4
SliderMultiplier:1.8
SliderTickRate:1

[Events]
//Background and Video events
0,0,"lovesong.jpg",0,0
//Break Periods
2,182221,183427
//Storyboard Layer 0 (Background)
//Storyboard Layer 1 (Fail)
//Storyboard Layer 2 (Pass)
//Storyboard Layer 3 (Foreground)
//Storyboard Layer 4 (Overlay)
//Storyboard Sound Samples

[TimingPoints]
400,324.324324324324,4,2,1,60,1,0
2994,-166.666666666667,4,2,1,60,0,0
5589,-100,4,2,1,75,0,0
9318,-250,4,2,1,75,0,0
10616,-250,4,2,1,65,0,0
10778,-125,4,2,1,65,0,0
21156,-125,4,2,1,70,0,0
31535,-100,4,2,1,70,0,0
43535,-100,4,2,1,50,0,0
44508,-100,4,2,1,80,0,1
65264,-125,4,2,1,70,0,0
68183,-100,4,2,1,70,0,0
70454,-100,4,2,1,60,0,0
75318,-166.666666666667,4,2,1,60,0,0
75643,-166.666666666667,4,2,1,70,0,0
76129,-111.111111111111,4,2,1,70,0,0
80832,-100,4,2,1,75,0,0
91210,-100,4,2,1,55,0,0
95589,-125,4,2,1,65,0,0
101589,-100,4,2,1,70,0,0
123967,-100,4,2,1,50,0,0
124940,-100,4,2,1,80,0,1
145697,-100,4,2,1,55,0,0
147643,-100,4,2,1,65,0,0
148291,-100,4,2,1,80,0,1
166454,-125,4,2,1,70,0,0
171156,-200,4,2,1,70,0,0
171643,-100,4,2,1,75,0,0
182021,-100,4,2,1,60,0,0
183967,-100,4,2,1,75,0,0
184454,-50,4,2,1,75,0,0
184778,-50,4,2,1,20,0,0

[Colours]
Combo1 : 252,169,129
Combo2 : 253,103,96
Combo3 : 255,218,130
Combo4 : 253,162,203

[HitObjects]
256,192,400,5,2,2:2:0:0:
5,300,2994,6,0,P|47:294|74:282,1,53.9999983520508,2|2,1:2|2:2,0:0:0:0:
131,247,3318,1,2,1:2:0:0:
178,315,3481,2,0,P|169:357|163:382,1,53.9999983520508,2|0,2:2|1:1,0:0:0:0:
257,228,3805,1,2,2:2:0:0:
304,296,3968,2,0,P|295:338|289:363,1,53.9999983520508,2|2,1:2|2:2,0:0:0:0:
451,265,4291,6,0,P|477:271|503:276,2,53.9999983520508,2|2|2,1:2|2:2|1:2,0:0:0:0:
372,320,4778,2,0,P|346:327|320:335,1,53.9999983520508,2|0,2:2|1:1,0:0:0:0:
235,374,5102,1,2,2:2:0:0:
173,301,5264,2,0,P|180:275|188:249,1,53.9999983520508,2|0,1:2|0:0,0:0:0:0:
224,82,5589,5,14,2:2:0:0:
104,219,5751,1,2,1:2:0:0:
281,169,5913,1,10,2:2:0:0:
109,75,6075,2,0,P|44:83|10:85,1,90,2|8,1:2|2:2,0:0:0:0:
280,260,6399,1,2,1:2:0:0:
385,218,6562,2,0,P|450:226|484:228,1,90,10|0,2:2|1:1,0:0:0:0:
398,314,6886,5,10,2:2:0:0:
280,169,7048,1,2,1:2:0:0:
465,133,7210,1,10,2:2:0:0:
289,349,7372,2,0,P|285:304|279:259,1,90,2|8,1:2|2:2,0:0:0:0:
169,107,7697,1,2,1:2:0:0:
398,314,7859,2,0,P|401:269|407:224,1,90,10|0,2:2|1:1,0:0:0:0:
442,31,8183,5,10,2:2:0:0:
319,173,8345,1,2,1:2:0:0:
503,137,8508,1,10,2:2:0:0:
240,67,8670,2,0,P|157:82|75:96,1,135,2|0,1:2|0:0,0:0:0:0:
99,100,8994,1,2,1:2:0:0:
204,194,9156,1,8,2:2:0:0:
0,299,9318,6,0,P|121:277|224:343,1,252,6|0,1:2|0:0,0:0:0:0:
224,343,10616,5,2,2:2:0:0:
144,319,10778,2,0,P|126:249|150:183,1,144,2|2,1:2|1:2,0:0:0:0:
76,127,11264,2,0,P|18:143|-13:151,1,72,2|0,2:2|1:1,0:0:0:0:
232,209,11589,2,0,P|290:193|321:185,1,72,2|0,2:2|1:1,0:0:0:0:
386,241,11913,1,2,2:2:0:0:
480,204,12075,6,0,P|490:130|501:61,1,144,0|0,1:1|1:1,0:0:0:0:
501,61,12562,1,0,0:0:0:0:
346,3,12724,2,0,P|383:45|379:81,1,72,2|0,1:2|0:0,0:0:0:0:
312,161,13048,2,0,P|280:155|240:149,1,72,2|0,1:2|0:0,0:0:0:0:
111,81,13372,6,0,P|69:113|16:114,1,108,2|0,1:2|0:0,0:0:0:0:
7,106,13697,1,0,1:1:0:0:
97,201,13859,2,0,P|103:236|108:272,1,72,2|0,2:2|1:1,0:0:0:0:
30,335,14183,2,0,P|23:299|18:263,1,72,2|0,2:2|1:1,0:0:0:0:
105,192,14508,1,2,2:2:0:0:
197,261,14670,6,0,B|292:254|250:296|343:289,1,144,0|0,1:1|1:1,0:0:0:0:
447,253,15156,1,0,0:0:0:0:
447,253,15237,1,0,0:0:0:0:
447,253,15318,2,0,P|442:287|438:324,1,72,0|0,1:1|0:0,0:0:0:0:
334,370,15643,2,0,P|339:336|342:298,1,72,0|2,1:1|2:2,0:0:0:0:
261,160,15967,6,0,L|174:180,1,72,2|0,1:2|0:0,0:0:0:0:
105,148,16291,1,2,1:2:0:0:
49,218,16454,2,0,P|38:276|32:301,1,72,2|0,2:2|1:1,0:0:0:0:
190,176,16778,2,0,P|201:118|207:93,1,72,2|0,2:2|1:1,0:0:0:0:
151,24,17102,1,2,2:2:0:0:
291,90,17264,6,0,P|374:78|433:70,1,144,0|0,1:1|1:1,0:0:0:0:
504,10,17751,1,0,0:0:0:0:
433,71,17913,2,0,P|422:102|412:139,1,72,2|0,1:2|0:0,0:0:0:0:
444,222,18237,2,0,P|478:230|512:242,1,72,2|0,1:2|0:0,0:0:0:0:
324,159,18562,6,0,P|289:191|188:185,1,144,2|2,1:2|1:2,0:0:0:0:
111,189,19048,1,2,2:2:0:0:
70,265,19210,2,0,P|22:274|-10:283,1,72,0|2,1:1|2:2,0:0:0:0:
73,102,19534,2,0,P|121:93|153:84,1,72,0|2,1:1|2:2,0:0:0:0:
291,85,19859,6,0,P|281:156|272:228,1,144,0|0,1:1|1:1,0:0:0:0:
384,174,20345,1,0,0:0:0:0:
462,303,20508,2,0,P|458:336|453:374,1,72,0|0,1:1|0:0,0:0:0:0:
358,261,20832,5,0,1:1:0:0:
298,331,20994,1,10,2:2:0:0:
298,331,21075,1,8,2:2:0:0:
298,331,21156,2,0,B|259:356|259:356|205:361|164:322,1,144,6|10,1:2|1:2,0:0:0:0:
66,304,21643,2,0,P|74:341|81:380,1,72,2|0,2:2|1:1,0:0:0:0:
143,252,21967,1,2,2:2:0:0:
0,201,22129,2,0,P|32:213|72:222,1,72,8|2,1:2|2:2,0:0:0:0:
255,52,22454,6,0,P|188:78|117:92,1,144,0|8,1:1|1:2,0:0:0:0:
235,147,22940,1,0,0:0:0:0:
143,251,23102,2,0,P|149:212|159:174,1,72,2|0,1:2|0:0,0:0:0:0:
257,298,23427,2,0,P|248:332|243:368,1,72,10|0,1:2|0:0,0:0:0:0:
351,208,23751,6,0,B|406:196|406:196|442:221|496:221,1,144,2|10,1:2|1:2,0:0:0:0:
410,356,24237,2,0,P|401:321|394:284,1,72,2|0,2:2|1:1,0:0:0:0:
255,185,24562,1,2,2:2:0:0:
198,250,24724,2,0,P|204:285|213:320,1,72,8|2,1:2|2:2,0:0:0:0:
333,140,25048,6,0,P|253:137|186:87,1,144,0|8,1:1|1:2,0:0:0:0:
104,237,25535,1,0,0:0:0:0:
0,185,25697,6,0,P|36:175|72:162,1,72,2|0,1:2|0:0,0:0:0:0:
225,305,26021,1,10,1:2:0:0:
218,213,26183,5,0,0:0:0:0:
207,220,26264,1,0,0:0:0:0:
197,227,26346,2,0,P|182:297|165:386,1,144,0|10,1:1|1:2,0:0:0:0:
297,273,26832,1,0,0:0:0:0:
365,347,26994,2,0,P|397:357|433:371,1,72,2|0,1:2|0:0,0:0:0:0:
464,226,27318,2,0,L|389:249,1,72,10|0,1:2|0:0,0:0:0:0:
225,305,27643,6,0,P|152:312|69:260,1,144,0|8,1:1|1:2,0:0:0:0:
13,140,28129,1,0,0:0:0:0:
0,224,28291,6,0,P|36:215|77:200,1,72,2|0,1:2|0:0,0:0:0:0:
174,70,28616,2,0,P|164:107|157:143,1,72,10|0,1:2|0:0,0:0:0:0:
288,256,28940,6,0,P|302:185|318:115,1,144,2|10,1:2|1:2,0:0:0:0:
410,152,29427,2,0,P|449:164|483:170,1,72,2|0,2:2|1:1,0:0:0:0:
465,86,29751,1,2,2:2:0:0:
363,246,29913,2,0,P|327:252|293:263,1,72,8|2,1:2|2:2,0:0:0:0:
161,182,30237,6,0,P|120:125|129:47,1,144,0|8,1:1|1:2,0:0:0:0:
229,7,30724,1,0,0:0:0:0:
229,7,30805,1,0,0:0:0:0:
229,7,30886,2,0,L|213:77,1,72,4|8,1:2|2:2,0:0:0:0:
212,77,31129,1,8,2:2:0:0:
212,77,31210,1,8,1:2:0:0:
313,192,31372,1,8,2:3:0:0:
378,118,31535,6,0,P|426:106|474:90,1,90,6|0,1:2|0:0,0:0:0:0:
313,192,31859,1,8,2:2:0:0:
512,277,32021,2,0,P|463:243|382:250,1,135,6|0,1:2|0:0,0:0:0:0:
376,254,32345,1,0,1:1:0:0:
240,136,32508,2,0,P|263:226|285:340,1,180,14|0,2:2|0:0,0:0:0:0:
149,258,32994,1,0,1:1:0:0:
67,341,33156,2,0,P|121:353|156:368,1,90,8|0,2:2|0:0,0:0:0:0:
13,225,33481,5,10,1:2:0:0:
1,192,33562,1,8,2:2:0:0:
11,152,33643,1,8,2:2:0:0:
45,128,33724,1,8,2:2:0:0:
85,119,33805,5,10,1:2:0:0:
102,130,33886,1,8,2:2:0:0:
126,136,33967,1,8,2:2:0:0:
147,133,34048,1,8,2:2:0:0:
169,117,34129,6,0,P|160:76|149:28,1,90,6|0,1:2|0:0,0:0:0:0:
283,217,34454,1,8,2:2:0:0:
348,166,34616,2,0,B|429:173|405:193|481:206,1,135,6|0,1:2|0:0,0:0:0:0:
476,205,34940,1,0,1:1:0:0:
425,59,35102,6,0,P|382:108|252:109,1,180,14|0,2:2|0:0,0:0:0:0:
166,228,35589,1,0,1:1:0:0:
200,62,35751,2,0,P|192:108|182:152,1,90,8|0,2:2|0:0,0:0:0:0:
308,363,36075,5,8,1:2:0:0:
342,349,36156,1,8,2:2:0:0:
360,317,36237,1,8,2:3:0:0:
354,278,36318,1,8,2:3:0:0:
328,248,36399,2,0,L|282:260,1,45,4|4,1:3|2:3,0:0:0:0:
203,288,36562,5,4,2:3:0:0:
203,288,36643,1,4,2:3:0:0:
203,288,36724,2,0,B|142:271|142:271|91:282|91:282|10:261,1,180,6|8,1:2|2:2,0:0:0:0:
74,64,37210,2,0,P|104:122|94:194,1,135,6|0,1:2|0:0,0:0:0:0:
96,189,37535,1,0,1:1:0:0:
137,372,37697,6,0,B|175:332|229:332|229:332|256:362|301:362,1,180,14|0,2:2|0:0,0:0:0:0:
440,242,38183,1,0,1:1:0:0:
393,384,38345,2,0,P|379:339|373:295,1,90,14|0,2:2|0:0,0:0:0:0:
433,85,38670,5,10,1:2:0:0:
257,235,38832,1,8,2:2:0:0:
221,243,38913,1,8,2:2:0:0:
183,235,38994,1,10,1:2:0:0:
160,207,39075,1,8,2:2:0:0:
149,173,39156,2,0,L|161:124,1,45,8|8,2:2|2:2,0:0:0:0:
250,1,39318,6,0,B|275:47|275:47|273:91|244:154,1,135,6|0,1:2|0:0,0:0:0:0:
251,140,39643,2,0,P|296:129|337:117,1,90,8|0,2:2|0:0,0:0:0:0:
475,206,39967,5,2,1:2:0:0:
402,53,40129,1,0,1:1:0:0:
343,211,40291,2,0,P|329:250|327:300,1,90,8|0,2:2|1:1,0:0:0:0:
192,357,40616,6,0,B|92:330|119:392|-1:361,1,180,2|8,1:2|2:2,0:0:0:0:
198,236,41102,1,0,0:0:0:0:
198,236,41183,1,0,0:0:0:0:
198,236,41264,1,2,1:2:0:0:
32,147,41427,1,0,1:1:0:0:
92,273,41589,2,0,P|102:230|110:185,1,90,8|2,2:2|1:2,0:0:0:0:
119,25,41913,5,14,2:2:0:0:
231,178,42075,1,0,1:1:0:0:
275,0,42237,5,8,2:2:0:0:
235,188,42399,1,2,1:2:0:0:
57,120,42562,5,8,2:2:0:0:
343,209,42724,1,0,1:1:0:0:
123,262,42886,5,10,2:2:0:0:
360,61,43048,1,0,1:1:0:0:
256,192,43129,12,0,44345,0:0:0:0:
478,46,44508,5,6,1:2:0:0:
448,191,44670,1,0,0:0:0:0:
332,16,44832,1,10,2:2:0:0:
303,162,44994,1,0,1:1:0:0:
71,128,45156,5,2,1:2:0:0:
104,293,45318,1,0,1:1:0:0:
236,95,45480,1,10,2:2:0:0:
269,260,45642,1,0,0:0:0:0:
512,193,45805,5,2,1:2:0:0:
473,384,45967,1,0,0:0:0:0:
320,154,46129,1,10,2:2:0:0:
290,353,46292,1,0,1:1:0:0:
290,353,46373,1,8,2:2:0:0:
290,353,46454,2,0,P|342:343|387:337,1,90,0|0,1:1|1:1,0:0:0:0:
512,193,46778,2,0,P|468:182|424:171,1,90,10|0,2:2|0:0,0:0:0:0:
197,32,47102,6,0,L|217:174,1,135,2|0,1:2|0:0,0:0:0:0:
218,174,47427,1,10,2:2:0:0:
351,16,47589,1,0,1:1:0:0:
351,16,47670,1,8,2:2:0:0:
351,16,47751,1,2,1:2:0:0:
312,172,47913,1,0,1:1:0:0:
126,107,48075,1,10,2:2:0:0:
61,277,48237,6,0,B|171:260|127:326|237:307,1,180
510,246,48724,2,0,P|451:230|415:220,1,90,8|0,2:2|1:1,0:0:0:0:
423,222,48967,1,8,2:2:0:0:
423,222,49048,1,0,1:1:0:0:
484,331,49210,1,0,1:1:0:0:
310,234,49372,1,8,2:2:0:0:
481,130,49535,1,0,0:0:0:0:
207,384,49697,5,6,1:2:0:0:
62,354,49859,1,0,0:0:0:0:
237,238,50021,1,10,2:2:0:0:
91,209,50183,1,0,1:1:0:0:
301,0,50345,5,2,1:2:0:0:
136,33,50507,1,0,1:1:0:0:
334,165,50669,1,10,2:2:0:0:
169,198,50831,1,0,0:0:0:0:
405,337,50994,5,2,1:2:0:0:
214,298,51156,1,0,0:0:0:0:
444,145,51318,1,10,2:2:0:0:
245,115,51481,1,0,1:1:0:0:
245,115,51562,1,8,2:2:0:0:
245,115,51643,2,0,P|255:167|261:212,1,90,0|0,1:1|1:1,0:0:0:0:
405,337,51967,2,0,P|415:293|426:249,1,90,10|0,2:2|0:0,0:0:0:0:
485,20,52291,5,6,1:2:0:0:
337,145,52454,1,0,1:1:0:0:
143,85,52616,1,8,2:2:0:0:
262,26,52778,5,2,1:2:0:0:
245,115,52940,1,4,2:3:0:0:
228,204,53102,1,0,1:1:0:0:
66,366,53264,6,0,P|13:327|15:262,1,135,14|0,2:2|0:0,0:0:0:0:
65,204,53589,2,0,L|115:193,1,45,0|0,1:1|0:0,0:0:0:0:
277,290,53751,5,10,2:2:0:0:
308,321,53832,1,8,2:2:0:0:
350,338,53913,1,8,2:2:0:0:
394,337,53994,1,8,2:2:0:0:
435,318,54075,1,0,1:1:0:0:
463,168,54237,5,8,2:2:0:0:
431,136,54318,1,8,2:2:0:0:
389,119,54399,1,8,2:2:0:0:
345,120,54480,1,8,2:2:0:0:
304,139,54562,2,0,L|311:192,1,45,2|0,1:2|0:0,0:0:0:0:
186,327,54724,5,8,2:2:0:0:
186,327,54805,1,8,2:2:0:0:
186,327,54886,1,6,1:2:0:0:
3,218,55048,1,0,0:0:0:0:
148,189,55210,1,10,2:2:0:0:
32,364,55372,1,0,1:1:0:0:
271,304,55534,5,2,1:2:0:0:
139,106,55696,1,0,1:1:0:0:
304,139,55858,1,10,2:2:0:0:
106,271,56020,1,0,0:0:0:0:
384,296,56183,5,2,1:2:0:0:
295,34,56345,1,0,0:0:0:0:
471,121,56507,1,10,2:2:0:0:
215,218,56670,1,0,1:1:0:0:
215,218,56751,1,8,2:2:0:0:
215,218,56832,2,0,P|173:203|130:189,1,90,0|0,1:1|1:1,0:0:0:0:
381,5,57156,2,0,P|389:49|396:93,1,90,10|0,2:2|0:0,0:0:0:0:
502,333,57481,6,0,P|449:292|383:295,1,135,2|0,1:2|0:0,0:0:0:0:
375,308,57805,1,10,2:2:0:0:
275,119,57967,1,0,1:1:0:0:
275,119,58048,1,8,2:2:0:0:
275,119,58129,1,2,1:2:0:0:
421,212,58291,1,0,1:1:0:0:
195,314,58454,5,10,2:2:0:0:
295,383,58616,2,0,P|279:278|270:204,1,180
157,12,59102,2,0,L|139:126,1,90,10|0,2:2|1:1,0:0:0:0:
142,100,59345,1,8,2:2:0:0:
142,100,59427,1,2,1:2:0:0:
275,63,59589,1,0,1:1:0:0:
151,237,59751,2,0,P|114:229|62:220,1,90,10|0,2:2|0:0,0:0:0:0:
60,219,59994,1,0,0:0:0:0:
60,219,60075,5,12,2:2:0:0:
126,327,60237,1,0,1:1:0:0:
56,223,60399,5,10,2:2:0:0:
222,287,60562,1,0,1:1:0:0:
47,218,60724,5,10,2:2:0:0:
262,201,60886,1,0,1:1:0:0:
37,212,61048,5,10,2:2:0:0:
256,109,61210,1,0,1:1:0:0:
55,51,61372,5,8,2:2:0:0:
129,189,61535,1,0,1:1:0:0:
187,21,61697,5,10,2:2:0:0:
221,213,61859,1,0,1:1:0:0:
332,27,62021,5,10,2:2:0:0:
313,251,62183,1,0,1:1:0:0:
462,68,62345,5,10,2:2:0:0:
384,317,62508,1,0,1:1:0:0:
225,123,62670,5,14,1:2:0:0:
483,243,62832,1,0,1:0:0:0:
206,380,62994,1,0,1:1:0:0:
354,174,63156,5,14,2:2:0:0:
401,328,63318,1,0,1:0:0:0:
239,287,63481,1,0,1:1:0:0:
504,65,63643,6,0,P|497:113|491:154,1,90,14|0,2:2|0:0,0:0:0:0:
298,67,63967,1,0,1:1:0:0:
298,67,64048,1,0,1:0:0:0:
298,67,64129,1,10,2:2:0:0:
330,384,64291,6,0,P|323:336|317:294,1,90,14|8,1:2|2:2,0:0:0:0:
317,294,64535,1,8,2:2:0:0:
317,294,64616,1,8,1:2:0:0:
199,191,64778,1,8,2:3:0:0:
160,367,64940,1,4,2:3:0:0:
6,273,65102,1,4,2:3:0:0:
70,380,65264,6,0,P|82:299|97:211,1,144,6|0,1:2|0:0,0:0:0:0:
92,237,65751,1,0,1:1:0:0:
0,78,65913,2,0,P|47:128|126:120,1,144,10|0,2:2|0:0,0:0:0:0:
197,79,66399,1,0,3:3:0:0:
197,79,66481,1,0,3:3:0:0:
197,79,66562,1,2,1:2:0:0:
310,165,66724,2,0,P|375:175|405:178,1,72,8|0,2:2|0:0,0:0:0:0:
284,85,67048,5,0,1:1:0:0:
224,153,67210,2,0,P|208:211|187:292,1,144,10|0,2:2|0:0,0:0:0:0:
426,384,67697,1,2,2:2:0:0:
489,324,67859,2,0,P|493:306|498:289,1,36,6|0,1:2|0:0,0:0:0:0:
437,233,68021,5,10,2:2:0:0:
437,233,68102,1,8,2:2:0:0:
437,233,68183,2,0,L|372:242,1,45,8|8,1:2|2:2,0:0:0:0:
337,342,68345,2,0,L|292:348,1,45,8|8,2:2|2:2,0:0:0:0:
187,292,68508,5,8,1:2:0:0:
152,310,68589,1,8,2:2:0:0:
113,315,68670,1,8,2:2:0:0:
76,304,68751,1,8,2:2:0:0:
45,280,68832,1,8,1:2:0:0:
25,246,68913,1,8,2:2:0:0:
20,207,68994,1,8,2:2:0:0:
29,169,69075,1,8,2:2:0:0:
52,138,69156,5,10,2:2:0:0:
217,373,69318,1,2,1:2:0:0:
17,341,69805,5,10,2:2:0:0:
435,262,69967,1,2,1:2:0:0:
218,86,70454,6,0,P|214:69|210:42,1,45,2|0,1:2|0:0,0:0:0:0:
211,102,70940,6,0,P|198:113|176:130,1,45,2|0,1:2|0:0,0:0:0:0:
229,101,71427,6,0,P|245:106|271:116,1,45,2|0,1:2|0:0,0:0:0:0:
218,86,71913,6,0,P|214:69|210:42,1,45,2|0,1:2|0:0,0:0:0:0:
88,284,72399,5,8,2:3:0:0:
65,278,72481,1,8,2:3:0:0:
50,263,72562,1,4,2:3:0:0:
46,237,72643,1,0,1:1:0:0:
58,212,72724,6,0,B|96:240|149:231|149:231|197:197,1,135,8|0,2:2|0:0,0:0:0:0:
192,112,73048,6,0,P|182:91|173:71,1,45,2|0,1:2|0:0,0:0:0:0:
209,126,73535,6,0,P|228:137|247:148,1,45,2|0,1:2|0:0,0:0:0:0:
185,124,74021,6,0,P|162:126|140:128,1,45,2|0,1:2|0:0,0:0:0:0:
204,111,74508,6,0,P|220:95|236:80,1,45,2|0,1:2|0:0,0:0:0:0:
450,247,74832,5,2,2:2:0:0:
450,247,74913,2,0,P|454:190|387:182,1,135,0|2,0:0|2:2,0:0:0:0:
334,242,75318,2,0,L|343:295,1,53.9999983520508,2|0,2:2|0:0,0:0:0:0:
249,375,75643,5,10,1:2:0:0:
133,294,75805,1,0,0:0:0:0:
212,302,75967,1,8,2:2:0:0:
65,336,76129,6,0,P|52:297|47:257,1,80.9999975280763,2|8,1:2|2:2,0:0:0:0:
240,168,76454,1,0,0:0:0:0:
153,76,76616,2,0,P|148:163|180:228,1,161.999995056153,10|8,2:2|2:2,0:0:0:0:
318,122,77102,1,2,1:2:0:0:
190,324,77264,6,0,P|225:305|264:295,1,80.9999975280763,8|0,0:0|1:0,0:0:0:0:
363,211,77589,1,8,0:0:0:0:
412,356,77751,1,0,1:1:0:0:
512,254,77913,2,0,L|433:273,1,80.9999975280763,8|0,2:2|1:1,0:0:0:0:
293,384,78237,6,0,B|313:352|313:352|278:210,1,161.999995056153,10|8,1:2|2:2,0:0:0:0:
398,96,78724,1,2,1:2:0:0:
415,183,78886,2,0,P|377:170|338:160,1,80.9999975280763,8|0,2:2|1:1,0:0:0:0:
74,57,79210,6,0,P|146:63|230:-2,1,161.999995056153,14|0,2:2|1:1,0:0:0:0:
338,160,79697,1,10,2:2:0:0:
512,77,79859,5,12,2:2:0:0:
371,24,80021,1,0,0:0:0:0:
442,196,80183,1,0,1:1:0:0:
245,152,80345,5,8,2:2:0:0:
225,170,80426,1,8,2:2:0:0:
211,193,80507,1,8,1:2:0:0:
203,219,80588,1,8,2:2:0:0:
202,246,80669,1,8,2:2:0:0:
208,272,80750,1,8,2:2:0:0:
220,296,80832,6,0,P|266:304|309:315,1,90,6|2,1:2|2:2,0:0:0:0:
374,259,81156,1,10,2:2:0:0:
160,360,81318,2,0,P|84:360|10:291,1,180,6|2,1:2|1:2,0:0:0:0:
10,292,81724,1,0,0:0:0:0:
10,292,81805,1,10,2:2:0:0:
196,202,81967,1,0,0:0:0:0:
71,140,82129,6,0,P|85:185|99:237,1,90,2|2,1:2|1:2,0:0:0:0:
194,295,82454,1,10,2:2:0:0:
299,129,82616,2,0,B|346:140|346:140|389:136|435:119,1,135,2|0,1:2|0:0,0:0:0:0:
431,121,82940,1,2,1:2:0:0:
510,213,83102,1,10,2:2:0:0:
461,31,83264,1,0,0:0:0:0:
360,224,83427,6,0,P|344:270|337:311,1,90,2|2,1:2|2:2,0:0:0:0:
252,217,83751,1,10,2:2:0:0:
409,384,83913,2,0,P|374:351|238:355,1,180,2|2,1:2|1:2,0:0:0:0:
130,200,84399,1,10,2:2:0:0:
75,382,84562,1,0,0:0:0:0:
7,318,84724,6,0,P|52:305|94:289,1,90,2|2,1:2|1:2,0:0:0:0:
276,157,85048,1,10,2:2:0:0:
335,376,85210,1,2,2:2:0:0:
236,296,85372,5,8,1:2:0:0:
228,290,85454,1,8,2:2:0:0:
221,284,85535,2,0,L|207:224,1,45,10|8,2:2|2:2,0:0:0:0:
312,127,85697,5,10,1:2:0:0:
344,142,85778,1,8,2:2:0:0:
380,138,85859,1,8,2:3:0:0:
418,120,85940,1,8,2:3:0:0:
445,82,86021,1,14,2:2:0:0:
312,232,86183,1,2,1:2:0:0:
248,32,86345,1,10,2:2:0:0:
312,247,86508,2,0,P|357:257|402:269,1,90,2|8,1:2|2:2,0:0:0:0:
237,147,86832,5,2,1:2:0:0:
121,173,86994,1,10,2:2:0:0:
3,200,87156,1,0,1:1:0:0:
212,243,87318,5,10,2:2:0:0:
43,116,87481,1,2,1:2:0:0:
194,4,87643,1,10,2:2:0:0:
80,256,87805,2,0,P|90:303|100:355,1,90,2|8,1:2|2:2,0:0:0:0:
270,164,88129,1,2,1:2:0:0:
206,384,88291,1,10,2:2:0:0:
270,164,88454,1,0,1:1:0:0:
419,309,88616,6,0,L|372:320,1,45,6|0,1:2|0:0,0:0:0:0:
187,256,88778,5,10,2:2:0:0:
205,219,88859,1,8,2:2:0:0:
241,198,88940,1,10,2:2:0:0:
285,197,89021,1,8,2:2:0:0:
316,216,89102,2,0,L|306:260,1,45,2|0,1:2|0:0,0:0:0:0:
247,335,89264,5,8,2:2:0:0:
251,345,89345,1,8,2:2:0:0:
254,354,89427,1,10,2:2:0:0:
257,363,89508,1,8,2:2:0:0:
260,373,89589,1,2,1:2:0:0:
344,119,89751,6,0,B|389:140|389:140|503:116,1,135,10|0,2:2|0:0,0:0:0:0:
472,122,90075,5,10,2:2:0:0:
342,18,90237,1,10,1:2:0:0:
288,225,90399,1,10,2:2:0:0:
288,225,90481,1,8,2:2:0:0:
288,225,90562,2,0,L|235:239,1,45,2|0,1:2|0:0,0:0:0:0:
88,175,90724,5,10,2:2:0:0:
64,138,90805,1,8,2:2:0:0:
61,97,90886,1,10,1:2:0:0:
81,54,90967,1,8,2:2:0:0:
123,35,91048,1,10,2:2:0:0:
169,39,91129,1,8,2:2:0:0:
203,71,91210,5,2,2:2:0:0:
363,115,95589,5,0,1:1:0:0:
363,115,95670,1,0,0:0:0:0:
363,115,95751,1,8,2:2:0:0:
441,80,95913,2,0,P|484:73|518:68,1,72,0|0,1:1|0:0,0:0:0:0:
296,182,96237,5,10,2:2:0:0:
296,182,96318,1,8,2:2:0:0:
295,182,96399,2,0,B|212:165|234:204|153:185,1,144,6|2,1:2|2:2,0:0:0:0:
1,85,96886,1,2,1:2:0:0:
82,48,97048,1,8,2:2:0:0:
81,134,97210,2,0,P|73:166|67:204,1,72,2|0,2:2|0:0,0:0:0:0:
214,307,97535,5,2,3:2:0:0:
214,307,97616,1,0,3:3:0:0:
214,307,97697,1,0,1:1:0:0:
119,281,97859,2,0,P|87:289|48:294,1,72,8|0,2:2|0:0,0:0:0:0:
281,372,98183,1,0,1:1:0:0:
361,348,98345,2,0,P|396:352|431:361,1,72,10|0,2:2|0:0,0:0:0:0:
360,131,98670,6,0,P|351:165|346:201,1,72,2|0,2:2|3:3,0:0:0:0:
346,201,98913,1,0,3:3:0:0:
346,201,98994,1,2,1:2:0:0:
453,171,99156,2,0,P|465:85|476:20,1,144,8|2,2:2|1:2,0:0:0:0:
275,97,99643,2,0,P|263:168|253:239,1,144,8|0,2:2|0:0,0:0:0:0:
174,286,100129,5,2,3:2:0:0:
174,286,100210,1,0,3:3:0:0:
174,286,100291,1,0,1:1:0:0:
83,246,100454,2,0,P|47:254|12:262,1,72,8|0,2:2|0:0,0:0:0:0:
189,41,100778,5,0,1:1:0:0:
57,157,100940,1,8,2:2:0:0:
6,79,101102,2,0,P|75:70|132:111,1,144,0|10,1:1|2:2,0:0:0:0:
142,121,101508,1,8,2:2:0:0:
149,129,101589,6,0,P|200:121|238:112,1,90,6|0,1:2|0:0,0:0:0:0:
428,30,101913,1,10,2:2:0:0:
480,120,102075,6,0,P|416:127|322:55,1,180,2|2,2:2|1:2,0:0:0:0:
300,185,102562,1,8,2:2:0:0:
322,270,102724,1,2,2:2:0:0:
350,355,102886,2,0,B|239:337|287:396|165:376,1,180,0|8,1:1|2:2,0:0:0:0:
63,244,103372,1,0,0:0:0:0:
6,326,103535,2,0,P|52:330|101:345,1,90,2|0,1:2|1:1,0:0:0:0:
227,200,103859,2,0,P|181:196|132:181,1,90,10|0,2:2|0:0,0:0:0:0:
63,244,104183,6,0,P|9:178|40:77,1,180,2|10,1:2|2:2,0:0:0:0:
175,13,104670,2,0,P|166:61|157:114,1,90,2|0,2:2|1:1,0:0:0:0:
303,220,104994,5,2,1:2:0:0:
398,201,105156,1,8,2:2:0:0:
493,182,105318,1,2,2:2:0:0:
350,40,105481,6,0,P|342:85|333:128,1,90,0|0,1:1|0:0,0:0:0:0:
479,301,105805,2,0,P|412:298|353:341,1,135,8|0,2:2|0:0,0:0:0:0:
347,356,106129,2,0,L|254:341,1,90,2|0,1:2|1:1,0:0:0:0:
111,247,106454,1,10,2:2:0:0:
26,307,106616,5,0,0:0:0:0:
26,307,106697,1,0,0:0:0:0:
26,307,106778,2,0,B|68:342|137:342|137:342|209:278,1,180,0|10,1:1|2:2,0:0:0:0:
143,162,107264,1,0,0:0:0:0:
301,126,107427,6,0,P|294:167|283:220,1,90,2|0,1:2|1:1,0:0:0:0:
456,374,107751,2,0,P|462:332|474:280,1,90,10|0,2:2|0:0,0:0:0:0:
403,156,108075,5,0,1:1:0:0:
326,310,108237,1,0,0:0:0:0:
205,272,108399,6,0,P|191:211|126:178,1,135,8|0,2:2|0:0,0:0:0:0:
94,177,108724,2,0,P|52:193|5:204,1,90,2|0,1:2|1:1,0:0:0:0:
182,73,109048,1,10,2:2:0:0:
128,325,109210,5,0,0:0:0:0:
128,325,109291,1,0,0:0:0:0:
128,325,109372,2,0,B|168:357|168:357|240:364|309:306,1,180,2|10,1:2|2:2,0:0:0:0:
418,173,109859,2,0,P|405:217|396:262,1,90,2|0,2:2|1:1,0:0:0:0:
422,378,110183,1,2,1:2:0:0:
205,272,110345,6,0,P|190:210|170:142,1,135,12|0,2:2|0:0,0:0:0:0:
221,81,110670,5,0,1:1:0:0:
248,95,110751,1,8,2:2:0:0:
282,98,110832,1,8,2:2:0:0:
315,91,110913,1,8,2:2:0:0:
344,73,110994,2,0,L|354:20,1,45,8|8,1:2|2:2,0:0:0:0:
491,118,111156,2,0,L|482:162,1,45,8|8,2:2|2:2,0:0:0:0:
404,245,111318,5,8,1:2:0:0:
364,228,111399,1,8,2:2:0:0:
322,226,111480,1,8,2:3:0:0:
280,239,111562,1,8,2:3:0:0:
245,265,111643,5,4,1:3:0:0:
238,289,111724,1,4,2:3:0:0:
231,315,111805,1,4,2:3:0:0:
226,334,111886,1,4,2:3:0:0:
221,358,111967,6,0,B|123:319|139:392|42:359,1,180,6|8,1:2|2:2,0:0:0:0:
38,208,112454,2,0,P|78:236|83:279,1,90,6|0,1:2|0:0,0:0:0:0:
262,164,112778,1,0,1:1:0:0:
179,275,112940,6,0,P|170:183|160:96,1,180,14|0,2:2|0:0,0:0:0:0:
244,17,113427,1,0,1:1:0:0:
244,17,113508,1,0,1:0:0:0:
244,17,113589,1,8,2:2:0:0:
344,74,113751,1,0,1:0:0:0:
440,0,113913,1,2,1:2:0:0:
263,157,114075,5,8,2:2:0:0:
281,190,114156,1,8,2:2:0:0:
309,214,114237,1,10,1:2:0:0:
344,229,114318,1,8,2:2:0:0:
381,231,114399,1,8,2:2:0:0:
417,220,114480,1,8,2:2:0:0:
447,198,114562,6,0,P|376:204|366:311,1,180,6|8,1:2|2:2,0:0:0:0:
247,384,115048,2,0,P|257:330|262:295,1,90,6|0,1:2|0:0,0:0:0:0:
76,147,115372,1,0,1:1:0:0:
263,157,115535,2,0,P|226:217|115:202,1,180,14|0,2:2|0:0,0:0:0:0:
7,98,116021,1,0,1:1:0:0:
39,231,116183,2,0,P|20:289|12:321,1,90,8|0,2:2|0:0,0:0:0:0:
179,122,116508,5,8,1:2:0:0:
179,122,116589,1,8,2:2:0:0:
179,122,116670,2,0,L|168:59,1,45,8|8,2:2|2:2,0:0:0:0:
268,0,116832,2,0,L|260:44,1,45,8|8,1:3|2:3,0:0:0:0:
313,135,116994,2,0,L|336:96,1,45,4|4,2:3|2:3,0:0:0:0:
438,0,117156,2,0,P|444:79|451:141,1,135,6|0,1:2|0:0,0:0:0:0:
450,134,117481,1,8,2:2:0:0:
348,311,117643,2,0,L|331:212,1,90,6|0,1:2|0:0,0:0:0:0:
218,136,117967,1,0,1:1:0:0:
252,276,118129,6,0,B|138:261|183:316|74:298,1,180,14|0,2:2|0:0,0:0:0:0:
108,216,118616,1,0,1:1:0:0:
226,364,118778,2,0,P|270:353|314:348,1,90,10|0,2:2|0:0,0:0:0:0:
473,372,119102,5,10,1:2:0:0:
503,347,119183,1,8,2:2:0:0:
512,310,119264,1,8,2:2:0:0:
512,272,119345,1,8,2:2:0:0:
494,238,119426,1,10,1:2:0:0:
461,218,119507,1,8,2:2:0:0:
422,215,119588,1,8,2:2:0:0:
386,229,119669,1,8,2:2:0:0:
360,259,119751,5,6,1:2:0:0:
276,192,119913,1,0,0:0:0:0:
189,244,120075,2,0,P|129:235|88:223,1,90,8|0,2:2|0:0,0:0:0:0:
32,32,120399,1,2,1:2:0:0:
162,160,120562,1,0,1:1:0:0:
10,257,120724,2,0,P|20:214|33:170,1,90,8|0,2:2|1:1,0:0:0:0:
149,25,121048,6,0,B|242:52|242:52|261:39|278:39,1,135,2|0,1:2|0:0,0:0:0:0:
302,44,121372,2,0,P|324:82|319:126,1,90,8|0,2:2|0:0,0:0:0:0:
251,212,121697,1,2,1:2:0:0:
499,264,121859,1,0,1:1:0:0:
426,123,122021,2,0,P|418:165|411:212,1,90,8|2,2:2|1:2,0:0:0:0:
333,320,122345,5,14,2:2:0:0:
74,252,122508,1,0,1:1:0:0:
275,240,122670,5,8,2:2:0:0:
29,340,122832,1,2,1:2:0:0:
102,141,122994,5,8,2:2:0:0:
247,373,123156,1,0,1:1:0:0:
228,123,123318,5,10,2:2:0:0:
121,384,123481,1,0,1:1:0:0:
480,24,124940,5,6,1:2:0:0:
432,184,125102,1,0,0:0:0:0:
320,48,125264,1,10,2:2:0:0:
272,208,125426,1,0,1:1:0:0:
20,104,125589,5,2,1:2:0:0:
63,247,125751,1,0,1:1:0:0:
156,125,125913,1,10,2:2:0:0:
199,269,126075,1,0,0:0:0:0:
360,164,126237,5,2,1:2:0:0:
304,372,126399,1,0,0:0:0:0:
360,164,126562,1,10,2:2:0:0:
488,264,126724,5,0,1:1:0:0:
488,264,126805,1,8,2:2:0:0:
488,264,126886,2,0,B|444:272|396:284|396:284,1,90,0|0,1:1|1:1,0:0:0:0:
240,192,127210,1,10,2:2:0:0:
160,372,127372,1,0,0:0:0:0:
62,290,127535,5,2,1:2:0:0:
259,336,127697,1,0,0:0:0:0:
125,178,127859,1,10,2:2:0:0:
159,364,128021,5,0,1:1:0:0:
159,364,128102,1,8,2:2:0:0:
159,364,128183,1,2,1:2:0:0:
240,192,128345,1,0,1:1:0:0:
478,287,128508,6,0,P|419:328|341:313,1,135,10|0,2:2|0:0,0:0:0:0:
338,304,128832,2,0,L|355:214,1,90,0|0,1:1|0:0,0:0:0:0:
291,34,129156,1,8,2:2:0:0:
432,161,129318,1,0,1:1:0:0:
485,68,129481,5,0,1:1:0:0:
306,142,129643,1,0,1:1:0:0:
187,1,129805,6,0,P|176:43|168:90,1,90,8|0,2:2|0:0,0:0:0:0:
67,264,130129,5,6,1:2:0:0:
39,151,130291,1,0,0:0:0:0:
152,88,130454,1,10,2:2:0:0:
180,201,130616,1,0,1:1:0:0:
385,362,130778,5,2,1:2:0:0:
426,205,130940,1,0,1:1:0:0:
268,132,131102,1,10,2:2:0:0:
227,289,131264,1,0,0:0:0:0:
329,258,131427,5,2,1:2:0:0:
172,143,131589,1,0,0:0:0:0:
343,2,131751,2,0,P|369:64|370:131,1,135,10|8,2:2|2:2,0:0:0:0:
370,130,132075,1,0,1:1:0:0:
242,220,132237,1,0,1:1:0:0:
113,84,132399,2,0,P|69:96|15:109,1,90,10|0,2:2|0:0,0:0:0:0:
198,17,132724,5,6,1:2:0:0:
168,149,132886,1,0,1:1:0:0:
143,277,133048,1,8,2:2:0:0:
81,198,133210,5,2,1:2:0:0:
234,280,133372,1,4,2:3:0:0:
87,363,133535,1,0,1:1:0:0:
234,280,133697,6,0,B|294:267|294:267|350:281|350:281|424:264,1,180,14|0,2:2|1:1,0:0:0:0:
367,113,134183,5,10,2:2:0:0:
359,123,134264,1,8,2:2:0:0:
351,133,134345,2,0,L|362:181,1,45,8|8,2:2|2:2,0:0:0:0:
502,298,134508,1,0,1:1:0:0:
302,370,134670,5,8,2:2:0:0:
257,378,134751,1,8,2:2:0:0:
212,369,134832,1,8,2:2:0:0:
183,333,134913,1,8,2:2:0:0:
171,289,134994,1,2,1:2:0:0:
280,196,135156,5,8,2:2:0:0:
280,196,135237,1,8,2:2:0:0:
280,196,135318,1,6,1:2:0:0:
424,148,135481,1,0,0:0:0:0:
504,296,135643,1,10,2:2:0:0:
352,348,135805,1,0,1:1:0:0:
352,348,135886,1,8,2:2:0:0:
352,348,135967,5,2,1:2:0:0:
392,168,136129,1,0,1:1:0:0:
232,68,136291,1,10,2:2:0:0:
180,244,136454,1,0,0:0:0:0:
180,244,136535,1,0,0:0:0:0:
180,244,136616,5,2,1:2:0:0:
304,160,136778,1,0,0:0:0:0:
157,2,136940,2,0,B|120:20|120:20|74:26|25:-4,1,135,10|8,2:2|2:2,0:0:0:0:
31,0,137264,1,0,1:1:0:0:
160,141,137427,1,0,1:1:0:0:
30,221,137589,2,0,P|30:171|48:129,1,90,10|0,2:2|0:0,0:0:0:0:
260,37,137913,5,2,1:2:0:0:
385,175,138075,1,0,0:0:0:0:
507,66,138237,6,0,B|464:92|464:92|418:93|377:77,1,135,10|8,2:2|2:2,0:0:0:0:
364,69,138562,1,2,1:2:0:0:
290,249,138724,1,0,1:1:0:0:
121,132,138886,6,0,B|171:124|171:124|203:129|203:129|272:119,1,135,10|0,2:2|0:0,0:0:0:0:
254,121,139210,2,0,P|267:78|272:29,1,90,0|0,1:1|0:0,0:0:0:0:
511,258,139535,2,0,P|424:244|345:306,1,180,10|2,2:2|1:2,0:0:0:0:
352,293,139940,1,0,0:0:0:0:
352,293,140021,1,0,1:1:0:0:
181,221,140183,2,0,P|221:214|269:204,1,90,10|0,2:2|0:0,0:0:0:0:
269,203,140427,1,0,0:0:0:0:
269,203,140508,5,12,2:2:0:0:
91,155,140670,1,0,1:1:0:0:
66,269,140832,1,10,2:2:0:0:
196,130,140994,1,0,1:1:0:0:
377,361,141156,5,10,2:2:0:0:
181,221,141318,1,0,1:1:0:0:
357,245,141481,1,10,2:2:0:0:
124,341,141643,1,0,1:1:0:0:
248,103,141805,6,0,P|263:151|273:196,1,90,8|0,2:2|1:1,0:0:0:0:
41,381,142129,2,0,P|30:337|17:294,1,90,10|0,2:2|1:1,0:0:0:0:
149,144,142454,5,10,2:2:0:0:
356,260,142616,1,0,1:0:0:0:
356,260,142697,1,0,1:0:0:0:
356,260,142778,2,0,B|326:246|326:246|292:248|292:248|263:232|227:232,1,135,10|0,0:0|0:0,0:0:0:0:
203,249,143102,5,14,1:2:0:0:
313,143,143264,1,0,0:0:0:0:
452,255,143427,1,0,1:1:0:0:
338,384,143589,2,0,P|295:375|248:368,1,90,14|0,2:2|0:0,0:0:0:0:
69,201,143913,1,0,1:1:0:0:
9,273,144075,6,0,B|38:275|73:290|73:290|126:259|185:252,1,180,14|0,2:2|1:1,0:0:0:0:
328,147,144562,1,10,2:2:0:0:
389,313,144724,5,14,1:2:0:0:
225,172,144886,1,8,2:2:0:0:
233,180,144967,1,8,2:2:0:0:
233,180,145048,1,10,1:2:0:0:
384,4,145210,5,8,2:3:0:0:
306,235,145372,1,6,2:3:0:0:
86,117,145535,1,4,2:3:0:0:
162,75,145697,5,2,2:2:0:0:
172,69,145859,1,0,0:0:0:0:
227,143,146021,5,2,2:2:0:0:
240,152,146183,1,0,0:0:0:0:
331,100,146345,5,2,2:2:0:0:
344,91,146507,1,0,0:0:0:0:
406,172,146670,5,2,2:2:0:0:
415,185,146832,1,0,0:0:0:0:
332,117,146994,5,2,2:2:0:0:
454,86,147156,1,0,0:0:0:0:
328,222,147318,5,2,2:2:0:0:
206,191,147480,1,0,0:0:0:0:
75,17,147643,5,8,2:2:0:0:
12,79,147805,2,0,L|54:258,1,180,4|4,1:2|2:3,0:0:0:0:
53,254,148210,1,4,2:3:0:0:
53,254,148291,5,6,1:2:0:0:
181,204,148454,1,0,0:0:0:0:
127,357,148616,2,0,L|38:374,1,90,10|0,2:2|1:1,0:0:0:0:
298,178,148940,1,2,1:2:0:0:
386,243,149102,1,0,1:1:0:0:
485,213,149264,1,10,2:2:0:0:
292,271,149427,6,0,P|285:315|279:360,1,90,0|0,0:0|1:1,0:0:0:0:
404,141,149751,1,0,0:0:0:0:
449,384,149913,2,0,P|455:339|461:294,1,90,8|0,2:2|1:1,0:0:0:0:
461,294,150156,1,8,2:2:0:0:
461,294,150237,1,0,1:1:0:0:
368,342,150399,1,0,1:1:0:0:
205,299,150562,2,0,P|161:309|116:317,1,90,8|0,2:2|0:0,0:0:0:0:
14,75,150886,5,2,1:2:0:0:
157,21,151048,1,0,0:0:0:0:
118,179,151210,1,10,2:2:0:0:
269,126,151372,1,0,1:1:0:0:
269,126,151454,1,8,2:2:0:0:
269,126,151535,5,2,1:2:0:0:
3,250,151697,1,0,1:1:0:0:
101,95,151859,1,10,2:2:0:0:
187,256,152021,1,0,0:0:0:0:
187,256,152102,1,0,0:0:0:0:
187,256,152183,5,2,1:2:0:0:
360,189,152345,1,0,0:0:0:0:
330,384,152508,1,10,2:2:0:0:
507,299,152670,1,0,1:1:0:0:
507,299,152751,1,8,2:2:0:0:
507,299,152832,2,0,L|488:210,1,90,0|0,1:1|1:1,0:0:0:0:
287,37,153156,2,0,P|279:77|268:126,1,90,10|0,2:2|0:0,0:0:0:0:
285,378,153481,5,6,1:2:0:0:
378,194,153643,1,0,1:1:0:0:
194,211,153805,1,8,2:2:0:0:
297,275,153967,5,2,1:2:0:0:
387,292,154129,1,4,2:3:0:0:
478,310,154291,1,0,1:1:0:0:
173,349,154454,6,0,B|88:348|128:376|40:371,1,135,14|0,2:2|0:0,0:0:0:0:
27,359,154778,1,0,1:1:0:0:
194,211,154940,5,10,2:2:0:0:
202,167,155021,1,8,2:2:0:0:
190,125,155102,1,8,1:2:0:0:
159,93,155183,1,8,2:2:0:0:
116,78,155264,1,8,2:2:0:0:
72,86,155345,1,8,2:2:0:0:
36,112,155427,2,0,L|43:159,1,45,8|8,1:2|2:2,0:0:0:0:
107,230,155589,5,8,2:2:0:0:
149,214,155670,1,8,2:2:0:0:
194,211,155751,1,10,1:2:0:0:
237,221,155832,1,8,2:2:0:0:
275,245,155913,1,8,2:2:0:0:
304,279,155994,1,8,2:2:0:0:
321,320,156075,5,6,1:2:0:0:
465,256,156237,1,0,0:0:0:0:
326,141,156399,1,14,2:2:0:0:
478,88,156562,1,0,1:1:0:0:
478,88,156643,1,8,2:2:0:0:
478,88,156724,5,2,1:2:0:0:
307,47,156886,1,0,1:1:0:0:
362,233,157048,1,10,2:2:0:0:
193,178,157210,1,0,0:0:0:0:
193,178,157291,1,0,0:0:0:0:
193,178,157372,5,2,1:2:0:0:
330,319,157535,1,0,1:1:0:0:
509,243,157697,1,10,2:2:0:0:
376,134,157859,1,0,1:1:0:0:
376,134,157940,1,8,2:2:0:0:
376,134,158021,5,0,1:1:0:0:
239,283,158183,1,0,1:1:0:0:
148,256,158345,2,0,P|102:268|60:275,1,90,10|0,2:2|0:0,0:0:0:0:
45,43,158670,5,2,1:2:0:0:
143,165,158832,1,0,0:0:0:0:
292,93,158994,2,0,P|299:49|307:4,1,90,10|0,2:2|1:1,0:0:0:0:
161,58,159318,5,2,1:2:0:0:
292,93,159481,1,0,1:1:0:0:
415,126,159643,1,10,0:0:0:0:
510,355,159805,6,0,P|421:366|365:292,1,180,2|2,0:0|0:0,0:0:0:0:
512,151,160291,1,10,2:2:0:0:
464,279,160454,1,0,1:1:0:0:
464,279,160535,1,8,2:2:0:0:
464,279,160616,1,2,1:2:0:0:
321,238,160778,1,0,1:1:0:0:
272,384,160940,2,0,P|228:376|183:369,1,90,10|0,2:2|1:0,0:0:0:0:
172,369,161183,1,0,1:0:0:0:
172,369,161264,5,12,2:2:0:0:
31,190,161427,1,0,1:1:0:0:
78,353,161589,5,10,2:2:0:0:
118,123,161751,1,0,1:1:0:0:
19,281,161913,5,10,2:2:0:0:
217,83,162075,1,0,1:1:0:0:
31,190,162237,5,10,2:2:0:0:
321,114,162399,1,0,1:1:0:0:
115,23,162562,5,8,2:2:0:0:
315,197,162724,1,0,1:1:0:0:
121,147,162886,5,10,2:2:0:0:
396,167,163048,1,0,1:1:0:0:
175,240,163210,5,10,2:2:0:0:
424,87,163372,1,0,1:1:0:0:
282,293,163535,5,10,2:2:0:0:
387,11,163697,1,0,1:1:0:0:
240,168,163859,5,14,1:2:0:0:
368,200,164021,1,0,1:0:0:0:
496,232,164183,1,0,1:1:0:0:
176,295,164345,6,0,P|128:301|87:308,1,90,14|0,2:2|0:0,0:0:0:0:
432,369,164670,1,0,1:1:0:0:
330,115,164832,6,0,P|319:196|306:293,1,180,14|0,2:2|1:1,0:0:0:0:
147,134,165318,1,10,2:2:0:0:
195,384,165481,6,0,P|184:332|177:296,1,90,14|0,1:2|0:0,0:0:0:0:
177,284,165724,1,0,0:0:0:0:
177,284,165805,2,0,L|110:273,1,45,8|8,1:2|2:2,0:0:0:0:
19,115,165967,5,8,2:2:0:0:
59,135,166048,1,8,2:2:0:0:
103,141,166129,1,8,1:2:0:0:
147,134,166210,1,8,2:2:0:0:
187,114,166291,1,8,2:2:0:0:
219,82,166372,1,8,2:2:0:0:
239,42,166454,6,0,P|320:37|383:31,1,144,6|0,1:2|0:0,0:0:0:0:
383,31,166940,1,0,1:1:0:0:
504,155,167102,2,0,P|424:154|361:207,1,144,10|0,2:2|0:0,0:0:0:0:
279,154,167589,5,0,3:3:0:0:
279,154,167670,1,0,3:3:0:0:
279,154,167751,1,2,1:2:0:0:
240,237,167913,2,0,P|249:302|260:380,1,144,8|0,2:2|1:1,0:0:0:0:
329,278,168399,2,0,P|382:292|417:297,1,72,10|0,2:2|0:0,0:0:0:0:
171,328,168724,2,0,P|118:342|83:347,1,72,0|2,0:0|2:2,0:0:0:0:
5,183,169048,5,6,1:2:0:0:
36,166,169129,1,0,0:0:0:0:
72,159,169210,1,10,2:2:0:0:
107,163,169291,1,8,2:2:0:0:
140,177,169372,1,8,1:2:0:0:
167,201,169453,1,8,2:2:0:0:
186,232,169535,2,0,L|222:236,1,36,8|8,2:2|2:2,0:0:0:0:
293,160,169697,2,0,L|287:124,1,36,8|8,1:2|2:2,0:0:0:0:
366,54,169859,5,8,2:2:0:0:
400,42,169940,1,8,2:2:0:0:
435,45,170021,1,8,1:2:0:0:
467,62,170102,1,8,2:2:0:0:
489,90,170183,1,8,2:2:0:0:
497,125,170264,1,8,2:2:0:0:
491,160,170345,5,10,2:2:0:0:
265,27,170508,1,2,1:2:0:0:
512,7,170994,5,10,2:2:0:0:
211,192,171156,2,0,B|171:187|171:187|148:165|148:165|98:157,1,112.5,2|0,1:2|0:0,0:0:0:0:
100,172,171643,6,0,P|89:127|71:53,1,90,6|2,1:2|2:2,0:0:0:0:
196,271,171967,1,10,2:2:0:0:
290,224,172129,2,0,B|335:217|335:217|409:237|409:237|478:224,1,180,2|2,1:2|1:2,0:0:0:0:
504,156,172535,1,0,0:0:0:0:
497,142,172616,2,0,P|440:142|396:178,1,90,10|0,2:2|0:0,0:0:0:0:
316,308,172940,5,2,1:2:0:0:
221,249,173102,1,2,1:2:0:0:
137,374,173264,1,10,2:2:0:0:
4,277,173427,6,0,B|112:291|112:291|88:212,1,180,2|2,1:2|1:2,0:0:0:0:
89,212,173832,1,0,0:0:0:0:
85,199,173913,1,10,2:2:0:0:
270,29,174075,5,0,0:0:0:0:
270,29,174156,1,0,0:0:0:0:
270,29,174237,1,2,1:2:0:0:
232,167,174399,1,2,2:2:0:0:
99,116,174562,1,10,2:2:0:0:
344,112,174724,6,0,P|408:126|445:241,1,180,2|2,1:2|1:2,0:0:0:0:
451,53,175210,1,10,2:2:0:0:
324,216,175372,1,0,0:0:0:0:
324,216,175454,1,0,0:0:0:0:
324,216,175535,1,2,1:2:0:0:
232,167,175697,2,0,L|253:78,1,90,2|10,1:2|2:2,0:0:0:0:
421,323,176021,5,2,2:2:0:0:
232,256,176183,1,12,1:2:0:0:
340,116,176345,1,10,2:2:0:0:
343,138,176426,1,8,2:2:0:0:
347,160,176507,1,10,1:2:0:0:
351,182,176588,1,8,2:2:0:0:
355,204,176669,1,8,2:2:0:0:
359,226,176750,1,8,2:2:0:0:
362,249,176832,6,0,B|313:247|267:229|267:229|239:262|194:282,1,180,6|10,1:2|2:2,0:0:0:0:
69,202,177318,1,2,1:2:0:0:
19,319,177481,5,8,2:2:0:0:
161,192,177643,1,2,1:2:0:0:
11,111,177805,1,10,2:2:0:0:
105,281,177967,1,0,1:1:0:0:
231,131,178129,5,10,2:2:0:0:
186,343,178291,1,2,1:2:0:0:
398,175,178454,1,10,2:2:0:0:
363,374,178616,1,2,1:2:0:0:
161,248,178778,5,8,2:2:0:0:
324,126,178940,1,2,1:2:0:0:
171,27,179102,1,10,2:2:0:0:
273,248,179264,1,0,1:1:0:0:
17,196,179427,6,0,L|69:182,1,45,6|0,1:2|0:0,0:0:0:0:
226,327,179589,5,10,2:2:0:0:
188,333,179670,1,8,2:2:0:0:
152,317,179751,1,10,2:2:0:0:
133,283,179832,1,8,2:2:0:0:
131,246,179913,2,0,L|144:195,1,45,2|0,1:2|0:0,0:0:0:0:
200,85,180075,5,8,2:2:0:0:
206,76,180156,1,8,2:2:0:0:
207,64,180237,1,10,2:2:0:0:
201,54,180318,1,8,2:2:0:0:
191,50,180399,2,0,L|139:61,1,45,2|0,1:2|0:0,0:0:0:0:
257,152,180562,5,8,2:2:0:0:
277,156,180643,1,8,2:2:0:0:
292,160,180724,2,0,L|336:151,1,45,10|8,2:2|2:2,0:0:0:0:
236,294,180886,5,2,1:2:0:0:
203,289,180967,1,0,1:0:0:0:
171,293,181048,1,10,2:2:0:0:
144,301,181129,1,8,2:2:0:0:
117,314,181210,1,10,2:2:0:0:
93,330,181291,1,8,2:2:0:0:
74,352,181372,5,0,1:1:0:0:
21,341,181454,1,0,1:0:0:0:
0,292,181535,1,10,2:2:0:0:
7,242,181616,1,8,2:2:0:0:
41,211,181697,1,10,2:2:0:0:
88,196,181778,1,8,2:2:0:0:
129,157,181859,1,10,2:2:0:0:
138,109,181940,1,8,2:2:0:0:
110,64,182021,5,2,2:2:0:0:
270,19,183967,5,10,2:2:0:0:
261,42,184048,1,8,2:3:0:0:
258,65,184129,1,6,2:3:0:0:
251,86,184210,1,4,2:3:0:0:
246,105,184291,2,0,L|276:162,1,45,0|0,1:1|0:0,0:0:0:0:
388,244,184454,6,0,B|476:252|511:169|490:64|401:62|363:113|388:172|455:196|512:156,1,360,10|0,2:2|0:0,0:0:0:0:
