osu file format v14

[General]
AudioFilename: audio.mp3
AudioLeadIn: 0
PreviewTime: 73599
Countdown: 0
SampleSet: Normal
StackLeniency: 0
Mode: 1
LetterboxInBreaks: 0
WidescreenStoryboard: 1

[Editor]
Bookmarks: 416,7047,14942,24416,34521,43994,54099,64204,74309,94521,102416,112521,122626,132100,142205,162415,172521,182626,192731,202836,223047,233152,243257,253363,261415
DistanceSpacing: 0.7
BeatDivisor: 4
GridSize: 32
TimelineZoom: 1.6

[Metadata]
Title:Karakara
TitleUnicode:カラカラ
Artist:kessoku band
ArtistUnicode:結束バンド
Creator:midorijeon
Version:Noise
Source:ぼっち・ざ・ろっく!
Tags:bocchi the rock anime japanese jrock j-rock empty gotou gotoh hitori 後藤ひとり yamada ryo 山田リョウ kita ikuyo 喜多郁代 ijichi nijika 伊地知虹夏 ikkyu nakajima 中嶋 なかじま イッキュウ ritsuo mitsui 三井 律郎 みつい りつお full size ver episode 4-7 ending theme ed
BeatmapID:3973156
BeatmapSetID:1924546

[Difficulty]
HPDrainRate:4.5
CircleSize:2
OverallDifficulty:6.5
ApproachRate:8
SliderMultiplier:1.4
SliderTickRate:1

[Events]
//Background and Video events
0,0,"karakara.jpg",0,50
//Break Periods
//Storyboard Layer 0 (Background)
//Storyboard Layer 1 (Fail)
//Storyboard Layer 2 (Pass)
//Storyboard Layer 3 (Foreground)
//Storyboard Layer 4 (Overlay)
//Storyboard Sound Samples

[TimingPoints]
416,315.789473684211,5,1,0,60,1,0
416,-100,5,1,0,65,0,0
5153,315.789473684211,6,1,0,70,1,0
5153,-100,6,1,0,65,0,0
7047,315.789473684211,5,1,0,80,1,0
7047,-100,5,1,0,75,0,0
11784,315.789473684211,6,1,0,80,1,0
11784,-100,6,1,0,75,0,0
13679,315.789473684211,4,1,0,50,1,0
13679,-100,4,1,0,50,0,0
14942,315.789473684211,4,1,0,60,1,0
14942,-100,4,1,0,60,0,0
23784,315.789473684211,4,1,0,60,1,0
23784,-100,4,1,0,60,0,0
24416,315.789473684211,4,1,0,60,1,0
24416,-100,4,1,0,65,0,0
43363,315.789473684211,4,1,0,65,1,0
43363,-100,4,1,0,65,0,0
43994,315.789473684211,4,1,0,60,1,0
43994,-100,4,1,0,70,0,0
61678,283.018867924528,4,1,0,70,1,0
61678,-111.57894,4,1,0,69,0,8
61866,-111.57894,4,1,0,68,0,8
62055,324.324324324324,4,1,0,70,1,8
62055,-97.36842,4,1,0,68,0,8
62271,285.714285714286,4,1,0,70,1,8
62271,-110.526306,4,1,0,67,0,8
62461,324.324324324324,4,1,0,70,1,8
62461,-97.36842,4,1,0,66,0,8
62677,320.855614973262,4,1,0,70,1,8
62677,-98.42105,4,1,0,65,0,8
62890,315.789473684211,4,1,0,70,1,0
62890,-100,4,1,0,65,0,0
63100,-100,4,1,0,64,0,0
63311,363.636363636364,4,1,0,70,1,8
63311,-86.842094,4,1,0,63,0,8
63553,335.195530726257,4,1,0,70,1,8
63553,-94.21052,4,1,0,62,0,8
63888,315.789473684211,4,1,0,70,1,8
63888,-100,4,1,0,61,0,0
63966,-100,4,1,0,61,0,0
64045,-100,4,1,0,61,0,0
64124,-100,4,1,0,60,0,0
64203,315.789473684211,4,1,0,60,1,0
64203,-100,4,1,0,60,0,0
69255,-100,4,1,0,75,0,0
74308,-100,4,1,0,80,0,1
94520,315.789473684211,5,1,0,75,1,0
94520,-100,5,1,0,75,0,0
99257,315.789473684211,6,1,0,60,1,0
99257,-100,6,1,0,75,0,0
101151,315.789473684211,4,1,0,60,1,0
101151,-100,4,1,0,50,0,0
102415,315.789473684211,4,1,0,60,1,0
102415,-100,4,1,0,60,0,0
122625,-100,4,1,0,70,0,0
131467,315.789473684211,4,1,0,70,1,0
131467,-100,4,1,0,70,0,0
132099,315.789473684211,4,1,0,60,1,0
132099,-100,4,1,0,70,0,0
142204,-100,4,1,0,80,0,1
162414,-100,4,1,0,70,0,0
172520,-100,4,1,0,70,0,1
182625,-100,4,1,0,50,0,0
190204,-100,4,1,0,65,0,0
192730,-100,4,1,0,70,0,0
202835,-100,4,1,0,80,0,1
223046,-100,4,1,0,75,0,0
241993,-100,4,1,0,75,0,0
243256,-100,4,1,0,55,0,0

[Colours]
Combo1 : 96,247,87
Combo2 : 123,149,251
Combo3 : 252,224,114

[HitObjects]
256,192,416,5,8,0:0:0:0:
256,192,494,1,0,0:0:0:0:
256,192,573,1,8,0:0:0:0:
256,192,652,1,0,0:0:0:0:
256,192,731,1,8,0:0:0:0:
256,192,810,1,0,0:0:0:0:
256,192,889,1,8,0:0:0:0:
256,192,968,1,8,0:0:0:0:
256,192,1047,1,0,0:0:0:0:
256,192,1126,1,0,0:0:0:0:
256,192,1205,1,8,0:0:0:0:
256,192,1284,1,8,0:0:0:0:
256,192,1363,1,0,0:0:0:0:
256,192,1442,1,0,0:0:0:0:
256,192,1521,1,0,0:0:0:0:
256,192,1600,1,0,0:0:0:0:
256,192,1679,1,8,0:0:0:0:
256,192,1758,1,0,0:0:0:0:
256,192,1837,1,8,0:0:0:0:
256,192,1916,1,0,0:0:0:0:
256,192,1994,1,8,0:0:0:0:
256,192,2073,1,0,0:0:0:0:
256,192,2152,1,8,0:0:0:0:
256,192,2231,1,0,0:0:0:0:
256,192,2310,1,8,0:0:0:0:
256,192,2389,1,8,0:0:0:0:
256,192,2468,1,8,0:0:0:0:
256,192,2547,1,0,0:0:0:0:
256,192,2626,1,0,0:0:0:0:
256,192,2705,1,0,0:0:0:0:
256,192,2784,1,8,0:0:0:0:
256,192,2863,1,8,0:0:0:0:
256,192,2942,1,0,0:0:0:0:
256,192,3021,1,0,0:0:0:0:
256,192,3100,1,0,0:0:0:0:
256,192,3179,1,0,0:0:0:0:
256,192,3258,1,8,0:0:0:0:
256,192,3337,1,8,0:0:0:0:
256,192,3416,1,8,0:0:0:0:
256,192,3494,1,0,0:0:0:0:
256,192,3573,1,8,0:0:0:0:
256,192,3652,1,8,0:0:0:0:
256,192,3731,1,0,0:0:0:0:
256,192,3810,1,0,0:0:0:0:
256,192,3889,1,8,0:0:0:0:
256,192,3968,1,0,0:0:0:0:
256,192,4047,1,8,0:0:0:0:
256,192,4126,1,8,0:0:0:0:
256,192,4205,1,0,0:0:0:0:
256,192,4284,1,0,0:0:0:0:
256,192,4363,1,8,0:0:0:0:
256,192,4442,1,8,0:0:0:0:
256,192,4521,1,0,0:0:0:0:
256,192,4600,1,0,0:0:0:0:
256,192,4679,1,0,0:0:0:0:
256,192,4758,1,0,0:0:0:0:
256,192,4837,1,8,0:0:0:0:
256,192,4916,1,0,0:0:0:0:
256,192,4994,1,8,0:0:0:0:
256,192,5073,1,8,0:0:0:0:
256,192,5152,1,4,0:0:0:0:
256,192,5468,1,12,0:0:0:0:
256,192,5784,1,4,0:0:0:0:
256,192,6100,1,12,0:0:0:0:
256,192,6416,1,4,0:0:0:0:
256,192,6731,1,12,0:0:0:0:
256,192,7047,1,4,0:0:0:0:
256,192,7204,1,8,0:0:0:0:
256,192,7283,1,8,0:0:0:0:
256,192,7362,1,0,0:0:0:0:
256,192,7520,1,8,0:0:0:0:
256,192,7678,1,0,0:0:0:0:
256,192,7757,1,0,0:0:0:0:
256,192,7836,1,8,0:0:0:0:
256,192,7994,1,0,0:0:0:0:
256,192,8152,1,8,0:0:0:0:
256,192,8310,1,8,0:0:0:0:
256,192,8389,1,0,0:0:0:0:
256,192,8468,1,8,0:0:0:0:
256,192,8547,1,8,0:0:0:0:
256,192,8625,1,4,0:0:0:0:
256,192,8783,1,8,0:0:0:0:
256,192,8862,1,8,0:0:0:0:
256,192,8941,1,0,0:0:0:0:
256,192,9099,1,8,0:0:0:0:
256,192,9257,1,0,0:0:0:0:
256,192,9336,1,0,0:0:0:0:
256,192,9415,1,8,0:0:0:0:
256,192,9573,1,0,0:0:0:0:
256,192,9731,1,8,0:0:0:0:
256,192,9889,1,0,0:0:0:0:
256,192,9968,1,0,0:0:0:0:
256,192,10047,1,8,0:0:0:0:
256,192,10125,1,8,0:0:0:0:
256,192,10204,1,4,0:0:0:0:
256,192,10362,1,0,0:0:0:0:
256,192,10441,1,8,0:0:0:0:
256,192,10520,1,0,0:0:0:0:
256,192,10678,1,8,0:0:0:0:
256,192,10836,1,0,0:0:0:0:
256,192,10915,1,0,0:0:0:0:
256,192,10994,1,8,0:0:0:0:
256,192,11152,1,0,0:0:0:0:
256,192,11310,1,8,0:0:0:0:
256,192,11389,1,8,0:0:0:0:
256,192,11468,1,0,0:0:0:0:
256,192,11625,1,8,0:0:0:0:
256,192,11784,1,0,0:0:0:0:
256,192,11862,1,8,0:0:0:0:
256,192,11941,1,8,0:0:0:0:
256,192,12020,1,8,0:0:0:0:
256,192,12099,1,0,0:0:0:0:
256,192,12178,1,8,0:0:0:0:
256,192,12257,1,8,0:0:0:0:
256,192,12336,1,8,0:0:0:0:
256,192,12415,1,0,0:0:0:0:
256,192,12494,1,8,0:0:0:0:
256,192,12573,1,8,0:0:0:0:
256,192,12652,1,8,0:0:0:0:
256,192,12731,1,0,0:0:0:0:
256,192,12810,1,8,0:0:0:0:
256,192,12889,1,0,0:0:0:0:
256,192,12968,1,0,0:0:0:0:
256,192,13047,1,8,0:0:0:0:
256,192,13126,1,8,0:0:0:0:
256,192,13205,1,0,0:0:0:0:
256,192,13284,1,0,0:0:0:0:
256,192,13362,1,8,0:0:0:0:
256,192,13678,1,8,0:0:0:0:
256,192,13889,1,8,0:0:0:0:
256,192,14100,1,8,0:0:0:0:
256,192,14310,1,0,0:0:0:0:
256,192,14468,1,8,0:0:0:0:
256,192,14547,1,8,0:0:0:0:
256,192,14626,1,8,0:0:0:0:
256,192,14942,1,4,0:0:0:0:
256,192,15257,1,8,0:0:0:0:
256,192,15573,1,0,0:0:0:0:
256,192,15731,1,0,0:0:0:0:
256,192,15889,1,8,0:0:0:0:
256,192,16205,1,0,0:0:0:0:
256,192,16520,1,8,0:0:0:0:
256,192,16678,1,0,0:0:0:0:
256,192,16994,1,0,0:0:0:0:
256,192,17152,1,8,0:0:0:0:
256,192,17468,1,0,0:0:0:0:
256,192,17784,1,8,0:0:0:0:
256,192,18257,1,0,0:0:0:0:
256,192,18415,1,8,0:0:0:0:
256,192,18731,1,0,0:0:0:0:
256,192,19047,1,8,0:0:0:0:
256,192,19363,1,8,0:0:0:0:
256,192,19520,1,0,0:0:0:0:
256,192,19678,1,8,0:0:0:0:
256,192,19836,1,0,0:0:0:0:
256,192,19994,1,0,0:0:0:0:
256,192,20310,1,8,0:0:0:0:
256,192,20784,1,0,0:0:0:0:
256,192,20942,1,8,0:0:0:0:
256,192,21257,1,0,0:0:0:0:
256,192,21573,1,8,0:0:0:0:
256,192,21889,1,8,0:0:0:0:
256,192,22047,1,0,0:0:0:0:
256,192,22205,1,8,0:0:0:0:
256,192,22520,1,0,0:0:0:0:
256,192,22836,1,8,0:0:0:0:
256,192,22994,1,0,0:0:0:0:
256,192,23310,1,0,0:0:0:0:
256,192,23468,1,8,0:0:0:0:
256,192,23626,1,0,0:0:0:0:
256,192,23705,1,0,0:0:0:0:
256,192,23784,1,8,0:0:0:0:
256,192,23942,1,8,0:0:0:0:
256,192,24020,1,8,0:0:0:0:
256,192,24099,1,8,0:0:0:0:
256,192,24416,1,4,0:0:0:0:
256,192,24731,1,8,0:0:0:0:
256,192,25047,1,0,0:0:0:0:
256,192,25205,1,0,0:0:0:0:
256,192,25363,1,8,0:0:0:0:
256,192,25521,1,0,0:0:0:0:
256,192,25679,1,0,0:0:0:0:
256,192,25994,1,8,0:0:0:0:
256,192,26152,1,0,0:0:0:0:
256,192,26468,1,0,0:0:0:0:
256,192,26626,1,8,0:0:0:0:
256,192,26784,1,0,0:0:0:0:
256,192,26942,1,0,0:0:0:0:
256,192,27258,1,8,0:0:0:0:
256,192,27416,1,8,0:0:0:0:
256,192,27731,1,0,0:0:0:0:
256,192,27889,1,8,0:0:0:0:
256,192,28205,1,0,0:0:0:0:
256,192,28363,1,0,0:0:0:0:
256,192,28521,1,8,0:0:0:0:
256,192,28837,1,8,0:0:0:0:
256,192,28994,1,0,0:0:0:0:
256,192,29152,1,8,0:0:0:0:
256,192,29310,1,0,0:0:0:0:
256,192,29468,1,0,0:0:0:0:
256,192,29784,1,8,0:0:0:0:
256,192,29942,1,8,0:0:0:0:
256,192,30100,1,0,0:0:0:0:
256,192,30258,1,0,0:0:0:0:
256,192,30416,1,8,0:0:0:0:
256,192,30731,1,8,0:0:0:0:
256,192,30889,1,0,0:0:0:0:
256,192,31047,1,8,0:0:0:0:
256,192,31363,1,0,0:0:0:0:
256,192,31521,1,0,0:0:0:0:
256,192,31679,1,8,0:0:0:0:
256,192,31837,1,0,0:0:0:0:
256,192,31994,1,0,0:0:0:0:
256,192,32310,1,8,0:0:0:0:
256,192,32468,1,0,0:0:0:0:
256,192,32784,1,0,0:0:0:0:
256,192,32942,1,8,0:0:0:0:
256,192,33100,1,0,0:0:0:0:
256,192,33258,1,8,0:0:0:0:
256,192,33416,1,0,0:0:0:0:
256,192,33573,1,12,0:0:0:0:
256,192,33889,1,8,0:0:0:0:
256,192,34047,1,0,0:0:0:0:
256,192,34205,1,0,0:0:0:0:
256,192,34284,1,8,0:0:0:0:
256,192,34363,1,8,0:0:0:0:
256,192,34442,1,8,0:0:0:0:
256,192,34521,1,4,0:0:0:0:
256,192,34679,1,0,0:0:0:0:
256,192,34837,1,8,0:0:0:0:
256,192,34916,1,0,0:0:0:0:
256,192,34994,1,8,0:0:0:0:
256,192,35073,1,8,0:0:0:0:
256,192,35152,1,0,0:0:0:0:
256,192,35310,1,0,0:0:0:0:
256,192,35468,1,8,0:0:0:0:
256,192,35626,1,0,0:0:0:0:
256,192,35705,1,0,0:0:0:0:
256,192,35784,1,0,0:0:0:0:
256,192,36100,1,8,0:0:0:0:
256,192,36258,1,0,0:0:0:0:
256,192,36337,1,8,0:0:0:0:
256,192,36416,1,0,0:0:0:0:
256,192,36573,1,0,0:0:0:0:
256,192,36731,1,8,0:0:0:0:
256,192,36889,1,8,0:0:0:0:
256,192,37047,1,0,0:0:0:0:
256,192,37363,1,8,0:0:0:0:
256,192,37521,1,0,0:0:0:0:
256,192,37600,1,0,0:0:0:0:
256,192,37679,1,0,0:0:0:0:
256,192,37837,1,0,0:0:0:0:
256,192,37994,1,8,0:0:0:0:
256,192,38152,1,0,0:0:0:0:
256,192,38231,1,8,0:0:0:0:
256,192,38310,1,0,0:0:0:0:
256,192,38468,1,0,0:0:0:0:
256,192,38626,1,8,0:0:0:0:
256,192,38784,1,8,0:0:0:0:
256,192,38863,1,8,0:0:0:0:
256,192,38942,1,0,0:0:0:0:
256,192,39100,1,0,0:0:0:0:
256,192,39258,1,8,0:0:0:0:
256,192,39573,1,0,0:0:0:0:
256,192,39731,1,8,0:0:0:0:
256,192,39810,1,0,0:0:0:0:
256,192,39889,1,8,0:0:0:0:
256,192,39968,1,8,0:0:0:0:
256,192,40047,1,0,0:0:0:0:
256,192,40126,1,0,0:0:0:0:
256,192,40205,1,8,0:0:0:0:
256,192,40363,1,0,0:0:0:0:
256,192,40521,1,8,0:0:0:0:
256,192,40679,1,0,0:0:0:0:
256,192,40758,1,8,0:0:0:0:
256,192,40837,1,0,0:0:0:0:
256,192,40916,1,0,0:0:0:0:
256,192,40994,1,8,0:0:0:0:
256,192,41073,1,0,0:0:0:0:
256,192,41152,1,8,0:0:0:0:
256,192,41310,1,0,0:0:0:0:
256,192,41389,1,0,0:0:0:0:
256,192,41468,1,0,0:0:0:0:
256,192,41626,1,8,0:0:0:0:
256,192,41784,1,8,0:0:0:0:
256,192,42100,1,0,0:0:0:0:
256,192,42258,1,8,0:0:0:0:
256,192,42416,1,8,0:0:0:0:
256,192,42573,1,0,0:0:0:0:
256,192,42652,1,8,0:0:0:0:
256,192,42731,1,0,0:0:0:0:
256,192,42889,1,0,0:0:0:0:
256,192,43047,1,8,0:0:0:0:
256,192,43205,1,8,0:0:0:0:
256,192,43284,1,8,0:0:0:0:
256,192,43363,1,8,0:0:0:0:
256,192,43521,1,0,0:0:0:0:
256,192,43679,1,8,0:0:0:0:
256,192,43837,1,8,0:0:0:0:
256,192,43994,1,4,0:0:0:0:
256,192,44151,1,0,0:0:0:0:
256,192,44309,1,8,0:0:0:0:
256,192,44388,1,0,0:0:0:0:
256,192,44467,1,8,0:0:0:0:
256,192,44546,1,8,0:0:0:0:
256,192,44625,1,0,0:0:0:0:
256,192,44783,1,0,0:0:0:0:
256,192,44941,1,8,0:0:0:0:
256,192,45099,1,0,0:0:0:0:
256,192,45178,1,0,0:0:0:0:
256,192,45257,1,0,0:0:0:0:
256,192,45572,1,8,0:0:0:0:
256,192,45730,1,0,0:0:0:0:
256,192,45809,1,8,0:0:0:0:
256,192,45888,1,0,0:0:0:0:
256,192,46046,1,8,0:0:0:0:
256,192,46204,1,8,0:0:0:0:
256,192,46520,1,0,0:0:0:0:
256,192,46836,1,8,0:0:0:0:
256,192,46994,1,8,0:0:0:0:
256,192,47072,1,8,0:0:0:0:
256,192,47151,1,0,0:0:0:0:
256,192,47309,1,0,0:0:0:0:
256,192,47467,1,8,0:0:0:0:
256,192,47546,1,0,0:0:0:0:
256,192,47625,1,8,0:0:0:0:
256,192,47783,1,0,0:0:0:0:
256,192,47941,1,0,0:0:0:0:
256,192,48099,1,8,0:0:0:0:
256,192,48257,1,0,0:0:0:0:
256,192,48336,1,8,0:0:0:0:
256,192,48415,1,0,0:0:0:0:
256,192,48572,1,0,0:0:0:0:
256,192,48730,1,8,0:0:0:0:
256,192,49046,1,0,0:0:0:0:
256,192,49204,1,8,0:0:0:0:
256,192,49283,1,8,0:0:0:0:
256,192,49362,1,8,0:0:0:0:
256,192,49441,1,0,0:0:0:0:
256,192,49520,1,8,0:0:0:0:
256,192,49599,1,8,0:0:0:0:
256,192,49678,1,0,0:0:0:0:
256,192,49836,1,0,0:0:0:0:
256,192,49994,1,8,0:0:0:0:
256,192,50151,1,8,0:0:0:0:
256,192,50230,1,8,0:0:0:0:
256,192,50309,1,0,0:0:0:0:
256,192,50388,1,8,0:0:0:0:
256,192,50467,1,0,0:0:0:0:
256,192,50546,1,0,0:0:0:0:
256,192,50625,1,8,0:0:0:0:
256,192,50783,1,8,0:0:0:0:
256,192,50941,1,0,0:0:0:0:
256,192,51099,1,0,0:0:0:0:
256,192,51257,1,8,0:0:0:0:
256,192,51572,1,0,0:0:0:0:
256,192,51730,1,8,0:0:0:0:
256,192,51809,1,0,0:0:0:0:
256,192,51888,1,8,0:0:0:0:
256,192,52046,1,8,0:0:0:0:
256,192,52204,1,0,0:0:0:0:
256,192,52362,1,8,0:0:0:0:
256,192,52441,1,0,0:0:0:0:
256,192,52520,1,8,0:0:0:0:
256,192,52678,1,0,0:0:0:0:
256,192,52836,1,8,0:0:0:0:
256,192,52994,1,0,0:0:0:0:
256,192,53151,1,8,0:0:0:0:
256,192,53309,1,8,0:0:0:0:
256,192,53388,1,0,0:0:0:0:
256,192,53467,1,8,0:0:0:0:
256,192,53625,1,0,0:0:0:0:
256,192,53783,1,8,0:0:0:0:
256,192,53862,1,8,0:0:0:0:
256,192,53941,1,0,0:0:0:0:
256,192,54020,1,0,0:0:0:0:
256,192,54099,1,12,0:0:0:0:
256,192,54415,1,0,0:0:0:0:
256,192,54730,1,0,0:0:0:0:
256,192,55046,1,0,0:0:0:0:
256,192,55362,1,8,0:0:0:0:
256,192,55678,1,8,0:0:0:0:
256,192,55994,1,0,0:0:0:0:
256,192,56309,1,8,0:0:0:0:
256,192,56467,1,0,0:0:0:0:
256,192,56546,1,0,0:0:0:0:
256,192,56625,1,12,0:0:0:0:
256,192,56941,1,0,0:0:0:0:
256,192,57257,1,0,0:0:0:0:
256,192,57572,1,8,0:0:0:0:
256,192,57888,1,8,0:0:0:0:
256,192,58204,1,0,0:0:0:0:
256,192,58362,1,8,0:0:0:0:
256,192,58441,1,8,0:0:0:0:
256,192,58520,1,0,0:0:0:0:
256,192,58678,1,0,0:0:0:0:
256,192,58757,1,8,0:0:0:0:
256,192,58836,1,0,0:0:0:0:
256,192,58994,1,0,0:0:0:0:
256,192,59072,1,0,0:0:0:0:
256,192,59151,1,12,0:0:0:0:
256,192,59467,1,0,0:0:0:0:
256,192,59783,1,0,0:0:0:0:
256,192,60099,1,8,0:0:0:0:
256,192,60415,1,8,0:0:0:0:
256,192,60730,1,0,0:0:0:0:
256,192,61046,1,8,0:0:0:0:
256,192,61362,1,8,0:0:0:0:
256,192,61678,1,8,0:0:0:0:
256,192,61866,1,0,0:0:0:0:
256,192,62055,1,0,0:0:0:0:
256,192,62271,1,8,0:0:0:0:
256,192,62461,1,0,0:0:0:0:
256,192,62677,1,0,0:0:0:0:
256,192,62890,1,8,0:0:0:0:
256,192,63100,1,0,0:0:0:0:
256,192,63311,1,0,0:0:0:0:
256,192,63553,1,8,0:0:0:0:
256,192,63888,1,8,0:0:0:0:
256,192,63966,1,8,0:0:0:0:
256,192,64045,1,0,0:0:0:0:
256,192,64124,1,8,0:0:0:0:
256,192,64203,1,4,0:0:0:0:
256,192,64518,1,0,0:0:0:0:
256,192,64834,1,8,0:0:0:0:
256,192,65071,1,8,0:0:0:0:
256,192,65308,1,8,0:0:0:0:
256,192,65466,1,0,0:0:0:0:
256,192,65781,1,8,0:0:0:0:
256,192,66097,1,0,0:0:0:0:
256,192,66334,1,8,0:0:0:0:
256,192,66413,1,0,0:0:0:0:
256,192,66571,1,8,0:0:0:0:
256,192,66729,1,0,0:0:0:0:
256,192,67045,1,8,0:0:0:0:
256,192,67360,1,8,0:0:0:0:
256,192,67597,1,8,0:0:0:0:
256,192,67676,1,0,0:0:0:0:
256,192,67834,1,8,0:0:0:0:
256,192,67992,1,0,0:0:0:0:
256,192,68308,1,0,0:0:0:0:
256,192,68624,1,8,0:0:0:0:
256,192,68782,1,0,0:0:0:0:
256,192,68939,1,8,0:0:0:0:
256,192,69255,1,12,0:0:0:0:
256,192,69413,1,0,0:0:0:0:
256,192,69493,1,0,0:0:0:0:
256,192,69571,1,8,0:0:0:0:
256,192,69729,1,4,0:0:0:0:
256,192,69887,1,8,0:0:0:0:
256,192,69966,1,8,0:0:0:0:
256,192,70045,1,0,0:0:0:0:
256,192,70203,1,12,0:0:0:0:
256,192,70361,1,0,0:0:0:0:
256,192,70440,1,8,0:0:0:0:
256,192,70518,1,4,0:0:0:0:
256,192,70676,1,8,0:0:0:0:
256,192,70756,1,8,0:0:0:0:
256,192,70834,1,0,0:0:0:0:
256,192,70992,1,12,0:0:0:0:
256,192,71150,1,0,0:0:0:0:
256,192,71229,1,0,0:0:0:0:
256,192,71308,1,8,0:0:0:0:
256,192,71466,1,4,0:0:0:0:
256,192,71624,1,8,0:0:0:0:
256,192,71703,1,0,0:0:0:0:
256,192,71781,1,12,0:0:0:0:
256,192,71939,1,0,0:0:0:0:
256,192,72019,1,8,0:0:0:0:
256,192,72097,1,0,0:0:0:0:
256,192,72177,1,0,0:0:0:0:
256,192,72255,1,8,0:0:0:0:
256,192,72413,1,0,0:0:0:0:
256,192,72571,1,12,0:0:0:0:
256,192,72729,1,12,0:0:0:0:
256,192,72887,1,12,0:0:0:0:
256,192,73203,1,8,0:0:0:0:
256,192,73282,1,8,0:0:0:0:
256,192,73360,1,0,0:0:0:0:
256,192,73439,1,8,0:0:0:0:
256,192,73518,1,0,0:0:0:0:
256,192,73597,1,0,0:0:0:0:
256,192,73676,1,8,0:0:0:0:
256,192,74150,1,0,0:0:0:0:
256,192,74308,1,12,0:0:0:0:
256,192,74466,1,0,0:0:0:0:
256,192,74624,1,8,0:0:0:0:
256,192,74781,1,8,0:0:0:0:
256,192,74861,1,0,0:0:0:0:
256,192,74939,1,8,0:0:0:0:
256,192,75097,1,0,0:0:0:0:
256,192,75255,1,8,0:0:0:0:
256,192,75335,1,0,0:0:0:0:
256,192,75413,1,8,0:0:0:0:
256,192,75493,1,8,0:0:0:0:
256,192,75571,1,8,0:0:0:0:
256,192,75729,1,0,0:0:0:0:
256,192,75887,1,8,0:0:0:0:
256,192,75966,1,8,0:0:0:0:
256,192,76045,1,0,0:0:0:0:
256,192,76203,1,8,0:0:0:0:
256,192,76282,1,8,0:0:0:0:
256,192,76360,1,0,0:0:0:0:
256,192,76518,1,8,0:0:0:0:
256,192,76676,1,0,0:0:0:0:
256,192,76756,1,0,0:0:0:0:
256,192,76834,1,8,0:0:0:0:
256,192,76992,1,0,0:0:0:0:
256,192,77150,1,8,0:0:0:0:
256,192,77229,1,8,0:0:0:0:
256,192,77308,1,0,0:0:0:0:
256,192,77466,1,8,0:0:0:0:
256,192,77545,1,8,0:0:0:0:
256,192,77624,1,0,0:0:0:0:
256,192,77703,1,0,0:0:0:0:
256,192,77782,1,8,0:0:0:0:
256,192,77939,1,0,0:0:0:0:
256,192,78097,1,8,0:0:0:0:
256,192,78177,1,8,0:0:0:0:
256,192,78255,1,0,0:0:0:0:
256,192,78413,1,8,0:0:0:0:
256,192,78571,1,0,0:0:0:0:
256,192,78650,1,0,0:0:0:0:
256,192,78729,1,8,0:0:0:0:
256,192,78887,1,0,0:0:0:0:
256,192,79045,1,8,0:0:0:0:
256,192,79124,1,8,0:0:0:0:
256,192,79203,1,0,0:0:0:0:
256,192,79282,1,0,0:0:0:0:
256,192,79360,1,12,0:0:0:0:
256,192,79676,1,8,0:0:0:0:
256,192,79834,1,0,0:0:0:0:
256,192,79914,1,0,0:0:0:0:
256,192,79993,1,8,0:0:0:0:
256,192,80150,1,0,0:0:0:0:
256,192,80308,1,8,0:0:0:0:
256,192,80387,1,8,0:0:0:0:
256,192,80466,1,0,0:0:0:0:
256,192,80545,1,0,0:0:0:0:
256,192,80624,1,8,0:0:0:0:
256,192,80782,1,0,0:0:0:0:
256,192,80940,1,8,0:0:0:0:
256,192,81019,1,8,0:0:0:0:
256,192,81098,1,0,0:0:0:0:
256,192,81255,1,8,0:0:0:0:
256,192,81413,1,0,0:0:0:0:
256,192,81493,1,0,0:0:0:0:
256,192,81571,1,8,0:0:0:0:
256,192,81729,1,0,0:0:0:0:
256,192,81887,1,8,0:0:0:0:
256,192,81966,1,8,0:0:0:0:
256,192,82045,1,0,0:0:0:0:
256,192,82124,1,0,0:0:0:0:
256,192,82203,1,8,0:0:0:0:
256,192,82361,1,0,0:0:0:0:
256,192,82518,1,8,0:0:0:0:
256,192,82597,1,0,0:0:0:0:
256,192,82676,1,8,0:0:0:0:
256,192,82755,1,8,0:0:0:0:
256,192,82834,1,8,0:0:0:0:
256,192,82992,1,8,0:0:0:0:
256,192,83071,1,0,0:0:0:0:
256,192,83150,1,8,0:0:0:0:
256,192,83308,1,0,0:0:0:0:
256,192,83466,1,12,0:0:0:0:
256,192,83781,1,8,0:0:0:0:
256,192,83861,1,0,0:0:0:0:
256,192,83939,1,8,0:0:0:0:
256,192,84018,1,8,0:0:0:0:
256,192,84097,1,0,0:0:0:0:
256,192,84176,1,0,0:0:0:0:
256,192,84255,1,8,0:0:0:0:
256,192,84334,1,8,0:0:0:0:
256,192,84413,1,4,0:0:0:0:
256,192,84571,1,0,0:0:0:0:
256,192,84729,1,8,0:0:0:0:
256,192,84887,1,0,0:0:0:0:
256,192,84966,1,0,0:0:0:0:
256,192,85045,1,8,0:0:0:0:
256,192,85203,1,0,0:0:0:0:
256,192,85360,1,8,0:0:0:0:
256,192,85440,1,8,0:0:0:0:
256,192,85518,1,0,0:0:0:0:
256,192,85598,1,0,0:0:0:0:
256,192,85676,1,8,0:0:0:0:
256,192,85834,1,0,0:0:0:0:
256,192,85992,1,8,0:0:0:0:
256,192,86071,1,8,0:0:0:0:
256,192,86150,1,0,0:0:0:0:
256,192,86308,1,8,0:0:0:0:
256,192,86387,1,0,0:0:0:0:
256,192,86466,1,8,0:0:0:0:
256,192,86624,1,8,0:0:0:0:
256,192,86782,1,0,0:0:0:0:
256,192,86860,1,0,0:0:0:0:
256,192,86940,1,8,0:0:0:0:
256,192,87098,1,8,0:0:0:0:
256,192,87256,1,8,0:0:0:0:
256,192,87335,1,0,0:0:0:0:
256,192,87414,1,8,0:0:0:0:
256,192,87572,1,8,0:0:0:0:
256,192,87651,1,8,0:0:0:0:
256,192,87730,1,0,0:0:0:0:
256,192,87888,1,8,0:0:0:0:
256,192,88045,1,8,0:0:0:0:
256,192,88124,1,0,0:0:0:0:
256,192,88203,1,8,0:0:0:0:
256,192,88281,1,8,0:0:0:0:
256,192,88361,1,0,0:0:0:0:
256,192,88519,1,8,0:0:0:0:
256,192,88677,1,0,0:0:0:0:
256,192,88756,1,0,0:0:0:0:
256,192,88835,1,8,0:0:0:0:
256,192,88993,1,0,0:0:0:0:
256,192,89151,1,8,0:0:0:0:
256,192,89230,1,8,0:0:0:0:
256,192,89309,1,0,0:0:0:0:
256,192,89388,1,0,0:0:0:0:
256,192,89466,1,12,0:0:0:0:
256,192,89782,1,8,0:0:0:0:
256,192,89940,1,8,0:0:0:0:
256,192,90018,1,0,0:0:0:0:
256,192,90097,1,8,0:0:0:0:
256,192,90256,1,0,0:0:0:0:
256,192,90414,1,8,0:0:0:0:
256,192,90493,1,0,0:0:0:0:
256,192,90572,1,8,0:0:0:0:
256,192,90651,1,8,0:0:0:0:
256,192,90730,1,8,0:0:0:0:
256,192,90888,1,0,0:0:0:0:
256,192,91046,1,8,0:0:0:0:
256,192,91125,1,8,0:0:0:0:
256,192,91204,1,8,0:0:0:0:
256,192,91361,1,8,0:0:0:0:
256,192,91519,1,0,0:0:0:0:
256,192,91597,1,0,0:0:0:0:
256,192,91677,1,8,0:0:0:0:
256,192,91835,1,0,0:0:0:0:
256,192,91993,1,8,0:0:0:0:
256,192,92072,1,8,0:0:0:0:
256,192,92151,1,0,0:0:0:0:
256,192,92309,1,8,0:0:0:0:
256,192,92467,1,0,0:0:0:0:
256,192,92546,1,0,0:0:0:0:
256,192,92624,1,8,0:0:0:0:
256,192,92782,1,0,0:0:0:0:
256,192,92940,1,8,0:0:0:0:
256,192,93019,1,8,0:0:0:0:
256,192,93098,1,0,0:0:0:0:
256,192,93256,1,8,0:0:0:0:
256,192,93335,1,8,0:0:0:0:
256,192,93414,1,0,0:0:0:0:
256,192,93493,1,0,0:0:0:0:
256,192,93571,1,8,0:0:0:0:
256,192,93729,1,0,0:0:0:0:
256,192,93887,1,8,0:0:0:0:
256,192,93966,1,8,0:0:0:0:
256,192,94045,1,0,0:0:0:0:
256,192,94124,1,0,0:0:0:0:
256,192,94203,1,8,0:0:0:0:
256,192,94281,1,0,0:0:0:0:
256,192,94361,1,8,0:0:0:0:
256,192,94439,1,8,0:0:0:0:
256,192,94520,1,4,0:0:0:0:
256,192,94677,1,8,0:0:0:0:
256,192,94756,1,8,0:0:0:0:
256,192,94835,1,0,0:0:0:0:
256,192,94993,1,8,0:0:0:0:
256,192,95151,1,0,0:0:0:0:
256,192,95230,1,0,0:0:0:0:
256,192,95309,1,8,0:0:0:0:
256,192,95467,1,0,0:0:0:0:
256,192,95625,1,8,0:0:0:0:
256,192,95783,1,8,0:0:0:0:
256,192,95862,1,0,0:0:0:0:
256,192,95941,1,8,0:0:0:0:
256,192,96020,1,8,0:0:0:0:
256,192,96098,1,4,0:0:0:0:
256,192,96256,1,8,0:0:0:0:
256,192,96335,1,8,0:0:0:0:
256,192,96414,1,0,0:0:0:0:
256,192,96572,1,8,0:0:0:0:
256,192,96730,1,0,0:0:0:0:
256,192,96809,1,0,0:0:0:0:
256,192,96888,1,8,0:0:0:0:
256,192,97046,1,0,0:0:0:0:
256,192,97204,1,8,0:0:0:0:
256,192,97362,1,0,0:0:0:0:
256,192,97441,1,0,0:0:0:0:
256,192,97520,1,8,0:0:0:0:
256,192,97598,1,8,0:0:0:0:
256,192,97677,1,4,0:0:0:0:
256,192,97835,1,0,0:0:0:0:
256,192,97914,1,8,0:0:0:0:
256,192,97993,1,0,0:0:0:0:
256,192,98151,1,8,0:0:0:0:
256,192,98309,1,0,0:0:0:0:
256,192,98388,1,0,0:0:0:0:
256,192,98467,1,8,0:0:0:0:
256,192,98625,1,0,0:0:0:0:
256,192,98783,1,8,0:0:0:0:
256,192,98862,1,8,0:0:0:0:
256,192,98941,1,0,0:0:0:0:
256,192,99098,1,8,0:0:0:0:
256,192,99177,1,8,0:0:0:0:
256,192,99257,1,0,0:0:0:0:
256,192,99335,1,8,0:0:0:0:
256,192,99414,1,8,0:0:0:0:
256,192,99493,1,8,0:0:0:0:
256,192,99572,1,0,0:0:0:0:
256,192,99651,1,8,0:0:0:0:
256,192,99730,1,8,0:0:0:0:
256,192,99809,1,8,0:0:0:0:
256,192,99888,1,0,0:0:0:0:
256,192,99967,1,8,0:0:0:0:
256,192,100046,1,8,0:0:0:0:
256,192,100125,1,8,0:0:0:0:
256,192,100204,1,0,0:0:0:0:
256,192,100283,1,8,0:0:0:0:
256,192,100362,1,0,0:0:0:0:
256,192,100441,1,0,0:0:0:0:
256,192,100520,1,8,0:0:0:0:
256,192,100599,1,8,0:0:0:0:
256,192,100678,1,0,0:0:0:0:
256,192,100757,1,0,0:0:0:0:
256,192,100835,1,8,0:0:0:0:
256,192,101151,1,8,0:0:0:0:
256,192,101361,1,8,0:0:0:0:
256,192,101572,1,8,0:0:0:0:
256,192,101782,1,0,0:0:0:0:
256,192,102415,1,4,0:0:0:0:
256,192,102888,1,8,0:0:0:0:
256,192,103046,1,0,0:0:0:0:
256,192,103204,1,0,0:0:0:0:
256,192,103362,1,8,0:0:0:0:
256,192,103678,1,0,0:0:0:0:
256,192,103993,1,8,0:0:0:0:
256,192,104309,1,0,0:0:0:0:
256,192,104467,1,0,0:0:0:0:
256,192,104625,1,8,0:0:0:0:
256,192,104941,1,0,0:0:0:0:
256,192,105099,1,8,0:0:0:0:
256,192,105415,1,8,0:0:0:0:
256,192,105572,1,0,0:0:0:0:
256,192,105730,1,0,0:0:0:0:
256,192,105888,1,8,0:0:0:0:
256,192,106046,1,8,0:0:0:0:
256,192,106204,1,0,0:0:0:0:
256,192,106520,1,8,0:0:0:0:
256,192,106836,1,8,0:0:0:0:
256,192,106993,1,0,0:0:0:0:
256,192,107151,1,8,0:0:0:0:
256,192,107467,1,0,0:0:0:0:
256,192,107625,1,8,0:0:0:0:
256,192,107941,1,8,0:0:0:0:
256,192,108257,1,0,0:0:0:0:
256,192,108415,1,8,0:0:0:0:
256,192,108572,1,0,0:0:0:0:
256,192,108730,1,0,0:0:0:0:
256,192,109046,1,8,0:0:0:0:
256,192,109362,1,0,0:0:0:0:
256,192,109520,1,0,0:0:0:0:
256,192,109678,1,8,0:0:0:0:
256,192,109993,1,0,0:0:0:0:
256,192,110151,1,8,0:0:0:0:
256,192,110309,1,0,0:0:0:0:
256,192,110467,1,8,0:0:0:0:
256,192,110783,1,8,0:0:0:0:
256,192,110941,1,0,0:0:0:0:
256,192,111099,1,8,0:0:0:0:
256,192,111257,1,0,0:0:0:0:
256,192,111572,1,8,0:0:0:0:
256,192,111730,1,8,0:0:0:0:
256,192,111888,1,0,0:0:0:0:
256,192,112046,1,0,0:0:0:0:
256,192,112204,1,8,0:0:0:0:
256,192,112520,1,0,0:0:0:0:
256,192,112678,1,8,0:0:0:0:
256,192,112993,1,8,0:0:0:0:
256,192,113151,1,0,0:0:0:0:
256,192,113309,1,0,0:0:0:0:
256,192,113467,1,8,0:0:0:0:
256,192,113783,1,0,0:0:0:0:
256,192,114099,1,8,0:0:0:0:
256,192,114415,1,8,0:0:0:0:
256,192,114572,1,0,0:0:0:0:
256,192,114730,1,8,0:0:0:0:
256,192,114888,1,8,0:0:0:0:
256,192,115046,1,0,0:0:0:0:
256,192,115204,1,8,0:0:0:0:
256,192,115520,1,8,0:0:0:0:
256,192,115678,1,0,0:0:0:0:
256,192,115836,1,0,0:0:0:0:
256,192,115993,1,8,0:0:0:0:
256,192,116309,1,0,0:0:0:0:
256,192,116625,1,8,0:0:0:0:
256,192,116941,1,8,0:0:0:0:
256,192,117099,1,0,0:0:0:0:
256,192,117257,1,8,0:0:0:0:
256,192,117572,1,0,0:0:0:0:
256,192,117730,1,8,0:0:0:0:
256,192,118046,1,8,0:0:0:0:
256,192,118204,1,0,0:0:0:0:
256,192,118362,1,0,0:0:0:0:
256,192,118520,1,8,0:0:0:0:
256,192,118836,1,0,0:0:0:0:
256,192,119151,1,8,0:0:0:0:
256,192,119467,1,0,0:0:0:0:
256,192,119625,1,0,0:0:0:0:
256,192,119783,1,8,0:0:0:0:
256,192,120099,1,0,0:0:0:0:
256,192,120257,1,8,0:0:0:0:
256,192,120572,1,8,0:0:0:0:
256,192,120730,1,0,0:0:0:0:
256,192,120888,1,0,0:0:0:0:
256,192,121046,1,8,0:0:0:0:
256,192,121362,1,8,0:0:0:0:
256,192,121441,1,8,0:0:0:0:
256,192,121520,1,8,0:0:0:0:
256,192,121599,1,0,0:0:0:0:
256,192,121678,1,8,0:0:0:0:
256,192,121757,1,8,0:0:0:0:
256,192,121836,1,0,0:0:0:0:
256,192,121915,1,0,0:0:0:0:
256,192,121993,1,8,0:0:0:0:
256,192,122072,1,8,0:0:0:0:
256,192,122151,1,8,0:0:0:0:
256,192,122230,1,8,0:0:0:0:
256,192,122309,1,8,0:0:0:0:
256,192,122625,1,12,0:0:0:0:
256,192,122783,1,0,0:0:0:0:
256,192,122941,1,8,0:0:0:0:
256,192,123020,1,8,0:0:0:0:
256,192,123098,1,0,0:0:0:0:
256,192,123177,1,8,0:0:0:0:
256,192,123256,1,0,0:0:0:0:
256,192,123414,1,0,0:0:0:0:
256,192,123572,1,8,0:0:0:0:
256,192,123730,1,0,0:0:0:0:
256,192,123809,1,8,0:0:0:0:
256,192,123888,1,0,0:0:0:0:
256,192,124204,1,8,0:0:0:0:
256,192,124362,1,8,0:0:0:0:
256,192,124441,1,8,0:0:0:0:
256,192,124520,1,0,0:0:0:0:
256,192,124677,1,0,0:0:0:0:
256,192,124835,1,8,0:0:0:0:
256,192,124993,1,0,0:0:0:0:
256,192,125151,1,0,0:0:0:0:
256,192,125467,1,8,0:0:0:0:
256,192,125625,1,0,0:0:0:0:
256,192,125704,1,8,0:0:0:0:
256,192,125783,1,0,0:0:0:0:
256,192,125941,1,0,0:0:0:0:
256,192,126098,1,8,0:0:0:0:
256,192,126256,1,8,0:0:0:0:
256,192,126335,1,8,0:0:0:0:
256,192,126414,1,0,0:0:0:0:
256,192,126572,1,0,0:0:0:0:
256,192,126730,1,8,0:0:0:0:
256,192,126888,1,0,0:0:0:0:
256,192,126967,1,8,0:0:0:0:
256,192,127046,1,0,0:0:0:0:
256,192,127204,1,0,0:0:0:0:
256,192,127362,1,8,0:0:0:0:
256,192,127677,1,0,0:0:0:0:
256,192,127835,1,8,0:0:0:0:
256,192,127914,1,0,0:0:0:0:
256,192,127993,1,8,0:0:0:0:
256,192,128072,1,0,0:0:0:0:
256,192,128151,1,8,0:0:0:0:
256,192,128230,1,8,0:0:0:0:
256,192,128309,1,8,0:0:0:0:
256,192,128467,1,0,0:0:0:0:
256,192,128625,1,8,0:0:0:0:
256,192,128783,1,8,0:0:0:0:
256,192,128862,1,0,0:0:0:0:
256,192,128941,1,8,0:0:0:0:
256,192,129020,1,8,0:0:0:0:
256,192,129098,1,0,0:0:0:0:
256,192,129177,1,0,0:0:0:0:
256,192,129256,1,8,0:0:0:0:
256,192,129414,1,8,0:0:0:0:
256,192,129493,1,8,0:0:0:0:
256,192,129572,1,0,0:0:0:0:
256,192,129730,1,0,0:0:0:0:
256,192,129888,1,8,0:0:0:0:
256,192,130204,1,0,0:0:0:0:
256,192,130362,1,8,0:0:0:0:
256,192,130520,1,8,0:0:0:0:
256,192,130677,1,0,0:0:0:0:
256,192,130756,1,8,0:0:0:0:
256,192,130835,1,0,0:0:0:0:
256,192,130993,1,8,0:0:0:0:
256,192,131151,1,8,0:0:0:0:
256,192,131309,1,0,0:0:0:0:
256,192,131388,1,0,0:0:0:0:
256,192,131467,1,8,0:0:0:0:
256,192,131625,1,0,0:0:0:0:
256,192,131783,1,8,0:0:0:0:
256,192,131941,1,8,0:0:0:0:
256,192,132098,1,4,0:0:0:0:
256,192,132255,1,0,0:0:0:0:
256,192,132413,1,8,0:0:0:0:
256,192,132492,1,8,0:0:0:0:
256,192,132571,1,0,0:0:0:0:
256,192,132650,1,0,0:0:0:0:
256,192,132729,1,8,0:0:0:0:
256,192,132887,1,0,0:0:0:0:
256,192,133045,1,8,0:0:0:0:
256,192,133203,1,0,0:0:0:0:
256,192,133282,1,8,0:0:0:0:
256,192,133361,1,0,0:0:0:0:
256,192,133676,1,8,0:0:0:0:
256,192,133834,1,0,0:0:0:0:
256,192,133913,1,0,0:0:0:0:
256,192,133992,1,0,0:0:0:0:
256,192,134150,1,0,0:0:0:0:
256,192,134308,1,8,0:0:0:0:
256,192,134467,1,8,0:0:0:0:
256,192,134624,1,0,0:0:0:0:
256,192,134940,1,8,0:0:0:0:
256,192,135098,1,0,0:0:0:0:
256,192,135176,1,8,0:0:0:0:
256,192,135255,1,0,0:0:0:0:
256,192,135413,1,0,0:0:0:0:
256,192,135571,1,8,0:0:0:0:
256,192,135650,1,0,0:0:0:0:
256,192,135729,1,8,0:0:0:0:
256,192,135887,1,0,0:0:0:0:
256,192,136045,1,0,0:0:0:0:
256,192,136203,1,8,0:0:0:0:
256,192,136361,1,8,0:0:0:0:
256,192,136440,1,8,0:0:0:0:
256,192,136519,1,0,0:0:0:0:
256,192,136676,1,0,0:0:0:0:
256,192,136834,1,8,0:0:0:0:
256,192,137150,1,0,0:0:0:0:
256,192,137308,1,0,0:0:0:0:
256,192,137388,1,0,0:0:0:0:
256,192,137466,1,8,0:0:0:0:
256,192,137545,1,0,0:0:0:0:
256,192,137624,1,8,0:0:0:0:
256,192,137703,1,8,0:0:0:0:
256,192,137782,1,0,0:0:0:0:
256,192,137940,1,0,0:0:0:0:
256,192,138098,1,8,0:0:0:0:
256,192,138255,1,0,0:0:0:0:
256,192,138334,1,8,0:0:0:0:
256,192,138413,1,0,0:0:0:0:
256,192,138493,1,0,0:0:0:0:
256,192,138571,1,8,0:0:0:0:
256,192,138650,1,0,0:0:0:0:
256,192,138729,1,8,0:0:0:0:
256,192,138887,1,0,0:0:0:0:
256,192,139045,1,8,0:0:0:0:
256,192,139203,1,0,0:0:0:0:
256,192,139361,1,8,0:0:0:0:
256,192,139676,1,0,0:0:0:0:
256,192,139834,1,8,0:0:0:0:
256,192,139913,1,8,0:0:0:0:
256,192,139992,1,0,0:0:0:0:
256,192,140150,1,0,0:0:0:0:
256,192,140308,1,8,0:0:0:0:
256,192,140466,1,0,0:0:0:0:
256,192,140545,1,0,0:0:0:0:
256,192,140624,1,8,0:0:0:0:
256,192,140782,1,0,0:0:0:0:
256,192,140941,1,8,0:0:0:0:
256,192,141020,1,8,0:0:0:0:
256,192,141099,1,0,0:0:0:0:
256,192,141177,1,0,0:0:0:0:
256,192,141256,1,8,0:0:0:0:
256,192,141335,1,0,0:0:0:0:
256,192,141414,1,8,0:0:0:0:
256,192,141493,1,8,0:0:0:0:
256,192,141572,1,0,0:0:0:0:
256,192,141651,1,0,0:0:0:0:
256,192,141730,1,8,0:0:0:0:
256,192,141809,1,0,0:0:0:0:
256,192,141888,1,8,0:0:0:0:
256,192,141967,1,8,0:0:0:0:
256,192,142046,1,8,0:0:0:0:
256,192,142125,1,8,0:0:0:0:
256,192,142204,1,4,0:0:0:0:
256,192,142362,1,0,0:0:0:0:
256,192,142520,1,8,0:0:0:0:
256,192,142677,1,8,0:0:0:0:
256,192,142757,1,0,0:0:0:0:
256,192,142835,1,8,0:0:0:0:
256,192,142993,1,0,0:0:0:0:
256,192,143151,1,8,0:0:0:0:
256,192,143231,1,0,0:0:0:0:
256,192,143309,1,8,0:0:0:0:
256,192,143389,1,8,0:0:0:0:
256,192,143467,1,8,0:0:0:0:
256,192,143625,1,0,0:0:0:0:
256,192,143783,1,8,0:0:0:0:
256,192,143862,1,8,0:0:0:0:
256,192,143941,1,0,0:0:0:0:
256,192,144099,1,8,0:0:0:0:
256,192,144178,1,8,0:0:0:0:
256,192,144256,1,0,0:0:0:0:
256,192,144414,1,8,0:0:0:0:
256,192,144572,1,0,0:0:0:0:
256,192,144652,1,0,0:0:0:0:
256,192,144730,1,8,0:0:0:0:
256,192,144888,1,0,0:0:0:0:
256,192,145046,1,8,0:0:0:0:
256,192,145125,1,8,0:0:0:0:
256,192,145204,1,0,0:0:0:0:
256,192,145362,1,8,0:0:0:0:
256,192,145441,1,8,0:0:0:0:
256,192,145520,1,0,0:0:0:0:
256,192,145599,1,0,0:0:0:0:
256,192,145678,1,8,0:0:0:0:
256,192,145835,1,0,0:0:0:0:
256,192,145993,1,8,0:0:0:0:
256,192,146073,1,8,0:0:0:0:
256,192,146151,1,0,0:0:0:0:
256,192,146309,1,8,0:0:0:0:
256,192,146467,1,0,0:0:0:0:
256,192,146546,1,0,0:0:0:0:
256,192,146625,1,8,0:0:0:0:
256,192,146783,1,0,0:0:0:0:
256,192,146941,1,8,0:0:0:0:
256,192,147020,1,8,0:0:0:0:
256,192,147099,1,0,0:0:0:0:
256,192,147178,1,0,0:0:0:0:
256,192,147256,1,12,0:0:0:0:
256,192,147572,1,8,0:0:0:0:
256,192,147730,1,0,0:0:0:0:
256,192,147810,1,0,0:0:0:0:
256,192,147889,1,8,0:0:0:0:
256,192,148046,1,0,0:0:0:0:
256,192,148204,1,8,0:0:0:0:
256,192,148283,1,8,0:0:0:0:
256,192,148362,1,0,0:0:0:0:
256,192,148441,1,0,0:0:0:0:
256,192,148520,1,8,0:0:0:0:
256,192,148678,1,0,0:0:0:0:
256,192,148836,1,8,0:0:0:0:
256,192,148915,1,8,0:0:0:0:
256,192,148994,1,0,0:0:0:0:
256,192,149151,1,8,0:0:0:0:
256,192,149309,1,0,0:0:0:0:
256,192,149389,1,0,0:0:0:0:
256,192,149467,1,8,0:0:0:0:
256,192,149625,1,0,0:0:0:0:
256,192,149783,1,12,0:0:0:0:
256,192,150099,1,8,0:0:0:0:
256,192,150257,1,0,0:0:0:0:
256,192,150414,1,8,0:0:0:0:
256,192,150493,1,0,0:0:0:0:
256,192,150572,1,8,0:0:0:0:
256,192,150651,1,8,0:0:0:0:
256,192,150730,1,8,0:0:0:0:
256,192,150888,1,8,0:0:0:0:
256,192,150967,1,0,0:0:0:0:
256,192,151046,1,8,0:0:0:0:
256,192,151204,1,8,0:0:0:0:
256,192,151283,1,8,0:0:0:0:
256,192,151362,1,0,0:0:0:0:
256,192,151520,1,8,0:0:0:0:
256,192,151599,1,0,0:0:0:0:
256,192,151677,1,8,0:0:0:0:
256,192,151757,1,0,0:0:0:0:
256,192,151835,1,8,0:0:0:0:
256,192,151914,1,8,0:0:0:0:
256,192,151993,1,0,0:0:0:0:
256,192,152072,1,0,0:0:0:0:
256,192,152151,1,8,0:0:0:0:
256,192,152230,1,8,0:0:0:0:
256,192,152309,1,4,0:0:0:0:
256,192,152467,1,0,0:0:0:0:
256,192,152625,1,8,0:0:0:0:
256,192,152783,1,0,0:0:0:0:
256,192,152862,1,0,0:0:0:0:
256,192,152941,1,8,0:0:0:0:
256,192,153099,1,0,0:0:0:0:
256,192,153256,1,8,0:0:0:0:
256,192,153336,1,8,0:0:0:0:
256,192,153414,1,0,0:0:0:0:
256,192,153494,1,0,0:0:0:0:
256,192,153572,1,8,0:0:0:0:
256,192,153730,1,0,0:0:0:0:
256,192,153888,1,8,0:0:0:0:
256,192,153967,1,8,0:0:0:0:
256,192,154046,1,0,0:0:0:0:
256,192,154204,1,8,0:0:0:0:
256,192,154283,1,0,0:0:0:0:
256,192,154362,1,8,0:0:0:0:
256,192,154520,1,8,0:0:0:0:
256,192,154678,1,0,0:0:0:0:
256,192,154756,1,0,0:0:0:0:
256,192,154836,1,8,0:0:0:0:
256,192,154994,1,8,0:0:0:0:
256,192,155152,1,8,0:0:0:0:
256,192,155231,1,0,0:0:0:0:
256,192,155310,1,8,0:0:0:0:
256,192,155468,1,8,0:0:0:0:
256,192,155547,1,8,0:0:0:0:
256,192,155626,1,0,0:0:0:0:
256,192,155784,1,8,0:0:0:0:
256,192,155941,1,8,0:0:0:0:
256,192,156020,1,0,0:0:0:0:
256,192,156099,1,8,0:0:0:0:
256,192,156177,1,8,0:0:0:0:
256,192,156257,1,0,0:0:0:0:
256,192,156415,1,8,0:0:0:0:
256,192,156573,1,0,0:0:0:0:
256,192,156652,1,0,0:0:0:0:
256,192,156731,1,8,0:0:0:0:
256,192,156889,1,0,0:0:0:0:
256,192,157047,1,8,0:0:0:0:
256,192,157126,1,8,0:0:0:0:
256,192,157205,1,0,0:0:0:0:
256,192,157284,1,0,0:0:0:0:
256,192,157362,1,12,0:0:0:0:
256,192,157678,1,8,0:0:0:0:
256,192,157836,1,8,0:0:0:0:
256,192,157914,1,0,0:0:0:0:
256,192,157993,1,8,0:0:0:0:
256,192,158152,1,0,0:0:0:0:
256,192,158310,1,8,0:0:0:0:
256,192,158389,1,0,0:0:0:0:
256,192,158468,1,8,0:0:0:0:
256,192,158547,1,8,0:0:0:0:
256,192,158626,1,8,0:0:0:0:
256,192,158784,1,0,0:0:0:0:
256,192,158942,1,8,0:0:0:0:
256,192,159021,1,8,0:0:0:0:
256,192,159100,1,8,0:0:0:0:
256,192,159257,1,8,0:0:0:0:
256,192,159415,1,0,0:0:0:0:
256,192,159493,1,0,0:0:0:0:
256,192,159573,1,8,0:0:0:0:
256,192,159731,1,0,0:0:0:0:
256,192,159889,1,8,0:0:0:0:
256,192,159968,1,8,0:0:0:0:
256,192,160047,1,0,0:0:0:0:
256,192,160205,1,8,0:0:0:0:
256,192,160363,1,0,0:0:0:0:
256,192,160442,1,0,0:0:0:0:
256,192,160520,1,8,0:0:0:0:
256,192,160678,1,0,0:0:0:0:
256,192,160836,1,8,0:0:0:0:
256,192,160915,1,0,0:0:0:0:
256,192,160994,1,8,0:0:0:0:
256,192,161072,1,8,0:0:0:0:
256,192,161151,1,8,0:0:0:0:
256,192,161309,1,8,0:0:0:0:
256,192,161467,1,8,0:0:0:0:
256,192,161625,1,0,0:0:0:0:
256,192,161783,1,0,0:0:0:0:
256,192,161941,1,8,0:0:0:0:
256,192,162099,1,0,0:0:0:0:
256,192,162256,1,8,0:0:0:0:
256,192,162335,1,8,0:0:0:0:
256,192,162414,1,4,0:0:0:0:
256,192,162572,1,0,0:0:0:0:
256,192,162730,1,8,0:0:0:0:
256,192,162888,1,0,0:0:0:0:
256,192,163046,1,8,0:0:0:0:
256,192,163362,1,0,0:0:0:0:
256,192,163520,1,8,0:0:0:0:
256,192,163677,1,0,0:0:0:0:
256,192,163835,1,8,0:0:0:0:
256,192,164151,1,0,0:0:0:0:
256,192,164309,1,8,0:0:0:0:
256,192,164467,1,8,0:0:0:0:
256,192,164625,1,4,0:0:0:0:
256,192,165099,1,8,0:0:0:0:
256,192,165256,1,8,0:0:0:0:
256,192,165414,1,0,0:0:0:0:
256,192,165572,1,8,0:0:0:0:
256,192,165888,1,8,0:0:0:0:
256,192,166046,1,8,0:0:0:0:
256,192,166204,1,0,0:0:0:0:
256,192,166362,1,8,0:0:0:0:
256,192,166677,1,0,0:0:0:0:
256,192,166835,1,8,0:0:0:0:
256,192,166993,1,0,0:0:0:0:
256,192,167151,1,8,0:0:0:0:
256,192,167309,1,8,0:0:0:0:
256,192,167388,1,8,0:0:0:0:
256,192,167467,1,4,0:0:0:0:
256,192,167625,1,8,0:0:0:0:
256,192,167783,1,0,0:0:0:0:
256,192,167941,1,0,0:0:0:0:
256,192,168099,1,8,0:0:0:0:
256,192,168414,1,0,0:0:0:0:
256,192,168572,1,8,0:0:0:0:
256,192,168730,1,0,0:0:0:0:
256,192,168888,1,8,0:0:0:0:
256,192,169204,1,0,0:0:0:0:
256,192,169362,1,8,0:0:0:0:
256,192,169677,1,12,0:0:0:0:
256,192,170151,1,8,0:0:0:0:
256,192,170309,1,0,0:0:0:0:
256,192,170467,1,0,0:0:0:0:
256,192,170625,1,8,0:0:0:0:
256,192,170941,1,8,0:0:0:0:
256,192,171099,1,8,0:0:0:0:
256,192,171256,1,0,0:0:0:0:
256,192,171335,1,0,0:0:0:0:
256,192,171414,1,8,0:0:0:0:
256,192,171493,1,0,0:0:0:0:
256,192,171572,1,8,0:0:0:0:
256,192,171730,1,0,0:0:0:0:
256,192,171888,1,8,0:0:0:0:
256,192,172046,1,8,0:0:0:0:
256,192,172204,1,8,0:0:0:0:
256,192,172362,1,8,0:0:0:0:
256,192,172441,1,8,0:0:0:0:
256,192,172520,1,4,0:0:0:0:
256,192,172677,1,8,0:0:0:0:
256,192,172756,1,0,0:0:0:0:
256,192,172835,1,8,0:0:0:0:
256,192,172914,1,8,0:0:0:0:
256,192,172993,1,0,0:0:0:0:
256,192,173072,1,0,0:0:0:0:
256,192,173151,1,8,0:0:0:0:
256,192,173309,1,0,0:0:0:0:
256,192,173467,1,8,0:0:0:0:
256,192,173546,1,8,0:0:0:0:
256,192,173625,1,0,0:0:0:0:
256,192,173704,1,8,0:0:0:0:
256,192,173783,1,0,0:0:0:0:
256,192,173941,1,8,0:0:0:0:
256,192,174099,1,0,0:0:0:0:
256,192,174177,1,0,0:0:0:0:
256,192,174256,1,8,0:0:0:0:
256,192,174335,1,0,0:0:0:0:
256,192,174414,1,8,0:0:0:0:
256,192,174572,1,0,0:0:0:0:
256,192,174730,1,12,0:0:0:0:
256,192,175204,1,8,0:0:0:0:
256,192,175362,1,0,0:0:0:0:
256,192,175520,1,0,0:0:0:0:
256,192,175599,1,0,0:0:0:0:
256,192,175677,1,8,0:0:0:0:
256,192,175835,1,0,0:0:0:0:
256,192,175993,1,8,0:0:0:0:
256,192,176151,1,8,0:0:0:0:
256,192,176309,1,0,0:0:0:0:
256,192,176467,1,8,0:0:0:0:
256,192,176546,1,8,0:0:0:0:
256,192,176625,1,0,0:0:0:0:
256,192,176704,1,8,0:0:0:0:
256,192,176783,1,0,0:0:0:0:
256,192,176941,1,8,0:0:0:0:
256,192,177256,1,4,0:0:0:0:
256,192,177730,1,8,0:0:0:0:
256,192,177888,1,0,0:0:0:0:
256,192,177967,1,0,0:0:0:0:
256,192,178046,1,0,0:0:0:0:
256,192,178204,1,8,0:0:0:0:
256,192,178362,1,0,0:0:0:0:
256,192,178441,1,8,0:0:0:0:
256,192,178520,1,0,0:0:0:0:
256,192,178677,1,8,0:0:0:0:
256,192,178835,1,0,0:0:0:0:
256,192,178993,1,8,0:0:0:0:
256,192,179151,1,8,0:0:0:0:
256,192,179230,1,8,0:0:0:0:
256,192,179309,1,0,0:0:0:0:
256,192,179467,1,8,0:0:0:0:
256,192,179625,1,0,0:0:0:0:
256,192,179783,1,12,0:0:0:0:
256,192,180099,1,8,0:0:0:0:
256,192,180177,1,8,0:0:0:0:
256,192,180256,1,0,0:0:0:0:
256,192,180335,1,0,0:0:0:0:
256,192,180414,1,8,0:0:0:0:
256,192,180493,1,8,0:0:0:0:
256,192,180572,1,0,0:0:0:0:
256,192,180651,1,0,0:0:0:0:
256,192,180730,1,8,0:0:0:0:
256,192,180809,1,0,0:0:0:0:
256,192,180888,1,8,0:0:0:0:
256,192,180967,1,8,0:0:0:0:
256,192,181046,1,0,0:0:0:0:
256,192,181125,1,0,0:0:0:0:
256,192,181204,1,0,0:0:0:0:
256,192,181283,1,0,0:0:0:0:
256,192,181362,1,8,0:0:0:0:
256,192,181441,1,0,0:0:0:0:
256,192,181520,1,8,0:0:0:0:
256,192,181599,1,8,0:0:0:0:
256,192,181677,1,0,0:0:0:0:
256,192,181756,1,8,0:0:0:0:
256,192,181835,1,0,0:0:0:0:
256,192,181914,1,0,0:0:0:0:
256,192,181993,1,8,0:0:0:0:
256,192,182072,1,8,0:0:0:0:
256,192,182151,1,0,0:0:0:0:
256,192,182230,1,0,0:0:0:0:
256,192,182309,1,8,0:0:0:0:
256,192,182388,1,8,0:0:0:0:
256,192,182467,1,8,0:0:0:0:
256,192,182546,1,8,0:0:0:0:
256,192,182625,1,0,0:0:0:0:
256,192,183888,1,0,0:0:0:0:
256,192,184204,1,8,0:0:0:0:
256,192,184520,1,0,0:0:0:0:
256,192,184835,1,0,0:0:0:0:
256,192,186099,1,0,0:0:0:0:
256,192,186414,1,8,0:0:0:0:
256,192,186730,1,0,0:0:0:0:
256,192,187046,1,8,0:0:0:0:
256,192,187362,1,8,0:0:0:0:
256,192,187677,1,0,0:0:0:0:
256,192,188625,1,8,0:0:0:0:
256,192,188941,1,8,0:0:0:0:
256,192,189256,1,0,0:0:0:0:
256,192,189572,1,8,0:0:0:0:
256,192,189888,1,8,0:0:0:0:
256,192,190204,1,8,0:0:0:0:
256,192,190414,1,0,0:0:0:0:
256,192,190625,1,0,0:0:0:0:
256,192,190835,1,8,0:0:0:0:
256,192,191046,1,0,0:0:0:0:
256,192,191256,1,0,0:0:0:0:
256,192,191467,1,8,0:0:0:0:
256,192,191677,1,0,0:0:0:0:
256,192,191888,1,0,0:0:0:0:
256,192,192098,1,8,0:0:0:0:
256,192,192414,1,8,0:0:0:0:
256,192,192493,1,8,0:0:0:0:
256,192,192572,1,0,0:0:0:0:
256,192,192651,1,0,0:0:0:0:
256,192,192730,1,12,0:0:0:0:
256,192,193045,1,0,0:0:0:0:
256,192,193361,1,0,0:0:0:0:
256,192,193677,1,0,0:0:0:0:
256,192,193993,1,8,0:0:0:0:
256,192,194308,1,8,0:0:0:0:
256,192,194624,1,0,0:0:0:0:
256,192,194941,1,0,0:0:0:0:
256,192,195256,1,12,0:0:0:0:
256,192,195572,1,0,0:0:0:0:
256,192,195887,1,0,0:0:0:0:
256,192,196203,1,8,0:0:0:0:
256,192,196520,1,8,0:0:0:0:
256,192,196835,1,0,0:0:0:0:
256,192,197151,1,0,0:0:0:0:
256,192,197466,1,8,0:0:0:0:
256,192,197782,1,12,0:0:0:0:
256,192,197940,1,0,0:0:0:0:
256,192,198020,1,0,0:0:0:0:
256,192,198098,1,8,0:0:0:0:
256,192,198256,1,4,0:0:0:0:
256,192,198414,1,8,0:0:0:0:
256,192,198493,1,8,0:0:0:0:
256,192,198572,1,0,0:0:0:0:
256,192,198730,1,12,0:0:0:0:
256,192,198888,1,0,0:0:0:0:
256,192,198967,1,8,0:0:0:0:
256,192,199045,1,4,0:0:0:0:
256,192,199203,1,8,0:0:0:0:
256,192,199283,1,8,0:0:0:0:
256,192,199361,1,0,0:0:0:0:
256,192,199519,1,12,0:0:0:0:
256,192,199677,1,0,0:0:0:0:
256,192,199756,1,0,0:0:0:0:
256,192,199835,1,8,0:0:0:0:
256,192,199993,1,4,0:0:0:0:
256,192,200151,1,8,0:0:0:0:
256,192,200230,1,0,0:0:0:0:
256,192,200308,1,12,0:0:0:0:
256,192,200466,1,0,0:0:0:0:
256,192,200546,1,8,0:0:0:0:
256,192,200624,1,0,0:0:0:0:
256,192,200704,1,0,0:0:0:0:
256,192,200782,1,8,0:0:0:0:
256,192,200940,1,0,0:0:0:0:
256,192,201098,1,12,0:0:0:0:
256,192,201256,1,12,0:0:0:0:
256,192,201414,1,12,0:0:0:0:
256,192,201730,1,8,0:0:0:0:
256,192,201809,1,8,0:0:0:0:
256,192,201887,1,0,0:0:0:0:
256,192,201966,1,8,0:0:0:0:
256,192,202045,1,0,0:0:0:0:
256,192,202124,1,0,0:0:0:0:
256,192,202203,1,8,0:0:0:0:
256,192,202677,1,0,0:0:0:0:
256,192,202835,1,12,0:0:0:0:
256,192,202993,1,0,0:0:0:0:
256,192,203151,1,8,0:0:0:0:
256,192,203308,1,8,0:0:0:0:
256,192,203388,1,0,0:0:0:0:
256,192,203466,1,8,0:0:0:0:
256,192,203624,1,0,0:0:0:0:
256,192,203782,1,8,0:0:0:0:
256,192,203862,1,0,0:0:0:0:
256,192,203940,1,8,0:0:0:0:
256,192,204020,1,8,0:0:0:0:
256,192,204098,1,8,0:0:0:0:
256,192,204256,1,0,0:0:0:0:
256,192,204414,1,8,0:0:0:0:
256,192,204493,1,8,0:0:0:0:
256,192,204572,1,0,0:0:0:0:
256,192,204730,1,8,0:0:0:0:
256,192,204809,1,8,0:0:0:0:
256,192,204887,1,0,0:0:0:0:
256,192,205045,1,8,0:0:0:0:
256,192,205203,1,0,0:0:0:0:
256,192,205283,1,0,0:0:0:0:
256,192,205361,1,8,0:0:0:0:
256,192,205519,1,0,0:0:0:0:
256,192,205677,1,8,0:0:0:0:
256,192,205756,1,8,0:0:0:0:
256,192,205835,1,0,0:0:0:0:
256,192,205993,1,8,0:0:0:0:
256,192,206072,1,8,0:0:0:0:
256,192,206151,1,0,0:0:0:0:
256,192,206230,1,0,0:0:0:0:
256,192,206309,1,8,0:0:0:0:
256,192,206466,1,0,0:0:0:0:
256,192,206624,1,8,0:0:0:0:
256,192,206704,1,8,0:0:0:0:
256,192,206782,1,0,0:0:0:0:
256,192,206940,1,8,0:0:0:0:
256,192,207098,1,0,0:0:0:0:
256,192,207177,1,0,0:0:0:0:
256,192,207256,1,8,0:0:0:0:
256,192,207414,1,0,0:0:0:0:
256,192,207572,1,8,0:0:0:0:
256,192,207651,1,8,0:0:0:0:
256,192,207730,1,0,0:0:0:0:
256,192,207809,1,0,0:0:0:0:
256,192,207887,1,12,0:0:0:0:
256,192,208203,1,8,0:0:0:0:
256,192,208361,1,0,0:0:0:0:
256,192,208441,1,0,0:0:0:0:
256,192,208520,1,8,0:0:0:0:
256,192,208677,1,0,0:0:0:0:
256,192,208835,1,8,0:0:0:0:
256,192,208914,1,8,0:0:0:0:
256,192,208993,1,0,0:0:0:0:
256,192,209072,1,0,0:0:0:0:
256,192,209151,1,8,0:0:0:0:
256,192,209309,1,0,0:0:0:0:
256,192,209467,1,8,0:0:0:0:
256,192,209546,1,8,0:0:0:0:
256,192,209625,1,0,0:0:0:0:
256,192,209782,1,8,0:0:0:0:
256,192,209940,1,0,0:0:0:0:
256,192,210020,1,0,0:0:0:0:
256,192,210098,1,8,0:0:0:0:
256,192,210256,1,0,0:0:0:0:
256,192,210414,1,8,0:0:0:0:
256,192,210493,1,8,0:0:0:0:
256,192,210572,1,0,0:0:0:0:
256,192,210651,1,0,0:0:0:0:
256,192,210730,1,8,0:0:0:0:
256,192,210888,1,0,0:0:0:0:
256,192,211045,1,8,0:0:0:0:
256,192,211125,1,0,0:0:0:0:
256,192,211204,1,8,0:0:0:0:
256,192,211283,1,8,0:0:0:0:
256,192,211361,1,8,0:0:0:0:
256,192,211519,1,8,0:0:0:0:
256,192,211677,1,0,0:0:0:0:
256,192,211835,1,8,0:0:0:0:
256,192,211914,1,0,0:0:0:0:
256,192,211993,1,8,0:0:0:0:
256,192,212072,1,8,0:0:0:0:
256,192,212151,1,0,0:0:0:0:
256,192,212230,1,0,0:0:0:0:
256,192,212308,1,8,0:0:0:0:
256,192,212388,1,0,0:0:0:0:
256,192,212466,1,8,0:0:0:0:
256,192,212545,1,8,0:0:0:0:
256,192,212624,1,0,0:0:0:0:
256,192,212703,1,8,0:0:0:0:
256,192,212783,1,0,0:0:0:0:
256,192,212861,1,0,0:0:0:0:
256,192,212940,1,12,0:0:0:0:
256,192,213098,1,0,0:0:0:0:
256,192,213256,1,8,0:0:0:0:
256,192,213414,1,0,0:0:0:0:
256,192,213493,1,0,0:0:0:0:
256,192,213572,1,8,0:0:0:0:
256,192,213730,1,0,0:0:0:0:
256,192,213887,1,8,0:0:0:0:
256,192,213967,1,8,0:0:0:0:
256,192,214045,1,0,0:0:0:0:
256,192,214125,1,0,0:0:0:0:
256,192,214203,1,8,0:0:0:0:
256,192,214361,1,0,0:0:0:0:
256,192,214519,1,8,0:0:0:0:
256,192,214598,1,8,0:0:0:0:
256,192,214677,1,0,0:0:0:0:
256,192,214835,1,8,0:0:0:0:
256,192,214914,1,0,0:0:0:0:
256,192,214993,1,8,0:0:0:0:
256,192,215151,1,8,0:0:0:0:
256,192,215309,1,0,0:0:0:0:
256,192,215387,1,0,0:0:0:0:
256,192,215467,1,12,0:0:0:0:
256,192,215625,1,0,0:0:0:0:
256,192,215783,1,8,0:0:0:0:
256,192,215862,1,0,0:0:0:0:
256,192,215941,1,8,0:0:0:0:
256,192,216099,1,8,0:0:0:0:
256,192,216178,1,8,0:0:0:0:
256,192,216257,1,0,0:0:0:0:
256,192,216415,1,8,0:0:0:0:
256,192,216572,1,0,0:0:0:0:
256,192,216651,1,0,0:0:0:0:
256,192,216730,1,12,0:0:0:0:
256,192,216888,1,0,0:0:0:0:
256,192,217046,1,8,0:0:0:0:
256,192,217204,1,0,0:0:0:0:
256,192,217283,1,0,0:0:0:0:
256,192,217362,1,8,0:0:0:0:
256,192,217520,1,0,0:0:0:0:
256,192,217678,1,8,0:0:0:0:
256,192,217757,1,8,0:0:0:0:
256,192,217836,1,0,0:0:0:0:
256,192,217915,1,0,0:0:0:0:
256,192,217993,1,12,0:0:0:0:
256,192,218309,1,8,0:0:0:0:
256,192,218467,1,8,0:0:0:0:
256,192,218545,1,0,0:0:0:0:
256,192,218624,1,8,0:0:0:0:
256,192,218783,1,0,0:0:0:0:
256,192,218941,1,8,0:0:0:0:
256,192,219020,1,0,0:0:0:0:
256,192,219099,1,8,0:0:0:0:
256,192,219178,1,8,0:0:0:0:
256,192,219257,1,8,0:0:0:0:
256,192,219415,1,0,0:0:0:0:
256,192,219573,1,8,0:0:0:0:
256,192,219652,1,8,0:0:0:0:
256,192,219731,1,8,0:0:0:0:
256,192,219888,1,8,0:0:0:0:
256,192,220046,1,0,0:0:0:0:
256,192,220124,1,0,0:0:0:0:
256,192,220204,1,8,0:0:0:0:
256,192,220362,1,0,0:0:0:0:
256,192,220520,1,12,0:0:0:0:
256,192,220678,1,0,0:0:0:0:
256,192,220836,1,8,0:0:0:0:
256,192,220994,1,0,0:0:0:0:
256,192,221073,1,0,0:0:0:0:
256,192,221151,1,12,0:0:0:0:
256,192,221309,1,0,0:0:0:0:
256,192,221467,1,8,0:0:0:0:
256,192,221546,1,8,0:0:0:0:
256,192,221625,1,0,0:0:0:0:
256,192,221783,1,8,0:0:0:0:
256,192,221862,1,8,0:0:0:0:
256,192,221941,1,0,0:0:0:0:
256,192,222020,1,0,0:0:0:0:
256,192,222098,1,12,0:0:0:0:
256,192,222256,1,0,0:0:0:0:
256,192,222414,1,0,0:0:0:0:
256,192,222519,1,8,0:0:0:0:
256,192,222624,1,0,0:0:0:0:
256,192,222730,1,8,0:0:0:0:
256,192,222835,1,8,0:0:0:0:
256,192,222940,1,8,0:0:0:0:
256,192,223046,1,4,0:0:0:0:
256,192,223204,1,8,0:0:0:0:
256,192,223362,1,0,0:0:0:0:
256,192,223520,1,0,0:0:0:0:
256,192,223677,1,8,0:0:0:0:
256,192,223835,1,0,0:0:0:0:
256,192,224151,1,8,0:0:0:0:
256,192,224230,1,8,0:0:0:0:
256,192,224309,1,0,0:0:0:0:
256,192,224467,1,8,0:0:0:0:
256,192,224783,1,0,0:0:0:0:
256,192,224941,1,8,0:0:0:0:
256,192,225098,1,0,0:0:0:0:
256,192,225414,1,8,0:0:0:0:
256,192,225572,1,0,0:0:0:0:
256,192,225730,1,8,0:0:0:0:
256,192,226046,1,0,0:0:0:0:
256,192,226204,1,8,0:0:0:0:
256,192,226520,1,0,0:0:0:0:
256,192,226677,1,8,0:0:0:0:
256,192,226756,1,8,0:0:0:0:
256,192,226835,1,0,0:0:0:0:
256,192,226993,1,8,0:0:0:0:
256,192,227309,1,0,0:0:0:0:
256,192,227467,1,8,0:0:0:0:
256,192,227625,1,0,0:0:0:0:
256,192,227783,1,0,0:0:0:0:
256,192,227941,1,8,0:0:0:0:
256,192,228020,1,8,0:0:0:0:
256,192,228099,1,4,0:0:0:0:
256,192,228414,1,8,0:0:0:0:
256,192,228572,1,0,0:0:0:0:
256,192,228730,1,8,0:0:0:0:
256,192,229046,1,0,0:0:0:0:
256,192,229204,1,8,0:0:0:0:
256,192,229283,1,8,0:0:0:0:
256,192,229362,1,0,0:0:0:0:
256,192,229520,1,8,0:0:0:0:
256,192,229835,1,0,0:0:0:0:
256,192,229993,1,8,0:0:0:0:
256,192,230309,1,0,0:0:0:0:
256,192,230467,1,8,0:0:0:0:
256,192,230546,1,8,0:0:0:0:
256,192,230625,1,0,0:0:0:0:
256,192,230783,1,8,0:0:0:0:
256,192,231099,1,0,0:0:0:0:
256,192,231256,1,12,0:0:0:0:
256,192,231572,1,0,0:0:0:0:
256,192,231730,1,8,0:0:0:0:
256,192,231888,1,0,0:0:0:0:
256,192,232046,1,8,0:0:0:0:
256,192,232125,1,0,0:0:0:0:
256,192,232204,1,8,0:0:0:0:
256,192,232283,1,8,0:0:0:0:
256,192,232362,1,0,0:0:0:0:
256,192,232441,1,0,0:0:0:0:
256,192,232520,1,8,0:0:0:0:
256,192,232677,1,8,0:0:0:0:
256,192,232835,1,0,0:0:0:0:
256,192,232993,1,8,0:0:0:0:
256,192,233151,1,4,0:0:0:0:
256,192,233467,1,0,0:0:0:0:
256,192,233625,1,0,0:0:0:0:
256,192,233783,1,8,0:0:0:0:
256,192,234099,1,0,0:0:0:0:
256,192,234256,1,8,0:0:0:0:
256,192,234335,1,8,0:0:0:0:
256,192,234414,1,0,0:0:0:0:
256,192,234572,1,8,0:0:0:0:
256,192,234888,1,0,0:0:0:0:
256,192,235046,1,8,0:0:0:0:
256,192,235203,1,0,0:0:0:0:
256,192,235520,1,8,0:0:0:0:
256,192,235677,1,0,0:0:0:0:
256,192,235835,1,8,0:0:0:0:
256,192,235993,1,0,0:0:0:0:
256,192,236151,1,0,0:0:0:0:
256,192,236309,1,8,0:0:0:0:
256,192,236625,1,0,0:0:0:0:
256,192,236783,1,8,0:0:0:0:
256,192,236862,1,8,0:0:0:0:
256,192,236941,1,0,0:0:0:0:
256,192,237099,1,8,0:0:0:0:
256,192,237256,1,0,0:0:0:0:
256,192,237414,1,0,0:0:0:0:
256,192,237572,1,8,0:0:0:0:
256,192,237730,1,0,0:0:0:0:
256,192,237888,1,8,0:0:0:0:
256,192,238046,1,8,0:0:0:0:
256,192,238125,1,8,0:0:0:0:
256,192,238204,1,4,0:0:0:0:
256,192,238520,1,0,0:0:0:0:
256,192,238677,1,0,0:0:0:0:
256,192,238835,1,8,0:0:0:0:
256,192,239151,1,0,0:0:0:0:
256,192,239309,1,8,0:0:0:0:
256,192,239388,1,8,0:0:0:0:
256,192,239467,1,0,0:0:0:0:
256,192,239625,1,8,0:0:0:0:
256,192,239941,1,0,0:0:0:0:
256,192,240099,1,8,0:0:0:0:
256,192,240414,1,0,0:0:0:0:
256,192,240572,1,8,0:0:0:0:
256,192,240651,1,8,0:0:0:0:
256,192,240730,1,0,0:0:0:0:
256,192,240888,1,8,0:0:0:0:
256,192,241046,1,0,0:0:0:0:
256,192,241204,1,0,0:0:0:0:
256,192,241362,1,12,0:0:0:0:
256,192,241677,1,4,0:0:0:0:
256,192,241993,1,0,0:0:0:0:
256,192,242151,1,8,0:0:0:0:
256,192,242309,1,8,0:0:0:0:
256,192,242467,1,8,0:0:0:0:
256,192,242625,1,8,0:0:0:0:
256,192,242783,1,8,0:0:0:0:
256,192,242941,1,8,0:0:0:0:
256,192,243099,1,8,0:0:0:0:
256,192,243256,1,4,0:0:0:0:
256,192,243572,1,8,0:0:0:0:
256,192,243730,1,8,0:0:0:0:
256,192,244204,1,8,0:0:0:0:
256,192,244362,1,8,0:0:0:0:
256,192,244520,1,0,0:0:0:0:
256,192,244677,1,8,0:0:0:0:
256,192,245783,1,8,0:0:0:0:
256,192,245941,1,0,0:0:0:0:
256,192,246099,1,8,0:0:0:0:
256,192,246256,1,8,0:0:0:0:
256,192,246730,1,0,0:0:0:0:
256,192,246888,1,8,0:0:0:0:
256,192,247046,1,0,0:0:0:0:
256,192,247204,1,0,0:0:0:0:
256,192,247677,1,8,0:0:0:0:
256,192,248309,1,8,0:0:0:0:
256,192,248467,1,0,0:0:0:0:
256,192,248625,1,0,0:0:0:0:
256,192,248783,1,8,0:0:0:0:
256,192,249256,1,0,0:0:0:0:
256,192,249414,1,8,0:0:0:0:
256,192,249572,1,8,0:0:0:0:
256,192,249730,1,0,0:0:0:0:
256,192,250835,1,8,0:0:0:0:
256,192,250993,1,8,0:0:0:0:
256,192,251151,1,0,0:0:0:0:
256,192,251309,1,8,0:0:0:0:
256,192,251783,1,0,0:0:0:0:
256,192,251941,1,0,0:0:0:0:
256,192,252099,1,8,0:0:0:0:
256,192,252256,1,0,0:0:0:0:
256,192,252730,1,8,0:0:0:0:
256,192,253362,1,0,0:0:0:0:
256,192,253520,1,8,0:0:0:0:
256,192,253677,1,0,0:0:0:0:
256,192,253835,1,8,0:0:0:0:
256,192,254151,1,8,0:0:0:0:
256,192,254467,1,8,0:0:0:0:
256,192,254625,1,0,0:0:0:0:
256,192,254783,1,0,0:0:0:0:
256,192,254941,1,8,0:0:0:0:
256,192,255099,1,8,0:0:0:0:
256,192,255888,1,8,0:0:0:0:
256,192,256046,1,0,0:0:0:0:
256,192,256204,1,8,0:0:0:0:
256,192,256362,1,8,0:0:0:0:
256,192,256835,1,0,0:0:0:0:
256,192,256993,1,0,0:0:0:0:
256,192,257151,1,8,0:0:0:0:
256,192,257309,1,0,0:0:0:0:
256,192,257783,1,8,0:0:0:0:
256,192,258414,1,0,0:0:0:0:
256,192,258572,1,8,0:0:0:0:
256,192,258729,1,0,0:0:0:0:
256,192,258887,1,8,0:0:0:0:
256,192,259203,1,8,0:0:0:0:
256,192,259519,1,8,0:0:0:0:
256,192,259677,1,0,0:0:0:0:
256,192,259835,1,0,0:0:0:0:
256,192,259993,1,8,0:0:0:0:
256,192,260151,1,8,0:0:0:0:
256,192,260940,1,0,0:0:0:0:
256,192,261098,1,0,0:0:0:0:
256,192,261256,1,8,0:0:0:0:
256,192,261414,1,8,0:0:0:0:
