osu file format v14

[General]
AudioFilename: audio.mp3
AudioLeadIn: 0
PreviewTime: 67091
Countdown: 0
SampleSet: Normal
StackLeniency: 0.7
Mode: 1
LetterboxInBreaks: 0
WidescreenStoryboard: 0

[Editor]
DistanceSpacing: 1
BeatDivisor: 4
GridSize: 32
TimelineZoom: 2.2

[Metadata]
Title:Karakara (TV Size)
TitleUnicode:カラカラ (TV Size)
Artist:kessoku band
ArtistUnicode:結束バンド
Creator:Rinze
Version:Inner Oni
Source:ぼっち・ざ・ろっく!
Tags:ler1211 bocchi the rock! jrock j-rock japanese rock anime ending ed 後藤ひとり Gotou Hitori Bocchi-chan Bocchichan 青山吉能 Aoyama Yoshino 伊地知虹夏 Ijichi Nijika 鈴代紗弓 Suzushiro Sayumi 山田リョウ Yamada Ryou 水野朔 Mizuno Saku 喜多郁代 Kita Ikuyo 長谷川育美 Hasegawa Ikumi
BeatmapID:3931550
BeatmapSetID:1906563

[Difficulty]
HPDrainRate:5
CircleSize:5
OverallDifficulty:6
ApproachRate:5
SliderMultiplier:1.4
SliderTickRate:1

[Events]
//Background and Video events
0,0,"bocchi.jpg",0,80
//Break Periods
//Storyboard Layer 0 (Background)
//Storyboard Layer 1 (Fail)
//Storyboard Layer 2 (Pass)
//Storyboard Layer 3 (Foreground)
//Storyboard Layer 4 (Overlay)
//Storyboard Sound Samples

[TimingPoints]
70,315.789473684211,5,1,0,80,1,0
7332,-111.111111111111,5,1,0,80,0,0
7964,315.789473684211,4,1,0,80,1,0
7964,-111.111111111111,4,1,0,80,0,0
16806,315.789473684211,4,1,0,80,1,8
16806,-111.111111111111,4,1,0,80,0,8
17437,315.789473684211,4,1,0,80,1,0
17437,-105.263157894737,4,1,0,80,0,0
27462,-100,4,1,0,80,0,0
36384,315.789473684211,4,1,0,80,1,8
37015,315.789473684211,4,1,0,80,1,0
47277,-125,4,1,0,80,0,0
54699,375.000000000001,4,1,0,80,1,8
54700,375.000000000001,4,1,0,80,1,0
54700,-84.2105263157895,4,1,0,80,0,0
55075,461.538461538462,4,1,0,80,1,8
55075,-68.4210526315069,4,1,0,80,0,8
55305,387.096774193549,4,1,0,80,1,8
55305,-81.5789473686143,4,1,0,80,0,8
55498,402.68456375839,4,1,0,80,1,8
55498,-78.4210526318802,4,1,0,80,0,8
55699,434.782608695653,4,1,0,80,1,8
55699,-72.6315789475213,4,1,0,80,0,8
55916,434.782608695653,4,1,0,80,1,0
55916,-72.6315789475213,4,1,0,80,0,0
56127,428.571428571429,4,1,0,80,1,8
56127,-73.6842105264709,4,1,0,80,0,8
56595,315.789473684211,4,1,0,80,1,8
57226,315.789473684211,4,1,0,80,1,0
57383,-111.111111111111,4,1,0,80,0,0
62196,-100,4,1,0,80,0,0
66538,-111.111111111111,4,1,0,80,0,0
67170,-111.111111111111,4,1,0,100,0,0
67331,-90.9090909090909,4,1,0,100,0,1
76489,-90.9090909090909,4,1,0,100,0,0
77436,-90.9090909090909,4,1,0,100,0,1
86278,-90.9090909090909,4,1,0,100,0,0
87223,-100,4,1,0,80,0,0

[HitObjects]
256,192,69,5,4,0:0:0:0:
256,192,306,1,8,0:0:0:0:
256,192,385,1,0,0:0:0:0:
256,192,543,1,8,0:0:0:0:
256,192,701,1,0,0:0:0:0:
256,192,780,1,0,0:0:0:0:
256,192,859,1,8,0:0:0:0:
256,192,938,1,0,0:0:0:0:
256,192,1017,1,0,0:0:0:0:
256,192,1175,1,8,0:0:0:0:
256,192,1333,1,0,0:0:0:0:
256,192,1412,1,0,0:0:0:0:
256,192,1491,1,8,0:0:0:0:
256,192,1570,1,8,0:0:0:0:
256,192,1648,1,0,0:0:0:0:
256,192,1885,1,8,0:0:0:0:
256,192,1964,1,0,0:0:0:0:
256,192,2122,1,8,0:0:0:0:
256,192,2280,1,0,0:0:0:0:
256,192,2438,1,8,0:0:0:0:
256,192,2517,1,0,0:0:0:0:
256,192,2596,1,0,0:0:0:0:
256,192,2754,1,8,0:0:0:0:
256,192,2833,1,0,0:0:0:0:
256,192,2912,1,8,0:0:0:0:
256,192,2991,1,0,0:0:0:0:
256,192,3070,1,8,0:0:0:0:
256,192,3148,1,8,0:0:0:0:
256,192,3227,1,0,0:0:0:0:
256,192,3464,1,8,0:0:0:0:
256,192,3543,1,0,0:0:0:0:
256,192,3622,1,0,0:0:0:0:
256,192,3701,1,8,0:0:0:0:
256,192,3859,1,0,0:0:0:0:
256,192,4017,1,8,0:0:0:0:
256,192,4175,1,0,0:0:0:0:
256,192,4254,1,8,0:0:0:0:
256,192,4333,1,8,0:0:0:0:
256,192,4412,1,8,0:0:0:0:
256,192,4491,1,0,0:0:0:0:
256,192,4648,1,8,0:0:0:0:
256,192,4806,1,0,0:0:0:0:
256,192,4885,1,8,0:0:0:0:
256,192,4964,1,0,0:0:0:0:
256,192,5043,1,0,0:0:0:0:
256,192,5122,1,8,0:0:0:0:
256,192,5280,1,8,0:0:0:0:
256,192,5359,1,8,0:0:0:0:
256,192,5438,1,0,0:0:0:0:
256,192,5517,1,8,0:0:0:0:
256,192,5596,1,0,0:0:0:0:
256,192,5675,1,0,0:0:0:0:
256,192,5754,1,8,0:0:0:0:
256,192,5833,1,0,0:0:0:0:
256,192,5912,1,8,0:0:0:0:
256,192,6070,1,0,0:0:0:0:
256,192,6148,1,0,0:0:0:0:
256,192,6227,1,0,0:0:0:0:
256,192,6306,1,0,0:0:0:0:
256,192,6385,1,8,0:0:0:0:
256,192,6701,1,0,0:0:0:0:
256,192,7491,1,0,0:0:0:0:
256,192,7570,1,0,0:0:0:0:
256,192,7648,1,8,0:0:0:0:
256,192,7964,1,4,0:0:0:0:
256,192,8279,1,8,0:0:0:0:
256,192,8753,1,0,0:0:0:0:
256,192,8911,1,8,0:0:0:0:
256,192,9227,1,0,0:0:0:0:
256,192,9542,1,8,0:0:0:0:
256,192,9700,1,0,0:0:0:0:
256,192,10016,1,0,0:0:0:0:
256,192,10174,1,8,0:0:0:0:
256,192,10332,1,8,0:0:0:0:
256,192,10490,1,0,0:0:0:0:
256,192,10806,1,8,0:0:0:0:
256,192,11279,1,0,0:0:0:0:
256,192,11437,1,8,0:0:0:0:
256,192,11753,1,0,0:0:0:0:
256,192,11911,1,0,0:0:0:0:
256,192,12069,1,8,0:0:0:0:
256,192,12227,1,0,0:0:0:0:
256,192,12542,1,0,0:0:0:0:
256,192,12700,1,8,0:0:0:0:
256,192,13016,1,0,0:0:0:0:
256,192,13332,1,8,0:0:0:0:
256,192,13806,1,0,0:0:0:0:
256,192,13964,1,8,0:0:0:0:
256,192,14279,1,0,0:0:0:0:
256,192,14595,1,8,0:0:0:0:
256,192,14753,1,0,0:0:0:0:
256,192,15069,1,0,0:0:0:0:
256,192,15227,1,8,0:0:0:0:
256,192,15542,1,0,0:0:0:0:
256,192,15858,1,8,0:0:0:0:
256,192,16016,1,8,0:0:0:0:
256,192,16332,1,0,0:0:0:0:
256,192,16490,1,8,0:0:0:0:
256,192,16648,1,0,0:0:0:0:
256,192,16727,1,0,0:0:0:0:
256,192,16806,1,8,0:0:0:0:
256,192,16964,1,0,0:0:0:0:
256,192,17042,1,8,0:0:0:0:
256,192,17121,1,8,0:0:0:0:
256,192,17437,1,4,0:0:0:0:
256,192,17752,1,8,0:0:0:0:
256,192,17910,1,0,0:0:0:0:
256,192,18226,1,0,0:0:0:0:
256,192,18384,1,8,0:0:0:0:
256,192,18700,1,0,0:0:0:0:
256,192,18858,1,0,0:0:0:0:
256,192,18937,1,0,0:0:0:0:
256,192,19015,1,8,0:0:0:0:
256,192,19173,1,0,0:0:0:0:
256,192,19489,1,0,0:0:0:0:
256,192,19647,1,8,0:0:0:0:
256,192,19805,1,8,0:0:0:0:
256,192,19963,1,0,0:0:0:0:
256,192,20279,1,8,0:0:0:0:
256,192,20437,1,0,0:0:0:0:
256,192,20752,1,0,0:0:0:0:
256,192,20910,1,8,0:0:0:0:
256,192,21226,1,0,0:0:0:0:
256,192,21384,1,0,0:0:0:0:
256,192,21542,1,8,0:0:0:0:
256,192,21700,1,0,0:0:0:0:
256,192,22015,1,0,0:0:0:0:
256,192,22173,1,8,0:0:0:0:
256,192,22252,1,8,0:0:0:0:
256,192,22331,1,8,0:0:0:0:
256,192,22489,1,0,0:0:0:0:
256,192,22805,1,8,0:0:0:0:
256,192,22963,1,0,0:0:0:0:
256,192,23279,1,0,0:0:0:0:
256,192,23437,1,8,0:0:0:0:
256,192,23752,1,0,0:0:0:0:
256,192,23831,1,0,0:0:0:0:
256,192,23910,1,0,0:0:0:0:
256,192,24068,1,8,0:0:0:0:
256,192,24226,1,0,0:0:0:0:
256,192,24542,1,0,0:0:0:0:
256,192,24700,1,8,0:0:0:0:
256,192,24858,1,8,0:0:0:0:
256,192,24937,1,8,0:0:0:0:
256,192,25015,1,0,0:0:0:0:
256,192,25331,1,8,0:0:0:0:
256,192,25489,1,0,0:0:0:0:
256,192,25805,1,0,0:0:0:0:
256,192,25963,1,8,0:0:0:0:
256,192,26121,1,8,0:0:0:0:
256,192,26279,1,4,0:0:0:0:
256,192,26594,1,12,0:0:0:0:
256,192,26910,1,8,0:0:0:0:
256,192,27068,1,0,0:0:0:0:
256,192,27226,1,8,0:0:0:0:
256,192,27305,1,8,0:0:0:0:
256,192,27384,1,8,0:0:0:0:
256,192,27542,1,4,0:0:0:0:
256,192,27858,1,8,0:0:0:0:
256,192,28015,1,0,0:0:0:0:
256,192,28173,1,8,0:0:0:0:
256,192,28252,1,8,0:0:0:0:
256,192,28331,1,0,0:0:0:0:
256,192,28489,1,8,0:0:0:0:
256,192,28805,1,0,0:0:0:0:
256,192,28963,1,0,0:0:0:0:
256,192,29042,1,0,0:0:0:0:
256,192,29121,1,8,0:0:0:0:
256,192,29279,1,0,0:0:0:0:
256,192,29594,1,0,0:0:0:0:
256,192,29752,1,8,0:0:0:0:
256,192,29910,1,8,0:0:0:0:
256,192,30068,1,0,0:0:0:0:
256,192,30226,1,8,0:0:0:0:
256,192,30305,1,0,0:0:0:0:
256,192,30384,1,8,0:0:0:0:
256,192,30542,1,8,0:0:0:0:
256,192,30700,1,0,0:0:0:0:
256,192,30858,1,0,0:0:0:0:
256,192,31015,1,8,0:0:0:0:
256,192,31331,1,0,0:0:0:0:
256,192,31489,1,0,0:0:0:0:
256,192,31647,1,8,0:0:0:0:
256,192,31805,1,0,0:0:0:0:
256,192,31884,1,0,0:0:0:0:
256,192,31963,1,8,0:0:0:0:
256,192,32121,1,0,0:0:0:0:
256,192,32279,1,8,0:0:0:0:
256,192,32594,1,0,0:0:0:0:
256,192,32752,1,8,0:0:0:0:
256,192,32831,1,8,0:0:0:0:
256,192,32910,1,8,0:0:0:0:
256,192,33068,1,0,0:0:0:0:
256,192,33384,1,0,0:0:0:0:
256,192,33542,1,8,0:0:0:0:
256,192,33700,1,8,0:0:0:0:
256,192,33858,1,0,0:0:0:0:
256,192,33937,1,8,0:0:0:0:
256,192,34015,1,0,0:0:0:0:
256,192,34173,1,8,0:0:0:0:
256,192,34331,1,0,0:0:0:0:
256,192,34489,1,8,0:0:0:0:
256,192,34568,1,8,0:0:0:0:
256,192,34647,1,0,0:0:0:0:
256,192,34805,1,8,0:0:0:0:
256,192,35121,1,0,0:0:0:0:
256,192,35279,1,0,0:0:0:0:
256,192,35437,1,8,0:0:0:0:
256,192,35594,1,0,0:0:0:0:
256,192,35673,1,0,0:0:0:0:
256,192,35752,1,8,0:0:0:0:
256,192,35910,1,0,0:0:0:0:
256,192,36068,1,8,0:0:0:0:
256,192,36226,1,8,0:0:0:0:
256,192,36384,1,4,0:0:0:0:
256,192,36700,1,12,0:0:0:0:
256,192,37015,1,4,0:0:0:0:
256,192,37330,1,8,0:0:0:0:
256,192,37488,1,0,0:0:0:0:
256,192,37646,1,8,0:0:0:0:
256,192,37725,1,8,0:0:0:0:
256,192,37804,1,0,0:0:0:0:
256,192,37962,1,8,0:0:0:0:
256,192,38120,1,0,0:0:0:0:
256,192,38278,1,8,0:0:0:0:
256,192,38357,1,0,0:0:0:0:
256,192,38436,1,0,0:0:0:0:
256,192,38515,1,0,0:0:0:0:
256,192,38593,1,8,0:0:0:0:
256,192,38751,1,0,0:0:0:0:
256,192,39067,1,0,0:0:0:0:
256,192,39225,1,8,0:0:0:0:
256,192,39383,1,8,0:0:0:0:
256,192,39541,1,0,0:0:0:0:
256,192,39620,1,0,0:0:0:0:
256,192,39699,1,8,0:0:0:0:
256,192,39778,1,0,0:0:0:0:
256,192,39857,1,8,0:0:0:0:
256,192,40015,1,8,0:0:0:0:
256,192,40172,1,0,0:0:0:0:
256,192,40251,1,0,0:0:0:0:
256,192,40330,1,0,0:0:0:0:
256,192,40488,1,8,0:0:0:0:
256,192,40804,1,0,0:0:0:0:
256,192,40962,1,0,0:0:0:0:
256,192,41120,1,8,0:0:0:0:
256,192,41278,1,0,0:0:0:0:
256,192,41357,1,0,0:0:0:0:
256,192,41436,1,8,0:0:0:0:
256,192,41593,1,0,0:0:0:0:
256,192,41751,1,8,0:0:0:0:
256,192,41909,1,8,0:0:0:0:
256,192,42067,1,0,0:0:0:0:
256,192,42225,1,8,0:0:0:0:
256,192,42304,1,8,0:0:0:0:
256,192,42383,1,8,0:0:0:0:
256,192,42541,1,0,0:0:0:0:
256,192,42699,1,8,0:0:0:0:
256,192,42778,1,8,0:0:0:0:
256,192,42857,1,0,0:0:0:0:
256,192,42936,1,0,0:0:0:0:
256,192,43015,1,8,0:0:0:0:
256,192,43172,1,8,0:0:0:0:
256,192,43330,1,0,0:0:0:0:
256,192,43409,1,8,0:0:0:0:
256,192,43488,1,0,0:0:0:0:
256,192,43646,1,8,0:0:0:0:
256,192,43804,1,0,0:0:0:0:
256,192,43962,1,8,0:0:0:0:
256,192,44041,1,8,0:0:0:0:
256,192,44120,1,0,0:0:0:0:
256,192,44278,1,8,0:0:0:0:
256,192,44593,1,0,0:0:0:0:
256,192,44830,1,0,0:0:0:0:
256,192,44909,1,8,0:0:0:0:
256,192,45067,1,0,0:0:0:0:
256,192,45225,1,8,0:0:0:0:
256,192,45304,1,8,0:0:0:0:
256,192,45383,1,0,0:0:0:0:
256,192,45462,1,8,0:0:0:0:
256,192,45541,1,8,0:0:0:0:
256,192,45699,1,0,0:0:0:0:
256,192,45857,1,8,0:0:0:0:
256,192,45936,1,8,0:0:0:0:
256,192,46015,1,0,0:0:0:0:
256,192,46093,1,0,0:0:0:0:
256,192,46172,1,8,0:0:0:0:
256,192,46330,1,0,0:0:0:0:
256,192,46409,1,0,0:0:0:0:
256,192,46488,1,8,0:0:0:0:
256,192,46567,1,8,0:0:0:0:
256,192,46646,1,0,0:0:0:0:
256,192,46725,1,8,0:0:0:0:
256,192,46804,1,0,0:0:0:0:
256,192,46962,1,8,0:0:0:0:
256,192,47120,1,4,0:0:0:0:
256,192,47436,1,0,0:0:0:0:
256,192,47751,1,0,0:0:0:0:
256,192,47909,1,0,0:0:0:0:
256,192,48067,1,0,0:0:0:0:
256,192,48383,1,0,0:0:0:0:
256,192,48699,1,0,0:0:0:0:
256,192,49015,1,8,0:0:0:0:
256,192,49330,1,0,0:0:0:0:
256,192,49488,1,8,0:0:0:0:
256,192,49646,1,4,0:0:0:0:
256,192,49962,1,0,0:0:0:0:
256,192,50278,1,0,0:0:0:0:
256,192,50436,1,0,0:0:0:0:
256,192,50593,1,0,0:0:0:0:
256,192,50909,1,0,0:0:0:0:
256,192,51225,1,0,0:0:0:0:
256,192,51383,1,8,0:0:0:0:
256,192,51541,1,0,0:0:0:0:
256,192,51699,1,0,0:0:0:0:
256,192,52015,1,8,0:0:0:0:
256,192,52172,1,4,0:0:0:0:
256,192,52488,1,0,0:0:0:0:
256,192,52804,1,0,0:0:0:0:
256,192,52962,1,0,0:0:0:0:
256,192,53120,1,0,0:0:0:0:
256,192,53436,1,0,0:0:0:0:
256,192,53751,1,0,0:0:0:0:
256,192,54067,1,0,0:0:0:0:
256,192,54225,1,0,0:0:0:0:
256,192,54383,1,8,0:0:0:0:
256,192,54700,1,8,0:0:0:0:
256,192,54887,1,0,0:0:0:0:
256,192,55075,1,0,0:0:0:0:
256,192,55305,1,8,0:0:0:0:
256,192,55498,1,0,0:0:0:0:
256,192,55699,1,0,0:0:0:0:
256,192,55916,1,8,0:0:0:0:
256,192,56127,1,0,0:0:0:0:
256,192,56341,1,0,0:0:0:0:
256,192,56595,1,8,0:0:0:0:
256,192,56910,1,8,0:0:0:0:
256,192,56989,1,8,0:0:0:0:
256,192,57068,1,8,0:0:0:0:
256,192,57226,1,4,0:0:0:0:
256,192,57541,1,8,0:0:0:0:
256,192,57857,1,8,0:0:0:0:
256,192,58094,1,8,0:0:0:0:
256,192,58331,1,8,0:0:0:0:
256,192,58489,1,0,0:0:0:0:
256,192,58804,1,8,0:0:0:0:
256,192,59120,1,8,0:0:0:0:
256,192,59357,1,8,0:0:0:0:
256,192,59594,1,8,0:0:0:0:
256,192,59752,1,0,0:0:0:0:
256,192,60068,1,8,0:0:0:0:
256,192,60383,1,8,0:0:0:0:
256,192,60620,1,8,0:0:0:0:
256,192,60857,1,8,0:0:0:0:
256,192,61015,1,0,0:0:0:0:
256,192,61331,1,0,0:0:0:0:
256,192,61647,1,0,0:0:0:0:
256,192,61804,1,8,0:0:0:0:
256,192,61962,1,0,0:0:0:0:
256,192,62278,1,8,0:0:0:0:
256,192,62436,1,0,0:0:0:0:
256,192,62515,1,0,0:0:0:0:
256,192,62594,1,0,0:0:0:0:
256,192,62752,1,8,0:0:0:0:
256,192,62910,1,0,0:0:0:0:
256,192,62989,1,8,0:0:0:0:
256,192,63068,1,0,0:0:0:0:
256,192,63147,1,0,0:0:0:0:
256,192,63226,1,8,0:0:0:0:
256,192,63383,1,0,0:0:0:0:
256,192,63541,1,8,0:0:0:0:
256,192,63620,1,8,0:0:0:0:
256,192,63699,1,0,0:0:0:0:
256,192,63857,1,0,0:0:0:0:
256,192,64015,1,8,0:0:0:0:
256,192,64173,1,0,0:0:0:0:
256,192,64252,1,0,0:0:0:0:
256,192,64331,1,0,0:0:0:0:
256,192,64410,1,0,0:0:0:0:
256,192,64489,1,8,0:0:0:0:
256,192,64647,1,0,0:0:0:0:
256,192,64804,1,8,0:0:0:0:
256,192,64883,1,8,0:0:0:0:
256,192,64962,1,0,0:0:0:0:
256,192,65041,1,0,0:0:0:0:
256,192,65120,1,8,0:0:0:0:
256,192,65199,1,0,0:0:0:0:
256,192,65278,1,8,0:0:0:0:
256,192,65357,1,8,0:0:0:0:
256,192,65436,1,0,0:0:0:0:
256,192,65594,1,0,0:0:0:0:
256,192,65752,1,12,0:0:0:0:
256,192,65910,1,12,0:0:0:0:
256,192,66699,1,8,0:0:0:0:
256,192,67331,1,4,0:0:0:0:
256,192,67489,1,0,0:0:0:0:
256,192,67647,1,8,0:0:0:0:
256,192,67804,1,0,0:0:0:0:
256,192,67883,1,0,0:0:0:0:
256,192,67962,1,8,0:0:0:0:
256,192,68120,1,0,0:0:0:0:
256,192,68278,1,8,0:0:0:0:
256,192,68357,1,0,0:0:0:0:
256,192,68436,1,8,0:0:0:0:
256,192,68515,1,8,0:0:0:0:
256,192,68594,1,0,0:0:0:0:
256,192,68752,1,0,0:0:0:0:
256,192,68910,1,8,0:0:0:0:
256,192,68989,1,0,0:0:0:0:
256,192,69147,1,0,0:0:0:0:
256,192,69226,1,8,0:0:0:0:
256,192,69383,1,8,0:0:0:0:
256,192,69541,1,0,0:0:0:0:
256,192,69620,1,0,0:0:0:0:
256,192,69699,1,8,0:0:0:0:
256,192,69778,1,8,0:0:0:0:
256,192,69857,1,0,0:0:0:0:
256,192,70015,1,8,0:0:0:0:
256,192,70173,1,0,0:0:0:0:
256,192,70252,1,0,0:0:0:0:
256,192,70331,1,0,0:0:0:0:
256,192,70489,1,8,0:0:0:0:
256,192,70647,1,0,0:0:0:0:
256,192,70726,1,0,0:0:0:0:
256,192,70804,1,8,0:0:0:0:
256,192,70883,1,0,0:0:0:0:
256,192,70962,1,8,0:0:0:0:
256,192,71041,1,8,0:0:0:0:
256,192,71120,1,0,0:0:0:0:
256,192,71278,1,0,0:0:0:0:
256,192,71436,1,8,0:0:0:0:
256,192,71515,1,8,0:0:0:0:
256,192,71673,1,0,0:0:0:0:
256,192,71752,1,8,0:0:0:0:
256,192,71910,1,0,0:0:0:0:
256,192,72068,1,8,0:0:0:0:
256,192,72147,1,8,0:0:0:0:
256,192,72226,1,8,0:0:0:0:
256,192,72383,1,4,0:0:0:0:
256,192,72699,1,8,0:0:0:0:
256,192,72857,1,0,0:0:0:0:
256,192,72936,1,0,0:0:0:0:
256,192,73015,1,8,0:0:0:0:
256,192,73173,1,0,0:0:0:0:
256,192,73331,1,8,0:0:0:0:
256,192,73410,1,8,0:0:0:0:
256,192,73489,1,0,0:0:0:0:
256,192,73568,1,8,0:0:0:0:
256,192,73647,1,0,0:0:0:0:
256,192,73804,1,0,0:0:0:0:
256,192,73962,1,8,0:0:0:0:
256,192,74041,1,0,0:0:0:0:
256,192,74120,1,0,0:0:0:0:
256,192,74199,1,0,0:0:0:0:
256,192,74278,1,8,0:0:0:0:
256,192,74436,1,0,0:0:0:0:
256,192,74594,1,8,0:0:0:0:
256,192,74673,1,8,0:0:0:0:
256,192,74752,1,0,0:0:0:0:
256,192,74910,1,8,0:0:0:0:
256,192,75068,1,0,0:0:0:0:
256,192,75147,1,0,0:0:0:0:
256,192,75226,1,8,0:0:0:0:
256,192,75304,1,8,0:0:0:0:
256,192,75383,1,8,0:0:0:0:
256,192,75462,1,8,0:0:0:0:
256,192,75541,1,0,0:0:0:0:
256,192,75699,1,8,0:0:0:0:
256,192,75752,1,8,0:0:0:0:
256,192,75804,1,8,0:0:0:0:
256,192,75857,1,0,0:0:0:0:
256,192,76015,1,8,0:0:0:0:
256,192,76173,1,0,0:0:0:0:
256,192,76331,1,0,0:0:0:0:
256,192,76489,1,12,0:0:0:0:
256,192,76804,1,0,0:0:0:0:
256,192,76962,1,8,0:0:0:0:
256,192,77041,1,8,0:0:0:0:
256,192,77120,1,8,0:0:0:0:
256,192,77199,1,8,0:0:0:0:
256,192,77278,1,8,0:0:0:0:
256,192,77436,1,4,0:0:0:0:
256,192,77594,1,8,0:0:0:0:
256,192,77752,1,8,0:0:0:0:
256,192,77910,1,0,0:0:0:0:
256,192,77989,1,0,0:0:0:0:
256,192,78068,1,8,0:0:0:0:
256,192,78226,1,0,0:0:0:0:
256,192,78383,1,8,0:0:0:0:
256,192,78462,1,0,0:0:0:0:
256,192,78541,1,8,0:0:0:0:
256,192,78620,1,8,0:0:0:0:
256,192,78699,1,0,0:0:0:0:
256,192,78857,1,0,0:0:0:0:
256,192,78936,1,0,0:0:0:0:
256,192,79015,1,8,0:0:0:0:
256,192,79094,1,0,0:0:0:0:
256,192,79252,1,0,0:0:0:0:
256,192,79331,1,8,0:0:0:0:
256,192,79489,1,8,0:0:0:0:
256,192,79647,1,0,0:0:0:0:
256,192,79726,1,0,0:0:0:0:
256,192,79804,1,8,0:0:0:0:
256,192,79883,1,8,0:0:0:0:
256,192,79962,1,0,0:0:0:0:
256,192,80120,1,8,0:0:0:0:
256,192,80278,1,0,0:0:0:0:
256,192,80357,1,8,0:0:0:0:
256,192,80436,1,0,0:0:0:0:
256,192,80515,1,0,0:0:0:0:
256,192,80594,1,8,0:0:0:0:
256,192,80752,1,0,0:0:0:0:
256,192,80831,1,0,0:0:0:0:
256,192,80910,1,8,0:0:0:0:
256,192,80989,1,8,0:0:0:0:
256,192,81068,1,0,0:0:0:0:
256,192,81147,1,8,0:0:0:0:
256,192,81226,1,0,0:0:0:0:
256,192,81383,1,0,0:0:0:0:
256,192,81541,1,8,0:0:0:0:
256,192,81620,1,8,0:0:0:0:
256,192,81778,1,0,0:0:0:0:
256,192,81857,1,8,0:0:0:0:
256,192,81936,1,8,0:0:0:0:
256,192,82015,1,0,0:0:0:0:
256,192,82173,1,8,0:0:0:0:
256,192,82331,1,8,0:0:0:0:
256,192,82489,1,4,0:0:0:0:
256,192,82804,1,8,0:0:0:0:
256,192,82962,1,0,0:0:0:0:
256,192,83041,1,0,0:0:0:0:
256,192,83120,1,8,0:0:0:0:
256,192,83278,1,0,0:0:0:0:
256,192,83436,1,8,0:0:0:0:
256,192,83594,1,8,0:0:0:0:
256,192,83673,1,8,0:0:0:0:
256,192,83752,1,0,0:0:0:0:
256,192,83831,1,8,0:0:0:0:
256,192,83910,1,0,0:0:0:0:
256,192,83989,1,0,0:0:0:0:
256,192,84068,1,8,0:0:0:0:
256,192,84226,1,0,0:0:0:0:
256,192,84383,1,8,0:0:0:0:
256,192,84462,1,8,0:0:0:0:
256,192,84541,1,0,0:0:0:0:
256,192,84620,1,0,0:0:0:0:
256,192,84699,1,8,0:0:0:0:
256,192,84857,1,0,0:0:0:0:
256,192,85015,1,8,0:0:0:0:
256,192,85094,1,0,0:0:0:0:
256,192,85173,1,0,0:0:0:0:
256,192,85252,1,0,0:0:0:0:
256,192,85331,1,8,0:0:0:0:
256,192,85410,1,8,0:0:0:0:
256,192,85489,1,8,0:0:0:0:
256,192,85568,1,8,0:0:0:0:
256,192,85647,1,0,0:0:0:0:
256,192,85804,1,0,0:0:0:0:
256,192,85962,1,8,0:0:0:0:
256,192,86041,1,8,0:0:0:0:
256,192,86120,1,8,0:0:0:0:
256,192,86278,1,4,0:0:0:0:
256,192,87541,1,8,0:0:0:0:
