osu file format v14

[General]
AudioFilename: audio.ogg
AudioLeadIn: 0
PreviewTime: 182218
Countdown: 0
SampleSet: Soft
StackLeniency: 0.7
Mode: 3
LetterboxInBreaks: 0
SpecialStyle: 0
WidescreenStoryboard: 1
SamplesMatchPlaybackRate: 1

[Editor]
Bookmarks: 1988,3567,34511,54089,64194,84405,102403,109982,122613,152297,172508,192718,212929,223034,243244,253350,258402
DistanceSpacing: 3.2
BeatDivisor: 4
GridSize: 16
TimelineZoom: 1.800001

[Metadata]
Title:Karakara
TitleUnicode:カラカラ
Artist:kessoku band
ArtistUnicode:結束バンド
Creator:A04360436
Version:Clatter
Source:ぼっち・ざ・ろっく!
Tags:anime japanese j-pop jpop pop j-rock jrock rock svwc-70613 anxx-01131 female vocalist vocals bocchi the rock! btr 後藤ひとり gotoh hitori 山田リョウ yamada ryo 伊地知虹夏 ijichi nijika 喜多郁代 kita ikuyo 長谷川 育美 hasegawa ikumi 水野 朔 mizuno saku 鈴代 紗弓 suzushiro sayumi 青山 吉能 aoyama yoshino 中嶋郁美 nakajima ikkyu 三井律郎 mitsui ritsuo 第2話ed 2nd episode ending theme aniplex sony music marketing united inc.
BeatmapID:4148349
BeatmapSetID:1996043

[Difficulty]
HPDrainRate:8
CircleSize:4
OverallDifficulty:8
ApproachRate:5
SliderMultiplier:1.4
SliderTickRate:1

[Events]
//Background and Video events
0,0,"BG.jpeg",0,0
//Break Periods
//Storyboard Layer 0 (Background)
//Storyboard Layer 1 (Fail)
//Storyboard Layer 2 (Pass)
//Storyboard Layer 3 (Foreground)
//Storyboard Layer 4 (Overlay)
//Storyboard Sound Samples
Sample,428,0,"Arp. x x x x 4 320.wav",100
Sample,585,0,"x x x x x 9 160.wav",100
Sample,704,0,"33_B1_190_60.wav",100
Sample,743,0,"x x x 9 160.wav",100
Sample,743,0,"Arp. x x 4 320.wav",100
Sample,901,0,"33_B1_190_240.wav",100
Sample,901,0,"x x x 11 320.wav",100
Sample,1059,0,"Arp. x 4 320.wav",100
Sample,1217,0,"x 9 160.wav",100
Sample,1375,0,"x 9 M 160.wav",100
Sample,1375,0,"Arp. x x 4 320.wav",100
Sample,1533,0,"33_E2_190_240.wav",100
Sample,1533,0,"x 9 M 160.wav",100
Sample,1691,0,"x 12 160.wav",100
Sample,1691,0,"Arp. 0 320.wav",100
Sample,1849,0,"x 9 160.wav",100
Sample,2006,0,"Arp. x x x x 0 320.wav",100
Sample,2006,0,"x x x x x 0 160.wav",100
Sample,2164,0,"x x x x x 9 160.wav",100
Sample,2283,0,"33_B1_190_60.wav",100
Sample,2322,0,"Arp. x x 4 320.wav",100
Sample,2322,0,"x x x 9 160.wav",100
Sample,2480,0,"x x x 11 320.wav",100
Sample,2480,0,"33_B1_190_240.wav",100
Sample,2638,0,"Arp. x 4 320.wav",100
Sample,2796,0,"x 9 160.wav",100
Sample,2954,0,"Arp. x x 4 320.wav",100
Sample,2954,0,"x 9 M 160.wav",100
Sample,3112,0,"x 9 M 160.wav",100
Sample,3112,0,"33_F#2_190_240.wav",100
Sample,3270,0,"Arp. 0 320.wav",100
Sample,3270,0,"x x 8 80.wav",100
Sample,3349,0,"x x 9 80.wav",100
Sample,3428,0,"x x 8 160.wav",100
Sample,3585,0,"Arp. x x x x 4 320.wav",100
Sample,3585,0,"x x x x x 0 160.wav",100
Sample,3743,0,"x x x x x 9 160.wav",100
Sample,3849,0,"33_B1_190_60.wav",100
Sample,3901,0,"Arp. x x 4 320.wav",100
Sample,3901,0,"x x x 9 160.wav",100
Sample,4059,0,"x x x 11 320.wav",100
Sample,4059,0,"33_B1_190_240.wav",100
Sample,4217,0,"Arp. x 4 320.wav",100
Sample,4375,0,"x 9 160.wav",100
Sample,4533,0,"Arp. x x 4 320.wav",100
Sample,4533,0,"x 9 M 160.wav",100
Sample,4691,0,"x 9 M 160.wav",100
Sample,4691,0,"33_E2_190_240.wav",100
Sample,4849,0,"Arp. 0 320.wav",100
Sample,4849,0,"x 12 160.wav",100
Sample,5006,0,"x 9 160.wav",100
Sample,5164,0,"x 5 5 x 5 D9 320.wav",100
Sample,5479,0,"x 5 5 x 5 D9 320.wav",100
Sample,5479,0,"0 0 320.wav",100
Sample,5795,0,"x 5 5 x 5 D9 320.wav",100
Sample,5795,0,"15 14 bend half 320.wav",100
Sample,6111,0,"x 5 5 x 5 D9 320.wav",100
Sample,6111,0,"0 0 320.wav",100
Sample,6427,0,"x 5 5 x 5 D9 320.wav",100
Sample,6427,0,"18 17 bend half 320.wav",100
Sample,6585,0,"33_F#1_190_240.wav",100
Sample,6742,0,"0 0 320.wav",100
Sample,6742,0,"x 5 5 x 5 D9 320.wav",100
Sample,7058,0,"x x x x x 0 160.wav",100
Sample,7058,0,"Arp. x x x x 4 320.wav",100
Sample,7215,0,"x x x x x 9 160.wav",100
Sample,7373,0,"x x x 9 160.wav",100
Sample,7373,0,"33_C#1_190_240.wav",100
Sample,7373,0,"Arp. x x 4 320.wav",100
Sample,7531,0,"x x x 11 320.wav",100
Sample,7689,0,"Arp. x 4 320.wav",100
Sample,7847,0,"x 9 160.wav",100
Sample,8005,0,"Arp. x x 4 320.wav",100
Sample,8005,0,"x 9 M 160.wav",100
Sample,8163,0,"x 9 M 160.wav",100
Sample,8321,0,"x 12 160.wav",100
Sample,8321,0,"Arp. 0 320.wav",100
Sample,8479,0,"x 9 160.wav",100
Sample,8636,0,"Arp. x x x x 0 320.wav",100
Sample,8636,0,"x x x x x 0 160.wav",100
Sample,8794,0,"x x x x x 9 160.wav",100
Sample,8952,0,"33_A0_190_240.wav",100
Sample,8952,0,"x x x 9 160.wav",100
Sample,8952,0,"Arp. x x 4 320.wav",100
Sample,9110,0,"x x x 11 320.wav",100
Sample,9268,0,"Arp. x 4 320.wav",100
Sample,9426,0,"x 9 160.wav",100
Sample,9584,0,"x 9 M 160.wav",100
Sample,9584,0,"Arp. x x 4 320.wav",100
Sample,9742,0,"x 9 M 160.wav",100
Sample,9900,0,"Arp. 0 320.wav",100
Sample,9900,0,"x x 8 80.wav",100
Sample,9979,0,"x x 9 80.wav",100
Sample,10058,0,"x x 8 160.wav",100
Sample,10215,0,"Arp. x x x x 4 320.wav",100
Sample,10215,0,"x x x x x 0 160.wav",100
Sample,10373,0,"x x x x x 9 160.wav",100
Sample,10531,0,"33_C#1_190_240.wav",100
Sample,10531,0,"x x x 9 160.wav",100
Sample,10531,0,"Arp. x x 4 320.wav",100
Sample,10689,0,"x x x 11 320.wav",100
Sample,10847,0,"Arp. x 4 320.wav",100
Sample,11005,0,"x 9 160.wav",100
Sample,11163,0,"x 9 M 160.wav",100
Sample,11163,0,"Arp. x x 4 320.wav",100
Sample,11321,0,"x 9 M 160.wav",100
Sample,11479,0,"Arp. 0 320.wav",100
Sample,11479,0,"x 12 160.wav",100
Sample,11636,0,"x 9 160.wav",100
Sample,11794,0,"33_D1_190_480.wav",100
Sample,11794,0,"12 11 bend half 320.wav",100
Sample,11794,0,"x 5 5 x 5 D9 320.wav",100
Sample,12109,0,"0 0 320.wav",100
Sample,12109,0,"33_A1_190_480.wav",100
Sample,12109,0,"x 5 5 x 5 D9 320.wav",100
Sample,12425,0,"33_D2_190_480.wav",100
Sample,12425,0,"15 14 bend half 320.wav",100
Sample,12425,0,"x 5 5 x 5 D9 320.wav",100
Sample,12741,0,"0 0 320.wav",100
Sample,12741,0,"33_D3_190_480.wav",100
Sample,12741,0,"x 5 5 x 5 D9 320.wav",100
Sample,13057,0,"33_A2_190_480.wav",100
Sample,13057,0,"18 17 bend half 320.wav",100
Sample,13057,0,"x 5 5 x 5 D9 320.wav",100
Sample,13372,0,"x 5 5 x 5 D9 320.wav",100
Sample,13372,0,"0 0 320.wav",100
Sample,13688,0,"7 7 7 7 7 N.H. 1280.wav",100
Sample,13688,0,"x 7 N.H. 105.wav",100
Sample,14951,0,"x x 6 6 x 5 Amaj7 Arpeggio down 2560.wav",100
Sample,17477,0,"x x 4 4 x 4 G#m7 Arpeggio down 2560.wav",100
Sample,20003,0,"x x 2 2 x 2 F#m7 Arpeggio down 2560.wav",100
Sample,22530,0,"Arp. x x x x 4 clean 320.wav",100
Sample,22964,0,"33_C#2_190_60.wav",100
Sample,23319,0,"Arp. 0 clean 160.wav",100
Sample,24424,0,"x x 6 6 x 5 Amaj7 Arpeggio down 2560.wav",100
Sample,24424,0,"x 7 N.H. 1600.wav",100
Sample,24897,0,"33_G#1_190_240.wav",100
Sample,25845,0,"33_A1_190_240.wav",100
Sample,26318,0,"33_E1_190_240.wav",100
Sample,26950,0,"x 12 N.H. 2560.wav",100
Sample,26950,0,"x x 4 4 x 4 G#m7 Arpeggio down 2560.wav",100
Sample,27424,0,"33_F#1_190_240.wav",100
Sample,28371,0,"33_G#1_190_240.wav",100
Sample,28845,0,"33_D#1_190_240.wav",100
Sample,29476,0,"x x 2 2 x 2 F#m7 Arpeggio down 1280.wav",100
Sample,29476,0,"x 7 N.H. 1280.wav",100
Sample,29950,0,"33_E1_190_240.wav",100
Sample,30739,0,"x 12 N.H. 1280.wav",100
Sample,30739,0,"x 0 2 x 2 F#m7[B] Arpeggio down 1280.wav",100
Sample,30897,0,"33_F#1_190_240.wav",100
Sample,31371,0,"33_C#1_190_240.wav",100
Sample,32002,0,"7 7 N.H. 1280.wav",100
Sample,32002,0,"x 4 4 x 4 C#m9 Arpeggio down 960.wav",100
Sample,32476,0,"33_B0_190_240.wav",100
Sample,33266,0,"0 0 4 x 4 Arpeggio down 1280.wav",100
Sample,33739,0,"33_E1_190_240.wav",100
Sample,34529,0,"x 5 6 6 x 5 Amaj7 160.wav",100
Sample,34529,0,"12 80.wav",100
Sample,34687,0,"x 5 6 6 x 5 Amaj7 160.wav",100
Sample,34687,0,"12 80.wav",100
Sample,34845,0,"0 80.wav",100
Sample,34845,0,"33_A0_190_240.wav",100
Sample,34845,0,"x 5 6 6 x 5 Amaj7 160.wav",100
Sample,35002,0,"33_A0_190_240.wav",100
Sample,35002,0,"0 80.wav",100
Sample,35002,0,"x 5 6 6 x 5 Amaj7 160.wav",100
Sample,35160,0,"x 12 160.wav",100
Sample,35318,0,"x 0 160.wav",100
Sample,35476,0,"x 5 6 6 x 5 Amaj7 160.wav",100
Sample,35634,0,"33_A0_190_240.wav",100
Sample,35634,0,"x x 11 160.wav",100
Sample,35634,0,"x 5 6 6 x 5 Amaj7 160.wav",100
Sample,35792,0,"x 5 6 6 x 5 Amaj7 160.wav",100
Sample,35792,0,"33_A0_190_240.wav",100
Sample,35950,0,"x x 9 160.wav",100
Sample,35950,0,"33_A0_190_240.wav",100
Sample,35950,0,"x 5 6 6 x 5 Amaj7 160.wav",100
Sample,36266,0,"33_A0_190_240.wav",100
Sample,36266,0,"x x 8 160.wav",100
Sample,36345,0,"Snare.wav",59
Sample,36424,0,"x x 9 160.wav",100
Sample,36581,0,"33_E1_190_240.wav",100
Sample,36581,0,"x x 8 160.wav",100
Sample,36739,0,"x x x 11 160.wav",100
Sample,37055,0,"0 160.wav",100
Sample,37055,0,"33_G#0_190_240.wav",100
Sample,37055,0,"x 4 4 4 x 4 G#m7 160.wav",100
Sample,37213,0,"33_G#0_190_240.wav",100
Sample,37213,0,"x x x x x 9 160.wav",100
Sample,37213,0,"x 4 4 4 x 4 G#m7 160.wav",100
Sample,37371,0,"x 4 4 4 x 4 G#m7 160.wav",100
Sample,37371,0,"x x x x x 12 160.wav",100
Sample,37529,0,"x x x 11 160.wav",100
Sample,37529,0,"33_G#0_190_240.wav",100
Sample,37529,0,"x 4 4 4 x 4 G#m7 160.wav",100
Sample,37608,0,"Snare.wav",59
Sample,37687,0,"x x x 9 160.wav",100
Sample,37845,0,"x x 11 160.wav",100
Sample,38002,0,"x 4 4 4 x 4 G#m7 160.wav",100
Sample,38002,0,"x x 9 160.wav",100
Sample,38160,0,"x 14 160.wav",100
Sample,38160,0,"33_G#0_190_240.wav",100
Sample,38160,0,"x 4 4 4 x 4 G#m7 160.wav",100
Sample,38318,0,"33_G#0_190_240.wav",100
Sample,38318,0,"x 12 160.wav",100
Sample,38318,0,"x 4 4 4 x 4 G#m7 160.wav",100
Sample,38476,0,"x x 13 160.wav",100
Sample,38476,0,"33_G#0_190_240.wav",100
Sample,38476,0,"x 4 4 4 x 4 G#m7 160.wav",100
Sample,38792,0,"33_G#0_190_240.wav",100
Sample,38792,0,"12 160.wav",100
Sample,38871,0,"Snare.wav",59
Sample,38950,0,"x 12 160.wav",100
Sample,39108,0,"33_D#1_190_240.wav",100
Sample,39108,0,"x 9 160.wav",100
Sample,39266,0,"x x 11 160.wav",100
Sample,39581,0,"x 2 2 2 x 2 F#m7 160.wav",100
Sample,39581,0,"33_F#0_190_240.wav",100
Sample,39739,0,"x 9 80.wav",100
Sample,39739,0,"33_F#0_190_240.wav",100
Sample,39739,0,"x 2 2 2 x 2 F#m7 160.wav",100
Sample,39818,0,"x 9 80.wav",100
Sample,39897,0,"x 2 2 2 x 2 F#m7 160.wav",100
Sample,39897,0,"x 9 80.wav",100
Sample,39976,0,"x 9 80.wav",100
Sample,40055,0,"33_F#0_190_240.wav",100
Sample,40055,0,"x 9 80.wav",100
Sample,40055,0,"x 2 2 2 x 2 F#m7 160.wav",100
Sample,40134,0,"x 9 80.wav",100
Sample,40134,0,"Snare.wav",59
Sample,40213,0,"x 9 160.wav",100
Sample,40371,0,"x 0 160.wav",100
Sample,40529,0,"x 2 2 2 x 2 F#m7 160.wav",100
Sample,40687,0,"33_F#0_190_240.wav",100
Sample,40687,0,"x 9 160.wav",100
Sample,40687,0,"x 2 2 2 x 2 F#m7 160.wav",100
Sample,40845,0,"x 9 160.wav",100
Sample,40845,0,"33_F#0_190_240.wav",100
Sample,40845,0,"x 2 2 2 x 2 F#m7 160.wav",100
Sample,41002,0,"33_F#0_190_240.wav",100
Sample,41002,0,"x 9 160.wav",100
Sample,41002,0,"x 2 2 2 x 2 F#m7 160.wav",100
Sample,41318,0,"x 12 160.wav",100
Sample,41318,0,"33_F#0_190_240.wav",100
Sample,41397,0,"Snare.wav",59
Sample,41634,0,"33_C#1_190_240.wav",100
Sample,41634,0,"x x 13 160.wav",100
Sample,41792,0,"x x 11 160.wav",100
Sample,41950,0,"x 4 4 x 4 C#m9 M 160.wav",100
Sample,42108,0,"33_C#1_190_240.wav",100
Sample,42108,0,"x 4 4 x 4 C#m9 160.wav",100
Sample,42266,0,"33_C#1_190_240.wav",100
Sample,42266,0,"x x 13 160.wav",100
Sample,42266,0,"x 4 4 x 4 C#m9 160.wav",100
Sample,42424,0,"x 4 4 x 4 C#m9 160.wav",100
Sample,42424,0,"x x 16 160.wav",100
Sample,42581,0,"x 9 9 M 80.wav",100
Sample,42581,0,"33_E0_190_240.wav",100
Sample,42581,0,"x 5 4 x 4 C#m7 160.wav",100
Sample,42739,0,"33_F#0_190_240.wav",100
Sample,42739,0,"x x 11 160.wav",100
Sample,42897,0,"33_F#0_190_240.wav",100
Sample,42897,0,"x x 13 160.wav",100
Sample,43055,0,"x 4 4 x 4 C#m9 160.wav",100
Sample,43213,0,"x 4 4 x 4 C#m9 160.wav",100
Sample,43213,0,"x x 9 160.wav",100
Sample,43292,0,"Snare.wav",59
Sample,43371,0,"x x 11 160.wav",100
Sample,43371,0,"x 4 4 x 4 C#m9 160.wav",100
Sample,43529,0,"x x 13 160.wav",100
Sample,43529,0,"x 5 4 x 4 C#m7 160.wav",100
Sample,44002,0,"12 80.wav",100
Sample,44002,0,"x 5 6 6 x 5 Amaj7 160.wav",100
Sample,44159,0,"12 80.wav",100
Sample,44159,0,"x 5 6 6 x 5 Amaj7 160.wav",100
Sample,44317,0,"33_A0_190_240.wav",100
Sample,44317,0,"0 80.wav",100
Sample,44317,0,"x 5 6 6 x 5 Amaj7 160.wav",100
Sample,44475,0,"0 80.wav",100
Sample,44475,0,"33_A0_190_240.wav",100
Sample,44475,0,"x 5 6 6 x 5 Amaj7 160.wav",100
Sample,44633,0,"x 12 160.wav",100
Sample,44791,0,"x 0 160.wav",100
Sample,44949,0,"x 5 6 6 x 5 Amaj7 160.wav",100
Sample,45107,0,"x x 11 160.wav",100
Sample,45107,0,"33_A0_190_240.wav",100
Sample,45107,0,"x 5 6 6 x 5 Amaj7 160.wav",100
Sample,45265,0,"33_A0_190_240.wav",100
Sample,45265,0,"x 5 6 6 x 5 Amaj7 160.wav",100
Sample,45423,0,"33_A0_190_240.wav",100
Sample,45423,0,"x x 9 160.wav",100
Sample,45423,0,"x 5 6 6 x 5 Amaj7 160.wav",100
Sample,45738,0,"x x 8 160.wav",100
Sample,45738,0,"33_A0_190_240.wav",100
Sample,45817,0,"Snare.wav",59
Sample,45896,0,"x x 9 160.wav",100
Sample,46054,0,"x x 8 160.wav",100
Sample,46054,0,"33_E1_190_240.wav",100
Sample,46212,0,"x 4 4 4 x 4 G#m7 M 160.wav",100
Sample,46212,0,"x x x 11 160.wav",100
Sample,46370,0,"x 4 4 4 x 4 G#m7 M 160.wav",100
Sample,46528,0,"33_G#0_190_240.wav",100
Sample,46528,0,"0 160.wav",100
Sample,46528,0,"x 4 4 4 x 4 G#m7 160.wav",100
Sample,46686,0,"x x x x x 9 160.wav",100
Sample,46686,0,"33_G#0_190_240.wav",100
Sample,46686,0,"x 4 4 4 x 4 G#m7 160.wav",100
Sample,46844,0,"x x x x x 12 160.wav",100
Sample,46844,0,"x 4 4 4 x 4 G#m7 160.wav",100
Sample,47002,0,"33_G#0_190_240.wav",100
Sample,47002,0,"x x x 11 160.wav",100
Sample,47002,0,"x 4 4 4 x 4 G#m7 160.wav",100
Sample,47080,0,"Snare.wav",59
Sample,47159,0,"x x x 9 160.wav",100
Sample,47317,0,"x x 11 160.wav",100
Sample,47475,0,"x x 9 160.wav",100
Sample,47475,0,"x 4 4 4 x 4 G#m7 160.wav",100
Sample,47633,0,"33_G#0_190_240.wav",100
Sample,47633,0,"x 14 160.wav",100
Sample,47633,0,"x 4 4 4 x 4 G#m7 160.wav",100
Sample,47791,0,"x 12 160.wav",100
Sample,47791,0,"33_G#0_190_240.wav",100
Sample,47791,0,"x 4 4 4 x 4 G#m7 160.wav",100
Sample,47949,0,"33_G#0_190_240.wav",100
Sample,47949,0,"x x 13 160.wav",100
Sample,47949,0,"x 4 4 4 x 4 G#m7 160.wav",100
Sample,48265,0,"12 160.wav",100
Sample,48265,0,"33_G#0_190_240.wav",100
Sample,48344,0,"Snare.wav",59
Sample,48423,0,"x 12 160.wav",100
Sample,48580,0,"x 9 160.wav",100
Sample,48580,0,"33_D#1_190_240.wav",100
Sample,48738,0,"x x 11 160.wav",100
Sample,49054,0,"33_F#0_190_240.wav",100
Sample,49054,0,"x 2 2 2 x 2 F#m7 160.wav",100
Sample,49212,0,"33_F#0_190_240.wav",100
Sample,49212,0,"x 9 80.wav",100
Sample,49212,0,"x 2 2 2 x 2 F#m7 160.wav",100
Sample,49291,0,"x 9 80.wav",100
Sample,49370,0,"x 9 80.wav",100
Sample,49370,0,"x 2 2 2 x 2 F#m7 160.wav",100
Sample,49449,0,"x 9 80.wav",100
Sample,49528,0,"x 9 80.wav",100
Sample,49528,0,"33_F#0_190_240.wav",100
Sample,49528,0,"x 2 2 2 x 2 F#m7 160.wav",100
Sample,49607,0,"x 9 80.wav",100
Sample,49686,0,"x 9 160.wav",100
Sample,49844,0,"x 0 160.wav",100
Sample,50002,0,"0 2 2 x 2 F#m7[B] 160.wav",100
Sample,50159,0,"33_B0_190_240.wav",100
Sample,50159,0,"x 9 160.wav",100
Sample,50159,0,"0 2 2 x 2 F#m7[B] 160.wav",100
Sample,50317,0,"x 9 160.wav",100
Sample,50317,0,"33_B0_190_240.wav",100
Sample,50317,0,"0 2 2 x 2 F#m7[B] 160.wav",100
Sample,50475,0,"33_B0_190_240.wav",100
Sample,50475,0,"x 9 160.wav",100
Sample,50475,0,"0 2 2 x 2 F#m7[B] 160.wav",100
Sample,50791,0,"x 12 160.wav",100
Sample,50791,0,"33_B0_190_240.wav",100
Sample,50949,0,"33_E0_190_480.wav",100
Sample,50949,0,"Hi-hat close.wav",70
Sample,51107,0,"x x 13 160.wav",100
Sample,51265,0,"x x 11 160.wav",100
Sample,51580,0,"x 9 9 214.wav",100
Sample,51580,0,"33_E0_190_240.wav",100
Sample,51580,0,"0 0 1 2 2 0 E 160.wav",100
Sample,51738,0,"Hi-hat close.wav",59
Sample,51738,0,"33_E0_190_240.wav",100
Sample,51738,0,"0 0 1 2 2 0 E 160.wav",100
Sample,51896,0,"0 0 1 2 2 0 E 160.wav",100
Sample,51896,0,"33_D#1_190_240.wav",100
Sample,52054,0,"33_E1_190_240.wav",100
Sample,52054,0,"Hi-hat close.wav",59
Sample,52054,0,"0 0 1 2 2 0 E 160.wav",100
Sample,52212,0,"x 12 13 214.wav",100
Sample,52370,0,"33_D#1_190_240.wav",100
Sample,52528,0,"33_B0_190_480.wav",100
Sample,52528,0,"0 0 1 2 2 0 E 160.wav",100
Sample,52686,0,"Hi-hat open.wav",59
Sample,52686,0,"0 0 1 2 2 0 E 160.wav",100
Sample,52844,0,"12 12 Staccato 320.wav",100
Sample,52844,0,"0 0 1 2 2 0 E 160.wav",100
Sample,53002,0,"0 0 1 2 2 0 E 160.wav",100
Sample,53278,0,"33_F#1_190_60.wav",100
Sample,53317,0,"16 320.wav",100
Sample,53633,0,"0 0 1 2 2 0 E M 160.wav",100
Sample,53633,0,"x 12 12 12 12 M 160.wav",100
Sample,53791,0,"x 0 0 0 0 320.wav",100
Sample,53791,0,"33_E1_190_480.wav",100
Sample,54107,0,"x x 9 x 7 80.wav",100
Sample,54107,0,"33_A0_190_480.wav",100
Sample,54107,0,"x 5 6 6 x 5 Amaj7 320.wav",100
Sample,54186,0,"x x 9 x 7 80.wav",100
Sample,54344,0,"x x 9 x 7 80.wav",100
Sample,54423,0,"33_A0_190_240.wav",100
Sample,54423,0,"x x 9 x 7 80.wav",100
Sample,54423,0,"x 5 6 6 x 5 Amaj7 160.wav",100
Sample,54502,0,"x x 9 x 7 80.wav",100
Sample,54580,0,"x x 9 x 7 80.wav",100
Sample,54580,0,"x 5 6 6 x 5 Amaj7 160.wav",100
Sample,54659,0,"x x 9 x 7 80.wav",100
Sample,54738,0,"x x 9 x 7 80.wav",100
Sample,54738,0,"33_A0_190_240.wav",100
Sample,54738,0,"x 5 6 6 x 5 Amaj7 160.wav",100
Sample,54817,0,"x x 9 x 7 80.wav",100
Sample,54896,0,"x 5 6 6 x 5 Amaj7 160.wav",100
Sample,54896,0,"x x 9 x 7 80.wav",100
Sample,54975,0,"x x 9 x 7 80.wav",100
Sample,55054,0,"33_A0_190_240.wav",100
Sample,55054,0,"x x 9 x 7 80.wav",100
Sample,55054,0,"x 5 6 6 x 5 Amaj7 160.wav",100
Sample,55133,0,"x x 9 x 7 80.wav",100
Sample,55212,0,"x x 9 x 7 80.wav",100
Sample,55212,0,"x 5 6 6 x 5 Amaj7 160.wav",100
Sample,55291,0,"x x 9 x 7 80.wav",100
Sample,55370,0,"x x 4 x 2 80.wav",100
Sample,55370,0,"33_A0_190_240.wav",100
Sample,55370,0,"x 5 6 6 x 5 Amaj7 160.wav",100
Sample,55449,0,"x x 4 x 2 80.wav",100
Sample,55528,0,"x 5 6 6 x 5 Amaj7 160.wav",100
Sample,55528,0,"x x 4 x 2 80.wav",100
Sample,55607,0,"x x 4 x 2 80.wav",100
Sample,55686,0,"33_A0_190_240.wav",100
Sample,55686,0,"x x 4 x 2 80.wav",100
Sample,55686,0,"x 5 6 6 x 5 Amaj7 160.wav",100
Sample,55765,0,"x x 4 x 2 80.wav",100
Sample,55844,0,"x x 9 x 7 80.wav",100
Sample,55844,0,"x 5 6 6 x 5 Amaj7 160.wav",100
Sample,55923,0,"x x 9 x 7 80.wav",100
Sample,56002,0,"x x 9 x 7 80.wav",100
Sample,56002,0,"33_A0_190_240.wav",100
Sample,56002,0,"x 5 6 6 x 5 Amaj7 160.wav",100
Sample,56080,0,"x x 9 x 7 80.wav",100
Sample,56159,0,"x 5 6 6 x 5 Amaj7 160.wav",100
Sample,56159,0,"x x 9 x 7 80.wav",100
Sample,56238,0,"x x 9 x 7 80.wav",100
Sample,56317,0,"33_A0_190_240.wav",100
Sample,56317,0,"x x 18 x 16 80.wav",100
Sample,56317,0,"x 5 6 6 x 5 Amaj7 160.wav",100
Sample,56396,0,"x x 18 x 16 80.wav",100
Sample,56475,0,"33_A0_190_240.wav",100
Sample,56475,0,"x x 18 x 16 80.wav",100
Sample,56475,0,"x 5 6 6 x 5 Amaj7 160.wav",100
Sample,56554,0,"x x 18 x 16 80.wav",100
Sample,56554,0,"Tom3.wav",70
Sample,56633,0,"x x 16 x 14 80.wav",100
Sample,56633,0,"33_G#0_190_480.wav",100
Sample,56633,0,"x 4 4 4 x 4 G#m7 320.wav",100
Sample,56712,0,"x x 16 x 14 80.wav",100
Sample,56870,0,"x x 16 x 14 80.wav",100
Sample,56949,0,"33_G#0_190_240.wav",100
Sample,56949,0,"x x 16 x 14 80.wav",100
Sample,56949,0,"x 4 4 4 x 4 G#m7 160.wav",100
Sample,57028,0,"x x 16 x 14 80.wav",100
Sample,57107,0,"x x 16 x 14 80.wav",100
Sample,57107,0,"x 4 4 4 x 4 G#m7 160.wav",100
Sample,57186,0,"x x 16 x 14 80.wav",100
Sample,57265,0,"x x 16 x 14 80.wav",100
Sample,57265,0,"33_G#0_190_240.wav",100
Sample,57265,0,"x 4 4 4 x 4 G#m7 160.wav",100
Sample,57344,0,"x x 16 x 14 80.wav",100
Sample,57423,0,"x 4 4 4 x 4 G#m7 160.wav",100
Sample,57423,0,"x x 16 x 14 80.wav",100
Sample,57502,0,"x x 16 x 14 80.wav",100
Sample,57580,0,"33_G#0_190_240.wav",100
Sample,57580,0,"x x 16 x 14 80.wav",100
Sample,57580,0,"x 4 4 4 x 4 G#m7 160.wav",100
Sample,57659,0,"x x 16 x 14 80.wav",100
Sample,57738,0,"x x 16 x 14 80.wav",100
Sample,57738,0,"x 4 4 4 x 4 G#m7 160.wav",100
Sample,57817,0,"x x 16 x 14 80.wav",100
Sample,57896,0,"x x 16 x 14 80.wav",100
Sample,57896,0,"33_G#0_190_240.wav",100
Sample,57896,0,"x 4 4 4 x 4 G#m7 160.wav",100
Sample,57975,0,"x x 16 x 14 80.wav",100
Sample,58054,0,"x 4 4 4 x 4 G#m7 160.wav",100
Sample,58054,0,"x x 16 x 14 80.wav",100
Sample,58133,0,"x x 16 x 14 80.wav",100
Sample,58212,0,"x x 16 x 14 80.wav",100
Sample,58212,0,"x 4 4 4 x 4 G#m7 160.wav",100
Sample,58291,0,"x x 16 x 14 80.wav",100
Sample,58370,0,"x 4 4 4 x 4 G#m7 160.wav",100
Sample,58370,0,"x x 16 x 14 80.wav",100
Sample,58449,0,"x x 16 x 14 80.wav",100
Sample,58528,0,"x x 16 x 14 80.wav",100
Sample,58528,0,"x 4 4 4 x 4 G#m7 160.wav",100
Sample,58607,0,"x x 16 x 14 80.wav",100
Sample,58686,0,"x 4 4 4 x 4 G#m7 160.wav",100
Sample,58686,0,"x x 16 x 14 80.wav",100
Sample,58765,0,"x x 16 x 14 80.wav",100
Sample,58844,0,"x x 14 x 12 80.wav",100
Sample,58844,0,"x 4 4 4 x 4 G#m7 160.wav",100
Sample,58923,0,"x x 14 x 12 80.wav",100
Sample,59002,0,"x x 14 x 12 80.wav",100
Sample,59002,0,"33_E0_190_240.wav",100
Sample,59002,0,"x 4 4 4 x 4 G#m7 160.wav",100
Sample,59080,0,"Tom3.wav",70
Sample,59080,0,"x x 14 x 12 80.wav",100
Sample,59159,0,"33_F#0_190_480.wav",100
Sample,59159,0,"x x 13 x 11 80.wav",100
Sample,59159,0,"x 2 2 2 x 2 F#m7 320.wav",100
Sample,59238,0,"x x 13 x 11 80.wav",100
Sample,59396,0,"x x 13 x 11 80.wav",100
Sample,59475,0,"x x 13 x 11 80.wav",100
Sample,59475,0,"33_F#0_190_240.wav",100
Sample,59475,0,"x 2 2 2 x 2 F#m7 160.wav",100
Sample,59554,0,"x x 13 x 11 80.wav",100
Sample,59633,0,"x 2 2 2 x 2 F#m7 160.wav",100
Sample,59633,0,"x x 13 x 11 80.wav",100
Sample,59712,0,"x x 13 x 11 80.wav",100
Sample,59791,0,"33_F#0_190_240.wav",100
Sample,59791,0,"x x 13 x 11 80.wav",100
Sample,59791,0,"x 2 2 2 x 2 F#m7 160.wav",100
Sample,59870,0,"x x 13 x 11 80.wav",100
Sample,59949,0,"x x 13 x 11 80.wav",100
Sample,59949,0,"x 2 2 2 x 2 F#m7 160.wav",100
Sample,60028,0,"x x 13 x 11 80.wav",100
Sample,60107,0,"x x 13 x 11 80.wav",100
Sample,60107,0,"33_F#0_190_240.wav",100
Sample,60107,0,"x 2 2 2 x 2 F#m7 160.wav",100
Sample,60186,0,"x x 13 x 11 80.wav",100
Sample,60265,0,"x 2 2 2 x 2 F#m7 160.wav",100
Sample,60265,0,"x x 13 x 11 80.wav",100
Sample,60344,0,"x x 13 x 11 80.wav",100
Sample,60423,0,"33_C#1_190_240.wav",100
Sample,60423,0,"x x 11 x 9 80.wav",100
Sample,60423,0,"x 2 2 2 x 2 F#m7 160.wav",100
Sample,60502,0,"x x 11 x 9 80.wav",100
Sample,60580,0,"x x 11 x 9 80.wav",100
Sample,60580,0,"x 2 2 2 x 2 F#m7 160.wav",100
Sample,60659,0,"x x 11 x 9 80.wav",100
Sample,60738,0,"x x 11 x 9 80.wav",100
Sample,60738,0,"33_F#1_190_240.wav",100
Sample,60738,0,"x 2 2 2 x 2 F#m7 160.wav",100
Sample,60817,0,"x x 11 x 9 80.wav",100
Sample,60896,0,"x 2 2 2 x 2 F#m7 160.wav",100
Sample,60896,0,"x x 11 x 9 80.wav",100
Sample,60975,0,"x x 11 x 9 80.wav",100
Sample,61054,0,"33_F#1_190_240.wav",100
Sample,61054,0,"x x 16 x 14 640.wav",100
Sample,61054,0,"x 2 2 2 x 2 F#m7 160.wav",100
Sample,61212,0,"x 2 2 2 x 2 F#m7 160.wav",100
Sample,61370,0,"x 2 2 2 x 2 F#m7 160.wav",100
Sample,61528,0,"x 2 2 2 x 2 F#m7 160.wav",100
Sample,61686,0,"x 0 214.wav",100
Sample,61686,0,"x 4 4 x 4 C#m9 Staccato 320.wav",100
Sample,61896,0,"x 12 214.wav",100
Sample,62317,0,"x 5 4 x 4 C#m7 Staccato 320.wav",100
Sample,62317,0,"x 7 214.wav",100
Sample,62528,0,"x 0 214.wav",100
Sample,62949,0,"x 0 214.wav",100
Sample,62949,0,"x 4 4 x 4 C#m9 Staccato 320.wav",100
Sample,63159,0,"33_D#1_190_320.wav",100
Sample,63159,0,"x 5 214.wav",100
Sample,63370,0,"x 0 214.wav",100
Sample,63580,0,"0 0 1 2 2 0 E Arpeggio up 640.wav",100
Sample,63580,0,"x x x 2 2 0 640.wav",100
Sample,63896,0,"Hi-hat close.wav",70
Sample,64212,0,"Arp. x x x x 0 480.wav",100
Sample,64212,0,"Arp. x x 6 6 x 5 Amaj7 Arpeggio down 960.wav",100
Sample,64528,0,"Hi-hat close.wav",70
Sample,64686,0,"Arp. 4 480.wav",100
Sample,64686,0,"33_E1_190_720.wav",100
Sample,64844,0,"Hi-hat close.wav",70
Sample,65002,0,"Hi-hat close.wav",59
Sample,65159,0,"Arp. x 0 1600.wav",100
Sample,65159,0,"33_A1_190_960.wav",100
Sample,65159,0,"Arp. 0 1600.wav",100
Sample,65317,0,"Hi-hat close.wav",59
Sample,65633,0,"Hi-hat close.wav",59
Sample,65791,0,"Hi-hat close.wav",70
Sample,65791,0,"33_E1_190_420.wav",100
Sample,65949,0,"Hi-hat close.wav",59
Sample,66067,0,"33_A1_190_60.wav",100
Sample,66107,0,"Hi-hat close.wav",70
Sample,66107,0,"33_B1_190_480.wav",100
Sample,66265,0,"Hi-hat close.wav",59
Sample,66423,0,"33_A1_190_480.wav",100
Sample,66423,0,"Hi-hat close.wav",70
Sample,66580,0,"Hi-hat close.wav",59
Sample,66738,0,"33_G#1_190_720.wav",100
Sample,66738,0,"Arp. x x x 6 480.wav",100
Sample,66738,0,"Arp. x x 4 4 x 4 G#m7 Arpeggio down 960.wav",100
Sample,66896,0,"Hi-hat close.wav",59
Sample,67054,0,"Hi-hat close.wav",70
Sample,67212,0,"Arp. x 7 480.wav",100
Sample,67212,0,"33_D#1_190_720.wav",100
Sample,67370,0,"Hi-hat close.wav",70
Sample,67528,0,"Hi-hat close.wav",59
Sample,67686,0,"Arp. x x 4 1120.wav",100
Sample,67686,0,"33_G#0_190_1440.wav",100
Sample,67686,0,"Arp. 0 1120.wav",100
Sample,68633,0,"33_G#0_190_240.wav",100
Sample,68791,0,"x 12 12 12 12 M 160.wav",100
Sample,68791,0,"x x 4 4 4 4 M 160.wav",100
Sample,68949,0,"x 0 0 0 0 320.wav",100
Sample,68949,0,"33_G#1_190_480.wav",100
Sample,69265,0,"x 2 2 2 x 2 F#m7 320.wav",100
Sample,69265,0,"x x 11 x 9 160.wav",100
Sample,69423,0,"x x 11 x 9 M 160.wav",100
Sample,69580,0,"x x 11 x 9 M 160.wav",100
Sample,69580,0,"x 2 2 2 x 2 F#m7 160.wav",100
Sample,69738,0,"x x 11 x 9 160.wav",100
Sample,69738,0,"x 2 2 2 x 2 F#m7 320.wav",100
Sample,70054,0,"x x 11 x 9 M 160.wav",100
Sample,70054,0,"x 2 2 2 x 2 F#m7 160.wav",100
Sample,70212,0,"x x 11 x 9 160.wav",100
Sample,70212,0,"x 2 2 2 x 2 F#m7 160.wav",100
Sample,70370,0,"x x 11 x 9 160.wav",100
Sample,70370,0,"x 2 2 2 x 2 F#m7 160.wav",100
Sample,70528,0,"x x 11 x 9 160.wav",100
Sample,70528,0,"0 2 2 x 2 F#m7[B] 320.wav",100
Sample,70686,0,"x x 11 x 9 M 160.wav",100
Sample,70844,0,"0 2 2 x 2 F#m7[B] 160.wav",100
Sample,70844,0,"x x 11 x 9 M 160.wav",100
Sample,71002,0,"0 2 2 x 2 F#m7[B] 320.wav",100
Sample,71002,0,"x x 11 x 9 160.wav",100
Sample,71317,0,"0 2 2 x 2 F#m7[B] 160.wav",100
Sample,71317,0,"x x 11 x 9 M 160.wav",100
Sample,71475,0,"0 2 2 x 2 F#m7[B] 160.wav",100
Sample,71475,0,"x x 11 x 9 160.wav",100
Sample,71633,0,"0 2 2 x 2 F#m7[B] 160.wav",100
Sample,71633,0,"x x 11 x 9 160.wav",100
Sample,71791,0,"0 0 1 2 2 0 E 160.wav",100
Sample,71949,0,"33_E0_190_240.wav",100
Sample,71949,0,"0 0 1 2 2 0 E 160.wav",100
Sample,72107,0,"x x x x x 0 160.wav",100
Sample,72107,0,"0 0 1 2 2 0 E M 160.wav",100
Sample,72265,0,"x x 8 bend half release 320.wav",100
Sample,72265,0,"0 0 1 2 2 0 E 160.wav",100
Sample,72423,0,"33_E0_190_240.wav",100
Sample,72423,0,"0 0 1 2 2 0 E 160.wav",100
Sample,72580,0,"x x x x 7 160.wav",100
Sample,72580,0,"0 0 1 2 2 0 E M 160.wav",100
Sample,72738,0,"7 160.wav",100
Sample,72738,0,"x 4 4 x 4 C#m9 160.wav",100
Sample,72896,0,"7 320.wav",100
Sample,72896,0,"x 4 4 x 4 C#m9 320.wav",100
Sample,73054,0,"Hi-hat close.wav",50
Sample,73686,0,"7 7 N.H. 640.wav",100
Sample,74317,0,"33_A0_190_480.wav",100
Sample,74317,0,"x x 9 9 160.wav",100
Sample,74317,0,"x 5 6 6 x 5 Amaj7 320.wav",100
Sample,74633,0,"x 5 6 6 x 5 Amaj7 160.wav",100
Sample,74791,0,"x 9 9 9 160.wav",100
Sample,74791,0,"x 5 6 6 x 5 Amaj7 320.wav",100
Sample,74949,0,"x 9 9 9 160.wav",100
Sample,75107,0,"x 5 6 6 x 5 Amaj7 160.wav",100
Sample,75107,0,"x 9 11 9 160.wav",100
Sample,75265,0,"x 5 6 6 x 5 Amaj7 160.wav",100
Sample,75423,0,"x 9 9 9 160.wav",100
Sample,75423,0,"x 5 6 6 x 5 Amaj7 160.wav",100
Sample,75580,0,"x 9 9 9 160.wav",100
Sample,75580,0,"x 5 6 6 x 5 Amaj7 160.wav",100
Sample,75738,0,"x 9 11 9 160.wav",100
Sample,75738,0,"x 5 6 6 x 5 Amaj7 160.wav",100
Sample,75896,0,"x 5 6 6 x 5 Amaj7 160.wav",100
Sample,76054,0,"x 5 6 6 x 5 Amaj7 160.wav",100
Sample,76054,0,"x 9 9 9 160.wav",100
Sample,76212,0,"x 5 6 6 x 5 Amaj7 160.wav",100
Sample,76212,0,"x 9 9 9 160.wav",100
Sample,76370,0,"x 5 6 6 x 5 Amaj7 160.wav",100
Sample,76370,0,"x 9 11 9 160.wav",100
Sample,76528,0,"x 5 6 6 x 5 Amaj7 160.wav",100
Sample,76528,0,"x 9 9 9 160.wav",100
Sample,76686,0,"x 5 6 6 x 5 Amaj7 160.wav",100
Sample,76686,0,"x 9 11 9 160.wav",100
Sample,76844,0,"x 4 4 4 x 5 B7 320.wav",100
Sample,76844,0,"x 12 11 9 160.wav",100
Sample,77002,0,"x 12 11 9 160.wav",100
Sample,77159,0,"x 4 4 4 x 5 B7 160.wav",100
Sample,77317,0,"x 4 4 4 x 5 B7 320.wav",100
Sample,77317,0,"x 4 4 4 160.wav",100
Sample,77633,0,"x 4 4 4 x 5 B7 160.wav",100
Sample,77633,0,"x 4 6 4 160.wav",100
Sample,77791,0,"x 4 4 4 x 5 B7 160.wav",100
Sample,77909,0,"33_A1_190_60.wav",100
Sample,77949,0,"x 4 4 4 x 5 B7 160.wav",100
Sample,77949,0,"x 4 4 4 160.wav",100
Sample,78107,0,"x 4 4 4 x 5 B7 160.wav",100
Sample,78265,0,"x 4 6 4 160.wav",100
Sample,78265,0,"x 4 4 4 x 5 B7 160.wav",100
Sample,78580,0,"x 4 4 4 160.wav",100
Sample,78580,0,"x 4 4 4 x 5 B7 160.wav",100
Sample,78659,0,"Kick.wav",70
Sample,78738,0,"x 4 4 4 x 5 B7 160.wav",100
Sample,78738,0,"x 4 4 4 160.wav",100
Sample,78896,0,"x 4 4 4 x 5 B7 160.wav",100
Sample,78896,0,"x 4 6 4 160.wav",100
Sample,79054,0,"x 4 4 4 x 5 B7 160.wav",100
Sample,79054,0,"x 4 4 4 320.wav",100
Sample,79370,0,"x x 4 4 x 4 160.wav",100
Sample,79370,0,"33_G#0_190_480.wav",100
Sample,79370,0,"x 4 4 4 x 4 G#m7 320.wav",100
Sample,79686,0,"x x 4 4 x 4 160.wav",100
Sample,79686,0,"x 4 4 4 x 4 G#m7 160.wav",100
Sample,79844,0,"x x 4 4 x 4 160.wav",100
Sample,79844,0,"x 4 4 4 x 4 G#m7 320.wav",100
Sample,80002,0,"x x 4 4 x 4 160.wav",100
Sample,80159,0,"x 4 4 4 x 4 G#m7 160.wav",100
Sample,80159,0,"x x 4 4 x 4 160.wav",100
Sample,80317,0,"x 4 4 4 x 4 G#m7 160.wav",100
Sample,80317,0,"x x 4 4 x 4 160.wav",100
Sample,80475,0,"x 4 4 4 x 4 G#m7 160.wav",100
Sample,80475,0,"x x 4 4 x 4 160.wav",100
Sample,80633,0,"x 4 5 4 3 Cdim 160.wav",100
Sample,80633,0,"8 x 5 160.wav",100
Sample,80791,0,"x 4 5 4 3 Cdim 160.wav",100
Sample,80791,0,"8 x 5 160.wav",100
Sample,80949,0,"x 4 5 4 3 Cdim 160.wav",100
Sample,80949,0,"8 x 5 160.wav",100
Sample,81107,0,"x 4 5 4 3 Cdim 160.wav",100
Sample,81107,0,"9 x 6 160.wav",100
Sample,81265,0,"x 4 5 4 3 Cdim 160.wav",100
Sample,81265,0,"9 x 6 160.wav",100
Sample,81423,0,"x 4 5 4 3 Cdim 160.wav",100
Sample,81423,0,"9 x 6 160.wav",100
Sample,81580,0,"x 4 5 4 3 Cdim 160.wav",100
Sample,81580,0,"11 x 8 160.wav",100
Sample,81738,0,"x 4 5 4 3 Cdim 160.wav",100
Sample,81738,0,"11 x 8 160.wav",100
Sample,81896,0,"x 4 4 x 4 C#m9 160.wav",100
Sample,81896,0,"12 x 9 320.wav",100
Sample,82054,0,"x 4 4 x 4 C#m9 160.wav",100
Sample,82054,0,"33_C#1_190_240.wav",100
Sample,82212,0,"x 4 4 x 4 C#m9 160.wav",100
Sample,82212,0,"0 160.wav",100
Sample,82370,0,"x 5 4 x 4 C#m7 320.wav",100
Sample,82370,0,"2 160.wav",100
Sample,82528,0,"4 160.wav",100
Sample,82686,0,"33_C#1_190_240.wav",100
Sample,82686,0,"2 54.wav",100
Sample,82686,0,"x 5 4 x 4 C#m7 160.wav",100
Sample,82844,0,"0 160.wav",100
Sample,82844,0,"33_C#1_190_240.wav",100
Sample,82844,0,"x 5 4 x 4 C#m7 320.wav",100
Sample,83002,0,"x 0 160.wav",100
Sample,83159,0,"x 3 2 0 2 Bm7 160.wav",100
Sample,83159,0,"x x 2 160.wav",100
Sample,83317,0,"x 3 2 0 2 Bm7 160.wav",100
Sample,83317,0,"x x 1 160.wav",100
Sample,83475,0,"x 3 2 0 2 Bm7 320.wav",100
Sample,83475,0,"x x x 2 160.wav",100
Sample,83791,0,"0 0 1 2 2 0 E 160.wav",100
Sample,83791,0,"x x x x 0 160.wav",100
Sample,83949,0,"0 0 1 2 2 0 E 160.wav",100
Sample,83949,0,"x x x x x 4 160.wav",100
Sample,84107,0,"x x x x x 0 320.wav",100
Sample,84107,0,"33_B0_190_480.wav",100
Sample,84107,0,"0 0 1 2 2 0 E 320.wav",100
Sample,84423,0,"x x 9 9 160.wav",100
Sample,84423,0,"x 5 6 6 x 5 Amaj7 320.wav",100
Sample,84738,0,"x 5 6 6 x 5 Amaj7 160.wav",100
Sample,84896,0,"x 5 6 6 x 5 Amaj7 320.wav",100
Sample,84896,0,"x 9 9 9 160.wav",100
Sample,85054,0,"x 9 9 9 160.wav",100
Sample,85212,0,"x 9 11 9 160.wav",100
Sample,85212,0,"x 5 6 6 x 5 Amaj7 160.wav",100
Sample,85370,0,"x 5 6 6 x 5 Amaj7 160.wav",100
Sample,85528,0,"x 5 6 6 x 5 Amaj7 160.wav",100
Sample,85528,0,"x 9 9 9 160.wav",100
Sample,85686,0,"x 5 6 6 x 5 Amaj7 160.wav",100
Sample,85686,0,"x 9 9 9 160.wav",100
Sample,85844,0,"x 5 6 6 x 5 Amaj7 160.wav",100
Sample,85844,0,"x 9 11 9 160.wav",100
Sample,86002,0,"x 5 6 6 x 5 Amaj7 160.wav",100
Sample,86159,0,"x 9 9 9 160.wav",100
Sample,86159,0,"x 5 6 6 x 5 Amaj7 160.wav",100
Sample,86317,0,"x 5 6 6 x 5 Amaj7 160.wav",100
Sample,86475,0,"x 5 6 6 x 5 Amaj7 160.wav",100
Sample,86475,0,"x 9 11 9 160.wav",100
Sample,86633,0,"x 5 6 6 x 5 Amaj7 160.wav",100
Sample,86633,0,"x 9 9 9 160.wav",100
Sample,86791,0,"x 5 6 6 x 5 Amaj7 160.wav",100
Sample,86949,0,"x 12 11 9 160.wav",100
Sample,86949,0,"x 4 4 4 x 5 B7 320.wav",100
Sample,87107,0,"x 12 11 9 160.wav",100
Sample,87265,0,"x 4 4 4 x 5 B7 160.wav",100
Sample,87423,0,"x 4 4 4 160.wav",100
Sample,87423,0,"x 4 4 4 x 5 B7 320.wav",100
Sample,87738,0,"x 4 6 4 160.wav",100
Sample,87738,0,"x 4 4 4 x 5 B7 160.wav",100
Sample,88054,0,"x 4 4 4 160.wav",100
Sample,88054,0,"x 4 4 4 x 5 B7 160.wav",100
Sample,88212,0,"x 4 4 4 x 5 B7 160.wav",100
Sample,88370,0,"x 4 4 4 x 5 B7 160.wav",100
Sample,88370,0,"x 4 6 4 160.wav",100
Sample,88528,0,"x 4 4 4 x 5 B7 160.wav",100
Sample,88686,0,"x 4 4 4 160.wav",100
Sample,88686,0,"x 4 4 4 x 5 B7 160.wav",100
Sample,88765,0,"Kick.wav",70
Sample,88844,0,"x 4 4 4 x 5 B7 160.wav",100
Sample,89002,0,"x 4 6 4 160.wav",100
Sample,89002,0,"x 4 4 4 x 5 B7 160.wav",100
Sample,89159,0,"x 4 4 4 320.wav",100
Sample,89159,0,"x 4 4 4 x 5 B7 160.wav",100
Sample,89475,0,"33_G#0_190_480.wav",100
Sample,89475,0,"x 9 11 bend full Left-hand vibrato 480.wav",100
Sample,89475,0,"x 4 4 4 x 4 G#m7 320.wav",100
Sample,89791,0,"x 4 4 4 x 4 G#m7 160.wav",100
Sample,89949,0,"x 9 11 prebend full Left-hand vibrato 480.wav",100
Sample,89949,0,"x 4 4 4 x 4 G#m7 320.wav",100
Sample,90265,0,"x 4 4 4 x 4 G#m7 160.wav",100
Sample,90423,0,"x 4 4 4 x 4 G#m7 160.wav",100
Sample,90423,0,"x 9 11 prebend full Left-hand vibrato 320.wav",100
Sample,90580,0,"x 4 4 4 x 4 G#m7 160.wav",100
Sample,90738,0,"x 13 15 bend full Left-hand vibrato 480.wav",100
Sample,90738,0,"x 4 5 4 3 Cdim 160.wav",100
Sample,90896,0,"33_C1_190_240.wav",100
Sample,90896,0,"x 4 5 4 3 Cdim 160.wav",100
Sample,91054,0,"x 4 5 4 3 Cdim 160.wav",100
Sample,91212,0,"x 4 5 4 3 Cdim 160.wav",100
Sample,91212,0,"x 13 15 prebend full Left-hand vibrato 480.wav",100
Sample,91370,0,"x 4 5 4 3 Cdim 160.wav",100
Sample,91528,0,"x 4 5 4 3 Cdim 160.wav",100
Sample,91686,0,"x 4 5 4 3 Cdim 160.wav",100
Sample,91686,0,"x 13 15 prebend full Left-hand vibrato 320.wav",100
Sample,92002,0,"x 4 4 x 4 C#m9 160.wav",100
Sample,92002,0,"x 14 16 bend full Left-hand vibrato 480.wav",100
Sample,92159,0,"x 4 4 x 4 C#m9 160.wav",100
Sample,92159,0,"33_C#1_190_240.wav",100
Sample,92317,0,"x 4 4 x 4 C#m9 160.wav",100
Sample,92475,0,"x 14 16 prebend full Left-hand vibrato 480.wav",100
Sample,92475,0,"x 4 4 x 4 C#m9 160.wav",100
Sample,92633,0,"x 5 4 x 4 C#m7 160.wav",100
Sample,92791,0,"x 5 4 x 4 C#m7 160.wav",100
Sample,92949,0,"x 14 16 prebend full Left-hand vibrato 320.wav",100
Sample,92949,0,"x 5 4 x 4 C#m7 160.wav",100
Sample,93265,0,"33_E1_190_240.wav",100
Sample,93265,0,"x 0 320.wav",100
Sample,93265,0,"x x x 2 2 0 480.wav",100
Sample,93423,0,"33_E1_190_240.wav",100
Sample,93580,0,"x x x x x 2 M 160.wav",100
Sample,93738,0,"0 0 1 800.wav",100
Sample,93738,0,"x x x x x 12 Left-hand vibrato 800.wav",100
Sample,93896,0,"33_E1_190_240.wav",100
Sample,94212,0,"33_E0_190_480.wav",100
Sample,94528,0,"x x x 4 4 2 F#m 160.wav",100
Sample,94528,0,"x x x x x 0 160.wav",100
Sample,94685,0,"x x x 4 4 2 F#m 160.wav",100
Sample,94685,0,"x x x x x 9 160.wav",100
Sample,94843,0,"x x x 9 160.wav",100
Sample,94843,0,"33_F#0_190_240.wav",100
Sample,94843,0,"x x x 4 4 2 F#m 160.wav",100
Sample,95001,0,"x x x 11 320.wav",100
Sample,95001,0,"x x x 6 6 4 G#m 160.wav",100
Sample,95159,0,"x x x 6 6 4 G#m 160.wav",100
Sample,95317,0,"x x x 6 6 4 G#m 160.wav",100
Sample,95317,0,"x 9 160.wav",100
Sample,95475,0,"x x x 7 7 5 A 160.wav",100
Sample,95475,0,"x 9 M 160.wav",100
Sample,95633,0,"x x x 7 7 5 A 160.wav",100
Sample,95633,0,"x 9 M 160.wav",100
Sample,95791,0,"x x x 9 9 7 B 160.wav",100
Sample,95791,0,"x 12 160.wav",100
Sample,95949,0,"x x x 9 9 7 B 160.wav",100
Sample,95949,0,"x 9 160.wav",100
Sample,96106,0,"x x x 4 4 2 F#m 160.wav",100
Sample,96106,0,"x x x x x 0 160.wav",100
Sample,96264,0,"x x x 4 4 2 F#m 160.wav",100
Sample,96264,0,"x x x x x 9 160.wav",100
Sample,96422,0,"x x x 9 160.wav",100
Sample,96422,0,"33_F#0_190_240.wav",100
Sample,96422,0,"x x x 4 4 2 F#m 160.wav",100
Sample,96580,0,"x x x 11 320.wav",100
Sample,96580,0,"x x x 6 6 4 G#m 160.wav",100
Sample,96738,0,"x x x 6 6 4 G#m 160.wav",100
Sample,96896,0,"x x x 6 6 4 G#m 160.wav",100
Sample,96896,0,"x 9 160.wav",100
Sample,97054,0,"x x x 7 7 5 A 160.wav",100
Sample,97054,0,"x 9 M 160.wav",100
Sample,97212,0,"x x x 7 7 5 A 160.wav",100
Sample,97212,0,"x 9 M 160.wav",100
Sample,97370,0,"x x x 6 6 4 G#m 160.wav",100
Sample,97370,0,"x x 8 80.wav",100
Sample,97449,0,"x x 9 80.wav",100
Sample,97528,0,"x x 8 160.wav",100
Sample,97528,0,"x x x 6 6 4 G#m 160.wav",100
Sample,97685,0,"x x x x x 0 160.wav",100
Sample,97685,0,"x x x 4 4 2 F#m 160.wav",100
Sample,97843,0,"x x x x x 9 160.wav",100
Sample,97843,0,"x x x 4 4 2 F#m 160.wav",100
Sample,98001,0,"33_F#0_190_240.wav",100
Sample,98001,0,"x x x 9 160.wav",100
Sample,98001,0,"x x x 4 4 2 F#m 160.wav",100
Sample,98159,0,"x x x 6 6 4 G#m 160.wav",100
Sample,98159,0,"x x x 11 320.wav",100
Sample,98317,0,"x x x 6 6 4 G#m 160.wav",100
Sample,98475,0,"x 9 160.wav",100
Sample,98475,0,"x x x 6 6 4 G#m 160.wav",100
Sample,98633,0,"x 9 M 160.wav",100
Sample,98633,0,"x x x 7 7 5 A 160.wav",100
Sample,98791,0,"x 9 M 160.wav",100
Sample,98791,0,"x x x 7 7 5 A 160.wav",100
Sample,98949,0,"x 12 160.wav",100
Sample,98949,0,"x x x 9 9 7 B 160.wav",100
Sample,99106,0,"x x x 9 9 7 B 160.wav",100
Sample,99264,0,"x 5 5 x 5 D9 320.wav",100
Sample,99264,0,"12 11 bend half 320.wav",100
Sample,99474,0,"33_A1_190_320.wav",100
Sample,99579,0,"0 0 320.wav",100
Sample,99579,0,"x 5 5 x 5 D9 320.wav",100
Sample,99685,0,"33_D2_190_320.wav",100
Sample,99895,0,"15 14 bend half 320.wav",100
Sample,99895,0,"33_C2_190_320.wav",100
Sample,99895,0,"x 5 5 x 5 D9 320.wav",100
Sample,100106,0,"33_F#2_190_320.wav",100
Sample,100211,0,"x 5 5 x 5 D9 320.wav",100
Sample,100211,0,"0 0 320.wav",100
Sample,100316,0,"33_C2_190_320.wav",100
Sample,100527,0,"33_F#1_190_960.wav",100
Sample,100527,0,"18 17 bend half 320.wav",100
Sample,100527,0,"x 5 5 x 5 D9 320.wav",100
Sample,100842,0,"x 5 5 x 5 D9 320.wav",100
Sample,101158,0,"7 7 7 7 7 N.H. 1280.wav",100
Sample,102421,0,"33_A1_190_480.wav",100
Sample,102736,0,"x x x x x 5 320.wav",100
Sample,103052,0,"33_E2_190_480.wav",100
Sample,103368,0,"Ride.wav",59
Sample,103368,0,"x x x 6 320.wav",100
Sample,103684,0,"33_A2_190_480.wav",100
Sample,104000,0,"x x 6 320.wav",100
Sample,104000,0,"Ride.wav",50
Sample,104315,0,"33_A1_190_480.wav",100
Sample,104631,0,"Ride.wav",59
Sample,104631,0,"x x x x x 5 320.wav",100
Sample,104947,0,"33_G#1_190_480.wav",100
Sample,105263,0,"x x x x x 4 320.wav",100
Sample,105579,0,"33_D#2_190_480.wav",100
Sample,105894,0,"x x x 4 320.wav",100
Sample,105894,0,"Ride.wav",59
Sample,106210,0,"33_G#2_190_480.wav",100
Sample,106526,0,"Ride.wav",50
Sample,106526,0,"x x 4 320.wav",100
Sample,106842,0,"33_G#1_190_480.wav",100
Sample,107158,0,"x x x x x 4 320.wav",100
Sample,107158,0,"Ride.wav",59
Sample,107473,0,"33_F#1_190_480.wav",100
Sample,107789,0,"x x x x x 2 320.wav",100
Sample,108105,0,"33_C#2_190_480.wav",100
Sample,108421,0,"Ride.wav",59
Sample,108421,0,"x x x 2 320.wav",100
Sample,108736,0,"33_F#2_190_480.wav",100
Sample,109052,0,"x x 2 320.wav",100
Sample,109052,0,"Ride.wav",50
Sample,109368,0,"33_F#1_190_480.wav",100
Sample,109684,0,"Ride.wav",59
Sample,109684,0,"x x x x x 2 320.wav",100
Sample,110000,0,"33_C#2_190_480.wav",100
Sample,110315,0,"x x x x 4 320.wav",100
Sample,110315,0,"33_E2_190_180.wav",100
Sample,110434,0,"33_A2_190_60.wav",100
Sample,110473,0,"33_C#3_190_240.wav",100
Sample,110631,0,"Ride.wav",50
Sample,110947,0,"Ride.wav",59
Sample,110947,0,"x x x 2 320.wav",100
Sample,111263,0,"33_G#2_190_240.wav",100
Sample,111579,0,"12 N.H. 320.wav",100
Sample,111579,0,"33_E2_190_240.wav",100
Sample,111894,0,"x 12 N.H. 320.wav",100
Sample,112210,0,"33_B1_190_480.wav",100
Sample,112210,0,"12 N.H. 320.wav",100
Sample,112526,0,"33_A0_190_480.wav",100
Sample,112526,0,"x x 6 6 x 5 Amaj7 Arpeggio down 2560.wav",100
Sample,112842,0,"x x x x x 5 320.wav",100
Sample,113158,0,"33_E1_190_480.wav",100
Sample,113473,0,"Ride.wav",59
Sample,113473,0,"x x x 6 320.wav",100
Sample,113789,0,"33_A1_190_480.wav",100
Sample,114105,0,"x x 6 320.wav",100
Sample,114105,0,"Ride.wav",50
Sample,114421,0,"33_A0_190_480.wav",100
Sample,114736,0,"Ride.wav",59
Sample,114736,0,"x x x x x 5 320.wav",100
Sample,115052,0,"33_G#0_190_480.wav",100
Sample,115052,0,"x x 4 4 x 4 G#m7 Arpeggio down 2560.wav",100
Sample,115368,0,"x x x x x 4 320.wav",100
Sample,115684,0,"33_D#1_190_480.wav",100
Sample,116000,0,"Ride.wav",59
Sample,116000,0,"x x x 4 320.wav",100
Sample,116315,0,"33_G#1_190_480.wav",100
Sample,116631,0,"x x 4 320.wav",100
Sample,116631,0,"Ride.wav",50
Sample,116947,0,"33_G#0_190_480.wav",100
Sample,117263,0,"Ride.wav",59
Sample,117263,0,"x x x x x 4 320.wav",100
Sample,117579,0,"33_F#0_190_480.wav",100
Sample,117579,0,"x x 2 2 x 2 F#m7 Arpeggio down 2560.wav",100
Sample,117894,0,"x x x x x 2 320.wav",100
Sample,118210,0,"33_C#1_190_480.wav",100
Sample,118526,0,"Ride.wav",59
Sample,118526,0,"x x x 2 320.wav",100
Sample,118842,0,"33_F#1_190_480.wav",100
Sample,119158,0,"x x 2 320.wav",100
Sample,119158,0,"Ride.wav",50
Sample,119473,0,"33_B0_190_480.wav",100
Sample,119789,0,"Ride.wav",59
Sample,119789,0,"x x x x x 2 320.wav",100
Sample,120105,0,"33_C#1_190_480.wav",100
Sample,120105,0,"x x 4 2 4 C#m9 Arpeggio down 1280.wav",100
Sample,120421,0,"x x x x 4 320.wav",100
Sample,120736,0,"33_G#1_190_480.wav",100
Sample,121052,0,"Ride.wav",59
Sample,121052,0,"x x x 2 320.wav",100
Sample,121368,0,"33_C#2_190_1920.wav",100
Sample,121368,0,"33_E2_190_1920.wav",100
Sample,121368,0,"x x 4 2 1280.wav",100
Sample,121368,0,"0 0 960.wav",100
Sample,122631,0,"12 80.wav",100
Sample,122631,0,"x 5 6 6 x 5 Amaj7 Staccato 320.wav",100
Sample,122947,0,"33_A0_190_240.wav",100
Sample,122947,0,"0 80.wav",100
Sample,122947,0,"x 5 6 6 x 5 Amaj7 Staccato 320.wav",100
Sample,123105,0,"0 80.wav",100
Sample,123105,0,"33_A0_190_240.wav",100
Sample,123263,0,"x 12 160.wav",100
Sample,123263,0,"33_A0_190_240.wav",100
Sample,123263,0,"x 5 6 6 x 5 Amaj7 Staccato 320.wav",100
Sample,123421,0,"33_A0_190_240.wav",100
Sample,123421,0,"x 0 160.wav",100
Sample,123579,0,"x 5 6 6 x 5 Amaj7 Staccato 320.wav",100
Sample,123736,0,"x x 11 160.wav",100
Sample,123736,0,"33_A0_190_240.wav",100
Sample,123894,0,"x 5 6 6 x 5 Amaj7 Staccato 320.wav",100
Sample,123894,0,"33_A0_190_240.wav",100
Sample,124052,0,"x x 9 160.wav",100
Sample,124052,0,"33_A0_190_240.wav",100
Sample,124210,0,"x 5 6 6 x 5 Amaj7 Staccato 320.wav",100
Sample,124368,0,"33_A0_190_240.wav",100
Sample,124368,0,"x x 8 160.wav",100
Sample,124447,0,"Snare.wav",59
Sample,124526,0,"x x 9 160.wav",100
Sample,124526,0,"33_A0_190_240.wav",100
Sample,124526,0,"x 5 6 6 x 5 Amaj7 Staccato 320.wav",100
Sample,124684,0,"33_A0_190_240.wav",100
Sample,124684,0,"x x 8 160.wav",100
Sample,124842,0,"x x x 11 160.wav",100
Sample,124842,0,"x 5 6 6 x 5 Amaj7 160.wav",100
Sample,125000,0,"33_A0_190_240.wav",100
Sample,125000,0,"x x x 13 160.wav",100
Sample,125000,0,"x 5 6 6 x 5 Amaj7 M 80.wav",100
Sample,125079,0,"x 5 6 6 x 5 Amaj7 M 80.wav",100
Sample,125158,0,"33_G#0_190_240.wav",100
Sample,125158,0,"0 160.wav",100
Sample,125158,0,"x 4 4 4 x 4 G#m7 Staccato 320.wav",100
Sample,125315,0,"x x x x x 9 160.wav",100
Sample,125315,0,"33_G#0_190_240.wav",100
Sample,125473,0,"x 4 4 4 x 4 G#m7 Staccato 320.wav",100
Sample,125473,0,"x x x x x 12 160.wav",100
Sample,125631,0,"x x x 11 160.wav",100
Sample,125631,0,"33_G#0_190_240.wav",100
Sample,125710,0,"Snare.wav",59
Sample,125789,0,"33_G#0_190_240.wav",100
Sample,125789,0,"x x x 9 160.wav",100
Sample,125789,0,"x 4 4 4 x 4 G#m7 Staccato 320.wav",100
Sample,125947,0,"x x 11 160.wav",100
Sample,125947,0,"33_G#0_190_240.wav",100
Sample,126105,0,"x 4 4 4 x 4 G#m7 Staccato 320.wav",100
Sample,126105,0,"x x 9 160.wav",100
Sample,126263,0,"x 14 160.wav",100
Sample,126263,0,"33_G#0_190_240.wav",100
Sample,126421,0,"x 12 160.wav",100
Sample,126421,0,"33_G#0_190_240.wav",100
Sample,126421,0,"x 4 4 4 x 4 G#m7 Staccato 320.wav",100
Sample,126579,0,"33_G#0_190_240.wav",100
Sample,126579,0,"x x 13 160.wav",100
Sample,126736,0,"14 160.wav",100
Sample,126736,0,"x 4 4 4 x 4 G#m7 Staccato 320.wav",100
Sample,126894,0,"33_G#0_190_240.wav",100
Sample,126894,0,"12 160.wav",100
Sample,126973,0,"Snare.wav",59
Sample,127052,0,"x 12 160.wav",100
Sample,127052,0,"33_G#0_190_240.wav",100
Sample,127052,0,"x 4 4 4 x 4 G#m7 Staccato 320.wav",100
Sample,127210,0,"33_G#0_190_240.wav",100
Sample,127210,0,"x 9 160.wav",100
Sample,127368,0,"x x 11 160.wav",100
Sample,127368,0,"x 4 4 4 x 4 G#m7 160.wav",100
Sample,127526,0,"33_G#0_190_240.wav",100
Sample,127526,0,"x x 9 160.wav",100
Sample,127526,0,"x 4 4 4 x 4 G#m7 M 80.wav",100
Sample,127605,0,"x 4 4 4 x 4 G#m7 M 80.wav",100
Sample,127684,0,"33_F#0_190_480.wav",100
Sample,127684,0,"x 2 2 2 x 2 F#m7 Staccato 320.wav",100
Sample,127842,0,"x 9 80.wav",100
Sample,127921,0,"x 9 80.wav",100
Sample,128000,0,"x 9 80.wav",100
Sample,128000,0,"x 2 2 2 x 2 F#m7 Staccato 320.wav",100
Sample,128079,0,"x 9 80.wav",100
Sample,128158,0,"x 9 80.wav",100
Sample,128158,0,"33_F#0_190_240.wav",100
Sample,128236,0,"x 9 80.wav",100
Sample,128236,0,"Snare.wav",59
Sample,128315,0,"x 9 160.wav",100
Sample,128315,0,"33_F#0_190_240.wav",100
Sample,128315,0,"x 2 2 2 x 2 F#m7 Staccato 320.wav",100
Sample,128473,0,"33_F#0_190_240.wav",100
Sample,128473,0,"x 0 160.wav",100
Sample,128631,0,"x 2 2 2 x 2 F#m7 Staccato 320.wav",100
Sample,128789,0,"x 9 160.wav",100
Sample,128789,0,"33_F#0_190_240.wav",100
Sample,128947,0,"x 9 160.wav",100
Sample,128947,0,"33_F#0_190_240.wav",100
Sample,128947,0,"x 2 2 2 x 2 F#m7 Staccato 320.wav",100
Sample,129105,0,"33_F#0_190_240.wav",100
Sample,129105,0,"x 9 160.wav",100
Sample,129263,0,"x 9 160.wav",100
Sample,129263,0,"x 2 2 2 x 2 F#m7 Staccato 320.wav",100
Sample,129421,0,"33_F#1_190_240.wav",100
Sample,129421,0,"x 12 160.wav",100
Sample,129500,0,"Snare.wav",59
Sample,129579,0,"x 2 2 2 x 2 F#m7 Staccato 320.wav",100
Sample,129579,0,"33_F#1_190_240.wav",100
Sample,129736,0,"x x 13 160.wav",100
Sample,129736,0,"33_F#1_190_240.wav",100
Sample,129894,0,"x 2 2 2 x 2 F#m7 160.wav",100
Sample,129894,0,"x x 11 160.wav",100
Sample,130052,0,"x x x 14 160.wav",100
Sample,130052,0,"33_F#1_190_240.wav",100
Sample,130052,0,"x 2 2 2 x 2 F#m7 M 80.wav",100
Sample,130131,0,"x 2 2 2 x 2 F#m7 M 80.wav",100
Sample,130210,0,"x 4 4 x 4 C#m9 Staccato 320.wav",100
Sample,130210,0,"33_C#2_190_240.wav",100
Sample,130368,0,"x x 13 160.wav",100
Sample,130368,0,"33_B1_190_240.wav",100
Sample,130526,0,"x 4 4 x 4 C#m9 Staccato 320.wav",100
Sample,130526,0,"x x 16 160.wav",100
Sample,130684,0,"x 9 9 M 80.wav",100
Sample,130684,0,"33_F#1_190_240.wav",100
Sample,130842,0,"x x 11 160.wav",100
Sample,130842,0,"33_G#1_190_240.wav",100
Sample,130842,0,"x 4 4 x 4 C#m9 Staccato 320.wav",100
Sample,131000,0,"33_B1_190_240.wav",100
Sample,131000,0,"x x 13 160.wav",100
Sample,131158,0,"x 4 4 x 4 C#m9 Staccato 320.wav",100
Sample,131315,0,"x x 9 160.wav",100
Sample,131473,0,"x x 11 160.wav",100
Sample,131473,0,"x 4 4 x 4 C#m9 Staccato 320.wav",100
Sample,131631,0,"x x 13 160.wav",100
Sample,131789,0,"x 4 4 x 4 C#m9 320.wav",100
Sample,131947,0,"33_B0_190_240.wav",100
Sample,132105,0,"x 5 6 6 x 5 Amaj7 Staccato 320.wav",100
Sample,132105,0,"12 80.wav",100
Sample,132420,0,"0 80.wav",100
Sample,132420,0,"33_A0_190_240.wav",100
Sample,132420,0,"x 5 6 6 x 5 Amaj7 Staccato 320.wav",100
Sample,132578,0,"33_A0_190_240.wav",100
Sample,132578,0,"0 80.wav",100
Sample,132736,0,"33_A0_190_240.wav",100
Sample,132736,0,"x 12 160.wav",100
Sample,132736,0,"x 5 6 6 x 5 Amaj7 Staccato 320.wav",100
Sample,132894,0,"x 0 160.wav",100
Sample,132894,0,"33_A0_190_240.wav",100
Sample,133052,0,"x 5 6 6 x 5 Amaj7 Staccato 320.wav",100
Sample,133210,0,"33_A0_190_240.wav",100
Sample,133210,0,"x x 11 160.wav",100
Sample,133368,0,"33_A0_190_240.wav",100
Sample,133368,0,"x 5 6 6 x 5 Amaj7 Staccato 320.wav",100
Sample,133526,0,"33_A0_190_240.wav",100
Sample,133526,0,"x x 9 160.wav",100
Sample,133683,0,"x 5 6 6 x 5 Amaj7 Staccato 320.wav",100
Sample,133841,0,"x x 8 160.wav",100
Sample,133841,0,"33_A0_190_240.wav",100
Sample,133920,0,"Snare.wav",59
Sample,133999,0,"33_A0_190_240.wav",100
Sample,133999,0,"x x 9 160.wav",100
Sample,133999,0,"x 5 6 6 x 5 Amaj7 Staccato 320.wav",100
Sample,134157,0,"x x 8 160.wav",100
Sample,134157,0,"33_A0_190_240.wav",100
Sample,134315,0,"x 5 6 6 x 5 Amaj7 160.wav",100
Sample,134315,0,"x x x 11 160.wav",100
Sample,134473,0,"x x x 13 160.wav",100
Sample,134473,0,"33_A0_190_240.wav",100
Sample,134473,0,"x 5 6 6 x 5 Amaj7 M 80.wav",100
Sample,134552,0,"x 5 6 6 x 5 Amaj7 M 80.wav",100
Sample,134631,0,"0 160.wav",100
Sample,134631,0,"33_G#0_190_240.wav",100
Sample,134631,0,"x 4 4 4 x 4 G#m7 Staccato 320.wav",100
Sample,134789,0,"33_G#0_190_240.wav",100
Sample,134789,0,"x x x x x 9 160.wav",100
Sample,134947,0,"x x x x x 12 160.wav",100
Sample,134947,0,"x 4 4 4 x 4 G#m7 Staccato 320.wav",100
Sample,135105,0,"33_G#0_190_240.wav",100
Sample,135105,0,"x x x 11 160.wav",100
Sample,135183,0,"Snare.wav",59
Sample,135262,0,"x x x 9 160.wav",100
Sample,135262,0,"33_G#0_190_240.wav",100
Sample,135262,0,"x 4 4 4 x 4 G#m7 Staccato 320.wav",100
Sample,135420,0,"33_G#0_190_240.wav",100
Sample,135420,0,"x x 11 160.wav",100
Sample,135578,0,"x x 9 160.wav",100
Sample,135578,0,"x 4 4 4 x 4 G#m7 Staccato 320.wav",100
Sample,135736,0,"33_G#0_190_240.wav",100
Sample,135736,0,"x 14 160.wav",100
Sample,135894,0,"33_G#0_190_240.wav",100
Sample,135894,0,"x 12 160.wav",100
Sample,135894,0,"x 4 4 4 x 4 G#m7 Staccato 320.wav",100
Sample,136052,0,"x x 13 160.wav",100
Sample,136052,0,"33_G#0_190_240.wav",100
Sample,136210,0,"x 4 4 4 x 4 G#m7 Staccato 320.wav",100
Sample,136210,0,"14 160.wav",100
Sample,136368,0,"12 160.wav",100
Sample,136368,0,"33_G#0_190_240.wav",100
Sample,136447,0,"Snare.wav",59
Sample,136526,0,"33_G#0_190_240.wav",100
Sample,136526,0,"x 12 160.wav",100
Sample,136526,0,"x 4 4 4 x 4 G#m7 Staccato 320.wav",100
Sample,136683,0,"x 9 160.wav",100
Sample,136683,0,"33_G#0_190_240.wav",100
Sample,136841,0,"x 4 4 4 x 4 G#m7 160.wav",100
Sample,136841,0,"x x 11 160.wav",100
Sample,136999,0,"x 4 4 4 x 4 G#m7 M 80.wav",100
Sample,136999,0,"x x 9 160.wav",100
Sample,137078,0,"x 4 4 4 x 4 G#m7 M 80.wav",100
Sample,137157,0,"33_F#0_190_480.wav",100
Sample,137157,0,"x 2 2 2 x 2 F#m7 Staccato 320.wav",100
Sample,137315,0,"x 9 80.wav",100
Sample,137394,0,"x 9 80.wav",100
Sample,137473,0,"x 9 80.wav",100
Sample,137473,0,"x 2 2 2 x 2 F#m7 Staccato 320.wav",100
Sample,137552,0,"x 9 80.wav",100
Sample,137631,0,"x 9 80.wav",100
Sample,137631,0,"33_F#0_190_240.wav",100
Sample,137710,0,"x 9 80.wav",100
Sample,137789,0,"33_F#0_190_240.wav",100
Sample,137789,0,"x 9 160.wav",100
Sample,137789,0,"x 2 2 2 x 2 F#m7 Staccato 320.wav",100
Sample,137947,0,"x 0 160.wav",100
Sample,137947,0,"33_F#0_190_240.wav",100
Sample,138105,0,"x 2 2 2 x 2 F#m7 Staccato 320.wav",100
Sample,138262,0,"33_F#0_190_240.wav",100
Sample,138262,0,"x 9 160.wav",100
Sample,138420,0,"33_B0_190_240.wav",100
Sample,138420,0,"x 9 160.wav",100
Sample,138420,0,"x 2 2 2 x 2 F#m7 Staccato 320.wav",100
Sample,138578,0,"x 9 160.wav",100
Sample,138578,0,"33_B0_190_240.wav",100
Sample,138736,0,"x 2 2 2 x 2 F#m7 Staccato 320.wav",100
Sample,138736,0,"x 9 160.wav",100
Sample,138894,0,"x 12 160.wav",100
Sample,138894,0,"33_B0_190_240.wav",100
Sample,139052,0,"x 2 2 2 x 2 F#m7 Staccato 320.wav",100
Sample,139052,0,"33_E1_190_240.wav",100
Sample,139210,0,"x x 13 160.wav",100
Sample,139210,0,"33_F#1_190_240.wav",100
Sample,139368,0,"x 2 2 2 x 2 F#m7 160.wav",100
Sample,139368,0,"x x 11 160.wav",100
Sample,139526,0,"x 2 2 2 x 2 F#m7 M 80.wav",100
Sample,139526,0,"x x 9 160.wav",100
Sample,139605,0,"x 2 2 2 x 2 F#m7 M 80.wav",100
Sample,139683,0,"33_E0_190_240.wav",100
Sample,139683,0,"x 9 9 214.wav",100
Sample,139683,0,"0 0 1 2 2 0 E 480.wav",100
Sample,139841,0,"33_E0_190_240.wav",100
Sample,139999,0,"33_D#1_190_240.wav",100
Sample,140157,0,"33_E1_190_480.wav",100
Sample,140157,0,"Hi-hat close.wav",59
Sample,140157,0,"0 0 1 2 2 0 E 320.wav",100
Sample,140315,0,"x 12 13 214.wav",100
Sample,140473,0,"0 0 1 2 2 0 E 160.wav",100
Sample,140473,0,"33_E0_190_240.wav",100
Sample,140631,0,"0 0 1 2 2 0 E 160.wav",100
Sample,140631,0,"33_E0_190_240.wav",100
Sample,140789,0,"0 0 1 2 2 0 E 160.wav",100
Sample,140789,0,"33_E1_190_240.wav",100
Sample,140947,0,"12 12 Staccato 320.wav",100
Sample,140947,0,"33_F#1_190_240.wav",100
Sample,140947,0,"0 0 1 2 2 0 E 160.wav",100
Sample,141105,0,"0 0 1 2 2 0 E 160.wav",100
Sample,141262,0,"0 0 1 2 2 0 E 160.wav",100
Sample,141262,0,"33_E1_190_480.wav",100
Sample,141420,0,"0 0 1 2 2 0 E 160.wav",100
Sample,141578,0,"33_A1_190_240.wav",100
Sample,141578,0,"0 0 1 2 2 0 E 160.wav",100
Sample,141736,0,"x 12 12 12 12 M 160.wav",100
Sample,141736,0,"0 0 1 2 2 0 E 160.wav",100
Sample,141894,0,"33_E1_190_480.wav",100
Sample,141894,0,"x 0 0 0 0 320.wav",100
Sample,142210,0,"x x 9 9 160.wav",100
Sample,142210,0,"x 5 6 6 x 5 Amaj7 320.wav",100
Sample,142526,0,"x 5 6 6 x 5 Amaj7 160.wav",100
Sample,142683,0,"x 5 6 6 x 5 Amaj7 320.wav",100
Sample,142683,0,"x 9 9 9 160.wav",100
Sample,142841,0,"x 9 9 9 160.wav",100
Sample,142999,0,"x 9 11 9 160.wav",100
Sample,142999,0,"x 5 6 6 x 5 Amaj7 160.wav",100
Sample,143157,0,"x 5 6 6 x 5 Amaj7 160.wav",100
Sample,143315,0,"x 5 6 6 x 5 Amaj7 160.wav",100
Sample,143315,0,"x 9 9 9 160.wav",100
Sample,143473,0,"x 5 6 6 x 5 Amaj7 160.wav",100
Sample,143473,0,"x 9 9 9 160.wav",100
Sample,143631,0,"x 5 6 6 x 5 Amaj7 160.wav",100
Sample,143631,0,"x 9 11 9 160.wav",100
Sample,143789,0,"x 5 6 6 x 5 Amaj7 160.wav",100
Sample,143947,0,"x 9 9 9 160.wav",100
Sample,143947,0,"x 5 6 6 x 5 Amaj7 160.wav",100
Sample,144105,0,"x 9 9 9 160.wav",100
Sample,144105,0,"x 5 6 6 x 5 Amaj7 160.wav",100
Sample,144262,0,"x 9 11 9 160.wav",100
Sample,144262,0,"x 5 6 6 x 5 Amaj7 160.wav",100
Sample,144420,0,"x 9 9 9 160.wav",100
Sample,144420,0,"x 5 6 6 x 5 Amaj7 160.wav",100
Sample,144578,0,"x 9 11 9 160.wav",100
Sample,144578,0,"x 5 6 6 x 5 Amaj7 160.wav",100
Sample,144736,0,"x 12 11 9 160.wav",100
Sample,144736,0,"x 4 4 4 x 5 B7 320.wav",100
Sample,144894,0,"x 12 11 9 160.wav",100
Sample,145052,0,"x 4 4 4 x 5 B7 160.wav",100
Sample,145210,0,"x 4 4 4 160.wav",100
Sample,145210,0,"x 4 4 4 x 5 B7 320.wav",100
Sample,145526,0,"x 4 6 4 160.wav",100
Sample,145526,0,"x 4 4 4 x 5 B7 160.wav",100
Sample,145683,0,"x 4 4 4 x 5 B7 160.wav",100
Sample,145802,0,"33_A1_190_60.wav",100
Sample,145841,0,"x 4 4 4 160.wav",100
Sample,145841,0,"x 4 4 4 x 5 B7 160.wav",100
Sample,145999,0,"x 4 4 4 x 5 B7 160.wav",100
Sample,146157,0,"x 4 4 4 x 5 B7 160.wav",100
Sample,146157,0,"x 4 6 4 160.wav",100
Sample,146473,0,"x 4 4 4 x 5 B7 160.wav",100
Sample,146473,0,"x 4 4 4 160.wav",100
Sample,146631,0,"x 4 4 4 x 5 B7 160.wav",100
Sample,146631,0,"x 4 4 4 160.wav",100
Sample,146789,0,"x 4 4 4 x 5 B7 160.wav",100
Sample,146789,0,"x 4 6 4 160.wav",100
Sample,146947,0,"x 4 4 4 x 5 B7 160.wav",100
Sample,146947,0,"x 4 4 4 320.wav",100
Sample,147262,0,"x x 4 4 x 4 160.wav",100
Sample,147262,0,"33_G#0_190_480.wav",100
Sample,147262,0,"x 4 4 4 x 4 G#m7 320.wav",100
Sample,147578,0,"x x 4 4 x 4 160.wav",100
Sample,147578,0,"x 4 4 4 x 4 G#m7 160.wav",100
Sample,147736,0,"x x 4 4 x 4 160.wav",100
Sample,147736,0,"x 4 4 4 x 4 G#m7 320.wav",100
Sample,147894,0,"x x 4 4 x 4 160.wav",100
Sample,148052,0,"x 4 4 4 x 4 G#m7 160.wav",100
Sample,148052,0,"x x 4 4 x 4 160.wav",100
Sample,148210,0,"x 4 4 4 x 4 G#m7 160.wav",100
Sample,148210,0,"x x 4 4 x 4 160.wav",100
Sample,148368,0,"x 4 4 4 x 4 G#m7 160.wav",100
Sample,148368,0,"x x 4 4 x 4 160.wav",100
Sample,148526,0,"x 4 5 4 3 Cdim 160.wav",100
Sample,148526,0,"8 x 5 160.wav",100
Sample,148683,0,"x 4 5 4 3 Cdim 160.wav",100
Sample,148683,0,"8 x 5 160.wav",100
Sample,148841,0,"x 4 5 4 3 Cdim 160.wav",100
Sample,148841,0,"8 x 5 160.wav",100
Sample,148999,0,"x 4 5 4 3 Cdim 160.wav",100
Sample,148999,0,"9 x 6 160.wav",100
Sample,149157,0,"x 4 5 4 3 Cdim 160.wav",100
Sample,149157,0,"9 x 6 160.wav",100
Sample,149315,0,"x 4 5 4 3 Cdim 160.wav",100
Sample,149315,0,"9 x 6 160.wav",100
Sample,149473,0,"x 4 5 4 3 Cdim 160.wav",100
Sample,149473,0,"11 x 8 160.wav",100
Sample,149631,0,"x 4 5 4 3 Cdim 160.wav",100
Sample,149631,0,"11 x 8 160.wav",100
Sample,149789,0,"x 4 4 x 4 C#m9 160.wav",100
Sample,149789,0,"12 x 9 320.wav",100
Sample,149947,0,"x 4 4 x 4 C#m9 160.wav",100
Sample,149947,0,"33_C#1_190_240.wav",100
Sample,150105,0,"x 4 4 x 4 C#m9 160.wav",100
Sample,150105,0,"0 160.wav",100
Sample,150262,0,"x 5 4 x 4 C#m7 320.wav",100
Sample,150262,0,"2 160.wav",100
Sample,150420,0,"4 160.wav",100
Sample,150578,0,"33_C#1_190_240.wav",100
Sample,150578,0,"2 54.wav",100
Sample,150578,0,"x 5 4 x 4 C#m7 160.wav",100
Sample,150736,0,"0 160.wav",100
Sample,150736,0,"33_C#1_190_240.wav",100
Sample,150736,0,"x 5 4 x 4 C#m7 320.wav",100
Sample,151052,0,"33_B0_190_240.wav",100
Sample,151052,0,"x x 2 160.wav",100
Sample,151052,0,"x 3 2 0 2 Bm7 160.wav",100
Sample,151210,0,"x 3 2 0 2 Bm7 160.wav",100
Sample,151210,0,"x x 1 160.wav",100
Sample,151368,0,"x 3 2 0 2 Bm7 320.wav",100
Sample,151368,0,"x x x 2 160.wav",100
Sample,151683,0,"x x x x 0 160.wav",100
Sample,151683,0,"33_E1_190_240.wav",100
Sample,151683,0,"0 0 1 2 2 0 E 160.wav",100
Sample,151841,0,"x x x x x 4 160.wav",100
Sample,151841,0,"0 0 1 2 2 0 E 160.wav",100
Sample,151999,0,"33_G#1_190_480.wav",100
Sample,151999,0,"x x x x x 0 320.wav",100
Sample,151999,0,"0 0 1 2 2 0 E 320.wav",100
Sample,152315,0,"x 5 6 6 x 5 Amaj7 320.wav",100
Sample,152315,0,"x x 9 9 160.wav",100
Sample,152631,0,"x 5 6 6 x 5 Amaj7 160.wav",100
Sample,152789,0,"x 9 9 9 160.wav",100
Sample,152789,0,"x 5 6 6 x 5 Amaj7 320.wav",100
Sample,152947,0,"x 9 9 9 160.wav",100
Sample,153105,0,"x 5 6 6 x 5 Amaj7 160.wav",100
Sample,153105,0,"x 9 11 9 160.wav",100
Sample,153262,0,"x 5 6 6 x 5 Amaj7 160.wav",100
Sample,153420,0,"x 9 9 9 160.wav",100
Sample,153420,0,"x 5 6 6 x 5 Amaj7 160.wav",100
Sample,153578,0,"x 9 9 9 160.wav",100
Sample,153578,0,"x 5 6 6 x 5 Amaj7 160.wav",100
Sample,153736,0,"x 9 11 9 160.wav",100
Sample,153736,0,"x 5 6 6 x 5 Amaj7 160.wav",100
Sample,153894,0,"x 5 6 6 x 5 Amaj7 160.wav",100
Sample,154052,0,"x 5 6 6 x 5 Amaj7 160.wav",100
Sample,154052,0,"x 9 9 9 160.wav",100
Sample,154210,0,"x 5 6 6 x 5 Amaj7 160.wav",100
Sample,154368,0,"x 9 11 9 160.wav",100
Sample,154368,0,"x 5 6 6 x 5 Amaj7 160.wav",100
Sample,154526,0,"x 9 9 9 160.wav",100
Sample,154526,0,"x 5 6 6 x 5 Amaj7 160.wav",100
Sample,154683,0,"x 5 6 6 x 5 Amaj7 160.wav",100
Sample,154841,0,"x 4 4 4 x 5 B7 320.wav",100
Sample,154841,0,"x 12 11 9 160.wav",100
Sample,154999,0,"x 12 11 9 160.wav",100
Sample,155157,0,"x 4 4 4 x 5 B7 160.wav",100
Sample,155315,0,"x 4 4 4 x 5 B7 320.wav",100
Sample,155315,0,"x 4 4 4 160.wav",100
Sample,155631,0,"x 4 4 4 x 5 B7 160.wav",100
Sample,155631,0,"x 4 6 4 160.wav",100
Sample,155947,0,"x 4 4 4 x 5 B7 160.wav",100
Sample,155947,0,"x 4 4 4 160.wav",100
Sample,156105,0,"x 4 4 4 x 5 B7 160.wav",100
Sample,156262,0,"x 4 6 4 160.wav",100
Sample,156262,0,"x 4 4 4 x 5 B7 160.wav",100
Sample,156420,0,"x 4 4 4 x 5 B7 160.wav",100
Sample,156578,0,"x 4 4 4 x 5 B7 160.wav",100
Sample,156578,0,"x 4 4 4 160.wav",100
Sample,156736,0,"x 4 4 4 x 5 B7 160.wav",100
Sample,156894,0,"x 4 6 4 160.wav",100
Sample,156894,0,"x 4 4 4 x 5 B7 160.wav",100
Sample,157052,0,"x 4 4 4 320.wav",100
Sample,157052,0,"x 4 4 4 x 5 B7 160.wav",100
Sample,157368,0,"33_G#0_190_480.wav",100
Sample,157368,0,"x 9 11 bend full Left-hand vibrato 480.wav",100
Sample,157368,0,"x 4 4 4 x 4 G#m7 320.wav",100
Sample,157683,0,"x 4 4 4 x 4 G#m7 160.wav",100
Sample,157841,0,"x 9 11 prebend full Left-hand vibrato 480.wav",100
Sample,157841,0,"x 4 4 4 x 4 G#m7 320.wav",100
Sample,158157,0,"x 4 4 4 x 4 G#m7 160.wav",100
Sample,158315,0,"x 4 4 4 x 4 G#m7 160.wav",100
Sample,158315,0,"x 9 11 prebend full Left-hand vibrato 320.wav",100
Sample,158473,0,"x 4 4 4 x 4 G#m7 160.wav",100
Sample,158631,0,"x 13 15 bend full Left-hand vibrato 480.wav",100
Sample,158631,0,"x 4 5 4 3 Cdim 160.wav",100
Sample,158789,0,"33_C1_190_240.wav",100
Sample,158789,0,"x 4 5 4 3 Cdim 160.wav",100
Sample,158947,0,"x 4 5 4 3 Cdim 160.wav",100
Sample,159105,0,"x 4 5 4 3 Cdim 160.wav",100
Sample,159105,0,"x 13 15 prebend full Left-hand vibrato 480.wav",100
Sample,159262,0,"x 4 5 4 3 Cdim 160.wav",100
Sample,159420,0,"x 4 5 4 3 Cdim 160.wav",100
Sample,159578,0,"x 4 5 4 3 Cdim 160.wav",100
Sample,159578,0,"x 13 15 prebend full Left-hand vibrato 320.wav",100
Sample,159736,0,"x 4 5 4 3 Cdim 160.wav",100
Sample,159894,0,"x 14 16 bend full Left-hand vibrato 480.wav",100
Sample,159894,0,"x 4 4 x 4 C#m9 160.wav",100
Sample,160052,0,"33_C#1_190_240.wav",100
Sample,160052,0,"x 4 4 x 4 C#m9 160.wav",100
Sample,160210,0,"x 4 4 x 4 C#m9 160.wav",100
Sample,160368,0,"x 4 4 x 4 C#m9 160.wav",100
Sample,160368,0,"x 14 16 prebend full Left-hand vibrato 480.wav",100
Sample,160526,0,"x 5 4 x 4 C#m7 160.wav",100
Sample,160683,0,"x 5 4 x 4 C#m7 160.wav",100
Sample,160841,0,"x 5 4 x 4 C#m7 160.wav",100
Sample,160841,0,"2 2 M 320.wav",100
Sample,160999,0,"x 5 4 x 4 C#m7 160.wav",100
Sample,161157,0,"12 12 1280.wav",100
Sample,161157,0,"x 5 4 x 5 D6add9 1280.wav",100
Sample,162420,0,"11 160.wav",100
Sample,162420,0,"x 4 4 x 4 C#m9 160.wav",100
Sample,162578,0,"x x 9 160.wav",100
Sample,162578,0,"x 5 4 x 4 C#m7 160.wav",100
Sample,162736,0,"33_C#1_190_240.wav",100
Sample,162736,0,"x 12 160.wav",100
Sample,162736,0,"x 5 4 x 4 C#m7 160.wav",100
Sample,162894,0,"x 4 4 x 4 C#m9 160.wav",100
Sample,162894,0,"x x x 9 160.wav",100
Sample,163210,0,"x 4 4 x 4 C#m9 M 160.wav",100
Sample,163368,0,"33_C#1_190_240.wav",100
Sample,163368,0,"x x x x x 9 160.wav",100
Sample,163368,0,"x 4 4 x 4 C#m9 160.wav",100
Sample,163526,0,"x 5 4 x 4 C#m7 160.wav",100
Sample,163526,0,"x x x x 7 160.wav",100
Sample,163683,0,"x x x x 9 160.wav",100
Sample,163683,0,"33_C#1_190_240.wav",100
Sample,163683,0,"x 5 4 x 4 C#m7 160.wav",100
Sample,163841,0,"x 4 4 x 4 C#m9 160.wav",100
Sample,163999,0,"x x x x 4 160.wav",100
Sample,163999,0,"x x x 9 160.wav",100
Sample,164157,0,"x x x x 4 160.wav",100
Sample,164315,0,"x x x 14 160.wav",100
Sample,164315,0,"x 4 4 x 4 C#m9 M 160.wav",100
Sample,164473,0,"x 12 160.wav",100
Sample,164473,0,"x 4 4 x 4 C#m9 M 160.wav",100
Sample,164631,0,"x x 14 480.wav",100
Sample,164631,0,"x x x x 5 320.wav",100
Sample,164947,0,"x 4 4 x 4 C#m9 M 160.wav",100
Sample,165262,0,"x 4 4 x 4 C#m9 M 160.wav",100
Sample,165262,0,"12 160.wav",100
Sample,165420,0,"x 4 4 x 4 C#m9 M 160.wav",100
Sample,165578,0,"x x 5 320.wav",100
Sample,165894,0,"x x 5 160.wav",100
Sample,165894,0,"12 160.wav",100
Sample,166052,0,"x x x x 5 160.wav",100
Sample,166210,0,"12 160.wav",100
Sample,166210,0,"x x 5 160.wav",100
Sample,166526,0,"12 320.wav",100
Sample,166526,0,"x x 5 320.wav",100
Sample,166841,0,"x x 5 160.wav",100
Sample,166999,0,"x x 5 160.wav",100
Sample,167157,0,"x 4 4 x 4 C#m9 M 160.wav",100
Sample,167473,0,"x 4 4 x 4 C#m9 160.wav",100
Sample,167473,0,"11 160.wav",100
Sample,167631,0,"x 5 4 x 4 C#m7 160.wav",100
Sample,167789,0,"33_C#1_190_240.wav",100
Sample,167789,0,"x 12 160.wav",100
Sample,167789,0,"x 5 4 x 4 C#m7 160.wav",100
Sample,167947,0,"x 4 4 x 4 C#m9 160.wav",100
Sample,167947,0,"x x x 9 160.wav",100
Sample,168262,0,"x 4 4 x 4 C#m9 M 160.wav",100
Sample,168420,0,"33_C#1_190_240.wav",100
Sample,168420,0,"x x x x x 9 160.wav",100
Sample,168420,0,"x 4 4 x 4 C#m9 160.wav",100
Sample,168578,0,"x 5 4 x 4 C#m7 160.wav",100
Sample,168578,0,"x x x x 7 160.wav",100
Sample,168736,0,"x x x x 9 160.wav",100
Sample,168736,0,"33_C#1_190_240.wav",100
Sample,168736,0,"x 5 4 x 4 C#m7 160.wav",100
Sample,168894,0,"x 4 4 x 4 C#m9 160.wav",100
Sample,169052,0,"x x x x 4 160.wav",100
Sample,169052,0,"x x x 9 160.wav",100
Sample,169210,0,"x x x x 4 160.wav",100
Sample,169368,0,"x x x 14 160.wav",100
Sample,169368,0,"x 4 4 x 4 C#m9 M 160.wav",100
Sample,169526,0,"x 12 160.wav",100
Sample,169526,0,"x 4 4 x 4 C#m9 M 160.wav",100
Sample,169683,0,"x x 14 480.wav",100
Sample,169683,0,"x x x x 5 320.wav",100
Sample,169999,0,"x 4 4 x 4 C#m9 M 160.wav",100
Sample,170315,0,"x 4 4 x 4 C#m9 M 160.wav",100
Sample,170315,0,"12 160.wav",100
Sample,170473,0,"x 4 4 x 4 C#m9 M 160.wav",100
Sample,170631,0,"x x 5 320.wav",100
Sample,170947,0,"x x 5 160.wav",100
Sample,170947,0,"12 160.wav",100
Sample,171262,0,"12 160.wav",100
Sample,171262,0,"33_D#0_190_960.wav",100
Sample,171262,0,"x x 5 160.wav",100
Sample,171420,0,"x x x x 5 160.wav",100
Sample,171578,0,"x x 5 320.wav",100
Sample,171894,0,"x x 5 160.wav",100
Sample,172526,0,"x 2 2 2 x 2 F#m7 640.wav",100
Sample,172526,0,"12 x 9 80.wav",100
Sample,172683,0,"12 x 9 80.wav",100
Sample,172841,0,"33_F#1_190_240.wav",100
Sample,172841,0,"12 x 9 80.wav",100
Sample,172999,0,"12 x 9 80.wav",100
Sample,173157,0,"x 2 2 2 x 2 F#m7 320.wav",100
Sample,173157,0,"12 x 9 80.wav",100
Sample,173315,0,"12 x 9 80.wav",100
Sample,173473,0,"33_C#1_190_240.wav",100
Sample,173473,0,"12 x 9 80.wav",100
Sample,173473,0,"x 2 2 2 x 2 F#m7 160.wav",100
Sample,173631,0,"x 2 2 2 x 2 F#m7 160.wav",100
Sample,173789,0,"33_F#0_190_240.wav",100
Sample,173789,0,"12 x 9 80.wav",100
Sample,173789,0,"x 2 2 2 x 2 F#m7 320.wav",100
Sample,174105,0,"14 x 11 80.wav",100
Sample,174105,0,"33_G#0_190_240.wav",100
Sample,174105,0,"x 4 4 4 x 4 G#m7 320.wav",100
Sample,174262,0,"14 x 11 80.wav",100
Sample,174420,0,"x 4 4 4 x 4 G#m7 M 160.wav",100
Sample,174420,0,"16 x 13 80.wav",100
Sample,174578,0,"x 4 4 4 x 4 G#m7 M 160.wav",100
Sample,174578,0,"16 x 13 80.wav",100
Sample,174736,0,"x 5 6 6 x 5 Amaj7 640.wav",100
Sample,174736,0,"19 x 16 80.wav",100
Sample,175052,0,"19 Left-hand vibrato 80.wav",100
Sample,175368,0,"33_B1_190_240.wav",100
Sample,175368,0,"19 Left-hand vibrato 80.wav",100
Sample,175368,0,"x 5 6 6 x 5 Amaj7 320.wav",100
Sample,175526,0,"19 Left-hand vibrato 80.wav",100
Sample,175683,0,"19 Left-hand vibrato 80.wav",100
Sample,175683,0,"x 5 6 6 x 5 Amaj7 320.wav",100
Sample,175841,0,"19 Left-hand vibrato 80.wav",100
Sample,175999,0,"19 Left-hand vibrato 80.wav",100
Sample,175999,0,"33_E1_190_240.wav",100
Sample,175999,0,"x 5 6 6 x 5 Amaj7 160.wav",100
Sample,176157,0,"x 5 6 6 x 5 Amaj7 160.wav",100
Sample,176315,0,"19 Left-hand vibrato 80.wav",100
Sample,176315,0,"33_A0_190_240.wav",100
Sample,176315,0,"x 5 6 6 x 5 Amaj7 320.wav",100
Sample,176631,0,"33_B0_190_240.wav",100
Sample,176631,0,"x 4 4 4 2 B 320.wav",100
Sample,176947,0,"19 bend full 320.wav",100
Sample,176947,0,"x 4 4 4 2 B M 160.wav",100
Sample,177105,0,"33_B0_190_240.wav",100
Sample,177105,0,"x 4 4 4 2 B M 160.wav",100
Sample,177262,0,"19 Left-hand vibrato 640.wav",100
Sample,177262,0,"x 5 4 x 4 C#m7 640.wav",100
Sample,177894,0,"33_C#2_190_240.wav",100
Sample,177894,0,"x 5 4 x 4 C#m7 320.wav",100
Sample,178210,0,"x 12 11 bend full 320.wav",100
Sample,178210,0,"x 5 4 x 4 C#m7 320.wav",100
Sample,178526,0,"33_G#1_190_240.wav",100
Sample,178526,0,"x 12 11 640.wav",100
Sample,178526,0,"x 5 4 x 4 C#m7 160.wav",100
Sample,178841,0,"x 5 4 x 4 C#m7 320.wav",100
Sample,178841,0,"33_F#1_190_240.wav",100
Sample,179157,0,"x x 11 160.wav",100
Sample,179157,0,"33_B1_190_240.wav",100
Sample,179157,0,"x 5 4 x 4 C#m7 320.wav",100
Sample,179315,0,"x x 9 160.wav",100
Sample,179473,0,"x 4 4 x 4 C#m9 M 160.wav",100
Sample,179473,0,"x x 11 160.wav",100
Sample,179631,0,"x 4 4 x 4 C#m9 M 160.wav",100
Sample,179631,0,"x x 13 160.wav",100
Sample,179789,0,"Arp. x 5 4 4 2 Bsus4.wav",100
Sample,179789,0,"x 0 640.wav",100
Sample,180420,0,"x 5 320.wav",100
Sample,180420,0,"33_G#1_190_240.wav",100
Sample,180420,0,"Arp. x x 4 320.wav",100
Sample,180578,0,"33_G#1_190_240.wav",100
Sample,180736,0,"x 4 80.wav",100
Sample,180736,0,"33_F#1_190_240.wav",100
Sample,180736,0,"Arp. x 5 320.wav",100
Sample,180815,0,"x 5 80.wav",100
Sample,180894,0,"x 4 80.wav",100
Sample,180894,0,"33_F#1_190_240.wav",100
Sample,180973,0,"x 2 80.wav",100
Sample,181052,0,"33_C#2_190_240.wav",100
Sample,181052,0,"x 0 640.wav",100
Sample,181052,0,"Arp. x x 4 1600.wav",100
Sample,181210,0,"33_C#2_190_240.wav",100
Sample,181368,0,"33_B1_190_240.wav",100
Sample,181526,0,"33_B1_190_240.wav",100
Sample,181683,0,"33_E2_190_240.wav",100
Sample,181683,0,"x 2 M 320.wav",100
Sample,181841,0,"33_E2_190_240.wav",100
Sample,181999,0,"x 12 Left-hand vibrato 3840.wav",100
Sample,181999,0,"33_D#2_190_240.wav",100
Sample,182157,0,"33_D#2_190_240.wav",100
Sample,182315,0,"33_B1_190_480.wav",100
Sample,182789,0,"x x 6 6 x 5 Amaj7 160.wav",100
Sample,182947,0,"x x 6 6 x 5 Amaj7 160.wav",100
Sample,183105,0,"x x 6 6 x 5 Amaj7 160.wav",100
Sample,183262,0,"x x 6 6 x 5 Amaj7 160.wav",100
Sample,183420,0,"x x 6 6 x 5 Amaj7 160.wav",100
Sample,183578,0,"x x 6 6 x 5 Amaj7 160.wav",100
Sample,183736,0,"x x 6 6 x 5 Amaj7 160.wav",100
Sample,184052,0,"x x 6 6 x 5 Amaj7 160.wav",100
Sample,184368,0,"x x 6 6 x 5 Amaj7 160.wav",100
Sample,184683,0,"x x 6 6 x 5 Amaj7 160.wav",100
Sample,184999,0,"x x 6 6 x 5 Amaj7 160.wav",100
Sample,185157,0,"x x 4 4 x 4 G#m7 160.wav",100
Sample,185315,0,"x x 4 4 x 4 G#m7 160.wav",100
Sample,185473,0,"x x 4 4 x 4 G#m7 160.wav",100
Sample,185631,0,"x x 4 4 x 4 G#m7 160.wav",100
Sample,185789,0,"x x 4 4 x 4 G#m7 160.wav",100
Sample,185947,0,"x x 4 4 x 4 G#m7 160.wav",100
Sample,186262,0,"x x 4 4 x 4 G#m7 160.wav",100
Sample,186578,0,"x x 4 4 x 4 G#m7 160.wav",100
Sample,186894,0,"x x 4 4 x 4 G#m7 160.wav",100
Sample,187210,0,"x x 4 4 x 4 G#m7 160.wav",100
Sample,187526,0,"x x 4 4 x 4 G#m7 160.wav",100
Sample,187841,0,"x x 2 2 x 2 F#m7 160.wav",100
Sample,187999,0,"x x 2 2 x 2 F#m7 160.wav",100
Sample,188157,0,"x x 2 2 x 2 F#m7 160.wav",100
Sample,188315,0,"x x 2 2 x 2 F#m7 160.wav",100
Sample,188473,0,"x x 2 2 x 2 F#m7 160.wav",100
Sample,188789,0,"x x 2 2 x 2 F#m7 160.wav",100
Sample,189105,0,"x x 2 2 x 2 F#m7 160.wav",100
Sample,189420,0,"x x 2 2 x 2 F#m7 160.wav",100
Sample,189736,0,"x x 2 2 x 2 F#m7 160.wav",100
Sample,190052,0,"x x 2 2 x 2 F#m7 160.wav",100
Sample,190210,0,"x 4 4 x 4 C#m9 Staccato 320.wav",100
Sample,190210,0,"x 0 214.wav",100
Sample,190420,0,"x 12 214.wav",100
Sample,190420,0,"33_E0_190_320.wav",100
Sample,190631,0,"x 0 214.wav",100
Sample,190841,0,"x 7 214.wav",100
Sample,190841,0,"x 5 4 x 4 C#m7 Staccato 320.wav",100
Sample,191052,0,"33_E0_190_320.wav",100
Sample,191052,0,"x 0 214.wav",100
Sample,191262,0,"x 9 214.wav",100
Sample,191473,0,"x 4 4 x 4 C#m9 Staccato 320.wav",100
Sample,191473,0,"x 0 214.wav",100
Sample,191683,0,"x 5 214.wav",100
Sample,191683,0,"33_E0_190_320.wav",100
Sample,191894,0,"x 0 214.wav",100
Sample,192105,0,"0 0 1 2 2 0 E Arpeggio up 640.wav",100
Sample,192262,0,"x x 4 4 4 4 M 160.wav",100
Sample,192420,0,"Hi-hat close.wav",70
Sample,192420,0,"x 0 0 0 0 320.wav",100
Sample,192736,0,"x x x x x 5 160.wav",100
Sample,192736,0,"x 5 6 6 x 5 Amaj7 320.wav",100
Sample,192894,0,"x x x x x 5 160.wav",100
Sample,193052,0,"x x x x x 5 160.wav",100
Sample,193052,0,"33_A1_190_240.wav",100
Sample,193052,0,"x 5 6 6 x 5 Amaj7 160.wav",100
Sample,193210,0,"x x x x x 5 160.wav",100
Sample,193210,0,"x 5 6 6 x 5 Amaj7 160.wav",100
Sample,193368,0,"33_B1_190_240.wav",100
Sample,193368,0,"x x x x x 5 160.wav",100
Sample,193368,0,"x 5 6 6 x 5 Amaj7 160.wav",100
Sample,193526,0,"x 5 6 6 x 5 Amaj7 160.wav",100
Sample,193526,0,"x x x x x 5 160.wav",100
Sample,193683,0,"x x x x x 5 160.wav",100
Sample,193683,0,"33_C#2_190_240.wav",100
Sample,193683,0,"x 5 6 6 x 5 Amaj7 160.wav",100
Sample,193841,0,"x x x x x 5 160.wav",100
Sample,193841,0,"x 5 6 6 x 5 Amaj7 160.wav",100
Sample,193999,0,"33_C#2_190_240.wav",100
Sample,193999,0,"x x x x 12 160.wav",100
Sample,193999,0,"x 5 6 6 x 5 Amaj7 160.wav",100
Sample,194157,0,"x 5 6 6 x 5 Amaj7 160.wav",100
Sample,194157,0,"x x x x 12 160.wav",100
Sample,194315,0,"x x x x 12 160.wav",100
Sample,194315,0,"33_D#2_190_240.wav",100
Sample,194315,0,"x 5 6 6 x 5 Amaj7 160.wav",100
Sample,194473,0,"x x x x 12 160.wav",100
Sample,194473,0,"x 5 6 6 x 5 Amaj7 160.wav",100
Sample,194631,0,"33_E2_190_240.wav",100
Sample,194631,0,"x x x x 12 160.wav",100
Sample,194631,0,"x 5 6 6 x 5 Amaj7 160.wav",100
Sample,194789,0,"x 5 6 6 x 5 Amaj7 160.wav",100
Sample,194789,0,"x x x x 12 160.wav",100
Sample,194947,0,"x x x x 12 160.wav",100
Sample,194947,0,"33_B1_190_240.wav",100
Sample,194947,0,"x 5 6 6 x 5 Amaj7 160.wav",100
Sample,195105,0,"x x x x 12 160.wav",100
Sample,195105,0,"x 5 6 6 x 5 Amaj7 160.wav",100
Sample,195262,0,"x x x x x 4 160.wav",100
Sample,195262,0,"x 4 4 4 x 4 G#m7 320.wav",100
Sample,195420,0,"x x x x x 4 160.wav",100
Sample,195578,0,"x x x x x 4 160.wav",100
Sample,195578,0,"33_G#1_190_240.wav",100
Sample,195578,0,"x 4 4 4 x 4 G#m7 160.wav",100
Sample,195736,0,"x x x x x 4 160.wav",100
Sample,195736,0,"x 4 4 4 x 4 G#m7 160.wav",100
Sample,195894,0,"33_B1_190_240.wav",100
Sample,195894,0,"x x x x x 4 160.wav",100
Sample,195894,0,"x 4 4 4 x 4 G#m7 160.wav",100
Sample,196052,0,"x 4 4 4 x 4 G#m7 160.wav",100
Sample,196052,0,"x x x x x 4 160.wav",100
Sample,196210,0,"x x x x x 4 160.wav",100
Sample,196210,0,"33_C#2_190_240.wav",100
Sample,196210,0,"x 4 4 4 x 4 G#m7 160.wav",100
Sample,196368,0,"x x x x x 4 160.wav",100
Sample,196368,0,"x 4 4 4 x 4 G#m7 160.wav",100
Sample,196526,0,"33_C#2_190_240.wav",100
Sample,196526,0,"x x x x 11 160.wav",100
Sample,196526,0,"x 4 4 4 x 4 G#m7 160.wav",100
Sample,196683,0,"x 4 4 4 x 4 G#m7 160.wav",100
Sample,196683,0,"x x x x 11 160.wav",100
Sample,196841,0,"x x x x 11 160.wav",100
Sample,196841,0,"33_D#2_190_240.wav",100
Sample,196841,0,"x 4 4 4 x 4 G#m7 160.wav",100
Sample,196999,0,"x x x x 11 160.wav",100
Sample,196999,0,"x 4 4 4 x 4 G#m7 160.wav",100
Sample,197157,0,"33_F#2_190_240.wav",100
Sample,197157,0,"x x x x 11 160.wav",100
Sample,197157,0,"x 4 4 4 x 4 G#m7 160.wav",100
Sample,197315,0,"x 12 12 12 12 M 160.wav",100
Sample,197315,0,"33_D#2_190_240.wav",100
Sample,197315,0,"x 4 4 4 x 4 G#m7 160.wav",100
Sample,197473,0,"33_G#2_190_480.wav",100
Sample,197473,0,"x 0 0 0 0 320.wav",100
Sample,197473,0,"x 4 4 4 x 4 G#m7 160.wav",100
Sample,197631,0,"x 4 4 4 x 4 G#m7 160.wav",100
Sample,197789,0,"x x 11 x 9 160.wav",100
Sample,197789,0,"x 2 2 2 x 2 F#m7 320.wav",100
Sample,197947,0,"x x 11 x 9 M 160.wav",100
Sample,198105,0,"x 2 2 2 x 2 F#m7 160.wav",100
Sample,198105,0,"x x 11 x 9 M 160.wav",100
Sample,198262,0,"x 2 2 2 x 2 F#m7 320.wav",100
Sample,198262,0,"x x 11 x 9 160.wav",100
Sample,198578,0,"x 2 2 2 x 2 F#m7 160.wav",100
Sample,198578,0,"x x 11 x 9 M 160.wav",100
Sample,198736,0,"x 2 2 2 x 2 F#m7 160.wav",100
Sample,198736,0,"x x 11 x 9 160.wav",100
Sample,198894,0,"x 2 2 2 x 2 F#m7 160.wav",100
Sample,198894,0,"x x 11 x 9 160.wav",100
Sample,199052,0,"0 2 2 x 2 F#m7[B] 320.wav",100
Sample,199052,0,"x x 11 x 9 160.wav",100
Sample,199210,0,"x x 11 x 9 M 160.wav",100
Sample,199368,0,"x x 11 x 9 M 160.wav",100
Sample,199368,0,"0 2 2 x 2 F#m7[B] 160.wav",100
Sample,199526,0,"x x 11 x 9 160.wav",100
Sample,199526,0,"0 2 2 x 2 F#m7[B] 320.wav",100
Sample,199841,0,"x x 11 x 9 M 160.wav",100
Sample,199841,0,"0 2 2 x 2 F#m7[B] 160.wav",100
Sample,199999,0,"x x 11 x 9 160.wav",100
Sample,199999,0,"0 2 2 x 2 F#m7[B] 160.wav",100
Sample,200157,0,"0 2 2 x 2 F#m7[B] 160.wav",100
Sample,200315,0,"0 0 1 2 2 0 E 160.wav",100
Sample,200473,0,"0 0 1 2 2 0 E 160.wav",100
Sample,200631,0,"0 0 1 2 2 0 E M 160.wav",100
Sample,200631,0,"x x x x x 0 160.wav",100
Sample,200789,0,"0 0 1 2 2 0 E 160.wav",100
Sample,200789,0,"x x 8 bend half release 320.wav",100
Sample,200947,0,"0 0 1 2 2 0 E 160.wav",100
Sample,200947,0,"33_E1_190_480.wav",100
Sample,201105,0,"0 0 1 2 2 0 E M 160.wav",100
Sample,201262,0,"7 160.wav",100
Sample,201262,0,"x 4 4 x 4 C#m9 160.wav",100
Sample,201420,0,"7 320.wav",100
Sample,201420,0,"x 4 4 x 4 C#m9 320.wav",100
Sample,201578,0,"Hi-hat close.wav",50
Sample,202210,0,"7 7 N.H. 640.wav",100
Sample,202210,0,"33_E1_190_960.wav",100
Sample,202841,0,"x x 9 9 160.wav",100
Sample,202841,0,"33_A0_190_480.wav",100
Sample,202841,0,"x 5 6 6 x 5 Amaj7 320.wav",100
Sample,203157,0,"x 5 6 6 x 5 Amaj7 160.wav",100
Sample,203315,0,"x 5 6 6 x 5 Amaj7 320.wav",100
Sample,203315,0,"x 9 9 9 160.wav",100
Sample,203473,0,"x 9 9 9 160.wav",100
Sample,203631,0,"x 9 11 9 160.wav",100
Sample,203631,0,"x 5 6 6 x 5 Amaj7 160.wav",100
Sample,203789,0,"x 5 6 6 x 5 Amaj7 160.wav",100
Sample,203947,0,"x 5 6 6 x 5 Amaj7 160.wav",100
Sample,203947,0,"x 9 9 9 160.wav",100
Sample,204105,0,"x 5 6 6 x 5 Amaj7 160.wav",100
Sample,204105,0,"x 9 9 9 160.wav",100
Sample,204262,0,"x 5 6 6 x 5 Amaj7 160.wav",100
Sample,204262,0,"x 9 11 9 160.wav",100
Sample,204420,0,"x 5 6 6 x 5 Amaj7 160.wav",100
Sample,204578,0,"x 9 9 9 160.wav",100
Sample,204578,0,"x 5 6 6 x 5 Amaj7 160.wav",100
Sample,204736,0,"x 9 9 9 160.wav",100
Sample,204736,0,"x 5 6 6 x 5 Amaj7 160.wav",100
Sample,204894,0,"x 9 11 9 160.wav",100
Sample,204894,0,"x 5 6 6 x 5 Amaj7 160.wav",100
Sample,205052,0,"x 9 9 9 160.wav",100
Sample,205052,0,"x 5 6 6 x 5 Amaj7 160.wav",100
Sample,205210,0,"x 9 11 9 160.wav",100
Sample,205210,0,"x 5 6 6 x 5 Amaj7 160.wav",100
Sample,205368,0,"x 12 11 9 160.wav",100
Sample,205368,0,"x 4 4 4 x 5 B7 320.wav",100
Sample,205526,0,"x 12 11 9 160.wav",100
Sample,205683,0,"x 4 4 4 x 5 B7 160.wav",100
Sample,205841,0,"x 4 4 4 160.wav",100
Sample,205841,0,"x 4 4 4 x 5 B7 320.wav",100
Sample,205999,0,"x 4 4 4 160.wav",100
Sample,206157,0,"x 4 4 4 x 5 B7 160.wav",100
Sample,206157,0,"x 4 6 4 160.wav",100
Sample,206315,0,"x 4 4 4 x 5 B7 160.wav",100
Sample,206473,0,"x 4 4 4 160.wav",100
Sample,206473,0,"x 4 4 4 x 5 B7 160.wav",100
Sample,206631,0,"x 4 4 4 x 5 B7 160.wav",100
Sample,206789,0,"x 4 4 4 x 5 B7 160.wav",100
Sample,206789,0,"x 4 6 4 160.wav",100
Sample,206947,0,"x 4 4 4 x 5 B7 160.wav",100
Sample,207065,0,"33_A1_190_60.wav",100
Sample,207105,0,"x 4 4 4 x 5 B7 160.wav",100
Sample,207105,0,"x 4 4 4 160.wav",100
Sample,207183,0,"Kick.wav",70
Sample,207262,0,"x 4 4 4 x 5 B7 160.wav",100
Sample,207420,0,"x 4 4 4 x 5 B7 160.wav",100
Sample,207420,0,"x 4 6 4 160.wav",100
Sample,207578,0,"x 4 4 4 x 5 B7 160.wav",100
Sample,207578,0,"x 4 4 4 320.wav",100
Sample,207894,0,"x x 4 4 x 4 160.wav",100
Sample,207894,0,"33_G#0_190_480.wav",100
Sample,207894,0,"x 4 4 4 x 4 G#m7 320.wav",100
Sample,208210,0,"x x 4 4 x 4 160.wav",100
Sample,208210,0,"x 4 4 4 x 4 G#m7 160.wav",100
Sample,208368,0,"x x 4 4 x 4 160.wav",100
Sample,208368,0,"x 4 4 4 x 4 G#m7 320.wav",100
Sample,208526,0,"x x 4 4 x 4 160.wav",100
Sample,208683,0,"x 4 4 4 x 4 G#m7 160.wav",100
Sample,208683,0,"x x 4 4 x 4 160.wav",100
Sample,208841,0,"x 4 4 4 x 4 G#m7 160.wav",100
Sample,208841,0,"x x 4 4 x 4 160.wav",100
Sample,208999,0,"x 4 4 4 x 4 G#m7 160.wav",100
Sample,208999,0,"x x 4 4 x 4 160.wav",100
Sample,209157,0,"x 4 5 4 3 Cdim 160.wav",100
Sample,209157,0,"8 x 5 160.wav",100
Sample,209315,0,"x 4 5 4 3 Cdim 160.wav",100
Sample,209315,0,"8 x 5 160.wav",100
Sample,209473,0,"x 4 5 4 3 Cdim 160.wav",100
Sample,209473,0,"8 x 5 160.wav",100
Sample,209631,0,"x 4 5 4 3 Cdim 160.wav",100
Sample,209631,0,"9 x 6 160.wav",100
Sample,209789,0,"x 4 5 4 3 Cdim 160.wav",100
Sample,209789,0,"9 x 6 160.wav",100
Sample,209947,0,"x 4 5 4 3 Cdim 160.wav",100
Sample,209947,0,"9 x 6 160.wav",100
Sample,210105,0,"x 4 5 4 3 Cdim 160.wav",100
Sample,210105,0,"11 x 8 160.wav",100
Sample,210262,0,"x 4 5 4 3 Cdim 160.wav",100
Sample,210262,0,"11 x 8 160.wav",100
Sample,210420,0,"x 4 4 x 4 C#m9 160.wav",100
Sample,210420,0,"12 x 9 320.wav",100
Sample,210578,0,"x 4 4 x 4 C#m9 160.wav",100
Sample,210578,0,"33_C#1_190_240.wav",100
Sample,210736,0,"x 4 4 x 4 C#m9 160.wav",100
Sample,210736,0,"0 160.wav",100
Sample,210894,0,"x 5 4 x 4 C#m7 320.wav",100
Sample,210894,0,"2 160.wav",100
Sample,211052,0,"4 160.wav",100
Sample,211210,0,"33_C#1_190_240.wav",100
Sample,211210,0,"2 54.wav",100
Sample,211210,0,"x 5 4 x 4 C#m7 160.wav",100
Sample,211368,0,"0 160.wav",100
Sample,211368,0,"33_C#1_190_240.wav",100
Sample,211368,0,"x 5 4 x 4 C#m7 320.wav",100
Sample,211683,0,"33_B0_190_240.wav",100
Sample,211683,0,"x x 2 160.wav",100
Sample,211683,0,"x 3 2 0 2 Bm7 160.wav",100
Sample,211841,0,"x 3 2 0 2 Bm7 160.wav",100
Sample,211841,0,"x x 1 160.wav",100
Sample,211999,0,"x x x 2 160.wav",100
Sample,211999,0,"33_F#1_190_240.wav",100
Sample,211999,0,"x 3 2 0 2 Bm7 320.wav",100
Sample,212157,0,"x x x x 2 160.wav",100
Sample,212315,0,"x x x x 0 160.wav",100
Sample,212315,0,"33_E1_190_240.wav",100
Sample,212315,0,"0 0 1 2 2 0 E 160.wav",100
Sample,212473,0,"x x x x x 4 160.wav",100
Sample,212473,0,"0 0 1 2 2 0 E 160.wav",100
Sample,212631,0,"33_F#1_190_240.wav",100
Sample,212631,0,"x x x x x 0 320.wav",100
Sample,212631,0,"0 0 1 2 2 0 E 320.wav",100
Sample,212947,0,"x 5 6 6 x 5 Amaj7 320.wav",100
Sample,212947,0,"x x 9 9 160.wav",100
Sample,213105,0,"x x 9 9 160.wav",100
Sample,213262,0,"x 5 6 6 x 5 Amaj7 160.wav",100
Sample,213420,0,"x 5 6 6 x 5 Amaj7 320.wav",100
Sample,213420,0,"x 9 9 9 160.wav",100
Sample,213578,0,"x 9 9 9 160.wav",100
Sample,213736,0,"x 9 11 9 160.wav",100
Sample,213736,0,"x 5 6 6 x 5 Amaj7 160.wav",100
Sample,213894,0,"x 5 6 6 x 5 Amaj7 160.wav",100
Sample,214052,0,"x 5 6 6 x 5 Amaj7 160.wav",100
Sample,214052,0,"x 9 9 9 160.wav",100
Sample,214210,0,"x 5 6 6 x 5 Amaj7 160.wav",100
Sample,214210,0,"x 9 9 9 160.wav",100
Sample,214368,0,"x 5 6 6 x 5 Amaj7 160.wav",100
Sample,214368,0,"x 9 11 9 160.wav",100
Sample,214526,0,"x 5 6 6 x 5 Amaj7 160.wav",100
Sample,214683,0,"x 9 9 9 160.wav",100
Sample,214683,0,"x 5 6 6 x 5 Amaj7 160.wav",100
Sample,214841,0,"x 5 6 6 x 5 Amaj7 160.wav",100
Sample,214999,0,"x 5 6 6 x 5 Amaj7 160.wav",100
Sample,214999,0,"x 9 11 9 160.wav",100
Sample,215157,0,"x 5 6 6 x 5 Amaj7 160.wav",100
Sample,215157,0,"x 9 9 9 160.wav",100
Sample,215315,0,"x 5 6 6 x 5 Amaj7 160.wav",100
Sample,215473,0,"x 12 11 9 160.wav",100
Sample,215473,0,"x 4 4 4 x 5 B7 320.wav",100
Sample,215631,0,"x 12 11 9 160.wav",100
Sample,215947,0,"x 4 4 4 x 5 B7 320.wav",100
Sample,215947,0,"x 4 4 4 160.wav",100
Sample,216262,0,"x 4 4 4 x 5 B7 160.wav",100
Sample,216262,0,"x 4 6 4 160.wav",100
Sample,216539,0,"33_E2_190_60.wav",100
Sample,216578,0,"x 4 4 4 160.wav",100
Sample,216578,0,"x 4 4 4 x 5 B7 160.wav",100
Sample,216736,0,"x 4 4 4 x 5 B7 160.wav",100
Sample,216894,0,"x 4 4 4 x 5 B7 160.wav",100
Sample,216894,0,"x 4 6 4 160.wav",100
Sample,217052,0,"x 4 4 4 x 5 B7 160.wav",100
Sample,217210,0,"x 4 4 4 160.wav",100
Sample,217210,0,"x 4 4 4 x 5 B7 160.wav",100
Sample,217368,0,"x 4 4 4 x 5 B7 160.wav",100
Sample,217526,0,"x 4 4 4 x 5 B7 160.wav",100
Sample,217526,0,"x 4 6 4 160.wav",100
Sample,217683,0,"x 4 4 4 x 5 B7 160.wav",100
Sample,217683,0,"x 4 4 4 320.wav",100
Sample,217999,0,"x 9 11 bend full Left-hand vibrato 480.wav",100
Sample,217999,0,"33_G#0_190_480.wav",100
Sample,217999,0,"x 4 4 4 x 4 G#m7 320.wav",100
Sample,218315,0,"x 4 4 4 x 4 G#m7 160.wav",100
Sample,218473,0,"x 4 4 4 x 4 G#m7 320.wav",100
Sample,218473,0,"x 9 11 prebend full Left-hand vibrato 480.wav",100
Sample,218789,0,"x 4 4 4 x 4 G#m7 160.wav",100
Sample,218947,0,"x 9 11 prebend full Left-hand vibrato 320.wav",100
Sample,218947,0,"x 4 4 4 x 4 G#m7 160.wav",100
Sample,219105,0,"x 4 4 4 x 4 G#m7 160.wav",100
Sample,219262,0,"x 4 5 4 3 Cdim 160.wav",100
Sample,219262,0,"x 13 15 bend full Left-hand vibrato 480.wav",100
Sample,219420,0,"x 4 5 4 3 Cdim 160.wav",100
Sample,219420,0,"33_C1_190_240.wav",100
Sample,219578,0,"x 4 5 4 3 Cdim 160.wav",100
Sample,219736,0,"x 13 15 prebend full Left-hand vibrato 480.wav",100
Sample,219736,0,"x 4 5 4 3 Cdim 160.wav",100
Sample,220052,0,"x 4 5 4 3 Cdim 160.wav",100
Sample,220210,0,"x 4 5 4 3 Cdim 160.wav",100
Sample,220210,0,"x 13 15 prebend full Left-hand vibrato 320.wav",100
Sample,220368,0,"x 4 5 4 3 Cdim 160.wav",100
Sample,220526,0,"x 14 16 bend full Left-hand vibrato 480.wav",100
Sample,220526,0,"x 4 4 x 4 C#m9 160.wav",100
Sample,220683,0,"x 4 4 x 4 C#m9 160.wav",100
Sample,220841,0,"x 4 4 x 4 C#m9 160.wav",100
Sample,220999,0,"x 14 16 prebend full Left-hand vibrato 480.wav",100
Sample,220999,0,"x 4 4 x 4 C#m9 160.wav",100
Sample,221157,0,"x 5 4 x 4 C#m7 160.wav",100
Sample,221315,0,"x 5 4 x 4 C#m7 160.wav",100
Sample,221473,0,"2 2 M 320.wav",100
Sample,221473,0,"x 5 4 x 4 C#m7 160.wav",100
Sample,221789,0,"x 5 4 x 5 D6add9 320.wav",100
Sample,221947,0,"12 12 160.wav",100
Sample,222105,0,"12 12 160.wav",100
Sample,222105,0,"x 5 4 x 5 D6add9 320.wav",100
Sample,222262,0,"12 12 160.wav",100
Sample,222420,0,"x 5 4 x 5 D6add9 320.wav",100
Sample,222420,0,"12 12 160.wav",100
Sample,222578,0,"12 12 160.wav",100
Sample,222578,0,"33_D1_190_240.wav",100
Sample,222736,0,"12 12 160.wav",100
Sample,222736,0,"33_D1_190_240.wav",100
Sample,222736,0,"x 5 4 x 5 D6add9 320.wav",100
Sample,222894,0,"33_D1_190_240.wav",100
Sample,222894,0,"12 12 160.wav",100
Sample,223052,0,"x 5 6 6 x 5 Amaj7 640.wav",100
Sample,223210,0,"x 12 11 160.wav",100
Sample,223368,0,"33_A0_190_240.wav",100
Sample,223368,0,"x x 9 9 160.wav",100
Sample,223683,0,"33_A0_190_240.wav",100
Sample,223683,0,"x x 9 9 320.wav",100
Sample,223683,0,"x 5 6 6 x 5 Amaj7 320.wav",100
Sample,223999,0,"x x 9 9 160.wav",100
Sample,223999,0,"33_A0_190_240.wav",100
Sample,223999,0,"x 5 6 6 x 5 Amaj7 160.wav",100
Sample,224157,0,"x x 11 11 160.wav",100
Sample,224157,0,"x 5 6 6 x 5 Amaj7 320.wav",100
Sample,224315,0,"33_A0_190_240.wav",100
Sample,224315,0,"x x 9 9 320.wav",100
Sample,224473,0,"x 5 6 6 x 5 Amaj7 160.wav",100
Sample,224631,0,"x 5 6 6 x 5 Amaj7 320.wav",100
Sample,224631,0,"x x 9 9 160.wav",100
Sample,224947,0,"x 9 9 160.wav",100
Sample,224947,0,"33_A0_190_240.wav",100
Sample,224947,0,"x 5 6 6 x 5 Amaj7 320.wav",100
Sample,225262,0,"x x 9 9 320.wav",100
Sample,225262,0,"x 5 6 6 x 5 Amaj7 160.wav",100
Sample,225420,0,"33_A1_190_240.wav",100
Sample,225420,0,"x 5 6 6 x 5 Amaj7 160.wav",100
Sample,225578,0,"33_G#0_190_240.wav",100
Sample,225578,0,"x 4 4 4 x 4 G#m7 640.wav",100
Sample,225894,0,"33_G#0_190_240.wav",100
Sample,225894,0,"x x 9 9 160.wav",100
Sample,226210,0,"33_G#0_190_240.wav",100
Sample,226210,0,"x x 9 9 320.wav",100
Sample,226210,0,"x 4 4 4 x 4 G#m7 320.wav",100
Sample,226526,0,"x x 9 9 160.wav",100
Sample,226526,0,"33_G#0_190_240.wav",100
Sample,226526,0,"x 4 4 4 x 4 G#m7 160.wav",100
Sample,226683,0,"33_G#1_190_240.wav",100
Sample,226683,0,"x x 11 11 160.wav",100
Sample,226683,0,"x 4 4 4 x 4 G#m7 320.wav",100
Sample,226841,0,"x x 9 9 320.wav",100
Sample,226841,0,"33_G#0_190_240.wav",100
Sample,226999,0,"x 4 4 4 x 4 G#m7 160.wav",100
Sample,227157,0,"x x 9 9 160.wav",100
Sample,227157,0,"x 4 4 4 x 4 G#m7 320.wav",100
Sample,227473,0,"33_G#0_190_240.wav",100
Sample,227473,0,"x 9 9 160.wav",100
Sample,227473,0,"x 4 4 4 x 4 G#m7 320.wav",100
Sample,227789,0,"x 4 4 4 x 4 G#m7 160.wav",100
Sample,227789,0,"x x 9 9 320.wav",100
Sample,227947,0,"x 4 4 4 x 4 G#m7 160.wav",100
Sample,228105,0,"33_F#0_190_240.wav",100
Sample,228105,0,"x 2 2 2 x 2 F#m7 640.wav",100
Sample,228262,0,"x 12 11 160.wav",100
Sample,228420,0,"x x 9 9 160.wav",100
Sample,228420,0,"33_F#0_190_240.wav",100
Sample,228736,0,"x x 9 9 320.wav",100
Sample,228736,0,"33_F#0_190_240.wav",100
Sample,228736,0,"x 2 2 2 x 2 F#m7 320.wav",100
Sample,229052,0,"33_F#0_190_240.wav",100
Sample,229052,0,"x x 9 9 160.wav",100
Sample,229052,0,"x 2 2 2 x 2 F#m7 160.wav",100
Sample,229210,0,"x x 11 11 160.wav",100
Sample,229210,0,"33_F#1_190_240.wav",100
Sample,229210,0,"x 2 2 2 x 2 F#m7 320.wav",100
Sample,229368,0,"33_F#0_190_240.wav",100
Sample,229368,0,"x x 9 9 320.wav",100
Sample,229683,0,"x x 9 9 160.wav",100
Sample,229683,0,"x 2 2 2 x 2 F#m7 320.wav",100
Sample,229999,0,"33_F#0_190_240.wav",100
Sample,229999,0,"x x 9 9 160.wav",100
Sample,229999,0,"x 2 2 2 x 2 F#m7 320.wav",100
Sample,230315,0,"x x 9 9 320.wav",100
Sample,230315,0,"33_F#0_190_240.wav",100
Sample,230315,0,"x 2 2 2 x 2 F#m7 160.wav",100
Sample,230473,0,"33_F#1_190_240.wav",100
Sample,230473,0,"x 2 2 2 x 2 F#m7 160.wav",100
Sample,230631,0,"33_C#1_190_240.wav",100
Sample,230631,0,"x 5 4 x 4 C#m7 640.wav",100
Sample,230947,0,"33_C#1_190_240.wav",100
Sample,230947,0,"x x 9 9 160.wav",100
Sample,231262,0,"33_C#1_190_240.wav",100
Sample,231262,0,"x x 9 9 320.wav",100
Sample,231262,0,"x 5 4 x 4 C#m7 320.wav",100
Sample,231578,0,"x x 9 9 160.wav",100
Sample,231578,0,"33_C#1_190_240.wav",100
Sample,231578,0,"x 5 4 x 4 C#m7 160.wav",100
Sample,231736,0,"x 5 4 x 4 C#m7 320.wav",100
Sample,231894,0,"x x 9 9 320.wav",100
Sample,231894,0,"33_C#1_190_240.wav",100
Sample,232052,0,"x 5 4 x 4 C#m7 160.wav",100
Sample,232210,0,"33_D#2_190_240.wav",100
Sample,232210,0,"x x 9 9 160.wav",100
Sample,232210,0,"x 5 4 x 4 C#m7 320.wav",100
Sample,232368,0,"x x 11 11 160.wav",100
Sample,232368,0,"33_D#2_190_240.wav",100
Sample,232526,0,"x 5 4 x 4 C#m7 320.wav",100
Sample,232526,0,"x x 13 13 160.wav",100
Sample,232683,0,"x x 11 11 160.wav",100
Sample,232841,0,"x x 9 9 160.wav",100
Sample,232841,0,"x 5 4 x 4 C#m7 160.wav",100
Sample,232999,0,"x x x 11 11 160.wav",100
Sample,232999,0,"x 5 4 x 4 C#m7 160.wav",100
Sample,233157,0,"x 5 6 6 x 5 Amaj7 640.wav",100
Sample,233315,0,"x 12 11 160.wav",100
Sample,233473,0,"33_A0_190_240.wav",100
Sample,233473,0,"x x 9 9 160.wav",100
Sample,233789,0,"33_A0_190_240.wav",100
Sample,233789,0,"x x 9 9 320.wav",100
Sample,233789,0,"x 5 6 6 x 5 Amaj7 320.wav",100
Sample,234105,0,"x x 9 9 160.wav",100
Sample,234105,0,"33_A0_190_240.wav",100
Sample,234105,0,"x 5 6 6 x 5 Amaj7 160.wav",100
Sample,234262,0,"33_A1_190_240.wav",100
Sample,234262,0,"x x 11 11 160.wav",100
Sample,234262,0,"x 5 6 6 x 5 Amaj7 320.wav",100
Sample,234420,0,"x x 9 9 320.wav",100
Sample,234420,0,"33_A0_190_240.wav",100
Sample,234736,0,"x 5 6 6 x 5 Amaj7 320.wav",100
Sample,234736,0,"x x 9 9 160.wav",100
Sample,235052,0,"x 9 9 160.wav",100
Sample,235052,0,"33_A0_190_240.wav",100
Sample,235052,0,"x 5 6 6 x 5 Amaj7 320.wav",100
Sample,235368,0,"33_A0_190_240.wav",100
Sample,235368,0,"x x 9 9 320.wav",100
Sample,235368,0,"x 5 6 6 x 5 Amaj7 160.wav",100
Sample,235526,0,"x 5 6 6 x 5 Amaj7 160.wav",100
Sample,235526,0,"33_A1_190_240.wav",100
Sample,235683,0,"x 4 4 4 x 4 G#m7 640.wav",100
Sample,235683,0,"33_G#0_190_240.wav",100
Sample,235999,0,"x x 9 9 160.wav",100
Sample,235999,0,"33_G#0_190_240.wav",100
Sample,236315,0,"x x 9 9 320.wav",100
Sample,236315,0,"33_G#0_190_240.wav",100
Sample,236315,0,"x 4 4 4 x 4 G#m7 320.wav",100
Sample,236631,0,"33_G#0_190_240.wav",100
Sample,236631,0,"x x 9 9 160.wav",100
Sample,236631,0,"x 4 4 4 x 4 G#m7 160.wav",100
Sample,236789,0,"x x 11 11 160.wav",100
Sample,236789,0,"33_G#1_190_240.wav",100
Sample,236789,0,"x 4 4 4 x 4 G#m7 320.wav",100
Sample,236947,0,"33_G#0_190_240.wav",100
Sample,236947,0,"x x 9 9 320.wav",100
Sample,237262,0,"x x 9 9 160.wav",100
Sample,237262,0,"x 4 4 4 x 4 G#m7 320.wav",100
Sample,237578,0,"33_G#0_190_240.wav",100
Sample,237578,0,"x 9 9 160.wav",100
Sample,237578,0,"x 4 4 4 x 4 G#m7 320.wav",100
Sample,237894,0,"x 4 4 4 x 4 G#m7 160.wav",100
Sample,237894,0,"x x 9 9 320.wav",100
Sample,238052,0,"x 4 4 4 x 4 G#m7 160.wav",100
Sample,238210,0,"33_F#0_190_240.wav",100
Sample,238210,0,"x 2 2 2 x 2 F#m7 640.wav",100
Sample,238368,0,"x 12 11 160.wav",100
Sample,238526,0,"x x 9 9 160.wav",100
Sample,238526,0,"33_F#0_190_240.wav",100
Sample,238841,0,"x x 9 9 320.wav",100
Sample,238841,0,"33_F#0_190_240.wav",100
Sample,238841,0,"x 2 2 2 x 2 F#m7 320.wav",100
Sample,239157,0,"33_F#0_190_240.wav",100
Sample,239157,0,"x x 9 9 160.wav",100
Sample,239157,0,"x 2 2 2 x 2 F#m7 160.wav",100
Sample,239315,0,"x x 11 11 160.wav",100
Sample,239315,0,"33_F#1_190_240.wav",100
Sample,239315,0,"x 2 2 2 x 2 F#m7 320.wav",100
Sample,239473,0,"33_F#0_190_240.wav",100
Sample,239473,0,"x x 9 9 320.wav",100
Sample,239789,0,"x x 9 9 160.wav",100
Sample,239789,0,"x 2 2 2 x 2 F#m7 320.wav",100
Sample,240105,0,"33_F#0_190_240.wav",100
Sample,240105,0,"x x 9 9 160.wav",100
Sample,240105,0,"x 2 2 2 x 2 F#m7 320.wav",100
Sample,240420,0,"x x 9 9 320.wav",100
Sample,240420,0,"33_F#0_190_240.wav",100
Sample,240420,0,"x 2 2 2 x 2 F#m7 160.wav",100
Sample,240578,0,"33_F#1_190_240.wav",100
Sample,240578,0,"x 2 2 2 x 2 F#m7 160.wav",100
Sample,240736,0,"33_E0_190_240.wav",100
Sample,240736,0,"0 0 1 2 2 0 E 640.wav",100
Sample,241052,0,"33_E0_190_240.wav",100
Sample,241052,0,"x x 9 9 160.wav",100
Sample,241368,0,"33_E0_190_240.wav",100
Sample,241368,0,"x x 9 9 320.wav",100
Sample,241368,0,"0 0 1 2 2 0 E 320.wav",100
Sample,241683,0,"0 0 1 2 2 0 E 160.wav",100
Sample,241683,0,"x x 9 9 160.wav",100
Sample,241841,0,"0 0 1 2 2 0 E 320.wav",100
Sample,241841,0,"x x 11 11 160.wav",100
Sample,241999,0,"x x 9 9 320.wav",100
Sample,241999,0,"33_E0_190_240.wav",100
Sample,242157,0,"0 0 1 2 2 0 E 160.wav",100
Sample,242157,0,"33_E1_190_240.wav",100
Sample,242315,0,"x x 9 9 160.wav",100
Sample,242315,0,"33_E1_190_240.wav",100
Sample,242315,0,"0 0 1 2 2 0 E 320.wav",100
Sample,242473,0,"33_E1_190_240.wav",100
Sample,242473,0,"x x 11 11 160.wav",100
Sample,242631,0,"33_E1_190_240.wav",100
Sample,242631,0,"x x 9 9 640.wav",100
Sample,242631,0,"0 0 1 2 2 0 E 320.wav",100
Sample,242789,0,"33_D#1_190_240.wav",100
Sample,242947,0,"33_B0_190_480.wav",100
Sample,242947,0,"0 0 1 2 2 0 E 160.wav",100
Sample,243105,0,"0 0 1 2 2 0 E 160.wav",100
Sample,243262,0,"x 0 160.wav",100
Sample,243262,0,"33_A0_190_7200.wav",100
Sample,243262,0,"x x 6 6 x 5 Amaj7 160.wav",100
Sample,243420,0,"x x 6 6 x 5 Amaj7 160.wav",100
Sample,243578,0,"x x 6 6 x 5 Amaj7 160.wav",100
Sample,243578,0,"x 0 160.wav",40
Sample,243736,0,"x x 6 6 x 5 Amaj7 160.wav",100
Sample,243736,0,"x 9 160.wav",40
Sample,243894,0,"x 12 160.wav",40
Sample,244052,0,"x 0 160.wav",40
Sample,244210,0,"x x 6 6 x 5 Amaj7 160.wav",100
Sample,244210,0,"x 7 160.wav",40
Sample,244368,0,"x x 6 6 x 5 Amaj7 160.wav",100
Sample,244368,0,"x 9 160.wav",40
Sample,244526,0,"x x 6 6 x 5 Amaj7 160.wav",100
Sample,244526,0,"x 0 160.wav",40
Sample,244683,0,"x x 6 6 x 5 Amaj7 160.wav",100
Sample,244683,0,"x 5 160.wav",40
Sample,244841,0,"x 7 160.wav",40
Sample,244999,0,"x 0 160.wav",40
Sample,245157,0,"x 4 160.wav",40
Sample,245315,0,"x 5 160.wav",40
Sample,245473,0,"x 0 160.wav",40
Sample,245631,0,"x 5 160.wav",40
Sample,245789,0,"x x 6 6 x 5 Amaj7 160.wav",100
Sample,245789,0,"x 7 160.wav",40
Sample,245947,0,"x x 6 6 x 5 Amaj7 160.wav",100
Sample,245947,0,"x 0 160.wav",40
Sample,246105,0,"x x 6 6 x 5 Amaj7 160.wav",100
Sample,246105,0,"x 7 160.wav",40
Sample,246262,0,"x x 6 6 x 5 Amaj7 160.wav",100
Sample,246262,0,"x 9 160.wav",40
Sample,246420,0,"x 0 160.wav",40
Sample,246578,0,"x 9 160.wav",40
Sample,246736,0,"x x 6 6 x 5 Amaj7 160.wav",100
Sample,246736,0,"x 10 160.wav",40
Sample,246894,0,"x x 6 6 x 5 Amaj7 160.wav",100
Sample,246894,0,"x 9 160.wav",40
Sample,247052,0,"x x 6 6 x 5 Amaj7 160.wav",100
Sample,247210,0,"x x 6 6 x 5 Amaj7 160.wav",100
Sample,248315,0,"x x 6 6 x 5 Amaj7 160.wav",100
Sample,248473,0,"x x 6 6 x 5 Amaj7 160.wav",100
Sample,248631,0,"x x 6 6 x 5 Amaj7 160.wav",100
Sample,248631,0,"x 0 160.wav",40
Sample,248789,0,"x x 6 6 x 5 Amaj7 160.wav",100
Sample,248789,0,"x 9 160.wav",40
Sample,248947,0,"x 12 160.wav",40
Sample,249105,0,"x 0 160.wav",40
Sample,249262,0,"x x 6 6 x 5 Amaj7 160.wav",100
Sample,249262,0,"x 7 160.wav",40
Sample,249420,0,"x x 6 6 x 5 Amaj7 160.wav",100
Sample,249420,0,"x 9 160.wav",40
Sample,249578,0,"x x 6 6 x 5 Amaj7 160.wav",100
Sample,249578,0,"x 0 160.wav",40
Sample,249736,0,"x x 6 6 x 5 Amaj7 160.wav",100
Sample,249736,0,"x 5 160.wav",40
Sample,249894,0,"x 7 160.wav",40
Sample,250052,0,"x 0 160.wav",40
Sample,250210,0,"x 4 160.wav",40
Sample,250368,0,"x 5 160.wav",40
Sample,250526,0,"x 0 160.wav",40
Sample,250683,0,"x 5 160.wav",40
Sample,250841,0,"x x 6 6 x 5 Amaj7 160.wav",100
Sample,250841,0,"x 7 160.wav",40
Sample,250999,0,"x x 6 6 x 5 Amaj7 160.wav",100
Sample,250999,0,"x 0 160.wav",40
Sample,251157,0,"x x 6 6 x 5 Amaj7 160.wav",100
Sample,251157,0,"x 7 160.wav",40
Sample,251315,0,"x x 6 6 x 5 Amaj7 160.wav",100
Sample,251315,0,"x 9 160.wav",40
Sample,251473,0,"x 0 160.wav",40
Sample,251631,0,"x 9 160.wav",40
Sample,251789,0,"x x 6 6 x 5 Amaj7 160.wav",100
Sample,251789,0,"x 10 160.wav",40
Sample,251947,0,"x x 6 6 x 5 Amaj7 160.wav",100
Sample,251947,0,"x 9 160.wav",40
Sample,252105,0,"x x 6 6 x 5 Amaj7 160.wav",100
Sample,252262,0,"x x 6 6 x 5 Amaj7 160.wav",100
Sample,253368,0,"x x 6 6 x 5 Amaj7 160.wav",100
Sample,253526,0,"x x 6 6 x 5 Amaj7 160.wav",100
Sample,253683,0,"x x 6 6 x 5 Amaj7 160.wav",100
Sample,253683,0,"x 0 160.wav",40
Sample,253841,0,"x x 6 6 x 5 Amaj7 160.wav",100
Sample,253841,0,"x 9 160.wav",40
Sample,253999,0,"x 12 160.wav",40
Sample,254157,0,"x 0 160.wav",40
Sample,254315,0,"x x 6 6 x 5 Amaj7 160.wav",100
Sample,254315,0,"x 7 160.wav",40
Sample,254473,0,"x x 6 6 x 5 Amaj7 160.wav",100
Sample,254473,0,"x 9 160.wav",40
Sample,254631,0,"x x 6 6 x 5 Amaj7 160.wav",100
Sample,254631,0,"x 0 160.wav",40
Sample,254789,0,"x x 6 6 x 5 Amaj7 160.wav",100
Sample,254789,0,"x 5 160.wav",40
Sample,254947,0,"x 7 160.wav",40
Sample,255105,0,"x 0 160.wav",40
Sample,255262,0,"x 4 160.wav",40
Sample,255420,0,"x 5 160.wav",40
Sample,255578,0,"x 0 160.wav",40
Sample,255736,0,"x 5 160.wav",40
Sample,255894,0,"x x 6 6 x 5 Amaj7 160.wav",100
Sample,255894,0,"x 7 160.wav",40
Sample,256052,0,"x x 6 6 x 5 Amaj7 160.wav",100
Sample,256052,0,"x 0 160.wav",40
Sample,256210,0,"x x 6 6 x 5 Amaj7 160.wav",100
Sample,256210,0,"x 7 160.wav",40
Sample,256368,0,"x x 6 6 x 5 Amaj7 160.wav",100
Sample,256368,0,"x 9 160.wav",40
Sample,256526,0,"x 0 160.wav",40
Sample,256683,0,"x 9 160.wav",40
Sample,256841,0,"x x 6 6 x 5 Amaj7 160.wav",100
Sample,256841,0,"x 10 160.wav",40
Sample,256999,0,"x x 6 6 x 5 Amaj7 160.wav",100
Sample,256999,0,"x 9 160.wav",40
Sample,257157,0,"x x 6 6 x 5 Amaj7 160.wav",100
Sample,257315,0,"x x 6 6 x 5 Amaj7 160.wav",100
Sample,258420,0,"x x 6 6 x 5 Amaj7 160.wav",100
Sample,258578,0,"x x 6 6 x 5 Amaj7 160.wav",100
Sample,258736,0,"x x 6 6 x 5 Amaj7 160.wav",100
Sample,258736,0,"x 0 160.wav",40
Sample,258894,0,"x x 6 6 x 5 Amaj7 160.wav",100
Sample,258894,0,"x 9 160.wav",40
Sample,259052,0,"x 12 160.wav",40
Sample,259210,0,"x 0 160.wav",40
Sample,259368,0,"x x 6 6 x 5 Amaj7 160.wav",100
Sample,259368,0,"x 7 160.wav",40
Sample,259526,0,"x x 6 6 x 5 Amaj7 160.wav",100
Sample,259526,0,"x 9 160.wav",40
Sample,259683,0,"x x 6 6 x 5 Amaj7 160.wav",100
Sample,259683,0,"x 0 160.wav",40
Sample,259841,0,"x x 6 6 x 5 Amaj7 160.wav",100
Sample,259841,0,"x 5 160.wav",40
Sample,259999,0,"x 7 160.wav",40
Sample,260157,0,"x 0 160.wav",40
Sample,260315,0,"x 4 160.wav",40
Sample,260473,0,"x 5 160.wav",40
Sample,260631,0,"x 0 160.wav",40
Sample,260789,0,"x 5 160.wav",40
Sample,260947,0,"x x 6 6 x 5 Amaj7 160.wav",100
Sample,260947,0,"x 7 160.wav",40
Sample,261105,0,"x x 6 6 x 5 Amaj7 160.wav",100
Sample,261105,0,"x 0 160.wav",40
Sample,261262,0,"x x 6 6 x 5 Amaj7 160.wav",100
Sample,261262,0,"x 7 160.wav",40
Sample,261420,0,"x x 6 6 x 5 Amaj7 160.wav",100
Sample,261420,0,"x 9 160.wav",40

[TimingPoints]
428,315.789473684211,5,2,1,100,1,0
5164,315.789473684211,6,2,1,100,1,0
7058,315.789473684211,5,2,1,100,1,0
11794,315.789473684211,6,2,1,100,1,0
13688,315.789473684211,4,2,1,100,1,0
24424,315.789473684211,4,2,1,100,1,0
44002,315.789473684211,4,2,1,100,1,0
74317,-100,4,2,1,100,0,1
93265,-100,4,2,1,100,0,0
94528,315.789473684211,5,2,1,100,1,0
99264,315.789473684211,6,2,1,100,1,0
101158,315.789473684211,4,2,1,100,1,0
132105,315.789473684211,4,2,1,100,1,0
142210,-100,4,2,1,100,0,1
161157,-100,4,2,1,100,0,0
202841,-100,4,2,1,100,0,1
220526,-100,4,2,1,100,0,0

[HitObjects]
64,192,428,5,0,0:0:0:70:Snare.wav
320,192,428,1,0,0:0:0:100:33_C#1_190_420.wav
448,192,428,1,0,0:0:0:100:x x x x x 0 160.wav
192,192,506,1,0,0:0:0:50:Snare.wav
320,192,585,1,0,0:0:0:59:Snare.wav
448,192,664,1,0,0:0:0:50:Snare.wav
64,192,743,1,0,0:0:0:70:Snare.wav
192,192,743,1,0,0:0:0:100:33_C#2_190_240.wav
320,192,822,1,0,0:0:0:50:Snare.wav
192,192,901,1,0,0:0:0:59:Snare.wav
64,192,980,1,0,0:0:0:50:Snare.wav
320,192,1059,1,0,0:0:0:70:Snare.wav
448,192,1059,1,0,0:0:0:100:33_C#2_190_480.wav
192,192,1138,1,0,0:0:0:50:Snare.wav
320,192,1217,1,0,0:0:0:59:Snare.wav
448,192,1296,1,0,0:0:0:50:Snare.wav
64,192,1375,1,0,0:0:0:70:Snare.wav
192,192,1375,1,0,0:0:0:100:33_E2_190_240.wav
320,192,1454,1,0,0:0:0:50:Snare.wav
192,192,1533,1,0,0:0:0:59:Snare.wav
64,192,1612,1,0,0:0:0:50:Snare.wav
320,192,1691,1,0,0:0:0:70:Snare.wav
448,192,1691,1,0,0:0:0:100:33_B1_190_480.wav
192,192,1770,1,0,0:0:0:50:Snare.wav
320,192,1849,1,0,0:0:0:59:Snare.wav
448,192,1928,1,0,0:0:0:50:Snare.wav
64,192,2006,1,0,0:0:0:70:Snare.wav
192,192,2006,1,0,0:0:0:100:33_A0_190_420.wav
448,192,2085,1,0,0:0:0:50:Snare.wav
320,192,2164,1,0,0:0:0:59:Snare.wav
192,192,2243,1,0,0:0:0:50:Snare.wav
320,192,2322,1,0,0:0:0:70:Snare.wav
448,192,2322,1,0,0:0:0:100:33_C#2_190_240.wav
64,192,2401,1,0,0:0:0:50:Snare.wav
192,192,2480,1,0,0:0:0:59:Snare.wav
320,192,2559,1,0,0:0:0:50:Snare.wav
64,192,2638,1,0,0:0:0:70:Snare.wav
192,192,2638,1,0,0:0:0:100:33_C#2_190_480.wav
448,192,2717,1,0,0:0:0:50:Snare.wav
320,192,2796,1,0,0:0:0:59:Snare.wav
192,192,2875,1,0,0:0:0:50:Snare.wav
320,192,2954,1,0,0:0:0:70:Snare.wav
448,192,2954,1,0,0:0:0:100:33_F#2_190_240.wav
64,192,3033,1,0,0:0:0:50:Snare.wav
192,192,3112,1,0,0:0:0:59:Snare.wav
320,192,3191,1,0,0:0:0:50:Snare.wav
64,192,3270,1,0,0:0:0:70:Snare.wav
192,192,3270,1,0,0:0:0:100:33_E2_190_480.wav
448,192,3349,1,0,0:0:0:50:Snare.wav
320,192,3428,1,0,0:0:0:59:Snare.wav
192,192,3506,1,0,0:0:0:50:Snare.wav
64,192,3585,1,0,0:0:0:70:Snare.wav
448,192,3585,1,0,0:0:0:100:33_C#1_190_420.wav
192,192,3664,1,0,0:0:0:50:Snare.wav
320,192,3743,1,0,0:0:0:59:Snare.wav
192,192,3822,1,0,0:0:0:50:Snare.wav
64,192,3901,1,0,0:0:0:70:Snare.wav
448,192,3901,1,0,0:0:0:100:33_C#2_190_240.wav
320,192,3980,1,0,0:0:0:50:Snare.wav
192,192,4059,1,0,0:0:0:59:Snare.wav
320,192,4138,1,0,0:0:0:50:Snare.wav
64,192,4217,1,0,0:0:0:70:Snare.wav
448,192,4217,1,0,0:0:0:100:33_C#2_190_480.wav
192,192,4296,1,0,0:0:0:50:Snare.wav
320,192,4375,1,0,0:0:0:59:Snare.wav
192,192,4454,1,0,0:0:0:50:Snare.wav
64,192,4533,1,0,0:0:0:70:Snare.wav
448,192,4533,1,0,0:0:0:100:33_E2_190_240.wav
320,192,4612,1,0,0:0:0:50:Snare.wav
192,192,4691,1,0,0:0:0:59:Snare.wav
320,192,4770,1,0,0:0:0:50:Snare.wav
64,192,4849,1,0,0:0:0:70:Snare.wav
192,192,4849,1,0,0:0:0:70:Kick.wav
448,192,4849,1,0,0:0:0:100:33_B1_190_480.wav
64,192,5164,128,0,5716:0:0:0:70:Kick.wav
192,192,5164,128,0,5400:0:0:0:70:Crash high.wav
320,192,5164,128,0,5400:0:0:0:100:33_D1_190_480.wav
448,192,5164,128,0,5400:0:0:0:100:12 11 bend half 320.wav
192,192,5479,128,0,6032:0:0:0:70:Kick.wav
320,192,5479,128,0,5716:0:0:0:70:Crash medium.wav
448,192,5479,128,0,5716:0:0:0:100:33_A1_190_480.wav
64,192,5795,128,0,6032:0:0:0:70:Kick.wav
320,192,5795,128,0,6348:0:0:0:70:Crash medium.wav
448,192,5795,128,0,6032:0:0:0:100:33_C2_190_480.wav
64,192,6111,128,0,6348:0:0:0:70:Kick.wav
192,192,6111,128,0,6348:0:0:0:70:Crash medium.wav
448,192,6111,128,0,6664:0:0:0:100:33_F#2_190_480.wav
64,192,6427,128,0,6979:0:0:0:70:Kick.wav
192,192,6427,128,0,6664:0:0:0:70:Crash medium.wav
320,192,6427,128,0,6664:0:0:0:100:33_C2_190_240.wav
192,192,6742,128,0,7058:0:0:0:70:Kick.wav
320,192,6742,128,0,6979:0:0:0:70:Crash medium.wav
448,192,6742,128,0,6979:0:0:0:100:33_C2_190_480.wav
64,192,7058,1,0,0:0:0:70:Kick.wav
320,192,7058,1,0,0:0:0:70:Crash high.wav
448,192,7058,1,0,0:0:0:100:33_C#1_190_240.wav
64,192,7215,1,0,0:0:0:100:33_C#1_190_240.wav
320,192,7294,1,0,0:0:0:70:Snare.wav
448,192,7294,1,0,0:0:0:0:
64,192,7373,1,0,0:0:0:70:Kick.wav
192,192,7373,1,0,0:0:0:70:Crash medium.wav
192,192,7531,1,0,0:0:0:70:Snare.wav
320,192,7531,1,0,0:0:0:100:33_C#1_190_240.wav
64,192,7689,1,0,0:0:0:70:Kick.wav
320,192,7689,1,0,0:0:0:70:Crash medium.wav
448,192,7689,1,0,0:0:0:100:33_C#1_190_240.wav
64,192,7847,1,0,0:0:0:70:Snare.wav
192,192,7847,1,0,0:0:0:100:33_C#1_190_240.wav
64,192,8005,1,0,0:0:0:70:Kick.wav
192,192,8005,1,0,0:0:0:70:Crash medium.wav
448,192,8005,1,0,0:0:0:100:33_C#1_190_240.wav
320,192,8163,1,0,0:0:0:70:Snare.wav
448,192,8163,1,0,0:0:0:100:33_C#1_190_240.wav
64,192,8321,1,0,0:0:0:70:Kick.wav
320,192,8321,1,0,0:0:0:70:Crash medium.wav
448,192,8321,1,0,0:0:0:100:33_C#1_190_240.wav
64,192,8479,1,0,0:0:0:70:Snare.wav
192,192,8479,1,0,0:0:0:100:33_B0_190_240.wav
320,192,8558,1,0,0:0:0:70:Snare.wav
448,192,8558,1,0,0:0:0:0:
64,192,8636,1,0,0:0:0:70:Kick.wav
192,192,8636,1,0,0:0:0:70:Crash high.wav
448,192,8636,1,0,0:0:0:100:33_A0_190_240.wav
448,192,8794,1,0,0:0:0:100:33_A0_190_240.wav
64,192,8873,1,0,0:0:0:70:Snare.wav
192,192,8873,1,0,0:0:0:0:
320,192,8952,1,0,0:0:0:70:Kick.wav
448,192,8952,1,0,0:0:0:70:Crash medium.wav
192,192,9110,1,0,0:0:0:70:Snare.wav
320,192,9110,1,0,0:0:0:100:33_A0_190_240.wav
64,192,9268,1,0,0:0:0:70:Kick.wav
192,192,9268,1,0,0:0:0:70:Crash medium.wav
448,192,9268,1,0,0:0:0:100:33_A0_190_240.wav
320,192,9426,1,0,0:0:0:70:Snare.wav
448,192,9426,1,0,0:0:0:100:33_A0_190_240.wav
64,192,9584,1,0,0:0:0:70:Kick.wav
320,192,9584,1,0,0:0:0:70:Crash medium.wav
448,192,9584,1,0,0:0:0:100:33_A0_190_240.wav
64,192,9742,1,0,0:0:0:70:Snare.wav
192,192,9742,1,0,0:0:0:100:33_A0_190_240.wav
64,192,9900,1,0,0:0:0:70:Kick.wav
192,192,9900,1,0,0:0:0:70:Crash medium.wav
448,192,9900,1,0,0:0:0:100:33_A0_190_240.wav
320,192,10058,1,0,0:0:0:70:Snare.wav
448,192,10058,1,0,0:0:0:100:33_B0_190_240.wav
64,192,10136,1,0,0:0:0:70:Snare.wav
192,192,10136,1,0,0:0:0:0:
64,192,10215,1,0,0:0:0:70:Kick.wav
320,192,10215,1,0,0:0:0:70:Crash high.wav
448,192,10215,1,0,0:0:0:100:33_C#1_190_240.wav
192,192,10373,1,0,0:0:0:100:33_C#1_190_240.wav
320,192,10452,1,0,0:0:0:70:Snare.wav
448,192,10452,1,0,0:0:0:0:
64,192,10531,1,0,0:0:0:70:Kick.wav
192,192,10531,1,0,0:0:0:70:Crash medium.wav
320,192,10689,1,0,0:0:0:70:Snare.wav
448,192,10689,1,0,0:0:0:100:33_C#1_190_240.wav
64,192,10847,1,0,0:0:0:70:Kick.wav
192,192,10847,1,0,0:0:0:70:Crash medium.wav
448,192,10847,1,0,0:0:0:100:33_C#1_190_240.wav
64,192,11005,1,0,0:0:0:70:Snare.wav
192,192,11005,1,0,0:0:0:100:33_C#1_190_240.wav
64,192,11163,1,0,0:0:0:70:Kick.wav
320,192,11163,1,0,0:0:0:70:Crash medium.wav
448,192,11163,1,0,0:0:0:100:33_C#1_190_240.wav
192,192,11321,1,0,0:0:0:70:Snare.wav
448,192,11321,1,0,0:0:0:100:33_C#1_190_240.wav
64,192,11479,1,0,0:0:0:70:Kick.wav
192,192,11479,1,0,0:0:0:70:Crash medium.wav
448,192,11479,1,0,0:0:0:100:33_C#1_190_240.wav
64,192,11636,1,0,0:0:0:70:Snare.wav
320,192,11636,1,0,0:0:0:100:33_C#1_190_240.wav
320,192,11794,1,0,0:0:0:70:Kick.wav
448,192,11794,1,0,0:0:0:70:Crash high.wav
64,192,11872,1,0,0:0:0:50:Snare.wav
192,192,11872,1,0,0:0:0:0:
320,192,11951,1,0,0:0:0:59:Snare.wav
448,192,11951,1,0,0:0:0:0:
64,192,12030,1,0,0:0:0:50:Snare.wav
192,192,12030,1,0,0:0:0:0:
320,192,12109,1,0,0:0:0:70:Kick.wav
448,192,12109,1,0,0:0:0:70:Tom1.wav
64,192,12188,1,0,0:0:0:50:Snare.wav
192,192,12188,1,0,0:0:0:0:
320,192,12267,1,0,0:0:0:59:Snare.wav
448,192,12267,1,0,0:0:0:0:
64,192,12346,1,0,0:0:0:50:Snare.wav
192,192,12346,1,0,0:0:0:0:
320,192,12425,1,0,0:0:0:70:Snare.wav
448,192,12425,1,0,0:0:0:70:Kick.wav
192,192,12504,1,0,0:0:0:50:Snare.wav
64,192,12583,1,0,0:0:0:59:Snare.wav
448,192,12583,1,0,0:0:0:0:
320,192,12662,1,0,0:0:0:50:Snare.wav
64,192,12741,1,0,0:0:0:70:Snare.wav
192,192,12741,1,0,0:0:0:70:Kick.wav
320,192,12820,1,0,0:0:0:50:Snare.wav
448,192,12820,1,0,0:0:0:0:
64,192,12899,1,0,0:0:0:59:Tom1.wav
192,192,12899,1,0,0:0:0:0:
320,192,12978,1,0,0:0:0:59:Tom1.wav
448,192,12978,1,0,0:0:0:0:
64,192,13057,1,0,0:0:0:70:Kick.wav
192,192,13057,1,0,0:0:0:59:Tom2.wav
320,192,13136,1,0,0:0:0:59:Tom2.wav
64,192,13215,1,0,0:0:0:59:Tom3.wav
448,192,13215,1,0,0:0:0:0:
192,192,13294,1,0,0:0:0:59:Tom3.wav
64,192,13372,128,0,13688:0:0:0:70:Kick.wav
320,192,13372,1,0,0:0:0:70:Hi-hat open.wav
448,192,13372,1,0,0:0:0:100:33_E2_190_480.wav
448,192,13688,128,0,13898:0:0:0:50:Hi-hat close.wav
320,192,13898,128,0,14109:0:0:0:100:x x 7 N.H. 105.wav
192,192,14109,128,0,14319:0:0:0:100:x x x 7 N.H. 105.wav
64,192,14319,128,0,14951:0:0:0:100:x x x x 7 N.H. 640.wav
448,192,14477,1,0,0:0:0:70:Hi-hat close.wav
320,192,14556,1,0,0:0:0:59:Hi-hat close.wav
192,192,14635,128,0,14793:0:0:0:70:Hi-hat open.wav
192,192,14951,1,0,0:0:0:70:Kick.wav
320,192,14951,1,0,0:0:0:70:Crash high.wav
448,192,14951,128,0,17477:0:0:0:100:33_A1_190_3840.wav
64,192,15266,1,0,0:0:0:70:Snare.wav
192,192,15266,1,0,0:0:0:0:
320,192,15266,1,0,0:0:0:0:
192,192,15740,1,0,0:0:0:70:Kick.wav
320,192,15740,1,0,0:0:0:0:
64,192,15898,1,0,0:0:0:70:Snare.wav
192,192,15898,1,0,0:0:0:0:
320,192,15898,1,0,0:0:0:0:
192,192,16214,1,0,0:0:0:70:Kick.wav
320,192,16214,1,0,0:0:0:0:
64,192,16530,1,0,0:0:0:70:Snare.wav
192,192,16530,1,0,0:0:0:0:
320,192,16530,1,0,0:0:0:0:
192,192,17003,1,0,0:0:0:70:Kick.wav
320,192,17003,1,0,0:0:0:0:
64,192,17161,1,0,0:0:0:70:Snare.wav
192,192,17161,1,0,0:0:0:0:
320,192,17161,1,0,0:0:0:0:
192,192,17477,1,0,0:0:0:70:Kick.wav
320,192,17477,128,0,20003:0:0:0:100:33_G#1_190_3840.wav
64,192,17793,1,0,0:0:0:70:Snare.wav
192,192,17793,1,0,0:0:0:0:
448,192,17793,1,0,0:0:0:0:
192,192,18266,1,0,0:0:0:70:Kick.wav
448,192,18266,1,0,0:0:0:0:
64,192,18424,1,0,0:0:0:70:Snare.wav
192,192,18424,1,0,0:0:0:0:
448,192,18424,1,0,0:0:0:0:
192,192,18740,1,0,0:0:0:70:Kick.wav
448,192,18740,1,0,0:0:0:0:
64,192,19056,1,0,0:0:0:70:Snare.wav
192,192,19056,1,0,0:0:0:0:
448,192,19056,1,0,0:0:0:0:
192,192,19530,1,0,0:0:0:70:Kick.wav
448,192,19530,1,0,0:0:0:0:
64,192,19688,1,0,0:0:0:70:Snare.wav
192,192,19688,1,0,0:0:0:0:
448,192,19688,1,0,0:0:0:0:
64,192,20003,1,0,0:0:0:70:Kick.wav
192,192,20003,128,0,22530:0:0:0:100:33_F#1_190_3840.wav
64,192,20319,1,0,0:0:0:70:Snare.wav
320,192,20319,1,0,0:0:0:0:
448,192,20319,1,0,0:0:0:0:
64,192,20793,1,0,0:0:0:70:Kick.wav
320,192,20793,1,0,0:0:0:0:
64,192,20951,1,0,0:0:0:70:Snare.wav
320,192,20951,1,0,0:0:0:0:
448,192,20951,1,0,0:0:0:0:
64,192,21266,1,0,0:0:0:70:Kick.wav
320,192,21266,1,0,0:0:0:0:
64,192,21582,1,0,0:0:0:70:Snare.wav
320,192,21582,1,0,0:0:0:0:
448,192,21582,1,0,0:0:0:0:
64,192,22056,1,0,0:0:0:70:Kick.wav
320,192,22056,1,0,0:0:0:0:
64,192,22214,1,0,0:0:0:70:Snare.wav
320,192,22214,1,0,0:0:0:0:
448,192,22214,1,0,0:0:0:0:
64,192,22530,1,0,0:0:0:70:Kick.wav
320,192,22530,128,0,22845:0:0:0:100:33_C#1_190_480.wav
64,192,22845,128,0,23003:0:0:0:70:Snare.wav
192,192,22845,1,0,0:0:0:100:33_G#1_190_180.wav
448,192,22845,1,0,0:0:0:100:Arp. x x 4 clean 160.wav
320,192,23003,1,0,0:0:0:100:33_E2_190_240.wav
448,192,23003,128,0,23319:0:0:0:100:Arp. x 4 clean 320.wav
192,192,23319,128,0,23477:0:0:0:70:Kick.wav
320,192,23319,1,0,0:0:0:100:33_D#2_190_240.wav
64,192,23477,1,0,0:0:0:70:Snare.wav
320,192,23477,1,0,0:0:0:100:33_B1_190_480.wav
448,192,23477,1,0,0:0:0:100:Arp. x x 4 clean 320.wav
64,192,23635,1,0,0:0:0:70:Tom1.wav
192,192,23635,1,0,0:0:0:0:
320,192,23714,1,0,0:0:0:70:Tom1.wav
64,192,23793,1,0,0:0:0:70:Snare.wav
192,192,23793,1,0,0:0:0:100:7 N.H. 640.wav
448,192,23793,1,0,0:0:0:0:
192,192,23951,1,0,0:0:0:70:Hi-hat close.wav
320,192,24030,1,0,0:0:0:59:Hi-hat close.wav
448,192,24109,128,0,24266:0:0:0:70:Hi-hat open.wav
64,192,24424,128,0,26002:0:0:0:70:Kick.wav
192,192,24424,1,0,0:0:0:70:Crash high.wav
320,192,24424,1,0,0:0:0:100:33_A0_190_480.wav
192,192,24739,1,0,0:0:0:70:Snare.wav
320,192,24739,1,0,0:0:0:100:33_E1_190_240.wav
448,192,24739,1,0,0:0:0:0:
192,192,25213,1,0,0:0:0:70:Kick.wav
448,192,25213,1,0,0:0:0:100:33_E1_190_240.wav
192,192,25371,1,0,0:0:0:70:Snare.wav
320,192,25371,1,0,0:0:0:100:33_A1_190_480.wav
448,192,25371,1,0,0:0:0:0:
192,192,25687,1,0,0:0:0:70:Kick.wav
448,192,25687,1,0,0:0:0:100:33_E1_190_240.wav
192,192,26002,128,0,26950:0:0:0:70:Snare.wav
320,192,26002,1,0,0:0:0:100:33_E1_190_480.wav
448,192,26002,1,0,0:0:0:100:12 N.H. 960.wav
64,192,26476,1,0,0:0:0:70:Kick.wav
448,192,26476,1,0,0:0:0:100:33_A1_190_240.wav
64,192,26634,1,0,0:0:0:70:Snare.wav
320,192,26634,1,0,0:0:0:100:33_E1_190_480.wav
448,192,26634,1,0,0:0:0:0:
320,192,26950,128,0,29476:0:0:0:70:Kick.wav
448,192,26950,1,0,0:0:0:100:33_G#0_190_480.wav
64,192,27266,1,0,0:0:0:70:Snare.wav
192,192,27266,1,0,0:0:0:100:33_D#1_190_240.wav
448,192,27266,1,0,0:0:0:0:
64,192,27739,1,0,0:0:0:70:Kick.wav
192,192,27739,1,0,0:0:0:100:33_D#1_190_240.wav
64,192,27897,1,0,0:0:0:70:Snare.wav
192,192,27897,1,0,0:0:0:100:33_G#1_190_480.wav
448,192,27897,1,0,0:0:0:0:
64,192,28213,1,0,0:0:0:70:Kick.wav
192,192,28213,1,0,0:0:0:100:33_D#1_190_240.wav
64,192,28529,1,0,0:0:0:70:Snare.wav
192,192,28529,1,0,0:0:0:100:33_D#1_190_480.wav
448,192,28529,1,0,0:0:0:0:
64,192,29002,1,0,0:0:0:70:Kick.wav
192,192,29002,1,0,0:0:0:100:33_G#1_190_240.wav
64,192,29160,1,0,0:0:0:70:Snare.wav
192,192,29160,1,0,0:0:0:100:33_D#1_190_480.wav
448,192,29160,1,0,0:0:0:0:
192,192,29476,1,0,0:0:0:70:Kick.wav
448,192,29476,128,0,30739:0:0:0:100:33_F#0_190_480.wav
64,192,29792,1,0,0:0:0:70:Snare.wav
192,192,29792,1,0,0:0:0:100:33_C#1_190_240.wav
320,192,29792,1,0,0:0:0:0:
192,192,30266,1,0,0:0:0:70:Kick.wav
320,192,30266,1,0,0:0:0:100:33_C#1_190_240.wav
64,192,30424,1,0,0:0:0:70:Snare.wav
192,192,30424,1,0,0:0:0:100:33_F#1_190_480.wav
320,192,30424,1,0,0:0:0:0:
192,192,30739,128,0,32002:0:0:0:70:Kick.wav
320,192,30739,1,0,0:0:0:100:33_C#1_190_240.wav
64,192,31055,1,0,0:0:0:70:Snare.wav
320,192,31055,1,0,0:0:0:100:33_B0_190_480.wav
448,192,31055,1,0,0:0:0:0:
320,192,31529,1,0,0:0:0:70:Kick.wav
448,192,31529,1,0,0:0:0:100:33_F#1_190_240.wav
64,192,31687,1,0,0:0:0:70:Snare.wav
320,192,31687,1,0,0:0:0:100:33_B0_190_480.wav
448,192,31687,1,0,0:0:0:0:
320,192,32002,128,0,32950:0:0:0:70:Kick.wav
448,192,32002,1,0,0:0:0:100:33_C#1_190_480.wav
64,192,32318,1,0,0:0:0:70:Snare.wav
192,192,32318,1,0,0:0:0:100:33_G#0_190_240.wav
448,192,32318,1,0,0:0:0:0:
64,192,32792,1,0,0:0:0:70:Kick.wav
448,192,32792,1,0,0:0:0:100:33_G#0_190_240.wav
64,192,32950,1,0,0:0:0:70:Snare.wav
192,192,32950,1,0,0:0:0:100:33_C#1_190_480.wav
448,192,32950,128,0,33266:0:0:0:100:Arp. 0 clean 320.wav
192,192,33108,1,0,0:0:0:70:Kick.wav
320,192,33108,1,0,0:0:0:0:
64,192,33266,1,0,0:0:0:70:Snare.wav
192,192,33266,1,0,0:0:0:100:33_E1_190_480.wav
320,192,33266,1,0,0:0:0:100:0 0 4 4 Arpeggio down 640.wav
320,192,33424,1,0,0:0:0:70:Kick.wav
448,192,33424,1,0,0:0:0:0:
64,192,33581,1,0,0:0:0:70:Snare.wav
192,192,33581,1,0,0:0:0:100:33_D#1_190_240.wav
448,192,33581,1,0,0:0:0:0:
64,192,33897,1,0,0:0:0:70:Snare.wav
192,192,33897,1,0,0:0:0:0:
448,192,33897,1,0,0:0:0:0:
320,192,34055,1,0,0:0:0:70:Kick.wav
448,192,34055,1,0,0:0:0:100:33_D#1_190_240.wav
64,192,34213,1,0,0:0:0:70:Tom1.wav
192,192,34213,1,0,0:0:0:100:33_B0_190_480.wav
448,192,34292,1,0,0:0:0:59:Snare.wav
320,192,34371,1,0,0:0:0:70:Snare.wav
192,192,34450,1,0,0:0:0:59:Snare.wav
64,192,34529,128,0,34608:0:0:0:70:Kick.wav
320,192,34529,1,0,0:0:0:70:Crash high.wav
448,192,34529,1,0,0:0:0:100:33_A0_190_240.wav
192,192,34608,128,0,34687:0:0:0:100:12 80.wav
320,192,34687,128,0,34766:0:0:0:100:33_A0_190_240.wav
448,192,34766,128,0,34845:0:0:0:100:12 80.wav
64,192,34845,128,0,34924:0:0:0:70:Snare.wav
320,192,34845,1,0,0:0:0:70:Hi-hat close.wav
192,192,34924,128,0,35002:0:0:0:100:0 80.wav
320,192,35002,128,0,35081:0:0:0:59:Hi-hat close.wav
448,192,35081,128,0,35160:0:0:0:100:0 80.wav
64,192,35160,1,0,0:0:0:70:Kick.wav
192,192,35160,128,0,35318:0:0:0:70:Hi-hat close.wav
64,192,35318,128,0,35476:0:0:0:70:Kick.wav
320,192,35318,1,0,0:0:0:59:Hi-hat close.wav
192,192,35476,1,0,0:0:0:70:Snare.wav
320,192,35476,1,0,0:0:0:70:Hi-hat close.wav
448,192,35476,1,0,0:0:0:100:33_A0_190_240.wav
320,192,35634,128,0,35792:0:0:0:59:Hi-hat close.wav
192,192,35792,1,0,0:0:0:70:Kick.wav
448,192,35792,1,0,0:0:0:70:Hi-hat close.wav
192,192,35950,128,0,36108:0:0:0:59:Hi-hat close.wav
64,192,36108,1,0,0:0:0:70:Snare.wav
320,192,36108,1,0,0:0:0:70:Hi-hat close.wav
448,192,36108,1,0,0:0:0:0:
448,192,36266,128,0,36424:0:0:0:59:Hi-hat close.wav
192,192,36424,1,0,0:0:0:70:Kick.wav
320,192,36424,128,0,36581:0:0:0:70:Hi-hat close.wav
64,192,36581,128,0,36739:0:0:0:70:Kick.wav
448,192,36581,1,0,0:0:0:59:Hi-hat close.wav
192,192,36739,128,0,36897:0:0:0:70:Snare.wav
320,192,36739,1,0,0:0:0:70:Hi-hat open.wav
448,192,36739,1,0,0:0:0:100:33_A0_190_480.wav
320,192,36897,128,0,37055:0:0:0:100:x x x 13 160.wav
64,192,37055,128,0,37213:0:0:0:70:Kick.wav
192,192,37055,1,0,0:0:0:70:Hi-hat close.wav
448,192,37213,128,0,37371:0:0:0:59:Hi-hat close.wav
64,192,37371,1,0,0:0:0:70:Snare.wav
192,192,37371,128,0,37529:0:0:0:70:Hi-hat close.wav
320,192,37371,1,0,0:0:0:100:33_G#0_190_240.wav
320,192,37529,128,0,37687:0:0:0:59:Hi-hat close.wav
64,192,37687,128,0,37845:0:0:0:70:Kick.wav
192,192,37687,1,0,0:0:0:70:Hi-hat close.wav
192,192,37845,128,0,38002:0:0:0:70:Kick.wav
448,192,37845,1,0,0:0:0:59:Hi-hat close.wav
64,192,38002,1,0,0:0:0:70:Snare.wav
320,192,38002,1,0,0:0:0:70:Hi-hat close.wav
448,192,38002,128,0,38160:0:0:0:100:33_G#0_190_240.wav
320,192,38160,128,0,38318:0:0:0:59:Hi-hat close.wav
64,192,38318,128,0,38476:0:0:0:70:Kick.wav
192,192,38318,1,0,0:0:0:70:Hi-hat close.wav
448,192,38476,128,0,38634:0:0:0:59:Hi-hat close.wav
64,192,38634,1,0,0:0:0:70:Snare.wav
192,192,38634,128,0,38792:0:0:0:70:Hi-hat close.wav
320,192,38634,1,0,0:0:0:100:14 160.wav
320,192,38792,128,0,38950:0:0:0:59:Hi-hat close.wav
192,192,38950,1,0,0:0:0:70:Kick.wav
448,192,38950,128,0,39108:0:0:0:70:Hi-hat close.wav
64,192,39108,1,0,0:0:0:70:Kick.wav
192,192,39108,128,0,39266:0:0:0:59:Hi-hat close.wav
64,192,39266,128,0,39424:0:0:0:70:Snare.wav
320,192,39266,1,0,0:0:0:70:Hi-hat open.wav
448,192,39266,1,0,0:0:0:100:33_G#0_190_480.wav
320,192,39424,128,0,39581:0:0:0:100:x x 9 160.wav
64,192,39581,1,0,0:0:0:70:Kick.wav
448,192,39581,1,0,0:0:0:70:Hi-hat close.wav
192,192,39739,128,0,39818:0:0:0:59:Hi-hat close.wav
192,192,39897,128,0,39976:0:0:0:70:Snare.wav
320,192,39897,1,0,0:0:0:70:Hi-hat close.wav
448,192,39897,1,0,0:0:0:100:33_F#0_190_240.wav
192,192,40055,128,0,40134:0:0:0:59:Hi-hat close.wav
192,192,40213,128,0,40292:0:0:0:70:Kick.wav
448,192,40213,1,0,0:0:0:70:Hi-hat close.wav
192,192,40371,128,0,40529:0:0:0:70:Kick.wav
448,192,40371,1,0,0:0:0:59:Hi-hat close.wav
64,192,40529,1,0,0:0:0:70:Snare.wav
320,192,40529,1,0,0:0:0:70:Hi-hat close.wav
448,192,40529,1,0,0:0:0:100:33_F#0_190_240.wav
320,192,40687,128,0,40766:0:0:0:59:Hi-hat close.wav
192,192,40845,1,0,0:0:0:70:Kick.wav
320,192,40845,128,0,40924:0:0:0:70:Hi-hat close.wav
320,192,41002,128,0,41081:0:0:0:59:Hi-hat close.wav
64,192,41160,1,0,0:0:0:70:Snare.wav
192,192,41160,1,0,0:0:0:70:Hi-hat close.wav
320,192,41160,128,0,41239:0:0:0:100:x 9 160.wav
320,192,41318,128,0,41476:0:0:0:59:Hi-hat close.wav
64,192,41476,1,0,0:0:0:70:Kick.wav
448,192,41476,1,0,0:0:0:70:Hi-hat close.wav
64,192,41634,128,0,41792:0:0:0:70:Kick.wav
448,192,41634,1,0,0:0:0:59:Hi-hat close.wav
192,192,41792,1,0,0:0:0:70:Snare.wav
320,192,41792,128,0,41950:0:0:0:70:Hi-hat open.wav
448,192,41792,1,0,0:0:0:100:33_F#0_190_480.wav
192,192,41950,128,0,42108:0:0:0:100:x x x 14 160.wav
64,192,42108,1,0,0:0:0:70:Kick.wav
320,192,42108,1,0,0:0:0:70:Hi-hat close.wav
320,192,42266,128,0,42424:0:0:0:59:Hi-hat close.wav
64,192,42424,1,0,0:0:0:70:Snare.wav
192,192,42424,1,0,0:0:0:70:Hi-hat close.wav
448,192,42424,128,0,42581:0:0:0:100:33_E0_190_240.wav
64,192,42581,128,0,42660:0:0:0:59:Hi-hat close.wav
192,192,42660,128,0,42739:0:0:0:100:x 9 9 M 80.wav
320,192,42739,128,0,42897:0:0:0:70:Kick.wav
448,192,42739,1,0,0:0:0:70:Hi-hat close.wav
64,192,42897,128,0,43055:0:0:0:70:Kick.wav
192,192,42897,1,0,0:0:0:59:Hi-hat close.wav
192,192,43055,1,0,0:0:0:70:Snare.wav
320,192,43055,1,0,0:0:0:70:Hi-hat open.wav
448,192,43055,1,0,0:0:0:100:33_G#0_190_240.wav
192,192,43213,128,0,43371:0:0:0:100:33_G#0_190_240.wav
64,192,43371,1,0,0:0:0:70:Snare.wav
320,192,43371,1,0,0:0:0:70:Hi-hat close.wav
448,192,43371,128,0,43529:0:0:0:100:33_B0_190_240.wav
192,192,43529,1,0,0:0:0:70:Kick.wav
320,192,43529,128,0,43687:0:0:0:100:33_C#1_190_240.wav
64,192,43687,1,0,0:0:0:70:Snare.wav
192,192,43687,128,0,43845:0:0:0:100:33_E1_190_480.wav
448,192,43687,1,0,0:0:0:100:x 0 320.wav
64,192,43845,1,0,0:0:0:70:Kick.wav
320,192,43845,1,0,0:0:0:0:
64,192,44002,1,0,0:0:0:70:Kick.wav
192,192,44002,1,0,0:0:0:70:Crash high.wav
448,192,44002,128,0,44080:0:0:0:100:33_A0_190_240.wav
320,192,44080,128,0,44159:0:0:0:100:12 80.wav
192,192,44159,128,0,44238:0:0:0:100:33_A0_190_240.wav
64,192,44238,128,0,44317:0:0:0:100:12 80.wav
192,192,44317,1,0,0:0:0:70:Snare.wav
448,192,44317,128,0,44396:0:0:0:70:Hi-hat close.wav
320,192,44396,128,0,44475:0:0:0:100:0 80.wav
192,192,44475,128,0,44554:0:0:0:59:Hi-hat close.wav
64,192,44554,128,0,44633:0:0:0:100:0 80.wav
320,192,44633,128,0,44791:0:0:0:70:Kick.wav
448,192,44633,1,0,0:0:0:70:Hi-hat close.wav
192,192,44791,1,0,0:0:0:70:Kick.wav
448,192,44791,128,0,44949:0:0:0:59:Hi-hat close.wav
64,192,44949,1,0,0:0:0:70:Snare.wav
192,192,44949,1,0,0:0:0:70:Hi-hat close.wav
320,192,44949,1,0,0:0:0:100:33_A0_190_240.wav
192,192,45107,128,0,45265:0:0:0:59:Hi-hat close.wav
64,192,45265,1,0,0:0:0:70:Kick.wav
320,192,45265,1,0,0:0:0:70:Hi-hat close.wav
320,192,45423,128,0,45580:0:0:0:59:Hi-hat close.wav
64,192,45580,1,0,0:0:0:70:Snare.wav
192,192,45580,1,0,0:0:0:70:Hi-hat close.wav
448,192,45580,1,0,0:0:0:0:
64,192,45738,128,0,45896:0:0:0:59:Hi-hat close.wav
192,192,45896,128,0,46054:0:0:0:70:Kick.wav
320,192,45896,1,0,0:0:0:70:Hi-hat close.wav
64,192,46054,1,0,0:0:0:70:Kick.wav
448,192,46054,128,0,46212:0:0:0:59:Hi-hat close.wav
64,192,46212,1,0,0:0:0:70:Snare.wav
192,192,46212,1,0,0:0:0:70:Hi-hat open.wav
320,192,46212,128,0,46370:0:0:0:100:33_A0_190_480.wav
192,192,46370,128,0,46528:0:0:0:100:x x x 13 160.wav
320,192,46528,1,0,0:0:0:70:Kick.wav
448,192,46528,128,0,46686:0:0:0:70:Hi-hat close.wav
64,192,46686,128,0,46844:0:0:0:59:Hi-hat close.wav
192,192,46844,1,0,0:0:0:70:Snare.wav
320,192,46844,128,0,47002:0:0:0:70:Hi-hat close.wav
448,192,46844,1,0,0:0:0:100:33_G#0_190_240.wav
192,192,47002,128,0,47159:0:0:0:59:Hi-hat close.wav
320,192,47159,1,0,0:0:0:70:Kick.wav
448,192,47159,128,0,47317:0:0:0:70:Hi-hat close.wav
64,192,47317,1,0,0:0:0:70:Kick.wav
320,192,47317,128,0,47475:0:0:0:59:Hi-hat close.wav
64,192,47475,128,0,47633:0:0:0:70:Snare.wav
192,192,47475,1,0,0:0:0:70:Hi-hat close.wav
448,192,47475,1,0,0:0:0:100:33_G#0_190_240.wav
192,192,47633,128,0,47791:0:0:0:59:Hi-hat close.wav
320,192,47791,1,0,0:0:0:70:Kick.wav
448,192,47791,128,0,47949:0:0:0:70:Hi-hat close.wav
64,192,47949,128,0,48107:0:0:0:59:Hi-hat close.wav
192,192,48107,1,0,0:0:0:70:Snare.wav
320,192,48107,128,0,48265:0:0:0:70:Hi-hat close.wav
448,192,48107,1,0,0:0:0:100:14 160.wav
192,192,48265,128,0,48423:0:0:0:59:Hi-hat close.wav
64,192,48423,128,0,48580:0:0:0:70:Kick.wav
320,192,48423,1,0,0:0:0:70:Hi-hat close.wav
320,192,48580,128,0,48738:0:0:0:70:Kick.wav
448,192,48580,1,0,0:0:0:59:Hi-hat close.wav
64,192,48738,1,0,0:0:0:70:Snare.wav
192,192,48738,1,0,0:0:0:70:Hi-hat open.wav
448,192,48738,128,0,48896:0:0:0:100:33_G#0_190_480.wav
192,192,48896,128,0,49054:0:0:0:100:x x 9 160.wav
64,192,49054,1,0,0:0:0:70:Kick.wav
320,192,49054,1,0,0:0:0:70:Hi-hat close.wav
448,192,49212,128,0,49291:0:0:0:59:Hi-hat close.wav
64,192,49370,1,0,0:0:0:70:Snare.wav
192,192,49370,1,0,0:0:0:70:Hi-hat close.wav
448,192,49370,128,0,49449:0:0:0:100:33_F#0_190_240.wav
448,192,49528,128,0,49607:0:0:0:59:Hi-hat close.wav
448,192,49686,128,0,49765:0:0:0:70:Hi-hat close.wav
192,192,49844,1,0,0:0:0:70:Kick.wav
448,192,49844,128,0,50002:0:0:0:59:Hi-hat close.wav
64,192,50002,1,0,0:0:0:70:Snare.wav
192,192,50002,1,0,0:0:0:70:Hi-hat close.wav
320,192,50002,1,0,0:0:0:100:33_B0_190_240.wav
64,192,50159,128,0,50238:0:0:0:59:Hi-hat close.wav
64,192,50317,128,0,50396:0:0:0:70:Kick.wav
320,192,50317,1,0,0:0:0:70:Hi-hat close.wav
64,192,50475,128,0,50554:0:0:0:59:Hi-hat close.wav
64,192,50633,128,0,50712:0:0:0:70:Snare.wav
320,192,50633,1,0,0:0:0:70:Hi-hat close.wav
448,192,50633,1,0,0:0:0:100:x 9 160.wav
64,192,50791,128,0,50949:0:0:0:59:Hi-hat close.wav
192,192,51107,1,0,0:0:0:70:Kick.wav
320,192,51107,128,0,51265:0:0:0:59:Hi-hat close.wav
64,192,51265,1,0,0:0:0:70:Snare.wav
192,192,51265,128,0,51423:0:0:0:70:Hi-hat open.wav
448,192,51265,1,0,0:0:0:100:33_B0_190_480.wav
64,192,51423,128,0,51580:0:0:0:100:x x 9 160.wav
320,192,51580,1,0,0:0:0:70:Kick.wav
448,192,51580,128,0,51791:0:0:0:70:Hi-hat close.wav
64,192,51791,128,0,52002:0:0:0:100:x 10 11 214.wav
192,192,51896,1,0,0:0:0:70:Snare.wav
448,192,51896,1,0,0:0:0:70:Hi-hat close.wav
320,192,52002,128,0,52212:0:0:0:100:x 11 12 214.wav
448,192,52212,128,0,52423:0:0:0:59:Hi-hat open.wav
64,192,52370,1,0,0:0:0:70:Kick.wav
320,192,52370,1,0,0:0:0:59:Hi-hat open.wav
192,192,52423,128,0,52633:0:0:0:100:12 12 214.wav
64,192,52528,1,0,0:0:0:70:Snare.wav
448,192,52528,1,0,0:0:0:70:Hi-hat open.wav
320,192,52633,128,0,52844:0:0:0:100:14 14 214.wav
64,192,52844,1,0,0:0:0:70:Snare.wav
192,192,52844,1,0,0:0:0:70:Hi-hat open.wav
448,192,52844,1,0,0:0:0:100:33_E1_190_240.wav
192,192,53002,1,0,0:0:0:70:Kick.wav
320,192,53002,1,0,0:0:0:100:33_B0_190_240.wav
64,192,53159,1,0,0:0:0:70:Snare.wav
320,192,53159,1,0,0:0:0:70:Hi-hat open.wav
448,192,53159,1,0,0:0:0:100:33_F#1_190_180.wav
192,192,53317,128,0,53475:0:0:0:100:33_G#1_190_480.wav
320,192,53396,1,0,0:0:0:59:Snare.wav
64,192,53475,1,0,0:0:0:70:Snare.wav
448,192,53475,1,0,0:0:0:0:
192,192,53633,1,0,0:0:0:70:Tom1.wav
448,192,53633,1,0,0:0:0:100:33_F#1_190_240.wav
64,192,53791,1,0,0:0:0:70:Kick.wav
320,192,53791,1,0,0:0:0:70:Tom2.wav
192,192,53949,1,0,0:0:0:70:Tom3.wav
320,192,54028,1,0,0:0:0:70:Tom3.wav
64,192,54107,128,0,54186:0:0:0:70:Kick.wav
448,192,54107,1,0,0:0:0:70:Crash medium.wav
64,192,54265,128,0,54344:0:0:0:100:x x 9 x 7 80.wav
64,192,54423,128,0,54502:0:0:0:70:Kick.wav
448,192,54423,1,0,0:0:0:70:Hi-hat open.wav
64,192,54580,128,0,54659:0:0:0:100:33_A0_190_240.wav
64,192,54738,128,0,54817:0:0:0:70:Kick.wav
448,192,54738,1,0,0:0:0:70:Hi-hat open.wav
64,192,54896,128,0,54975:0:0:0:100:33_A0_190_240.wav
64,192,55054,128,0,55133:0:0:0:70:Kick.wav
448,192,55054,1,0,0:0:0:70:Hi-hat open.wav
64,192,55212,128,0,55291:0:0:0:100:33_A0_190_240.wav
192,192,55370,128,0,55449:0:0:0:70:Kick.wav
320,192,55370,1,0,0:0:0:70:Hi-hat open.wav
192,192,55528,128,0,55607:0:0:0:100:33_A0_190_240.wav
192,192,55686,128,0,55765:0:0:0:70:Kick.wav
320,192,55686,1,0,0:0:0:70:Hi-hat open.wav
64,192,55844,128,0,55923:0:0:0:100:33_A0_190_240.wav
64,192,56002,128,0,56080:0:0:0:70:Kick.wav
320,192,56002,1,0,0:0:0:70:Hi-hat open.wav
64,192,56159,128,0,56238:0:0:0:100:33_A0_190_240.wav
192,192,56317,1,0,0:0:0:70:Kick.wav
320,192,56317,128,0,56396:0:0:0:50:Hi-hat close.wav
320,192,56475,128,0,56554:0:0:0:70:Tom3.wav
192,192,56633,1,0,0:0:0:70:Kick.wav
448,192,56633,128,0,56712:0:0:0:70:Crash medium.wav
448,192,56791,128,0,56870:0:0:0:100:x x 16 x 14 80.wav
192,192,56949,1,0,0:0:0:70:Kick.wav
448,192,56949,128,0,57028:0:0:0:70:Hi-hat open.wav
448,192,57107,128,0,57186:0:0:0:100:33_G#0_190_240.wav
192,192,57265,1,0,0:0:0:70:Kick.wav
448,192,57265,128,0,57344:0:0:0:70:Hi-hat open.wav
448,192,57423,128,0,57502:0:0:0:100:33_G#0_190_240.wav
192,192,57580,1,0,0:0:0:70:Kick.wav
448,192,57580,128,0,57659:0:0:0:70:Hi-hat open.wav
448,192,57738,128,0,57817:0:0:0:100:33_G#0_190_240.wav
192,192,57896,1,0,0:0:0:70:Kick.wav
448,192,57896,128,0,57975:0:0:0:70:Hi-hat open.wav
448,192,58054,128,0,58133:0:0:0:100:33_G#0_190_240.wav
192,192,58212,1,0,0:0:0:70:Kick.wav
448,192,58212,128,0,58291:0:0:0:100:33_A0_190_240.wav
64,192,58370,1,0,0:0:0:70:Snare.wav
320,192,58370,1,0,0:0:0:70:Hi-hat open.wav
448,192,58370,128,0,58449:0:0:0:100:33_A0_190_240.wav
192,192,58528,1,0,0:0:0:70:Kick.wav
448,192,58528,128,0,58607:0:0:0:100:33_B0_190_240.wav
64,192,58686,1,0,0:0:0:70:Tom1.wav
448,192,58686,128,0,58765:0:0:0:100:33_B0_190_240.wav
192,192,58844,128,0,58923:0:0:0:70:Kick.wav
320,192,58844,1,0,0:0:0:100:33_E0_190_240.wav
192,192,59002,128,0,59080:0:0:0:70:Tom3.wav
64,192,59159,128,0,59238:0:0:0:70:Kick.wav
320,192,59159,1,0,0:0:0:70:Crash medium.wav
64,192,59317,128,0,59396:0:0:0:100:x x 13 x 11 80.wav
64,192,59475,128,0,59554:0:0:0:70:Kick.wav
320,192,59475,1,0,0:0:0:70:Hi-hat open.wav
64,192,59633,128,0,59712:0:0:0:100:33_F#0_190_240.wav
64,192,59791,128,0,59870:0:0:0:70:Kick.wav
320,192,59791,1,0,0:0:0:70:Hi-hat open.wav
64,192,59949,128,0,60028:0:0:0:100:33_F#0_190_240.wav
64,192,60107,128,0,60186:0:0:0:70:Kick.wav
320,192,60107,1,0,0:0:0:70:Hi-hat open.wav
64,192,60265,128,0,60344:0:0:0:100:33_F#0_190_240.wav
192,192,60423,1,0,0:0:0:70:Kick.wav
320,192,60423,128,0,60502:0:0:0:70:Hi-hat open.wav
320,192,60580,128,0,60659:0:0:0:100:33_F#1_190_240.wav
192,192,60738,1,0,0:0:0:70:Kick.wav
320,192,60738,128,0,60817:0:0:0:70:Hi-hat open.wav
320,192,60896,128,0,60975:0:0:0:100:33_F#1_190_240.wav
64,192,61054,1,0,0:0:0:70:Kick.wav
192,192,61054,1,0,0:0:0:70:Hi-hat open.wav
192,192,61212,1,0,0:0:0:70:Kick.wav
320,192,61212,1,0,0:0:0:100:33_F#1_190_240.wav
64,192,61370,1,0,0:0:0:70:Snare.wav
320,192,61370,1,0,0:0:0:70:Crash high.wav
448,192,61370,1,0,0:0:0:100:33_F#1_190_480.wav
64,192,61686,1,0,0:0:0:70:Snare.wav
192,192,61686,1,0,0:0:0:70:Hi-hat open.wav
320,192,61686,128,0,61896:0:0:0:100:33_E1_190_960.wav
192,192,61896,128,0,62107:0:0:0:70:Kick.wav
448,192,61896,1,0,0:0:0:50:Hi-hat close.wav
64,192,62107,128,0,62317:0:0:0:70:Kick.wav
320,192,62107,1,0,0:0:0:100:x 0 214.wav
192,192,62317,1,0,0:0:0:70:Snare.wav
320,192,62317,1,0,0:0:0:70:Hi-hat open.wav
448,192,62317,128,0,62528:0:0:0:100:33_E2_190_720.wav
64,192,62528,1,0,0:0:0:70:Kick.wav
320,192,62528,128,0,62738:0:0:0:50:Hi-hat close.wav
192,192,62738,128,0,62949:0:0:0:70:Kick.wav
448,192,62738,1,0,0:0:0:100:x 9 214.wav
64,192,62949,1,0,0:0:0:70:Snare.wav
320,192,62949,1,0,0:0:0:70:Hi-hat open.wav
448,192,62949,128,0,63159:0:0:0:100:33_E1_190_320.wav
64,192,63159,128,0,63370:0:0:0:70:Kick.wav
320,192,63159,1,0,0:0:0:50:Hi-hat close.wav
192,192,63370,128,0,63580:0:0:0:70:Kick.wav
448,192,63370,1,0,0:0:0:100:33_B0_190_320.wav
64,192,63580,1,0,0:0:0:70:Snare.wav
320,192,63580,128,0,63896:0:0:0:70:Hi-hat open.wav
448,192,63580,1,0,0:0:0:100:33_E0_190_480.wav
64,192,63896,1,0,0:0:0:70:Kick.wav
192,192,63896,1,0,0:0:0:70:Tom1.wav
448,192,63975,1,0,0:0:0:70:Tom2.wav
320,192,64054,1,0,0:0:0:70:Tom3.wav
192,192,64133,1,0,0:0:0:70:Tom3.wav
64,192,64212,128,0,65159:0:0:0:70:Kick.wav
320,192,64212,1,0,0:0:0:70:Crash medium.wav
448,192,64212,128,0,64686:0:0:0:100:33_A0_190_720.wav
320,192,64528,1,0,0:0:0:70:Snare side strick.wav
192,192,64686,128,0,65159:0:0:0:59:Hi-hat close.wav
448,192,64844,1,0,0:0:0:70:Snare side strick.wav
320,192,65159,128,0,66738:0:0:0:70:Hi-hat close.wav
448,192,65317,1,0,0:0:0:59:Snare side strick.wav
64,192,65475,1,0,0:0:0:70:Kick.wav
192,192,65475,1,0,0:0:0:70:Hi-hat close.wav
448,192,65791,1,0,0:0:0:70:Snare side strick.wav
64,192,66107,1,0,0:0:0:70:Snare side strick.wav
192,192,66344,1,0,0:0:0:70:Snare side strick.wav
64,192,66738,1,0,0:0:0:70:Kick.wav
448,192,66738,128,0,67212:0:0:0:70:Hi-hat close.wav
320,192,67054,1,0,0:0:0:70:Snare side strick.wav
192,192,67212,128,0,67686:0:0:0:59:Hi-hat close.wav
64,192,67370,1,0,0:0:0:70:Snare side strick.wav
320,192,67607,1,0,0:0:0:70:Snare side strick.wav
64,192,67686,128,0,68791:0:0:0:70:Kick.wav
448,192,67686,128,0,67844:0:0:0:70:Hi-hat open.wav
192,192,68002,128,0,68159:0:0:0:70:Kick.wav
448,192,68002,1,0,0:0:0:70:Hi-hat open.wav
320,192,68317,128,0,68475:0:0:0:70:Kick.wav
448,192,68317,1,0,0:0:0:70:Hi-hat open.wav
192,192,68633,128,0,68791:0:0:0:70:Kick.wav
448,192,68633,1,0,0:0:0:70:Hi-hat open.wav
320,192,68791,1,0,0:0:0:100:33_F#1_190_240.wav
192,192,68949,128,0,69265:0:0:0:70:Kick.wav
448,192,68949,128,0,69107:0:0:0:70:Hi-hat open.wav
64,192,69265,1,0,0:0:0:70:Snare.wav
320,192,69265,1,0,0:0:0:70:Crash medium.wav
448,192,69265,1,0,0:0:0:100:33_F#0_190_240.wav
64,192,69423,1,0,0:0:0:70:Kick.wav
320,192,69423,1,0,0:0:0:100:33_F#0_190_240.wav
64,192,69580,1,0,0:0:0:70:Kick.wav
320,192,69580,1,0,0:0:0:100:33_F#0_190_240.wav
64,192,69738,1,0,0:0:0:70:Snare.wav
192,192,69738,1,0,0:0:0:70:Crash high.wav
448,192,69738,1,0,0:0:0:100:33_F#0_190_480.wav
192,192,69896,1,0,0:0:0:70:Kick.wav
448,192,69896,1,0,0:0:0:100:x x 11 x 9 M 160.wav
192,192,70054,1,0,0:0:0:70:Kick.wav
448,192,70054,1,0,0:0:0:100:33_F#0_190_240.wav
64,192,70212,1,0,0:0:0:70:Snare.wav
320,192,70212,1,0,0:0:0:70:Crash medium.wav
448,192,70212,1,0,0:0:0:100:33_F#0_190_240.wav
64,192,70370,1,0,0:0:0:70:Kick.wav
320,192,70370,1,0,0:0:0:100:33_F#0_190_240.wav
64,192,70528,1,0,0:0:0:70:Snare.wav
192,192,70528,1,0,0:0:0:70:Crash high.wav
448,192,70528,1,0,0:0:0:100:33_B0_190_240.wav
192,192,70686,1,0,0:0:0:70:Kick.wav
320,192,70686,1,0,0:0:0:100:33_B0_190_240.wav
192,192,70844,1,0,0:0:0:70:Kick.wav
320,192,70844,1,0,0:0:0:100:33_B0_190_240.wav
64,192,71002,1,0,0:0:0:70:Snare.wav
320,192,71002,1,0,0:0:0:70:Crash medium.wav
448,192,71002,1,0,0:0:0:100:33_B0_190_480.wav
64,192,71159,1,0,0:0:0:70:Kick.wav
448,192,71159,1,0,0:0:0:100:x x 11 x 9 M 160.wav
64,192,71317,1,0,0:0:0:70:Kick.wav
448,192,71317,1,0,0:0:0:100:33_B0_190_240.wav
64,192,71475,1,0,0:0:0:70:Snare.wav
192,192,71475,1,0,0:0:0:70:Crash high.wav
320,192,71475,1,0,0:0:0:100:33_B0_190_240.wav
320,192,71633,1,0,0:0:0:70:Kick.wav
448,192,71633,1,0,0:0:0:100:33_B0_190_240.wav
64,192,71791,1,0,0:0:0:70:Snare.wav
192,192,71791,128,0,72107:0:0:0:100:33_E0_190_240.wav
448,192,71791,1,0,0:0:0:100:x x x x 6 bend half release 320.wav
64,192,72107,1,0,0:0:0:70:Kick.wav
448,192,72107,1,0,0:0:0:100:33_E0_190_240.wav
192,192,72265,1,0,0:0:0:70:Snare.wav
320,192,72265,128,0,72580:0:0:0:70:Hi-hat open.wav
448,192,72265,1,0,0:0:0:100:33_E0_190_240.wav
64,192,72423,1,0,0:0:0:70:Kick.wav
192,192,72423,1,0,0:0:0:50:Hi-hat close.wav
64,192,72580,1,0,0:0:0:70:Snare.wav
192,192,72580,1,0,0:0:0:70:Tom3.wav
448,192,72580,1,0,0:0:0:100:33_E0_190_240.wav
64,192,72738,1,0,0:0:0:70:Snare.wav
320,192,72738,1,0,0:0:0:70:Tom3.wav
448,192,72738,1,0,0:0:0:100:33_E1_190_240.wav
64,192,72896,1,0,0:0:0:70:Snare.wav
320,192,72896,1,0,0:0:0:70:Hi-hat open.wav
448,192,72896,1,0,0:0:0:100:33_E1_190_240.wav
192,192,73212,1,0,0:0:0:100:4 80.wav
64,192,73291,1,0,0:0:0:100:5 80.wav
448,192,73370,1,0,0:0:0:100:4 80.wav
320,192,73449,1,0,0:0:0:100:0 80.wav
192,192,73528,128,0,74159:0:0:0:100:x 0 160.wav
64,192,73686,128,0,74159:0:0:0:70:Snare.wav
320,192,73686,128,0,74159:0:0:0:70:Hi-hat open.wav
448,192,73686,128,0,74159:0:0:0:100:33_E1_190_960.wav
64,192,74317,1,0,0:0:0:70:Snare.wav
192,192,74317,128,0,74475:0:0:0:70:Kick.wav
448,192,74317,1,0,0:0:0:70:Crash high.wav
448,192,74475,128,0,74633:0:0:0:100:x x 9 9 160.wav
64,192,74633,1,0,0:0:0:70:Snare.wav
192,192,74633,1,0,0:0:0:70:Hi-hat open.wav
320,192,74633,1,0,0:0:0:100:33_A0_190_240.wav
192,192,74791,128,0,74949:0:0:0:100:33_A0_190_240.wav
64,192,74949,1,0,0:0:0:70:Snare.wav
320,192,74949,1,0,0:0:0:70:Hi-hat open.wav
448,192,74949,128,0,75107:0:0:0:100:33_A0_190_240.wav
64,192,75107,128,0,75265:0:0:0:70:Kick.wav
320,192,75107,1,0,0:0:0:100:33_A0_190_240.wav
192,192,75265,1,0,0:0:0:70:Snare.wav
320,192,75265,1,0,0:0:0:70:Hi-hat open.wav
448,192,75265,1,0,0:0:0:100:33_A0_190_240.wav
192,192,75423,128,0,75580:0:0:0:70:Kick.wav
448,192,75423,1,0,0:0:0:100:33_A0_190_240.wav
64,192,75580,1,0,0:0:0:70:Snare.wav
320,192,75580,1,0,0:0:0:70:Hi-hat open.wav
448,192,75580,128,0,75738:0:0:0:100:33_A0_190_240.wav
64,192,75738,128,0,75896:0:0:0:100:33_A0_190_240.wav
192,192,75896,1,0,0:0:0:70:Snare.wav
320,192,75896,1,0,0:0:0:70:Hi-hat open.wav
448,192,75896,1,0,0:0:0:100:33_A0_190_240.wav
320,192,76054,128,0,76212:0:0:0:100:33_A0_190_240.wav
64,192,76212,128,0,76370:0:0:0:70:Snare.wav
192,192,76212,1,0,0:0:0:70:Hi-hat open.wav
448,192,76212,1,0,0:0:0:100:33_A0_190_240.wav
320,192,76370,1,0,0:0:0:70:Kick.wav
448,192,76370,128,0,76528:0:0:0:100:33_A0_190_240.wav
64,192,76528,1,0,0:0:0:70:Snare.wav
192,192,76528,128,0,76686:0:0:0:70:Hi-hat open.wav
320,192,76528,1,0,0:0:0:100:33_A0_190_240.wav
64,192,76686,128,0,76844:0:0:0:70:Kick.wav
448,192,76686,1,0,0:0:0:100:33_A0_190_240.wav
192,192,76844,1,0,0:0:0:70:Snare.wav
320,192,76844,128,0,77002:0:0:0:70:Hi-hat open.wav
448,192,76844,1,0,0:0:0:100:33_A0_190_240.wav
64,192,77002,128,0,77159:0:0:0:100:33_A0_190_240.wav
192,192,77159,1,0,0:0:0:70:Snare.wav
320,192,77159,1,0,0:0:0:70:Hi-hat open.wav
448,192,77159,1,0,0:0:0:100:33_G#1_190_240.wav
320,192,77317,128,0,77475:0:0:0:100:33_A1_190_480.wav
64,192,77475,128,0,77633:0:0:0:70:Snare.wav
192,192,77475,1,0,0:0:0:70:Hi-hat open.wav
448,192,77475,1,0,0:0:0:100:x 4 4 4 160.wav
192,192,77633,1,0,0:0:0:70:Kick.wav
448,192,77633,128,0,77791:0:0:0:100:33_A1_190_240.wav
64,192,77791,1,0,0:0:0:70:Snare.wav
192,192,77791,1,0,0:0:0:70:Hi-hat open.wav
320,192,77791,1,0,0:0:0:100:33_E1_190_180.wav
320,192,77949,128,0,78107:0:0:0:70:Kick.wav
448,192,77949,1,0,0:0:0:100:33_B1_190_480.wav
64,192,78107,128,0,78265:0:0:0:70:Snare.wav
192,192,78107,1,0,0:0:0:70:Hi-hat open.wav
448,192,78107,1,0,0:0:0:100:x 4 4 4 160.wav
448,192,78265,128,0,78423:0:0:0:100:33_A1_190_480.wav
64,192,78423,1,0,0:0:0:70:Snare.wav
192,192,78423,1,0,0:0:0:70:Hi-hat open.wav
320,192,78423,1,0,0:0:0:100:x 4 4 4 x 5 B7 160.wav
192,192,78580,128,0,78738:0:0:0:100:33_A0_190_240.wav
64,192,78738,128,0,78896:0:0:0:70:Snare.wav
320,192,78738,1,0,0:0:0:70:Hi-hat open.wav
448,192,78738,1,0,0:0:0:100:33_A0_190_240.wav
320,192,78896,1,0,0:0:0:70:Kick.wav
448,192,78896,128,0,79054:0:0:0:100:33_A1_190_240.wav
64,192,79054,1,0,0:0:0:70:Snare.wav
192,192,79054,1,0,0:0:0:70:Hi-hat open.wav
320,192,79054,128,0,79212:0:0:0:100:33_E1_190_480.wav
192,192,79212,128,0,79370:0:0:0:70:Kick.wav
448,192,79212,1,0,0:0:0:100:x 4 4 4 x 5 B7 160.wav
64,192,79370,128,0,79449:0:0:0:70:Snare.wav
320,192,79370,1,0,0:0:0:70:Kick.wav
448,192,79370,1,0,0:0:0:70:Crash high.wav
64,192,79528,128,0,79607:0:0:0:100:x x 4 4 x 4 160.wav
64,192,79686,128,0,79765:0:0:0:70:Snare.wav
320,192,79686,1,0,0:0:0:70:Hi-hat open.wav
448,192,79686,1,0,0:0:0:100:33_G#0_190_240.wav
64,192,79844,128,0,79923:0:0:0:100:33_G#0_190_240.wav
64,192,80002,128,0,80080:0:0:0:70:Snare.wav
192,192,80002,1,0,0:0:0:70:Hi-hat open.wav
320,192,80002,1,0,0:0:0:100:33_G#0_190_240.wav
64,192,80159,128,0,80238:0:0:0:70:Kick.wav
448,192,80159,1,0,0:0:0:100:33_G#0_190_240.wav
64,192,80317,128,0,80396:0:0:0:70:Snare.wav
192,192,80317,1,0,0:0:0:70:Hi-hat open.wav
320,192,80317,1,0,0:0:0:100:33_G#0_190_240.wav
64,192,80475,128,0,80554:0:0:0:70:Kick.wav
448,192,80475,1,0,0:0:0:100:33_G#0_190_240.wav
192,192,80633,1,0,0:0:0:70:Snare.wav
320,192,80633,128,0,80712:0:0:0:70:Hi-hat open.wav
448,192,80633,1,0,0:0:0:100:33_C1_190_240.wav
320,192,80791,128,0,80870:0:0:0:100:33_C1_190_240.wav
64,192,80949,1,0,0:0:0:70:Snare.wav
320,192,80949,128,0,81028:0:0:0:70:Hi-hat open.wav
448,192,80949,1,0,0:0:0:100:33_C1_190_240.wav
192,192,81107,128,0,81186:0:0:0:100:33_C1_190_240.wav
64,192,81265,1,0,0:0:0:70:Snare.wav
192,192,81265,128,0,81344:0:0:0:70:Hi-hat open.wav
448,192,81265,1,0,0:0:0:100:33_C1_190_240.wav
192,192,81423,128,0,81502:0:0:0:70:Kick.wav
320,192,81423,1,0,0:0:0:100:33_C1_190_240.wav
64,192,81580,1,0,0:0:0:70:Snare.wav
320,192,81580,1,0,0:0:0:70:Hi-hat open.wav
448,192,81580,128,0,81659:0:0:0:100:33_C1_190_240.wav
192,192,81738,1,0,0:0:0:70:Kick.wav
448,192,81738,128,0,81817:0:0:0:100:33_C1_190_240.wav
64,192,81896,128,0,82212:0:0:0:70:Snare.wav
192,192,81896,1,0,0:0:0:70:Hi-hat open.wav
320,192,81896,1,0,0:0:0:100:33_C#1_190_240.wav
192,192,82212,1,0,0:0:0:70:Snare.wav
320,192,82212,128,0,82370:0:0:0:70:Hi-hat open.wav
448,192,82212,1,0,0:0:0:100:33_C#1_190_240.wav
448,192,82370,128,0,82528:0:0:0:100:33_C#1_190_240.wav
64,192,82528,1,0,0:0:0:70:Snare.wav
192,192,82528,128,0,82686:0:0:0:70:Hi-hat open.wav
320,192,82528,1,0,0:0:0:100:33_C#1_190_240.wav
448,192,82686,1,0,0:0:0:70:Kick.wav
320,192,82738,1,0,0:0:0:100:4 54.wav
192,192,82791,1,0,0:0:0:100:2 54.wav
64,192,82844,1,0,0:0:0:70:Snare.wav
448,192,82844,128,0,83002:0:0:0:70:Hi-hat open.wav
192,192,83002,1,0,0:0:0:70:Kick.wav
320,192,83002,128,0,83159:0:0:0:100:33_C#1_190_240.wav
64,192,83159,1,0,0:0:0:70:Snare.wav
192,192,83159,128,0,83317:0:0:0:70:Hi-hat open.wav
448,192,83159,1,0,0:0:0:100:33_B0_190_240.wav
64,192,83317,128,0,83475:0:0:0:70:Kick.wav
320,192,83317,1,0,0:0:0:100:33_B0_190_240.wav
192,192,83475,128,0,83633:0:0:0:70:Snare.wav
320,192,83475,1,0,0:0:0:70:Crash high.wav
448,192,83475,1,0,0:0:0:100:33_F#1_190_480.wav
448,192,83633,128,0,83791:0:0:0:100:x x x x 2 160.wav
64,192,83791,1,0,0:0:0:70:Snare.wav
192,192,83791,1,0,0:0:0:70:Kick.wav
320,192,83791,128,0,83949:0:0:0:100:33_E1_190_240.wav
64,192,83949,1,0,0:0:0:70:Snare.wav
192,192,83949,1,0,0:0:0:100:33_E1_190_240.wav
320,192,84028,1,0,0:0:0:59:Snare.wav
448,192,84028,1,0,0:0:0:0:
64,192,84107,1,0,0:0:0:70:Snare.wav
192,192,84107,1,0,0:0:0:70:Kick.wav
320,192,84186,1,0,0:0:0:59:Snare.wav
448,192,84186,1,0,0:0:0:0:
64,192,84265,1,0,0:0:0:70:Snare.wav
192,192,84265,1,0,0:0:0:0:
320,192,84344,1,0,0:0:0:59:Snare.wav
448,192,84344,1,0,0:0:0:0:
64,192,84423,1,0,0:0:0:70:Kick.wav
192,192,84423,128,0,84580:0:0:0:70:Crash high.wav
448,192,84423,1,0,0:0:0:100:33_A0_190_480.wav
448,192,84580,128,0,84738:0:0:0:100:x x 9 9 160.wav
64,192,84738,1,0,0:0:0:70:Snare.wav
192,192,84738,1,0,0:0:0:70:Hi-hat open.wav
320,192,84738,1,0,0:0:0:100:33_A0_190_240.wav
192,192,84896,128,0,85054:0:0:0:100:33_A0_190_240.wav
64,192,85054,1,0,0:0:0:70:Snare.wav
320,192,85054,1,0,0:0:0:70:Hi-hat open.wav
448,192,85054,128,0,85212:0:0:0:100:33_A0_190_240.wav
64,192,85212,1,0,0:0:0:70:Kick.wav
320,192,85212,128,0,85370:0:0:0:100:33_A0_190_240.wav
64,192,85370,1,0,0:0:0:70:Snare.wav
192,192,85370,1,0,0:0:0:70:Hi-hat open.wav
448,192,85370,1,0,0:0:0:100:33_A0_190_240.wav
192,192,85528,128,0,85686:0:0:0:70:Kick.wav
320,192,85528,1,0,0:0:0:100:33_A0_190_240.wav
64,192,85686,1,0,0:0:0:70:Snare.wav
320,192,85686,1,0,0:0:0:70:Hi-hat open.wav
448,192,85686,128,0,85844:0:0:0:100:33_A0_190_240.wav
320,192,85844,128,0,86002:0:0:0:100:33_A0_190_240.wav
64,192,86002,1,0,0:0:0:70:Snare.wav
192,192,86002,1,0,0:0:0:70:Hi-hat open.wav
448,192,86002,1,0,0:0:0:100:33_A0_190_240.wav
64,192,86159,128,0,86317:0:0:0:100:33_A0_190_480.wav
192,192,86317,1,0,0:0:0:70:Snare.wav
320,192,86317,128,0,86475:0:0:0:70:Hi-hat open.wav
448,192,86317,1,0,0:0:0:100:x 9 9 9 160.wav
64,192,86475,1,0,0:0:0:70:Kick.wav
192,192,86475,128,0,86633:0:0:0:100:33_A0_190_240.wav
64,192,86633,1,0,0:0:0:70:Snare.wav
320,192,86633,1,0,0:0:0:70:Hi-hat open.wav
448,192,86633,128,0,86791:0:0:0:100:33_A0_190_480.wav
192,192,86791,128,0,86949:0:0:0:70:Kick.wav
320,192,86791,1,0,0:0:0:100:x 9 11 9 160.wav
64,192,86949,1,0,0:0:0:70:Snare.wav
320,192,86949,128,0,87107:0:0:0:70:Hi-hat open.wav
448,192,86949,1,0,0:0:0:100:33_B1_190_240.wav
64,192,87107,128,0,87265:0:0:0:100:33_B1_190_240.wav
192,192,87265,1,0,0:0:0:70:Snare.wav
320,192,87265,1,0,0:0:0:70:Hi-hat open.wav
448,192,87265,1,0,0:0:0:100:33_B1_190_240.wav
320,192,87423,128,0,87580:0:0:0:100:33_B1_190_480.wav
64,192,87580,128,0,87738:0:0:0:70:Snare.wav
192,192,87580,1,0,0:0:0:70:Hi-hat open.wav
448,192,87580,1,0,0:0:0:100:x 4 4 4 160.wav
192,192,87738,128,0,87896:0:0:0:70:Kick.wav
320,192,87738,1,0,0:0:0:100:33_E2_190_480.wav
64,192,87896,1,0,0:0:0:70:Snare.wav
320,192,87896,1,0,0:0:0:70:Hi-hat open.wav
448,192,87896,1,0,0:0:0:100:x 4 4 4 x 5 B7 160.wav
192,192,88054,1,0,0:0:0:70:Kick.wav
320,192,88054,128,0,88212:0:0:0:100:33_D#2_190_480.wav
64,192,88212,128,0,88370:0:0:0:70:Snare.wav
192,192,88212,1,0,0:0:0:70:Hi-hat open.wav
448,192,88212,1,0,0:0:0:100:x 4 4 4 160.wav
192,192,88370,128,0,88528:0:0:0:100:33_B1_190_240.wav
64,192,88528,1,0,0:0:0:70:Snare.wav
320,192,88528,1,0,0:0:0:70:Hi-hat open.wav
448,192,88528,1,0,0:0:0:100:33_C#2_190_240.wav
448,192,88686,128,0,88844:0:0:0:100:33_B1_190_480.wav
64,192,88844,1,0,0:0:0:70:Snare.wav
192,192,88844,128,0,89002:0:0:0:70:Hi-hat open.wav
320,192,88844,1,0,0:0:0:100:x 4 4 4 160.wav
320,192,89002,128,0,89159:0:0:0:70:Kick.wav
448,192,89002,1,0,0:0:0:100:33_B1_190_240.wav
64,192,89159,128,0,89317:0:0:0:70:Snare.wav
192,192,89159,1,0,0:0:0:70:Hi-hat open.wav
448,192,89159,1,0,0:0:0:100:33_B1_190_480.wav
192,192,89317,128,0,89475:0:0:0:70:Kick.wav
320,192,89317,1,0,0:0:0:100:x 4 4 4 x 5 B7 160.wav
64,192,89475,1,0,0:0:0:70:Snare.wav
320,192,89475,1,0,0:0:0:70:Kick.wav
448,192,89475,128,0,89949:0:0:0:70:Crash high.wav
64,192,89791,1,0,0:0:0:70:Snare.wav
192,192,89791,1,0,0:0:0:70:Hi-hat open.wav
320,192,89791,1,0,0:0:0:100:33_G#0_190_240.wav
192,192,89949,128,0,90423:0:0:0:100:33_G#0_190_240.wav
64,192,90107,1,0,0:0:0:70:Snare.wav
320,192,90107,1,0,0:0:0:70:Hi-hat open.wav
448,192,90107,1,0,0:0:0:100:33_G#0_190_240.wav
64,192,90265,1,0,0:0:0:70:Kick.wav
320,192,90265,1,0,0:0:0:100:33_G#0_190_240.wav
64,192,90423,1,0,0:0:0:70:Snare.wav
320,192,90423,128,0,90738:0:0:0:70:Hi-hat open.wav
448,192,90423,1,0,0:0:0:100:33_G#0_190_240.wav
192,192,90580,1,0,0:0:0:70:Kick.wav
448,192,90580,1,0,0:0:0:100:33_G#0_190_240.wav
64,192,90738,128,0,91212:0:0:0:70:Snare.wav
192,192,90738,1,0,0:0:0:70:Hi-hat open.wav
448,192,90738,1,0,0:0:0:100:33_C1_190_240.wav
192,192,91054,1,0,0:0:0:70:Snare.wav
320,192,91054,1,0,0:0:0:70:Hi-hat open.wav
448,192,91054,1,0,0:0:0:100:33_C1_190_240.wav
320,192,91212,128,0,91686:0:0:0:100:33_C1_190_240.wav
64,192,91370,1,0,0:0:0:70:Snare.wav
192,192,91370,1,0,0:0:0:70:Hi-hat open.wav
448,192,91370,1,0,0:0:0:100:33_C1_190_240.wav
64,192,91528,1,0,0:0:0:70:Kick.wav
192,192,91528,1,0,0:0:0:100:33_F#1_190_240.wav
64,192,91686,1,0,0:0:0:70:Snare.wav
192,192,91686,128,0,92002:0:0:0:70:Hi-hat open.wav
448,192,91686,1,0,0:0:0:100:33_C1_190_480.wav
320,192,91844,1,0,0:0:0:70:Kick.wav
448,192,91844,1,0,0:0:0:100:x 4 5 4 3 Cdim 160.wav
64,192,92002,128,0,92475:0:0:0:70:Snare.wav
320,192,92002,1,0,0:0:0:70:Hi-hat open.wav
448,192,92002,1,0,0:0:0:100:33_C#1_190_240.wav
192,192,92317,1,0,0:0:0:70:Snare.wav
320,192,92317,1,0,0:0:0:70:Hi-hat open.wav
448,192,92317,1,0,0:0:0:100:33_C#1_190_240.wav
448,192,92475,128,0,92949:0:0:0:100:33_C#1_190_240.wav
64,192,92633,1,0,0:0:0:70:Snare.wav
192,192,92633,1,0,0:0:0:70:Hi-hat open.wav
320,192,92633,1,0,0:0:0:100:33_C#1_190_240.wav
192,192,92791,1,0,0:0:0:70:Kick.wav
320,192,92791,1,0,0:0:0:100:33_C#1_190_240.wav
64,192,92949,1,0,0:0:0:70:Snare.wav
192,192,92949,128,0,93265:0:0:0:70:Hi-hat open.wav
320,192,92949,1,0,0:0:0:100:33_C#1_190_480.wav
64,192,93107,1,0,0:0:0:70:Kick.wav
448,192,93107,1,0,0:0:0:100:x 5 4 x 4 C#m7 160.wav
64,192,93265,1,0,0:0:0:70:Snare.wav
320,192,93265,128,0,93580:0:0:0:70:Kick.wav
448,192,93265,1,0,0:0:0:70:Hi-hat open.wav
64,192,93580,1,0,0:0:0:70:Snare.wav
192,192,93580,128,0,93738:0:0:0:70:Crash high.wav
448,192,93580,1,0,0:0:0:100:33_E1_190_240.wav
320,192,93738,1,0,0:0:0:70:Kick.wav
448,192,93738,128,0,93896:0:0:0:100:33_E1_190_240.wav
64,192,93896,1,0,0:0:0:70:Snare.wav
192,192,93896,1,0,0:0:0:70:Kick.wav
320,192,93975,1,0,0:0:0:59:Snare.wav
448,192,93975,1,0,0:0:0:0:
64,192,94054,1,0,0:0:0:70:Snare.wav
192,192,94054,1,0,0:0:0:100:33_E1_190_240.wav
320,192,94133,1,0,0:0:0:59:Snare.wav
448,192,94133,1,0,0:0:0:0:
64,192,94212,1,0,0:0:0:70:Snare.wav
192,192,94212,1,0,0:0:0:70:Kick.wav
320,192,94291,1,0,0:0:0:59:Snare.wav
448,192,94291,1,0,0:0:0:0:
64,192,94370,1,0,0:0:0:70:Snare.wav
192,192,94370,1,0,0:0:0:0:
320,192,94449,1,0,0:0:0:59:Snare.wav
448,192,94449,1,0,0:0:0:0:
64,192,94528,1,0,0:0:0:70:Kick.wav
192,192,94528,1,0,0:0:0:70:Crash high.wav
448,192,94528,1,0,0:0:0:100:33_F#0_190_240.wav
448,192,94685,1,0,0:0:0:100:33_F#0_190_240.wav
64,192,94764,1,0,0:0:0:70:Snare.wav
192,192,94764,1,0,0:0:0:0:
320,192,94843,1,0,0:0:0:70:Kick.wav
448,192,94843,1,0,0:0:0:70:Crash medium.wav
192,192,95001,1,0,0:0:0:70:Snare.wav
320,192,95001,1,0,0:0:0:100:33_G#0_190_240.wav
64,192,95159,1,0,0:0:0:70:Kick.wav
192,192,95159,1,0,0:0:0:70:Crash medium.wav
448,192,95159,1,0,0:0:0:100:33_G#0_190_240.wav
320,192,95317,1,0,0:0:0:70:Snare.wav
448,192,95317,1,0,0:0:0:100:33_G#0_190_240.wav
64,192,95475,1,0,0:0:0:70:Kick.wav
320,192,95475,1,0,0:0:0:70:Crash medium.wav
448,192,95475,1,0,0:0:0:100:33_A0_190_240.wav
64,192,95633,1,0,0:0:0:70:Snare.wav
192,192,95633,1,0,0:0:0:100:33_A0_190_240.wav
64,192,95791,1,0,0:0:0:70:Kick.wav
192,192,95791,1,0,0:0:0:70:Crash medium.wav
448,192,95791,1,0,0:0:0:100:33_B0_190_240.wav
320,192,95949,1,0,0:0:0:70:Snare.wav
448,192,95949,1,0,0:0:0:100:33_B0_190_240.wav
64,192,96028,1,0,0:0:0:59:Snare.wav
192,192,96028,1,0,0:0:0:0:
64,192,96106,1,0,0:0:0:70:Kick.wav
320,192,96106,1,0,0:0:0:70:Crash high.wav
448,192,96106,1,0,0:0:0:100:33_F#0_190_240.wav
64,192,96264,1,0,0:0:0:100:33_F#0_190_240.wav
320,192,96343,1,0,0:0:0:70:Snare.wav
448,192,96343,1,0,0:0:0:0:
64,192,96422,1,0,0:0:0:70:Kick.wav
192,192,96422,1,0,0:0:0:70:Crash medium.wav
192,192,96580,1,0,0:0:0:70:Snare.wav
320,192,96580,1,0,0:0:0:100:33_G#0_190_240.wav
64,192,96738,1,0,0:0:0:70:Kick.wav
320,192,96738,1,0,0:0:0:70:Crash medium.wav
448,192,96738,1,0,0:0:0:100:33_G#0_190_240.wav
64,192,96896,1,0,0:0:0:70:Snare.wav
192,192,96896,1,0,0:0:0:100:33_G#0_190_240.wav
64,192,97054,1,0,0:0:0:70:Kick.wav
192,192,97054,1,0,0:0:0:70:Crash medium.wav
448,192,97054,1,0,0:0:0:100:33_A0_190_240.wav
320,192,97212,1,0,0:0:0:70:Snare.wav
448,192,97212,1,0,0:0:0:100:33_A0_190_240.wav
64,192,97370,1,0,0:0:0:70:Kick.wav
320,192,97370,1,0,0:0:0:70:Crash medium.wav
448,192,97370,1,0,0:0:0:100:33_G#0_190_240.wav
64,192,97528,1,0,0:0:0:70:Snare.wav
192,192,97528,1,0,0:0:0:100:33_G#0_190_240.wav
320,192,97606,1,0,0:0:0:59:Snare.wav
448,192,97606,1,0,0:0:0:0:
64,192,97685,1,0,0:0:0:70:Kick.wav
192,192,97685,1,0,0:0:0:70:Crash high.wav
448,192,97685,1,0,0:0:0:100:33_F#0_190_240.wav
320,192,97843,1,0,0:0:0:100:33_F#0_190_240.wav
64,192,97922,1,0,0:0:0:70:Snare.wav
192,192,97922,1,0,0:0:0:0:
320,192,98001,1,0,0:0:0:70:Kick.wav
448,192,98001,1,0,0:0:0:70:Crash medium.wav
64,192,98159,1,0,0:0:0:70:Snare.wav
192,192,98159,1,0,0:0:0:100:33_G#0_190_240.wav
64,192,98317,1,0,0:0:0:70:Kick.wav
320,192,98317,1,0,0:0:0:70:Crash medium.wav
448,192,98317,1,0,0:0:0:100:33_G#0_190_240.wav
320,192,98475,1,0,0:0:0:70:Snare.wav
448,192,98475,1,0,0:0:0:100:33_G#0_190_240.wav
64,192,98633,1,0,0:0:0:70:Kick.wav
192,192,98633,1,0,0:0:0:70:Crash medium.wav
448,192,98633,1,0,0:0:0:100:33_A0_190_240.wav
64,192,98791,1,0,0:0:0:70:Snare.wav
320,192,98791,1,0,0:0:0:100:33_A0_190_240.wav
64,192,98949,1,0,0:0:0:70:Kick.wav
320,192,98949,1,0,0:0:0:70:Crash medium.wav
448,192,98949,1,0,0:0:0:100:33_B0_190_480.wav
192,192,99106,1,0,0:0:0:70:Snare.wav
448,192,99106,1,0,0:0:0:100:x 9 160.wav
320,192,99185,1,0,0:0:0:70:Snare.wav
64,192,99264,1,0,0:0:0:70:Kick.wav
192,192,99264,1,0,0:0:0:70:Crash high.wav
448,192,99264,1,0,0:0:0:100:33_D2_190_320.wav
320,192,99342,1,0,0:0:0:50:Snare.wav
192,192,99421,1,0,0:0:0:59:Snare.wav
320,192,99500,1,0,0:0:0:50:Snare.wav
64,192,99579,1,0,0:0:0:70:Kick.wav
448,192,99579,1,0,0:0:0:59:Tom1.wav
192,192,99658,1,0,0:0:0:50:Snare.wav
320,192,99737,1,0,0:0:0:59:Snare.wav
192,192,99816,1,0,0:0:0:50:Snare.wav
64,192,99895,1,0,0:0:0:70:Snare.wav
448,192,99895,1,0,0:0:0:70:Kick.wav
320,192,99974,1,0,0:0:0:50:Snare.wav
192,192,100053,1,0,0:0:0:59:Snare.wav
320,192,100132,1,0,0:0:0:50:Snare.wav
64,192,100211,1,0,0:0:0:70:Snare.wav
448,192,100211,1,0,0:0:0:70:Kick.wav
192,192,100290,1,0,0:0:0:50:Snare.wav
320,192,100369,1,0,0:0:0:59:Tom1.wav
192,192,100448,1,0,0:0:0:59:Tom1.wav
64,192,100527,1,0,0:0:0:70:Kick.wav
448,192,100527,1,0,0:0:0:59:Tom2.wav
320,192,100606,1,0,0:0:0:59:Tom2.wav
192,192,100685,1,0,0:0:0:59:Tom3.wav
320,192,100764,1,0,0:0:0:59:Tom3.wav
64,192,100842,1,0,0:0:0:70:Kick.wav
192,192,100842,1,0,0:0:0:70:Hi-hat open.wav
448,192,100842,128,0,101158:0:0:0:100:0 0 320.wav
64,192,101158,128,0,101368:0:0:0:100:x 7 N.H. 105.wav
192,192,101368,128,0,101579:0:0:0:100:x x 7 N.H. 105.wav
320,192,101579,128,0,101789:0:0:0:100:x x x 7 N.H. 105.wav
448,192,101789,128,0,102421:0:0:0:100:x x x x 7 N.H. 640.wav
64,192,102421,128,0,103052:0:0:0:59:Kick.wav
320,192,102421,1,0,0:0:0:59:Crash high.wav
448,192,102736,128,0,103368:0:0:0:50:Ride.wav
192,192,102894,1,0,0:0:0:59:Snare side strick.wav
192,192,103052,128,0,103684:0:0:0:50:Ride.wav
64,192,103210,1,0,0:0:0:59:Kick.wav
320,192,103210,1,0,0:0:0:0:
320,192,103368,128,0,104000:0:0:0:59:Snare side strick.wav
64,192,103684,128,0,104315:0:0:0:59:Kick.wav
448,192,103684,1,0,0:0:0:50:Ride.wav
192,192,104000,128,0,104631:0:0:0:50:Snare side strick.wav
448,192,104315,128,0,104947:0:0:0:50:Ride.wav
64,192,104473,1,0,0:0:0:59:Kick.wav
320,192,104473,1,0,0:0:0:0:
320,192,104631,128,0,105263:0:0:0:59:Snare side strick.wav
64,192,104947,128,0,105579:0:0:0:59:Kick.wav
192,192,104947,1,0,0:0:0:50:Ride.wav
448,192,105105,1,0,0:0:0:59:Snare side strick.wav
448,192,105263,128,0,105894:0:0:0:50:Ride.wav
192,192,105421,1,0,0:0:0:59:Snare side strick.wav
192,192,105579,128,0,106210:0:0:0:50:Ride.wav
64,192,105736,1,0,0:0:0:59:Kick.wav
320,192,105736,1,0,0:0:0:0:
320,192,105894,128,0,106526:0:0:0:59:Snare side strick.wav
64,192,106210,128,0,106842:0:0:0:59:Kick.wav
448,192,106210,1,0,0:0:0:50:Ride.wav
448,192,106526,128,0,107158:0:0:0:50:Snare side strick.wav
192,192,106842,128,0,107473:0:0:0:50:Ride.wav
64,192,107000,1,0,0:0:0:59:Kick.wav
320,192,107000,1,0,0:0:0:0:
320,192,107158,128,0,107789:0:0:0:59:Snare side strick.wav
64,192,107473,1,0,0:0:0:59:Kick.wav
448,192,107473,128,0,108105:0:0:0:50:Ride.wav
192,192,107631,1,0,0:0:0:59:Snare side strick.wav
64,192,107789,128,0,108421:0:0:0:50:Ride.wav
320,192,107947,1,0,0:0:0:59:Snare side strick.wav
192,192,108105,128,0,108736:0:0:0:50:Ride.wav
320,192,108263,1,0,0:0:0:59:Kick.wav
448,192,108263,1,0,0:0:0:0:
448,192,108421,128,0,109052:0:0:0:59:Snare side strick.wav
64,192,108736,1,0,0:0:0:59:Kick.wav
320,192,108736,128,0,109368:0:0:0:50:Ride.wav
192,192,109052,128,0,109684:0:0:0:50:Snare side strick.wav
64,192,109368,128,0,110000:0:0:0:50:Ride.wav
320,192,109526,1,0,0:0:0:59:Kick.wav
448,192,109526,1,0,0:0:0:0:
448,192,109684,128,0,110315:0:0:0:59:Snare side strick.wav
192,192,110000,1,0,0:0:0:59:Kick.wav
320,192,110000,128,0,110315:0:0:0:50:Ride.wav
64,192,110158,1,0,0:0:0:59:Snare side strick.wav
192,192,110315,128,0,110631:0:0:0:50:Ride.wav
320,192,110473,128,0,110631:0:0:0:59:Snare side strick.wav
320,192,110789,128,0,111105:0:0:0:59:Kick.wav
448,192,110789,1,0,0:0:0:100:33_B2_190_240.wav
192,192,110947,128,0,111263:0:0:0:59:Snare side strick.wav
64,192,111105,128,0,111421:0:0:0:100:33_A2_190_240.wav
320,192,111263,1,0,0:0:0:59:Kick.wav
448,192,111263,128,0,111579:0:0:0:50:Ride.wav
320,192,111421,128,0,111579:0:0:0:100:33_F#2_190_240.wav
64,192,111579,128,0,111894:0:0:0:50:Snare side strick.wav
192,192,111579,128,0,111894:0:0:0:50:Ride.wav
320,192,111894,128,0,112210:0:0:0:50:Ride.wav
448,192,111894,128,0,112052:0:0:0:100:33_E2_190_240.wav
64,192,112052,1,0,0:0:0:59:Kick.wav
192,192,112052,128,0,112210:0:0:0:100:33_D#2_190_240.wav
64,192,112210,128,0,112526:0:0:0:59:Snare side strick.wav
448,192,112210,128,0,112526:0:0:0:59:Ride.wav
192,192,112526,1,0,0:0:0:59:Kick.wav
320,192,112526,128,0,113158:0:0:0:50:Ride.wav
64,192,112684,1,0,0:0:0:59:Snare side strick.wav
448,192,112842,128,0,113473:0:0:0:50:Ride.wav
192,192,113000,1,0,0:0:0:59:Snare side strick.wav
64,192,113158,128,0,113789:0:0:0:50:Ride.wav
192,192,113315,1,0,0:0:0:59:Kick.wav
320,192,113315,1,0,0:0:0:0:
192,192,113473,128,0,114105:0:0:0:59:Snare side strick.wav
320,192,113789,1,0,0:0:0:59:Kick.wav
448,192,113789,128,0,114421:0:0:0:50:Ride.wav
320,192,114105,128,0,114736:0:0:0:50:Snare side strick.wav
64,192,114421,128,0,115052:0:0:0:50:Ride.wav
192,192,114579,1,0,0:0:0:59:Kick.wav
448,192,114579,1,0,0:0:0:0:
192,192,114736,128,0,115368:0:0:0:59:Snare side strick.wav
320,192,115052,1,0,0:0:0:59:Kick.wav
448,192,115052,128,0,115684:0:0:0:50:Ride.wav
64,192,115210,1,0,0:0:0:59:Snare side strick.wav
320,192,115368,128,0,116000:0:0:0:50:Ride.wav
64,192,115526,1,0,0:0:0:59:Snare side strick.wav
64,192,115684,128,0,116315:0:0:0:50:Ride.wav
192,192,115842,1,0,0:0:0:59:Kick.wav
448,192,115842,1,0,0:0:0:0:
192,192,116000,128,0,116631:0:0:0:59:Snare side strick.wav
320,192,116315,1,0,0:0:0:59:Kick.wav
448,192,116315,128,0,116947:0:0:0:50:Ride.wav
64,192,116631,128,0,117263:0:0:0:50:Snare side strick.wav
320,192,116947,128,0,117579:0:0:0:50:Ride.wav
192,192,117105,1,0,0:0:0:59:Kick.wav
448,192,117105,1,0,0:0:0:0:
192,192,117263,128,0,117894:0:0:0:59:Snare side strick.wav
64,192,117579,128,0,118210:0:0:0:59:Kick.wav
448,192,117579,1,0,0:0:0:50:Ride.wav
320,192,117736,1,0,0:0:0:59:Snare side strick.wav
448,192,117894,128,0,118526:0:0:0:50:Ride.wav
320,192,118052,1,0,0:0:0:59:Snare side strick.wav
320,192,118210,128,0,118842:0:0:0:50:Ride.wav
64,192,118368,1,0,0:0:0:59:Kick.wav
192,192,118368,1,0,0:0:0:0:
192,192,118526,128,0,119158:0:0:0:59:Snare side strick.wav
64,192,118842,128,0,119473:0:0:0:59:Kick.wav
448,192,118842,1,0,0:0:0:50:Ride.wav
448,192,119158,128,0,119789:0:0:0:50:Snare side strick.wav
192,192,119473,128,0,120105:0:0:0:50:Ride.wav
64,192,119631,1,0,0:0:0:59:Kick.wav
320,192,119631,1,0,0:0:0:0:
320,192,119789,128,0,120421:0:0:0:59:Snare side strick.wav
64,192,120105,128,0,120736:0:0:0:59:Kick.wav
448,192,120105,1,0,0:0:0:50:Ride.wav
192,192,120263,1,0,0:0:0:59:Snare side strick.wav
448,192,120421,128,0,121052:0:0:0:50:Ride.wav
320,192,120579,1,0,0:0:0:59:Snare side strick.wav
192,192,120736,128,0,121368:0:0:0:50:Ride.wav
64,192,120894,1,0,0:0:0:59:Kick.wav
320,192,120894,1,0,0:0:0:0:
320,192,121052,128,0,121368:0:0:0:59:Snare side strick.wav
64,192,121368,1,0,0:0:0:70:Snare.wav
448,192,121368,1,0,0:0:0:70:Kick.wav
320,192,121447,1,0,0:0:0:50:Snare.wav
192,192,121526,1,0,0:0:0:59:Snare.wav
448,192,121605,1,0,0:0:0:50:Snare.wav
64,192,121684,1,0,0:0:0:70:Snare.wav
320,192,121684,1,0,0:0:0:0:
192,192,121763,1,0,0:0:0:50:Snare.wav
320,192,121842,1,0,0:0:0:59:Snare.wav
64,192,121921,1,0,0:0:0:50:Snare.wav
192,192,122000,1,0,0:0:0:70:Snare.wav
448,192,122000,1,0,0:0:0:0:
320,192,122079,1,0,0:0:0:50:Snare.wav
192,192,122158,1,0,0:0:0:59:Snare.wav
64,192,122236,1,0,0:0:0:50:Snare.wav
320,192,122315,1,0,0:0:0:70:Snare.wav
448,192,122315,1,0,0:0:0:0:
64,192,122631,1,0,0:0:0:70:Kick.wav
192,192,122631,1,0,0:0:0:70:Crash high.wav
448,192,122631,128,0,122710:0:0:0:100:33_A0_190_480.wav
320,192,122710,128,0,122789:0:0:0:100:12 80.wav
192,192,122789,128,0,122868:0:0:0:100:12 80.wav
64,192,122868,128,0,122947:0:0:0:100:12 80.wav
192,192,122947,1,0,0:0:0:70:Snare.wav
448,192,122947,128,0,123026:0:0:0:70:Hi-hat close.wav
320,192,123026,128,0,123105:0:0:0:100:0 80.wav
192,192,123105,128,0,123184:0:0:0:59:Hi-hat close.wav
64,192,123184,128,0,123263:0:0:0:100:0 80.wav
320,192,123263,128,0,123421:0:0:0:70:Kick.wav
448,192,123263,1,0,0:0:0:70:Hi-hat close.wav
192,192,123421,1,0,0:0:0:70:Kick.wav
448,192,123421,128,0,123579:0:0:0:59:Hi-hat close.wav
64,192,123579,1,0,0:0:0:70:Snare.wav
192,192,123579,1,0,0:0:0:70:Hi-hat close.wav
320,192,123579,1,0,0:0:0:100:33_A0_190_240.wav
192,192,123736,128,0,123894:0:0:0:59:Hi-hat close.wav
64,192,123894,1,0,0:0:0:70:Kick.wav
320,192,123894,1,0,0:0:0:70:Hi-hat close.wav
320,192,124052,128,0,124210:0:0:0:59:Hi-hat close.wav
64,192,124210,1,0,0:0:0:70:Snare.wav
192,192,124210,1,0,0:0:0:70:Hi-hat close.wav
448,192,124210,1,0,0:0:0:100:33_A0_190_240.wav
64,192,124368,128,0,124526:0:0:0:59:Hi-hat close.wav
192,192,124526,128,0,124684:0:0:0:70:Kick.wav
320,192,124526,1,0,0:0:0:70:Hi-hat close.wav
64,192,124684,1,0,0:0:0:70:Kick.wav
448,192,124684,128,0,124842:0:0:0:59:Hi-hat close.wav
64,192,124842,1,0,0:0:0:70:Snare.wav
192,192,124842,1,0,0:0:0:70:Hi-hat close.wav
320,192,124842,128,0,125000:0:0:0:100:33_A0_190_240.wav
192,192,125000,128,0,125158:0:0:0:59:Hi-hat close.wav
320,192,125158,1,0,0:0:0:70:Kick.wav
448,192,125158,128,0,125315:0:0:0:70:Hi-hat close.wav
64,192,125315,128,0,125473:0:0:0:59:Hi-hat close.wav
192,192,125473,1,0,0:0:0:70:Snare.wav
320,192,125473,128,0,125631:0:0:0:70:Hi-hat close.wav
448,192,125473,1,0,0:0:0:100:33_G#0_190_240.wav
192,192,125631,128,0,125789:0:0:0:59:Hi-hat close.wav
320,192,125789,1,0,0:0:0:70:Kick.wav
448,192,125789,128,0,125947:0:0:0:70:Hi-hat close.wav
64,192,125947,1,0,0:0:0:70:Kick.wav
320,192,125947,128,0,126105:0:0:0:59:Hi-hat close.wav
64,192,126105,128,0,126263:0:0:0:70:Snare.wav
192,192,126105,1,0,0:0:0:70:Hi-hat close.wav
448,192,126105,1,0,0:0:0:100:33_G#0_190_240.wav
192,192,126263,128,0,126421:0:0:0:59:Hi-hat close.wav
320,192,126421,1,0,0:0:0:70:Kick.wav
448,192,126421,128,0,126579:0:0:0:70:Hi-hat close.wav
64,192,126579,128,0,126736:0:0:0:59:Hi-hat close.wav
192,192,126736,1,0,0:0:0:70:Snare.wav
320,192,126736,128,0,126894:0:0:0:70:Hi-hat close.wav
448,192,126736,1,0,0:0:0:100:33_G#0_190_240.wav
192,192,126894,128,0,127052:0:0:0:59:Hi-hat close.wav
64,192,127052,128,0,127210:0:0:0:70:Kick.wav
320,192,127052,1,0,0:0:0:70:Hi-hat close.wav
320,192,127210,128,0,127368:0:0:0:70:Kick.wav
448,192,127210,1,0,0:0:0:59:Hi-hat close.wav
64,192,127368,1,0,0:0:0:70:Snare.wav
192,192,127368,1,0,0:0:0:70:Hi-hat close.wav
448,192,127368,128,0,127526:0:0:0:100:33_G#0_190_240.wav
192,192,127526,128,0,127684:0:0:0:59:Hi-hat close.wav
64,192,127684,1,0,0:0:0:70:Kick.wav
448,192,127684,1,0,0:0:0:70:Hi-hat close.wav
320,192,127842,128,0,127921:0:0:0:59:Hi-hat close.wav
64,192,128000,1,0,0:0:0:70:Snare.wav
192,192,128000,1,0,0:0:0:70:Hi-hat close.wav
320,192,128000,128,0,128079:0:0:0:100:33_F#0_190_240.wav
320,192,128158,128,0,128236:0:0:0:59:Hi-hat close.wav
64,192,128315,1,0,0:0:0:70:Kick.wav
320,192,128315,128,0,128394:0:0:0:70:Hi-hat close.wav
64,192,128473,1,0,0:0:0:70:Kick.wav
320,192,128473,128,0,128631:0:0:0:59:Hi-hat close.wav
64,192,128631,1,0,0:0:0:70:Snare.wav
192,192,128631,1,0,0:0:0:70:Hi-hat close.wav
448,192,128631,1,0,0:0:0:100:33_F#0_190_240.wav
192,192,128789,128,0,128868:0:0:0:59:Hi-hat close.wav
192,192,128947,128,0,129026:0:0:0:70:Kick.wav
448,192,128947,1,0,0:0:0:70:Hi-hat close.wav
192,192,129105,128,0,129184:0:0:0:59:Hi-hat close.wav
192,192,129263,128,0,129342:0:0:0:70:Snare.wav
320,192,129263,1,0,0:0:0:70:Hi-hat close.wav
448,192,129263,1,0,0:0:0:100:33_F#1_190_240.wav
192,192,129421,128,0,129579:0:0:0:59:Hi-hat close.wav
320,192,129579,1,0,0:0:0:70:Kick.wav
448,192,129579,1,0,0:0:0:70:Hi-hat close.wav
64,192,129736,1,0,0:0:0:70:Kick.wav
320,192,129736,128,0,129894:0:0:0:59:Hi-hat close.wav
64,192,129894,1,0,0:0:0:70:Snare.wav
192,192,129894,128,0,130052:0:0:0:70:Hi-hat close.wav
448,192,129894,1,0,0:0:0:100:33_F#1_190_240.wav
448,192,130052,128,0,130210:0:0:0:59:Hi-hat close.wav
64,192,130210,1,0,0:0:0:70:Kick.wav
320,192,130210,1,0,0:0:0:70:Hi-hat close.wav
192,192,130368,128,0,130526:0:0:0:59:Hi-hat close.wav
64,192,130526,128,0,130684:0:0:0:70:Snare.wav
320,192,130526,1,0,0:0:0:70:Hi-hat close.wav
448,192,130526,1,0,0:0:0:100:33_C#2_190_240.wav
448,192,130684,128,0,130763:0:0:0:59:Hi-hat close.wav
320,192,130763,128,0,130842:0:0:0:100:x 9 9 M 80.wav
64,192,130842,1,0,0:0:0:70:Kick.wav
192,192,130842,128,0,131000:0:0:0:70:Hi-hat close.wav
320,192,131000,128,0,131158:0:0:0:70:Kick.wav
448,192,131000,1,0,0:0:0:59:Hi-hat close.wav
64,192,131158,1,0,0:0:0:70:Snare.wav
192,192,131158,1,0,0:0:0:70:Hi-hat open.wav
448,192,131158,1,0,0:0:0:100:33_G#1_190_240.wav
320,192,131315,1,0,0:0:0:100:33_F#1_190_240.wav
192,192,131394,1,0,0:0:0:59:Snare.wav
64,192,131473,1,0,0:0:0:70:Snare.wav
320,192,131473,1,0,0:0:0:70:Hi-hat close.wav
448,192,131473,128,0,131631:0:0:0:100:33_E1_190_240.wav
192,192,131631,1,0,0:0:0:70:Kick.wav
320,192,131631,128,0,131789:0:0:0:100:33_E1_190_240.wav
64,192,131789,1,0,0:0:0:70:Snare.wav
192,192,131789,128,0,132105:0:0:0:100:33_D#1_190_240.wav
448,192,131789,1,0,0:0:0:100:x 0 320.wav
64,192,132105,128,0,132183:0:0:0:70:Kick.wav
320,192,132105,1,0,0:0:0:70:Crash high.wav
448,192,132105,1,0,0:0:0:100:33_A0_190_480.wav
192,192,132183,128,0,132262:0:0:0:100:12 80.wav
320,192,132262,128,0,132341:0:0:0:100:12 80.wav
448,192,132341,128,0,132420:0:0:0:100:12 80.wav
64,192,132420,128,0,132499:0:0:0:70:Snare.wav
320,192,132420,1,0,0:0:0:70:Hi-hat close.wav
192,192,132499,128,0,132578:0:0:0:100:0 80.wav
320,192,132578,128,0,132657:0:0:0:59:Hi-hat close.wav
448,192,132657,128,0,132736:0:0:0:100:0 80.wav
64,192,132736,1,0,0:0:0:70:Kick.wav
192,192,132736,128,0,132894:0:0:0:70:Hi-hat close.wav
64,192,132894,128,0,133052:0:0:0:70:Kick.wav
320,192,132894,1,0,0:0:0:59:Hi-hat close.wav
192,192,133052,1,0,0:0:0:70:Snare.wav
320,192,133052,1,0,0:0:0:70:Hi-hat close.wav
448,192,133052,1,0,0:0:0:100:33_A0_190_240.wav
448,192,133210,128,0,133368:0:0:0:59:Hi-hat close.wav
192,192,133368,1,0,0:0:0:70:Kick.wav
320,192,133368,1,0,0:0:0:70:Hi-hat close.wav
192,192,133526,128,0,133683:0:0:0:59:Hi-hat close.wav
64,192,133683,1,0,0:0:0:70:Snare.wav
320,192,133683,1,0,0:0:0:70:Hi-hat close.wav
448,192,133683,1,0,0:0:0:100:33_A0_190_240.wav
448,192,133841,128,0,133999:0:0:0:59:Hi-hat close.wav
192,192,133999,1,0,0:0:0:70:Kick.wav
320,192,133999,128,0,134157:0:0:0:70:Hi-hat close.wav
64,192,134157,128,0,134315:0:0:0:70:Kick.wav
448,192,134157,1,0,0:0:0:59:Hi-hat close.wav
192,192,134315,128,0,134473:0:0:0:70:Snare.wav
320,192,134315,1,0,0:0:0:70:Hi-hat close.wav
448,192,134315,1,0,0:0:0:100:33_B0_190_240.wav
320,192,134473,128,0,134631:0:0:0:59:Hi-hat close.wav
64,192,134631,128,0,134789:0:0:0:70:Kick.wav
192,192,134631,1,0,0:0:0:70:Hi-hat close.wav
448,192,134789,128,0,134947:0:0:0:59:Hi-hat close.wav
64,192,134947,1,0,0:0:0:70:Snare.wav
192,192,134947,128,0,135105:0:0:0:70:Hi-hat close.wav
320,192,134947,1,0,0:0:0:100:33_G#0_190_240.wav
320,192,135105,128,0,135262:0:0:0:59:Hi-hat close.wav
64,192,135262,128,0,135420:0:0:0:70:Kick.wav
192,192,135262,1,0,0:0:0:70:Hi-hat close.wav
192,192,135420,128,0,135578:0:0:0:70:Kick.wav
448,192,135420,1,0,0:0:0:59:Hi-hat close.wav
64,192,135578,1,0,0:0:0:70:Snare.wav
320,192,135578,1,0,0:0:0:70:Hi-hat close.wav
448,192,135578,128,0,135736:0:0:0:100:33_G#0_190_240.wav
320,192,135736,128,0,135894:0:0:0:59:Hi-hat close.wav
64,192,135894,128,0,136052:0:0:0:70:Kick.wav
192,192,135894,1,0,0:0:0:70:Hi-hat close.wav
448,192,136052,128,0,136210:0:0:0:59:Hi-hat close.wav
64,192,136210,1,0,0:0:0:70:Snare.wav
192,192,136210,128,0,136368:0:0:0:70:Hi-hat close.wav
320,192,136210,1,0,0:0:0:100:33_G#0_190_240.wav
320,192,136368,128,0,136526:0:0:0:59:Hi-hat close.wav
192,192,136526,1,0,0:0:0:70:Kick.wav
448,192,136526,128,0,136683:0:0:0:70:Hi-hat close.wav
64,192,136683,1,0,0:0:0:70:Kick.wav
192,192,136683,128,0,136841:0:0:0:59:Hi-hat close.wav
64,192,136841,128,0,136999:0:0:0:70:Snare.wav
320,192,136841,1,0,0:0:0:70:Hi-hat open.wav
448,192,136841,1,0,0:0:0:100:33_G#0_190_240.wav
320,192,136999,128,0,137157:0:0:0:100:33_G#0_190_240.wav
192,192,137157,1,0,0:0:0:70:Kick.wav
448,192,137157,1,0,0:0:0:70:Hi-hat close.wav
64,192,137315,128,0,137394:0:0:0:59:Hi-hat close.wav
64,192,137473,128,0,137552:0:0:0:70:Snare.wav
320,192,137473,1,0,0:0:0:70:Hi-hat close.wav
448,192,137473,1,0,0:0:0:100:33_F#0_190_240.wav
64,192,137631,128,0,137710:0:0:0:59:Hi-hat close.wav
64,192,137789,128,0,137868:0:0:0:70:Kick.wav
320,192,137789,1,0,0:0:0:70:Hi-hat close.wav
64,192,137947,128,0,138105:0:0:0:70:Kick.wav
320,192,137947,1,0,0:0:0:59:Hi-hat close.wav
192,192,138105,1,0,0:0:0:70:Snare.wav
320,192,138105,1,0,0:0:0:70:Hi-hat close.wav
448,192,138105,1,0,0:0:0:100:33_F#0_190_240.wav
448,192,138262,128,0,138341:0:0:0:59:Hi-hat close.wav
192,192,138420,1,0,0:0:0:70:Kick.wav
448,192,138420,128,0,138499:0:0:0:70:Hi-hat close.wav
448,192,138578,128,0,138657:0:0:0:59:Hi-hat close.wav
64,192,138736,1,0,0:0:0:70:Snare.wav
192,192,138736,1,0,0:0:0:70:Hi-hat close.wav
448,192,138736,128,0,138815:0:0:0:100:33_B0_190_240.wav
448,192,138894,128,0,139052:0:0:0:59:Hi-hat close.wav
192,192,139052,1,0,0:0:0:70:Kick.wav
320,192,139052,1,0,0:0:0:70:Hi-hat close.wav
64,192,139210,128,0,139368:0:0:0:70:Kick.wav
448,192,139210,1,0,0:0:0:59:Hi-hat close.wav
192,192,139368,1,0,0:0:0:70:Snare.wav
320,192,139368,1,0,0:0:0:70:Hi-hat close.wav
448,192,139368,128,0,139526:0:0:0:100:33_B0_190_480.wav
320,192,139526,128,0,139683:0:0:0:59:Hi-hat close.wav
64,192,139683,1,0,0:0:0:70:Kick.wav
192,192,139683,128,0,139894:0:0:0:70:Hi-hat open.wav
448,192,139894,128,0,140105:0:0:0:100:x 10 11 214.wav
64,192,139999,1,0,0:0:0:70:Snare.wav
320,192,139999,1,0,0:0:0:70:Hi-hat close.wav
192,192,140105,128,0,140315:0:0:0:100:x 11 12 214.wav
64,192,140315,128,0,140526:0:0:0:70:Hi-hat close.wav
192,192,140473,1,0,0:0:0:70:Kick.wav
448,192,140473,1,0,0:0:0:59:Hi-hat close.wav
320,192,140526,128,0,140736:0:0:0:100:12 12 214.wav
64,192,140631,1,0,0:0:0:70:Snare.wav
448,192,140631,1,0,0:0:0:70:Hi-hat open.wav
192,192,140736,128,0,140947:0:0:0:100:14 14 214.wav
320,192,140947,1,0,0:0:0:70:Snare.wav
448,192,140947,1,0,0:0:0:70:Kick.wav
64,192,141026,1,0,0:0:0:50:Snare.wav
192,192,141026,1,0,0:0:0:0:
320,192,141105,1,0,0:0:0:59:Snare.wav
448,192,141105,1,0,0:0:0:100:33_F#1_190_240.wav
64,192,141183,1,0,0:0:0:50:Snare.wav
192,192,141183,1,0,0:0:0:0:
320,192,141262,1,0,0:0:0:70:Snare.wav
448,192,141262,1,0,0:0:0:70:Kick.wav
64,192,141341,1,0,0:0:0:50:Snare.wav
192,192,141341,1,0,0:0:0:0:
320,192,141420,1,0,0:0:0:59:Snare.wav
448,192,141420,1,0,0:0:0:100:16 320.wav
64,192,141499,1,0,0:0:0:50:Snare.wav
192,192,141499,1,0,0:0:0:0:
320,192,141578,1,0,0:0:0:70:Snare.wav
448,192,141578,1,0,0:0:0:70:Kick.wav
64,192,141657,1,0,0:0:0:50:Snare.wav
192,192,141657,1,0,0:0:0:0:
320,192,141736,1,0,0:0:0:59:Snare.wav
448,192,141736,1,0,0:0:0:100:33_G#1_190_240.wav
64,192,141815,1,0,0:0:0:50:Snare.wav
192,192,141815,1,0,0:0:0:0:
320,192,141894,1,0,0:0:0:70:Snare.wav
448,192,141894,1,0,0:0:0:70:Kick.wav
64,192,141973,1,0,0:0:0:50:Snare.wav
192,192,141973,1,0,0:0:0:0:
320,192,142052,1,0,0:0:0:59:Snare.wav
448,192,142052,1,0,0:0:0:0:
64,192,142131,1,0,0:0:0:50:Snare.wav
192,192,142131,1,0,0:0:0:0:
64,192,142210,128,0,142368:0:0:0:70:Kick.wav
320,192,142210,1,0,0:0:0:70:Crash high.wav
448,192,142210,1,0,0:0:0:100:33_A0_190_480.wav
448,192,142368,128,0,142526:0:0:0:100:x x 9 9 160.wav
64,192,142526,1,0,0:0:0:70:Snare.wav
192,192,142526,1,0,0:0:0:70:Hi-hat open.wav
320,192,142526,1,0,0:0:0:100:33_A0_190_240.wav
64,192,142683,128,0,142841:0:0:0:100:33_A0_190_240.wav
192,192,142841,1,0,0:0:0:70:Snare.wav
320,192,142841,1,0,0:0:0:70:Hi-hat open.wav
448,192,142841,128,0,142999:0:0:0:100:33_A0_190_240.wav
64,192,142999,1,0,0:0:0:70:Kick.wav
192,192,142999,128,0,143157:0:0:0:100:33_A0_190_240.wav
64,192,143157,1,0,0:0:0:70:Snare.wav
320,192,143157,1,0,0:0:0:70:Hi-hat open.wav
448,192,143157,1,0,0:0:0:100:33_A0_190_240.wav
64,192,143315,128,0,143473:0:0:0:70:Kick.wav
320,192,143315,1,0,0:0:0:100:33_A0_190_240.wav
192,192,143473,1,0,0:0:0:70:Snare.wav
320,192,143473,1,0,0:0:0:70:Hi-hat open.wav
448,192,143473,128,0,143631:0:0:0:100:33_A0_190_240.wav
192,192,143631,128,0,143789:0:0:0:100:33_A0_190_240.wav
64,192,143789,1,0,0:0:0:70:Snare.wav
320,192,143789,1,0,0:0:0:70:Hi-hat open.wav
448,192,143789,1,0,0:0:0:100:33_A0_190_240.wav
192,192,143947,128,0,144105:0:0:0:70:Kick.wav
448,192,143947,1,0,0:0:0:100:33_A0_190_240.wav
64,192,144105,1,0,0:0:0:70:Snare.wav
320,192,144105,1,0,0:0:0:70:Hi-hat open.wav
448,192,144105,128,0,144262:0:0:0:100:33_A0_190_240.wav
64,192,144262,128,0,144420:0:0:0:70:Kick.wav
192,192,144262,1,0,0:0:0:100:33_A0_190_240.wav
192,192,144420,1,0,0:0:0:70:Snare.wav
320,192,144420,128,0,144578:0:0:0:70:Hi-hat open.wav
448,192,144420,1,0,0:0:0:100:33_A0_190_240.wav
64,192,144578,1,0,0:0:0:70:Kick.wav
448,192,144578,128,0,144736:0:0:0:100:33_A0_190_240.wav
64,192,144736,1,0,0:0:0:70:Snare.wav
192,192,144736,128,0,144894:0:0:0:70:Hi-hat open.wav
320,192,144736,1,0,0:0:0:100:33_A0_190_240.wav
448,192,144894,128,0,145052:0:0:0:100:33_A0_190_240.wav
64,192,145052,1,0,0:0:0:70:Snare.wav
192,192,145052,1,0,0:0:0:70:Hi-hat open.wav
320,192,145052,1,0,0:0:0:100:33_G#1_190_240.wav
192,192,145210,128,0,145368:0:0:0:100:33_A1_190_480.wav
64,192,145368,1,0,0:0:0:70:Snare.wav
320,192,145368,1,0,0:0:0:70:Hi-hat open.wav
448,192,145368,128,0,145526:0:0:0:100:x 4 4 4 160.wav
64,192,145526,128,0,145683:0:0:0:70:Kick.wav
320,192,145526,1,0,0:0:0:100:33_A1_190_240.wav
192,192,145683,1,0,0:0:0:70:Snare.wav
320,192,145683,1,0,0:0:0:70:Hi-hat open.wav
448,192,145683,1,0,0:0:0:100:33_E1_190_180.wav
64,192,145841,1,0,0:0:0:70:Kick.wav
192,192,145841,128,0,145999:0:0:0:100:33_B1_190_480.wav
64,192,145999,1,0,0:0:0:70:Snare.wav
320,192,145999,1,0,0:0:0:70:Hi-hat open.wav
448,192,145999,128,0,146157:0:0:0:100:x 4 4 4 160.wav
64,192,146157,128,0,146315:0:0:0:100:33_A1_190_480.wav
192,192,146315,1,0,0:0:0:70:Snare.wav
320,192,146315,1,0,0:0:0:70:Hi-hat open.wav
448,192,146315,1,0,0:0:0:100:x 4 4 4 x 5 B7 160.wav
192,192,146473,1,0,0:0:0:70:Kick.wav
320,192,146473,128,0,146631:0:0:0:100:33_A0_190_240.wav
64,192,146631,1,0,0:0:0:70:Snare.wav
192,192,146631,1,0,0:0:0:70:Hi-hat open.wav
448,192,146631,128,0,146789:0:0:0:100:33_A0_190_240.wav
64,192,146789,128,0,146947:0:0:0:70:Kick.wav
320,192,146789,1,0,0:0:0:100:33_A1_190_240.wav
192,192,146947,128,0,147105:0:0:0:70:Snare.wav
320,192,146947,1,0,0:0:0:70:Hi-hat open.wav
448,192,146947,1,0,0:0:0:100:33_E1_190_480.wav
64,192,147105,1,0,0:0:0:70:Kick.wav
320,192,147105,128,0,147262:0:0:0:100:x 4 4 4 x 5 B7 160.wav
64,192,147262,1,0,0:0:0:70:Snare.wav
192,192,147262,1,0,0:0:0:70:Kick.wav
448,192,147262,128,0,147341:0:0:0:70:Crash high.wav
448,192,147420,128,0,147499:0:0:0:100:x x 4 4 x 4 160.wav
64,192,147578,1,0,0:0:0:70:Snare.wav
192,192,147578,1,0,0:0:0:70:Hi-hat open.wav
448,192,147578,128,0,147657:0:0:0:100:33_G#0_190_240.wav
448,192,147736,128,0,147815:0:0:0:100:33_G#0_190_240.wav
192,192,147894,1,0,0:0:0:70:Snare.wav
320,192,147894,1,0,0:0:0:70:Hi-hat open.wav
448,192,147894,128,0,147973:0:0:0:100:33_G#0_190_240.wav
64,192,148052,1,0,0:0:0:70:Kick.wav
448,192,148052,128,0,148131:0:0:0:100:33_G#0_190_240.wav
192,192,148210,1,0,0:0:0:70:Snare.wav
320,192,148210,1,0,0:0:0:70:Hi-hat open.wav
448,192,148210,128,0,148289:0:0:0:100:33_G#0_190_240.wav
64,192,148368,1,0,0:0:0:70:Kick.wav
448,192,148368,128,0,148447:0:0:0:100:33_G#0_190_240.wav
64,192,148526,1,0,0:0:0:70:Snare.wav
192,192,148526,128,0,148605:0:0:0:70:Hi-hat open.wav
320,192,148526,1,0,0:0:0:100:33_C1_190_240.wav
192,192,148683,128,0,148762:0:0:0:100:33_C1_190_240.wav
64,192,148841,1,0,0:0:0:70:Snare.wav
192,192,148841,128,0,148920:0:0:0:70:Hi-hat open.wav
448,192,148841,1,0,0:0:0:100:33_C1_190_240.wav
320,192,148999,128,0,149078:0:0:0:70:Kick.wav
448,192,148999,1,0,0:0:0:100:33_C1_190_240.wav
64,192,149157,1,0,0:0:0:70:Snare.wav
192,192,149157,1,0,0:0:0:70:Hi-hat open.wav
320,192,149157,128,0,149236:0:0:0:100:33_C1_190_240.wav
64,192,149315,1,0,0:0:0:70:Kick.wav
320,192,149315,128,0,149394:0:0:0:100:33_C1_190_240.wav
64,192,149473,128,0,149552:0:0:0:70:Snare.wav
192,192,149473,1,0,0:0:0:70:Hi-hat open.wav
448,192,149473,1,0,0:0:0:100:33_C1_190_240.wav
64,192,149631,128,0,149710:0:0:0:70:Kick.wav
320,192,149631,1,0,0:0:0:100:33_C1_190_240.wav
192,192,149789,1,0,0:0:0:70:Snare.wav
320,192,149789,1,0,0:0:0:70:Hi-hat open.wav
448,192,149789,128,0,150105:0:0:0:100:33_C#1_190_240.wav
64,192,150105,1,0,0:0:0:70:Snare.wav
192,192,150105,128,0,150262:0:0:0:70:Hi-hat open.wav
320,192,150105,1,0,0:0:0:100:33_C#1_190_240.wav
64,192,150262,128,0,150420:0:0:0:100:33_C#1_190_240.wav
192,192,150420,1,0,0:0:0:70:Snare.wav
320,192,150420,128,0,150578:0:0:0:70:Hi-hat open.wav
448,192,150420,1,0,0:0:0:100:33_C#1_190_240.wav
64,192,150578,1,0,0:0:0:70:Kick.wav
192,192,150631,1,0,0:0:0:100:4 54.wav
320,192,150683,1,0,0:0:0:100:2 54.wav
64,192,150736,128,0,150894:0:0:0:70:Snare.wav
448,192,150736,1,0,0:0:0:70:Hi-hat open.wav
192,192,150894,128,0,151052:0:0:0:100:33_C#1_190_240.wav
320,192,150894,1,0,0:0:0:100:x 0 160.wav
64,192,151052,1,0,0:0:0:70:Kick.wav
448,192,151052,128,0,151210:0:0:0:70:Hi-hat open.wav
64,192,151210,1,0,0:0:0:59:Snare.wav
192,192,151210,1,0,0:0:0:100:33_B0_190_240.wav
320,192,151289,1,0,0:0:0:50:Snare.wav
448,192,151289,1,0,0:0:0:0:
64,192,151368,1,0,0:0:0:70:Kick.wav
192,192,151368,1,0,0:0:0:70:Hi-hat open.wav
448,192,151368,1,0,0:0:0:100:33_F#1_190_480.wav
320,192,151526,1,0,0:0:0:59:Snare.wav
448,192,151526,1,0,0:0:0:100:x x x x 2 160.wav
64,192,151605,1,0,0:0:0:50:Snare.wav
192,192,151605,1,0,0:0:0:0:
320,192,151683,1,0,0:0:0:70:Snare.wav
448,192,151683,1,0,0:0:0:70:Kick.wav
64,192,151762,1,0,0:0:0:50:Snare.wav
192,192,151762,1,0,0:0:0:0:
320,192,151841,1,0,0:0:0:59:Snare.wav
448,192,151841,1,0,0:0:0:100:33_F#1_190_240.wav
64,192,151920,1,0,0:0:0:50:Snare.wav
192,192,151920,1,0,0:0:0:0:
320,192,151999,1,0,0:0:0:70:Snare.wav
448,192,151999,1,0,0:0:0:70:Kick.wav
64,192,152078,1,0,0:0:0:50:Snare.wav
192,192,152078,1,0,0:0:0:0:
320,192,152157,1,0,0:0:0:59:Snare.wav
448,192,152157,1,0,0:0:0:0:
64,192,152236,1,0,0:0:0:50:Snare.wav
192,192,152236,1,0,0:0:0:0:
64,192,152315,1,0,0:0:0:70:Kick.wav
320,192,152315,128,0,152473:0:0:0:70:Crash high.wav
448,192,152315,1,0,0:0:0:100:33_A0_190_480.wav
64,192,152473,128,0,152631:0:0:0:100:x x 9 9 160.wav
192,192,152631,1,0,0:0:0:70:Snare.wav
320,192,152631,1,0,0:0:0:70:Hi-hat open.wav
448,192,152631,1,0,0:0:0:100:33_A0_190_240.wav
320,192,152789,128,0,152947:0:0:0:100:33_A0_190_240.wav
64,192,152947,128,0,153105:0:0:0:70:Snare.wav
192,192,152947,1,0,0:0:0:70:Hi-hat open.wav
448,192,152947,1,0,0:0:0:100:33_A0_190_240.wav
192,192,153105,1,0,0:0:0:70:Kick.wav
448,192,153105,128,0,153262:0:0:0:100:33_A0_190_240.wav
64,192,153262,1,0,0:0:0:70:Snare.wav
192,192,153262,1,0,0:0:0:70:Hi-hat open.wav
320,192,153262,1,0,0:0:0:100:33_A0_190_240.wav
320,192,153420,128,0,153578:0:0:0:70:Kick.wav
448,192,153420,1,0,0:0:0:100:33_A0_190_240.wav
64,192,153578,128,0,153736:0:0:0:70:Snare.wav
192,192,153578,1,0,0:0:0:70:Hi-hat open.wav
448,192,153578,1,0,0:0:0:100:33_A1_190_240.wav
448,192,153736,128,0,153894:0:0:0:100:33_E1_190_240.wav
64,192,153894,1,0,0:0:0:70:Snare.wav
192,192,153894,1,0,0:0:0:70:Hi-hat open.wav
320,192,153894,1,0,0:0:0:100:33_G#1_190_240.wav
192,192,154052,1,0,0:0:0:70:Kick.wav
448,192,154052,128,0,154210:0:0:0:100:33_A1_190_480.wav
64,192,154210,1,0,0:0:0:70:Snare.wav
192,192,154210,128,0,154368:0:0:0:70:Hi-hat open.wav
320,192,154210,1,0,0:0:0:100:x 9 9 9 160.wav
320,192,154368,128,0,154526:0:0:0:70:Kick.wav
448,192,154368,1,0,0:0:0:100:33_A1_190_240.wav
64,192,154526,128,0,154683:0:0:0:70:Snare.wav
192,192,154526,1,0,0:0:0:70:Hi-hat open.wav
448,192,154526,1,0,0:0:0:100:33_E1_190_480.wav
192,192,154683,128,0,154841:0:0:0:70:Kick.wav
320,192,154683,1,0,0:0:0:100:x 9 11 9 160.wav
64,192,154841,1,0,0:0:0:70:Snare.wav
320,192,154841,128,0,154999:0:0:0:70:Hi-hat open.wav
448,192,154841,1,0,0:0:0:100:33_B1_190_240.wav
192,192,154999,128,0,155157:0:0:0:100:33_B1_190_240.wav
64,192,155157,1,0,0:0:0:70:Snare.wav
320,192,155157,1,0,0:0:0:70:Hi-hat open.wav
448,192,155157,1,0,0:0:0:100:33_B1_190_240.wav
320,192,155315,128,0,155473:0:0:0:100:33_B1_190_480.wav
64,192,155473,1,0,0:0:0:70:Snare.wav
192,192,155473,128,0,155631:0:0:0:70:Hi-hat open.wav
448,192,155473,1,0,0:0:0:100:x 4 4 4 160.wav
64,192,155631,1,0,0:0:0:70:Kick.wav
448,192,155631,128,0,155789:0:0:0:100:33_E2_190_480.wav
64,192,155789,1,0,0:0:0:70:Snare.wav
192,192,155789,1,0,0:0:0:70:Hi-hat open.wav
320,192,155789,1,0,0:0:0:100:x 4 4 4 x 5 B7 160.wav
320,192,155947,128,0,156105:0:0:0:70:Kick.wav
448,192,155947,1,0,0:0:0:100:33_D#2_190_480.wav
64,192,156105,1,0,0:0:0:70:Snare.wav
192,192,156105,128,0,156262:0:0:0:70:Hi-hat open.wav
448,192,156105,1,0,0:0:0:100:x 4 4 4 160.wav
448,192,156262,128,0,156420:0:0:0:100:33_B1_190_240.wav
64,192,156420,1,0,0:0:0:70:Snare.wav
192,192,156420,1,0,0:0:0:70:Hi-hat open.wav
320,192,156420,1,0,0:0:0:100:33_C#2_190_240.wav
64,192,156578,128,0,156736:0:0:0:70:Kick.wav
320,192,156578,1,0,0:0:0:100:33_B1_190_480.wav
192,192,156736,1,0,0:0:0:70:Snare.wav
320,192,156736,128,0,156894:0:0:0:70:Hi-hat open.wav
448,192,156736,1,0,0:0:0:100:x 4 4 4 160.wav
64,192,156894,1,0,0:0:0:70:Kick.wav
192,192,156894,128,0,157052:0:0:0:100:33_F#2_190_240.wav
64,192,157052,1,0,0:0:0:70:Snare.wav
320,192,157052,1,0,0:0:0:70:Hi-hat open.wav
448,192,157052,128,0,157210:0:0:0:100:33_B1_190_480.wav
192,192,157210,1,0,0:0:0:70:Kick.wav
320,192,157210,128,0,157368:0:0:0:100:x 4 4 4 x 5 B7 160.wav
64,192,157368,128,0,157841:0:0:0:70:Snare.wav
192,192,157368,1,0,0:0:0:70:Kick.wav
448,192,157368,1,0,0:0:0:70:Crash high.wav
192,192,157683,1,0,0:0:0:70:Snare.wav
320,192,157683,1,0,0:0:0:70:Hi-hat open.wav
448,192,157683,1,0,0:0:0:100:33_G#0_190_240.wav
320,192,157841,128,0,158315:0:0:0:100:33_G#0_190_240.wav
64,192,157999,1,0,0:0:0:70:Snare.wav
192,192,157999,1,0,0:0:0:70:Hi-hat open.wav
448,192,157999,1,0,0:0:0:100:33_G#0_190_240.wav
192,192,158157,1,0,0:0:0:70:Kick.wav
448,192,158157,1,0,0:0:0:100:33_G#0_190_240.wav
64,192,158315,1,0,0:0:0:70:Snare.wav
192,192,158315,128,0,158631:0:0:0:70:Hi-hat open.wav
448,192,158315,1,0,0:0:0:100:33_G#0_190_240.wav
64,192,158473,1,0,0:0:0:70:Kick.wav
320,192,158473,1,0,0:0:0:100:33_G#0_190_240.wav
64,192,158631,1,0,0:0:0:70:Snare.wav
320,192,158631,1,0,0:0:0:70:Hi-hat open.wav
448,192,158631,128,0,159105:0:0:0:100:33_C1_190_240.wav
64,192,158947,1,0,0:0:0:70:Snare.wav
192,192,158947,1,0,0:0:0:70:Hi-hat open.wav
320,192,158947,1,0,0:0:0:100:33_C1_190_240.wav
192,192,159105,128,0,159578:0:0:0:100:33_C1_190_240.wav
64,192,159262,1,0,0:0:0:70:Snare.wav
320,192,159262,1,0,0:0:0:70:Hi-hat open.wav
448,192,159262,1,0,0:0:0:100:33_C1_190_240.wav
320,192,159420,1,0,0:0:0:70:Kick.wav
448,192,159420,1,0,0:0:0:100:33_C1_190_240.wav
64,192,159578,1,0,0:0:0:70:Snare.wav
320,192,159578,128,0,159894:0:0:0:70:Hi-hat open.wav
448,192,159578,1,0,0:0:0:100:33_C1_190_240.wav
64,192,159736,1,0,0:0:0:70:Kick.wav
192,192,159736,1,0,0:0:0:100:33_C1_190_240.wav
64,192,159894,1,0,0:0:0:70:Snare.wav
192,192,159894,1,0,0:0:0:70:Hi-hat open.wav
448,192,159894,128,0,160368:0:0:0:100:33_C#1_190_240.wav
64,192,160210,1,0,0:0:0:70:Snare.wav
192,192,160210,1,0,0:0:0:70:Hi-hat open.wav
320,192,160210,1,0,0:0:0:100:33_E0_190_240.wav
64,192,160368,128,0,160841:0:0:0:100:33_E0_190_240.wav
192,192,160526,1,0,0:0:0:70:Snare.wav
320,192,160526,1,0,0:0:0:70:Hi-hat open.wav
448,192,160526,1,0,0:0:0:100:33_F#0_190_240.wav
192,192,160683,1,0,0:0:0:70:Kick.wav
448,192,160683,1,0,0:0:0:100:33_F#0_190_240.wav
192,192,160841,1,0,0:0:0:70:Snare.wav
320,192,160841,1,0,0:0:0:70:Hi-hat open.wav
448,192,160841,1,0,0:0:0:100:33_G#0_190_240.wav
320,192,160999,1,0,0:0:0:100:33_G#0_190_240.wav
192,192,161078,1,0,0:0:0:59:Snare.wav
64,192,161157,1,0,0:0:0:70:Snare.wav
320,192,161157,1,0,0:0:0:70:Kick.wav
448,192,161157,1,0,0:0:0:100:33_D1_190_240.wav
64,192,161315,1,0,0:0:0:70:Snare.wav
320,192,161315,1,0,0:0:0:100:33_D1_190_240.wav
448,192,161315,1,0,0:0:0:0:
64,192,161473,1,0,0:0:0:70:Snare.wav
192,192,161473,1,0,0:0:0:70:Kick.wav
448,192,161473,1,0,0:0:0:100:33_D1_190_240.wav
64,192,161631,1,0,0:0:0:70:Tom1.wav
192,192,161631,1,0,0:0:0:100:33_D1_190_240.wav
448,192,161631,1,0,0:0:0:0:
192,192,161789,1,0,0:0:0:70:Tom2.wav
320,192,161789,1,0,0:0:0:100:33_C#1_190_240.wav
448,192,161789,1,0,0:0:0:0:
192,192,161947,1,0,0:0:0:70:Tom2.wav
320,192,161947,1,0,0:0:0:100:33_D1_190_240.wav
448,192,161947,1,0,0:0:0:0:
64,192,162105,1,0,0:0:0:70:Tom3.wav
192,192,162105,1,0,0:0:0:100:33_D1_190_240.wav
320,192,162105,1,0,0:0:0:0:
64,192,162262,1,0,0:0:0:70:Tom3.wav
192,192,162262,1,0,0:0:0:100:33_D1_190_240.wav
320,192,162262,1,0,0:0:0:0:
64,192,162420,1,0,0:0:0:70:Kick.wav
320,192,162420,1,0,0:0:0:70:Crash medium.wav
448,192,162420,128,0,162578:0:0:0:100:33_C#1_190_240.wav
192,192,162578,128,0,162736:0:0:0:100:33_C#1_190_240.wav
320,192,162736,128,0,162894:0:0:0:70:Ride.wav
64,192,162894,128,0,163052:0:0:0:70:Kick.wav
448,192,162894,1,0,0:0:0:100:33_C#1_190_240.wav
192,192,163052,1,0,0:0:0:70:Snare.wav
320,192,163052,1,0,0:0:0:70:Ride.wav
448,192,163052,1,0,0:0:0:100:x 4 4 x 4 C#m9 M 160.wav
192,192,163210,128,0,163368:0:0:0:100:x x x x x 7 160.wav
320,192,163368,128,0,163526:0:0:0:70:Ride.wav
64,192,163526,1,0,0:0:0:70:Kick.wav
448,192,163526,128,0,163683:0:0:0:100:33_C#1_190_240.wav
64,192,163683,128,0,163841:0:0:0:70:Kick.wav
192,192,163683,1,0,0:0:0:70:Ride.wav
192,192,163841,128,0,163999:0:0:0:70:Snare.wav
320,192,163841,1,0,0:0:0:100:33_C#1_190_240.wav
448,192,163841,1,0,0:0:0:100:x x x x 11 160.wav
320,192,163999,128,0,164157:0:0:0:70:Ride.wav
64,192,164157,1,0,0:0:0:70:Kick.wav
448,192,164157,128,0,164315:0:0:0:100:x x x 11 160.wav
64,192,164315,1,0,0:0:0:70:Snare.wav
192,192,164315,1,0,0:0:0:70:Ride.wav
320,192,164315,128,0,164473:0:0:0:100:33_C#1_190_240.wav
192,192,164473,128,0,164631:0:0:0:100:33_C#1_190_240.wav
64,192,164631,128,0,165105:0:0:0:70:Kick.wav
320,192,164631,1,0,0:0:0:70:Crash medium.wav
448,192,164631,1,0,0:0:0:100:33_D0_190_4320.wav
192,192,165105,1,0,0:0:0:59:Snare.wav
320,192,165105,128,0,165262:0:0:0:100:x x 14 160.wav
448,192,165105,1,0,0:0:0:100:x x 5 160.wav
448,192,165262,128,0,165420:0:0:0:70:Ride.wav
64,192,165420,128,0,165578:0:0:0:70:Kick.wav
192,192,165420,1,0,0:0:0:100:x x 14 160.wav
192,192,165578,1,0,0:0:0:70:Snare.wav
320,192,165578,1,0,0:0:0:70:Ride.wav
448,192,165578,128,0,165894:0:0:0:100:12 320.wav
320,192,165894,128,0,166052:0:0:0:70:Ride.wav
64,192,166052,128,0,166210:0:0:0:70:Kick.wav
192,192,166052,1,0,0:0:0:100:x x 14 160.wav
320,192,166210,1,0,0:0:0:70:Kick.wav
448,192,166210,128,0,166368:0:0:0:70:Ride.wav
64,192,166368,128,0,166526:0:0:0:70:Snare.wav
192,192,166368,1,0,0:0:0:100:x x 14 160.wav
320,192,166368,1,0,0:0:0:100:x x x x 5 160.wav
448,192,166526,128,0,166841:0:0:0:70:Ride.wav
64,192,166683,1,0,0:0:0:70:Kick.wav
192,192,166683,1,0,0:0:0:0:
64,192,166841,1,0,0:0:0:70:Snare.wav
192,192,166841,1,0,0:0:0:70:Ride.wav
320,192,166841,128,0,166920:0:0:0:100:12 160.wav
320,192,166999,128,0,167157:0:0:0:100:12 160.wav
64,192,167157,1,0,0:0:0:70:Kick.wav
192,192,167157,1,0,0:0:0:70:Ride.wav
320,192,167315,1,0,0:0:0:59:Snare.wav
448,192,167315,1,0,0:0:0:100:x 4 4 x 4 C#m9 M 160.wav
192,192,167394,1,0,0:0:0:59:Snare.wav
64,192,167473,128,0,167631:0:0:0:70:Kick.wav
320,192,167473,1,0,0:0:0:70:Crash high.wav
448,192,167473,1,0,0:0:0:100:33_C#1_190_240.wav
192,192,167631,1,0,0:0:0:59:Snare.wav
320,192,167631,1,0,0:0:0:100:33_C#1_190_240.wav
448,192,167631,128,0,167789:0:0:0:100:x x 9 160.wav
192,192,167789,128,0,167947:0:0:0:70:Ride.wav
64,192,167947,1,0,0:0:0:70:Kick.wav
448,192,167947,128,0,168105:0:0:0:100:33_C#1_190_240.wav
64,192,168105,1,0,0:0:0:70:Snare.wav
192,192,168105,1,0,0:0:0:70:Ride.wav
320,192,168105,1,0,0:0:0:100:x 4 4 x 4 C#m9 M 160.wav
320,192,168262,128,0,168420:0:0:0:100:x x x x x 7 160.wav
192,192,168420,128,0,168578:0:0:0:70:Ride.wav
64,192,168578,128,0,168736:0:0:0:70:Kick.wav
448,192,168578,1,0,0:0:0:100:33_C#1_190_240.wav
320,192,168736,1,0,0:0:0:70:Kick.wav
448,192,168736,128,0,168894:0:0:0:70:Ride.wav
64,192,168894,1,0,0:0:0:70:Snare.wav
192,192,168894,1,0,0:0:0:100:33_C#1_190_240.wav
320,192,168894,128,0,169052:0:0:0:100:x x x x 11 160.wav
192,192,169052,128,0,169210:0:0:0:70:Ride.wav
64,192,169210,128,0,169368:0:0:0:70:Kick.wav
448,192,169210,1,0,0:0:0:100:x x x 11 160.wav
192,192,169368,128,0,169526:0:0:0:70:Snare.wav
320,192,169368,1,0,0:0:0:70:Ride.wav
448,192,169368,1,0,0:0:0:100:33_C#1_190_240.wav
320,192,169526,128,0,169683:0:0:0:100:33_C#1_190_240.wav
64,192,169683,1,0,0:0:0:70:Kick.wav
192,192,169683,1,0,0:0:0:70:Crash medium.wav
448,192,169683,128,0,170157:0:0:0:100:33_D0_190_2400.wav
64,192,170157,1,0,0:0:0:59:Snare.wav
192,192,170157,128,0,170315:0:0:0:100:x x 14 160.wav
320,192,170157,1,0,0:0:0:100:x x 5 160.wav
64,192,170315,128,0,170473:0:0:0:70:Ride.wav
320,192,170473,1,0,0:0:0:70:Kick.wav
448,192,170473,128,0,170631:0:0:0:100:x x 14 160.wav
64,192,170631,128,0,170947:0:0:0:70:Snare.wav
192,192,170631,1,0,0:0:0:70:Ride.wav
320,192,170631,1,0,0:0:0:100:12 320.wav
192,192,170947,128,0,171105:0:0:0:70:Ride.wav
64,192,171105,1,0,0:0:0:59:Snare.wav
320,192,171105,1,0,0:0:0:100:x x 14 160.wav
448,192,171105,128,0,171262:0:0:0:100:x x x x 5 160.wav
64,192,171262,1,0,0:0:0:70:Kick.wav
192,192,171262,1,0,0:0:0:70:Ride.wav
320,192,171420,1,0,0:0:0:70:Snare.wav
448,192,171420,1,0,0:0:0:100:x x 14 160.wav
64,192,171499,1,0,0:0:0:59:Snare.wav
192,192,171499,1,0,0:0:0:0:
320,192,171578,1,0,0:0:0:70:Snare.wav
448,192,171578,1,0,0:0:0:100:12 320.wav
64,192,171736,1,0,0:0:0:59:Snare.wav
192,192,171736,1,0,0:0:0:0:
448,192,171736,1,0,0:0:0:0:
64,192,171894,1,0,0:0:0:70:Snare.wav
320,192,171894,1,0,0:0:0:100:33_D#1_190_960.wav
448,192,171894,1,0,0:0:0:100:12 160.wav
64,192,172052,1,0,0:0:0:59:Snare.wav
192,192,172052,1,0,0:0:0:100:12 160.wav
320,192,172052,1,0,0:0:0:100:x x 5 160.wav
192,192,172210,1,0,0:0:0:70:Snare.wav
320,192,172210,1,0,0:0:0:100:x 4 4 x 4 C#m9 M 160.wav
448,192,172210,1,0,0:0:0:0:
64,192,172368,1,0,0:0:0:59:Snare.wav
192,192,172368,1,0,0:0:0:100:x 4 4 x 4 C#m9 M 160.wav
448,192,172368,1,0,0:0:0:0:
64,192,172526,128,0,172605:0:0:0:70:Kick.wav
320,192,172526,1,0,0:0:0:70:Crash high.wav
448,192,172526,1,0,0:0:0:100:33_F#0_190_240.wav
192,192,172605,128,0,172683:0:0:0:100:12 x 9 80.wav
320,192,172683,128,0,172762:0:0:0:100:33_F#0_190_240.wav
448,192,172762,128,0,172841:0:0:0:100:12 x 9 80.wav
64,192,172841,128,0,172920:0:0:0:70:Kick.wav
320,192,172841,1,0,0:0:0:70:Hi-hat open.wav
192,192,172920,128,0,172999:0:0:0:100:12 x 9 80.wav
64,192,172999,1,0,0:0:0:70:Kick.wav
448,192,172999,128,0,173078:0:0:0:100:33_F#1_190_240.wav
320,192,173078,128,0,173157:0:0:0:100:12 x 9 80.wav
64,192,173157,1,0,0:0:0:70:Snare.wav
192,192,173157,128,0,173236:0:0:0:70:Hi-hat open.wav
448,192,173157,1,0,0:0:0:100:33_E1_190_240.wav
320,192,173236,128,0,173315:0:0:0:100:12 x 9 80.wav
192,192,173315,1,0,0:0:0:70:Kick.wav
448,192,173315,128,0,173394:0:0:0:100:33_E1_190_240.wav
64,192,173394,128,0,173473:0:0:0:100:12 x 9 80.wav
320,192,173473,128,0,173552:0:0:0:70:Hi-hat open.wav
192,192,173552,128,0,173631:0:0:0:100:12 x 9 80.wav
64,192,173631,1,0,0:0:0:70:Snare.wav
320,192,173631,1,0,0:0:0:100:33_C#1_190_240.wav
448,192,173631,128,0,173710:0:0:0:100:12 x 9 80.wav
192,192,173710,128,0,173789:0:0:0:100:12 x 9 80.wav
64,192,173789,128,0,173868:0:0:0:70:Kick.wav
448,192,173789,1,0,0:0:0:70:Hi-hat open.wav
320,192,173868,128,0,173947:0:0:0:100:12 x 9 80.wav
64,192,173947,1,0,0:0:0:70:Snare.wav
192,192,173947,1,0,0:0:0:100:33_F#0_190_240.wav
448,192,173947,128,0,174026:0:0:0:100:12 x 9 80.wav
320,192,174026,128,0,174105:0:0:0:100:12 x 9 80.wav
64,192,174105,1,0,0:0:0:70:Kick.wav
192,192,174105,128,0,174183:0:0:0:70:Hi-hat open.wav
320,192,174183,128,0,174262:0:0:0:100:14 x 11 80.wav
192,192,174262,1,0,0:0:0:70:Kick.wav
448,192,174262,128,0,174341:0:0:0:100:33_G#0_190_240.wav
64,192,174341,128,0,174420:0:0:0:100:14 x 11 80.wav
192,192,174420,1,0,0:0:0:70:Snare.wav
320,192,174420,128,0,174499:0:0:0:70:Hi-hat open.wav
448,192,174420,1,0,0:0:0:100:33_G#0_190_240.wav
64,192,174499,128,0,174578:0:0:0:100:16 x 13 80.wav
320,192,174578,128,0,174657:0:0:0:70:Kick.wav
448,192,174578,1,0,0:0:0:100:33_G#0_190_240.wav
192,192,174657,128,0,174736:0:0:0:100:16 x 13 80.wav
64,192,174736,1,0,0:0:0:70:Kick.wav
320,192,174736,1,0,0:0:0:70:Crash medium.wav
448,192,174736,128,0,174815:0:0:0:100:33_A0_190_960.wav
192,192,174815,128,0,174894:0:0:0:100:19 x 16 80.wav
320,192,174894,128,0,174973:0:0:0:100:19 x 16 80.wav
448,192,174973,128,0,175052:0:0:0:100:19 x 16 80.wav
64,192,175052,128,0,175131:0:0:0:70:Hi-hat open.wav
192,192,175131,128,0,175210:0:0:0:100:19 Left-hand vibrato 80.wav
64,192,175210,1,0,0:0:0:70:Snare.wav
320,192,175210,1,0,0:0:0:100:19 Left-hand vibrato 80.wav
448,192,175210,128,0,175289:0:0:0:0:
192,192,175289,128,0,175368:0:0:0:100:19 Left-hand vibrato 80.wav
320,192,175368,128,0,175447:0:0:0:70:Kick.wav
448,192,175368,1,0,0:0:0:70:Hi-hat open.wav
192,192,175447,128,0,175526:0:0:0:100:19 Left-hand vibrato 80.wav
64,192,175526,1,0,0:0:0:70:Kick.wav
448,192,175526,128,0,175605:0:0:0:100:33_B1_190_240.wav
320,192,175605,128,0,175683:0:0:0:100:19 Left-hand vibrato 80.wav
64,192,175683,128,0,175762:0:0:0:70:Snare.wav
192,192,175683,1,0,0:0:0:70:Hi-hat open.wav
448,192,175683,1,0,0:0:0:100:33_A1_190_240.wav
320,192,175762,128,0,175841:0:0:0:100:19 Left-hand vibrato 80.wav
64,192,175841,1,0,0:0:0:70:Kick.wav
192,192,175841,128,0,175920:0:0:0:100:33_A1_190_240.wav
320,192,175920,128,0,175999:0:0:0:100:19 Left-hand vibrato 80.wav
448,192,175999,128,0,176078:0:0:0:70:Hi-hat open.wav
192,192,176078,128,0,176157:0:0:0:100:19 Left-hand vibrato 80.wav
64,192,176157,128,0,176236:0:0:0:70:Snare.wav
320,192,176157,1,0,0:0:0:100:33_E1_190_240.wav
448,192,176157,1,0,0:0:0:100:19 Left-hand vibrato 80.wav
192,192,176236,128,0,176315:0:0:0:100:19 Left-hand vibrato 80.wav
64,192,176315,1,0,0:0:0:70:Kick.wav
448,192,176315,128,0,176394:0:0:0:70:Hi-hat open.wav
320,192,176394,128,0,176473:0:0:0:100:19 Left-hand vibrato 80.wav
64,192,176473,1,0,0:0:0:70:Snare.wav
192,192,176473,1,0,0:0:0:100:33_A0_190_240.wav
448,192,176473,1,0,0:0:0:0:
320,192,176631,1,0,0:0:0:70:Kick.wav
448,192,176631,1,0,0:0:0:70:Hi-hat open.wav
64,192,176789,1,0,0:0:0:70:Kick.wav
192,192,176789,1,0,0:0:0:100:33_B0_190_240.wav
64,192,176947,1,0,0:0:0:70:Snare.wav
320,192,176947,128,0,177262:0:0:0:70:Hi-hat open.wav
448,192,176947,1,0,0:0:0:100:33_B0_190_240.wav
64,192,177262,1,0,0:0:0:70:Kick.wav
192,192,177262,1,0,0:0:0:70:Crash high.wav
448,192,177262,128,0,177736:0:0:0:100:33_C#1_190_960.wav
192,192,177578,1,0,0:0:0:70:Hi-hat open.wav
64,192,177736,1,0,0:0:0:70:Snare.wav
192,192,177736,1,0,0:0:0:0:
320,192,177736,1,0,0:0:0:0:
64,192,177894,1,0,0:0:0:70:Kick.wav
320,192,177894,1,0,0:0:0:70:Hi-hat open.wav
192,192,178052,1,0,0:0:0:70:Kick.wav
448,192,178052,1,0,0:0:0:100:33_C#2_190_240.wav
64,192,178210,1,0,0:0:0:70:Snare.wav
192,192,178210,1,0,0:0:0:70:Hi-hat open.wav
320,192,178210,128,0,178526:0:0:0:100:33_B1_190_240.wav
64,192,178368,1,0,0:0:0:70:Kick.wav
448,192,178368,1,0,0:0:0:100:33_B1_190_240.wav
192,192,178526,128,0,179157:0:0:0:70:Hi-hat open.wav
64,192,178683,1,0,0:0:0:70:Snare.wav
320,192,178683,1,0,0:0:0:100:33_G#1_190_240.wav
448,192,178683,1,0,0:0:0:100:x 5 4 x 4 C#m7 160.wav
64,192,178841,1,0,0:0:0:70:Kick.wav
448,192,178841,1,0,0:0:0:70:Hi-hat open.wav
64,192,178999,1,0,0:0:0:70:Snare.wav
320,192,178999,1,0,0:0:0:100:33_G#1_190_240.wav
448,192,178999,1,0,0:0:0:0:
320,192,179157,128,0,179315:0:0:0:70:Kick.wav
448,192,179157,1,0,0:0:0:70:Hi-hat open.wav
64,192,179315,128,0,179473:0:0:0:70:Kick.wav
192,192,179315,1,0,0:0:0:100:33_C#2_190_240.wav
192,192,179473,1,0,0:0:0:70:Snare.wav
320,192,179473,1,0,0:0:0:70:Hi-hat open.wav
448,192,179473,128,0,179631:0:0:0:100:33_B1_190_240.wav
320,192,179631,128,0,179789:0:0:0:100:33_E2_190_240.wav
64,192,179789,1,0,0:0:0:70:Kick.wav
192,192,179789,128,0,180105:0:0:0:70:Crash medium.wav
448,192,179789,1,0,0:0:0:100:33_B0_190_960.wav
64,192,180105,1,0,0:0:0:70:Snare.wav
448,192,180105,1,0,0:0:0:70:Kick.wav
320,192,180183,1,0,0:0:0:50:Snare.wav
192,192,180262,1,0,0:0:0:59:Snare.wav
448,192,180341,1,0,0:0:0:50:Snare.wav
64,192,180420,1,0,0:0:0:70:Snare.wav
320,192,180420,1,0,0:0:0:70:Kick.wav
192,192,180499,1,0,0:0:0:50:Snare.wav
448,192,180578,1,0,0:0:0:59:Snare.wav
320,192,180657,1,0,0:0:0:50:Snare.wav
64,192,180736,1,0,0:0:0:70:Snare.wav
192,192,180736,1,0,0:0:0:70:Kick.wav
448,192,180815,1,0,0:0:0:50:Snare.wav
320,192,180894,1,0,0:0:0:59:Snare.wav
192,192,180973,1,0,0:0:0:50:Snare.wav
64,192,181052,1,0,0:0:0:70:Snare.wav
448,192,181052,1,0,0:0:0:70:Kick.wav
320,192,181131,1,0,0:0:0:50:Snare.wav
64,192,181210,1,0,0:0:0:59:Snare.wav
192,192,181289,1,0,0:0:0:50:Snare.wav
320,192,181368,1,0,0:0:0:70:Snare.wav
448,192,181368,1,0,0:0:0:70:Kick.wav
64,192,181447,1,0,0:0:0:50:Snare.wav
192,192,181526,1,0,0:0:0:59:Snare.wav
320,192,181605,1,0,0:0:0:50:Snare.wav
64,192,181683,1,0,0:0:0:70:Snare.wav
448,192,181683,1,0,0:0:0:70:Kick.wav
192,192,181762,1,0,0:0:0:50:Snare.wav
320,192,181841,1,0,0:0:0:59:Snare.wav
448,192,181920,1,0,0:0:0:50:Snare.wav
64,192,181999,1,0,0:0:0:70:Snare.wav
192,192,181999,1,0,0:0:0:70:Kick.wav
320,192,182078,1,0,0:0:0:50:Snare.wav
448,192,182157,1,0,0:0:0:59:Snare.wav
192,192,182236,1,0,0:0:0:50:Snare.wav
64,192,182315,128,0,182631:0:0:0:70:Snare.wav
320,192,182315,1,0,0:0:0:70:Kick.wav
448,192,182394,1,0,0:0:0:50:Snare.wav
192,192,182473,1,0,0:0:0:59:Snare.wav
320,192,182552,1,0,0:0:0:50:Snare.wav
448,192,182631,128,0,183420:0:0:0:100:x x 6 6 x 5 Amaj7 160.wav
192,192,183894,1,0,0:0:0:100:x x 6 6 x 5 Amaj7 160.wav
320,192,184210,1,0,0:0:0:100:x x 6 6 x 5 Amaj7 160.wav
64,192,184526,1,0,0:0:0:100:x x 6 6 x 5 Amaj7 160.wav
192,192,184841,128,0,185631:0:0:0:100:x x 6 6 x 5 Amaj7 160.wav
64,192,186105,1,0,0:0:0:100:x x 4 4 x 4 G#m7 160.wav
320,192,186420,1,0,0:0:0:100:x x 4 4 x 4 G#m7 160.wav
192,192,186736,1,0,0:0:0:100:x x 4 4 x 4 G#m7 160.wav
320,192,187052,1,0,0:0:0:100:x x 4 4 x 4 G#m7 160.wav
448,192,187368,1,0,0:0:0:100:x x 4 4 x 4 G#m7 160.wav
192,192,187683,128,0,188157:0:0:0:100:x x 2 2 x 2 F#m7 160.wav
320,192,188631,1,0,0:0:0:100:x x 2 2 x 2 F#m7 160.wav
448,192,188947,1,0,0:0:0:100:x x 2 2 x 2 F#m7 160.wav
64,192,189262,1,0,0:0:0:100:x x 2 2 x 2 F#m7 160.wav
192,192,189578,1,0,0:0:0:100:x x 2 2 x 2 F#m7 160.wav
320,192,189894,1,0,0:0:0:100:x x 2 2 x 2 F#m7 160.wav
320,192,190210,1,0,0:0:0:70:Hi-hat open.wav
448,192,190210,1,0,0:0:0:100:33_E1_190_320.wav
192,192,190210,128,0,190420:0:0:0:70:Snare.wav
64,192,190420,1,0,0:0:0:70:Kick.wav
320,192,190420,128,0,190631:0:0:0:50:Hi-hat close.wav
192,192,190631,1,0,0:0:0:100:33_E0_190_320.wav
448,192,190631,128,0,190841:0:0:0:70:Kick.wav
192,192,190841,1,0,0:0:0:70:Hi-hat open.wav
320,192,190841,1,0,0:0:0:100:33_E1_190_320.wav
64,192,190841,128,0,191052:0:0:0:70:Snare.wav
320,192,191052,1,0,0:0:0:50:Hi-hat close.wav
192,192,191052,128,0,191262:0:0:0:70:Kick.wav
448,192,191262,1,0,0:0:0:100:33_E0_190_320.wav
320,192,191262,128,0,191473:0:0:0:70:Kick.wav
192,192,191473,1,0,0:0:0:70:Hi-hat open.wav
448,192,191473,1,0,0:0:0:100:33_E1_190_320.wav
64,192,191473,128,0,191683:0:0:0:70:Snare.wav
192,192,191683,1,0,0:0:0:70:Kick.wav
320,192,191683,128,0,191894:0:0:0:50:Hi-hat close.wav
448,192,191894,1,0,0:0:0:70:Kick.wav
192,192,191894,128,0,192105:0:0:0:100:33_E0_190_320.wav
64,192,192105,1,0,0:0:0:70:Snare.wav
320,192,192105,1,0,0:0:0:70:Hi-hat open.wav
448,192,192105,128,0,192420:0:0:0:100:33_E1_190_480.wav
64,192,192420,1,0,0:0:0:70:Kick.wav
320,192,192420,1,0,0:0:0:70:Tom1.wav
192,192,192499,1,0,0:0:0:70:Tom2.wav
448,192,192578,1,0,0:0:0:70:Tom3.wav
320,192,192657,1,0,0:0:0:70:Tom3.wav
64,192,192736,128,0,192815:0:0:0:70:Kick.wav
192,192,192736,1,0,0:0:0:70:Crash medium.wav
448,192,192736,1,0,0:0:0:100:33_A1_190_240.wav
64,192,192894,128,0,192973:0:0:0:100:33_A1_190_240.wav
64,192,193052,128,0,193131:0:0:0:70:Kick.wav
448,192,193052,1,0,0:0:0:70:Hi-hat open.wav
64,192,193210,128,0,193289:0:0:0:100:33_B1_190_240.wav
64,192,193368,128,0,193447:0:0:0:70:Kick.wav
448,192,193368,1,0,0:0:0:70:Hi-hat open.wav
64,192,193526,128,0,193605:0:0:0:100:33_B1_190_240.wav
64,192,193683,128,0,193762:0:0:0:70:Kick.wav
448,192,193683,1,0,0:0:0:70:Hi-hat open.wav
64,192,193841,128,0,193920:0:0:0:100:33_C#2_190_240.wav
192,192,193999,1,0,0:0:0:70:Kick.wav
448,192,193999,128,0,194078:0:0:0:70:Hi-hat open.wav
448,192,194157,128,0,194236:0:0:0:100:33_D#2_190_240.wav
192,192,194315,1,0,0:0:0:70:Kick.wav
448,192,194315,128,0,194394:0:0:0:70:Hi-hat open.wav
448,192,194473,128,0,194552:0:0:0:100:33_D#2_190_240.wav
192,192,194631,1,0,0:0:0:70:Kick.wav
448,192,194631,128,0,194710:0:0:0:70:Hi-hat open.wav
448,192,194789,128,0,194868:0:0:0:100:33_E2_190_240.wav
192,192,194947,1,0,0:0:0:70:Kick.wav
448,192,194947,128,0,195026:0:0:0:70:Hi-hat open.wav
448,192,195105,128,0,195183:0:0:0:100:33_B1_190_240.wav
64,192,195262,1,0,0:0:0:70:Kick.wav
192,192,195262,128,0,195341:0:0:0:70:Crash high.wav
320,192,195262,1,0,0:0:0:100:33_G#1_190_240.wav
192,192,195420,128,0,195499:0:0:0:100:33_G#1_190_240.wav
192,192,195578,128,0,195657:0:0:0:70:Kick.wav
320,192,195578,1,0,0:0:0:70:Hi-hat open.wav
192,192,195736,128,0,195815:0:0:0:100:33_B1_190_240.wav
192,192,195894,128,0,195973:0:0:0:70:Kick.wav
320,192,195894,1,0,0:0:0:70:Hi-hat open.wav
192,192,196052,128,0,196131:0:0:0:100:33_B1_190_240.wav
192,192,196210,128,0,196289:0:0:0:70:Kick.wav
320,192,196210,1,0,0:0:0:70:Hi-hat open.wav
192,192,196368,128,0,196447:0:0:0:100:33_C#2_190_240.wav
64,192,196526,1,0,0:0:0:70:Kick.wav
320,192,196526,128,0,196605:0:0:0:70:Hi-hat open.wav
320,192,196683,128,0,196762:0:0:0:100:33_D#2_190_240.wav
64,192,196841,1,0,0:0:0:70:Kick.wav
320,192,196841,128,0,196920:0:0:0:70:Hi-hat open.wav
320,192,196999,128,0,197078:0:0:0:100:33_D#2_190_240.wav
64,192,197157,1,0,0:0:0:70:Kick.wav
320,192,197157,128,0,197236:0:0:0:70:Hi-hat open.wav
64,192,197473,1,0,0:0:0:70:Tom1.wav
192,192,197473,1,0,0:0:0:70:Tom3.wav
320,192,197473,128,0,197789:0:0:0:70:Hi-hat close.wav
64,192,197789,1,0,0:0:0:70:Snare.wav
192,192,197789,1,0,0:0:0:70:Crash medium.wav
448,192,197789,1,0,0:0:0:100:33_F#0_190_240.wav
192,192,197947,1,0,0:0:0:70:Kick.wav
448,192,197947,1,0,0:0:0:100:33_F#0_190_240.wav
192,192,198105,1,0,0:0:0:70:Kick.wav
448,192,198105,1,0,0:0:0:100:33_F#0_190_240.wav
64,192,198262,1,0,0:0:0:70:Snare.wav
320,192,198262,1,0,0:0:0:70:Crash high.wav
448,192,198262,1,0,0:0:0:100:33_F#0_190_480.wav
64,192,198420,1,0,0:0:0:70:Kick.wav
320,192,198420,1,0,0:0:0:100:x x 11 x 9 M 160.wav
64,192,198578,1,0,0:0:0:70:Kick.wav
320,192,198578,1,0,0:0:0:100:33_F#0_190_240.wav
64,192,198736,1,0,0:0:0:70:Snare.wav
192,192,198736,1,0,0:0:0:70:Crash medium.wav
448,192,198736,1,0,0:0:0:100:33_F#0_190_240.wav
192,192,198894,1,0,0:0:0:70:Kick.wav
448,192,198894,1,0,0:0:0:100:33_F#0_190_240.wav
64,192,199052,1,0,0:0:0:70:Snare.wav
320,192,199052,1,0,0:0:0:70:Crash high.wav
448,192,199052,1,0,0:0:0:100:33_B0_190_240.wav
192,192,199210,1,0,0:0:0:70:Kick.wav
320,192,199210,1,0,0:0:0:100:33_B0_190_240.wav
192,192,199368,1,0,0:0:0:70:Kick.wav
320,192,199368,1,0,0:0:0:100:33_B0_190_240.wav
64,192,199526,1,0,0:0:0:70:Snare.wav
192,192,199526,1,0,0:0:0:70:Crash medium.wav
448,192,199526,1,0,0:0:0:100:33_B0_190_480.wav
64,192,199683,1,0,0:0:0:70:Kick.wav
448,192,199683,1,0,0:0:0:100:x x 11 x 9 M 160.wav
64,192,199841,1,0,0:0:0:70:Kick.wav
448,192,199841,1,0,0:0:0:100:33_B0_190_240.wav
192,192,199999,1,0,0:0:0:70:Snare.wav
320,192,199999,1,0,0:0:0:70:Crash high.wav
448,192,199999,1,0,0:0:0:100:33_B0_190_480.wav
64,192,200157,1,0,0:0:0:70:Kick.wav
192,192,200157,1,0,0:0:0:100:x x 11 x 9 160.wav
64,192,200315,1,0,0:0:0:70:Kick.wav
320,192,200315,128,0,200631:0:0:0:100:33_E1_190_480.wav
448,192,200315,1,0,0:0:0:100:x x x x 6 bend half release 320.wav
64,192,200631,1,0,0:0:0:70:Kick.wav
448,192,200631,1,0,0:0:0:100:33_E1_190_240.wav
64,192,200789,1,0,0:0:0:70:Snare.wav
192,192,200789,128,0,201105:0:0:0:70:Hi-hat open.wav
320,192,200789,1,0,0:0:0:100:33_E1_190_240.wav
320,192,200947,1,0,0:0:0:70:Kick.wav
448,192,200947,1,0,0:0:0:50:Hi-hat close.wav
64,192,201105,1,0,0:0:0:70:Snare.wav
320,192,201105,1,0,0:0:0:70:Tom3.wav
448,192,201105,1,0,0:0:0:100:x x x x 7 160.wav
64,192,201262,1,0,0:0:0:70:Snare.wav
192,192,201262,1,0,0:0:0:70:Tom3.wav
448,192,201262,1,0,0:0:0:100:33_E2_190_240.wav
64,192,201420,1,0,0:0:0:70:Snare.wav
192,192,201420,1,0,0:0:0:70:Hi-hat open.wav
448,192,201420,1,0,0:0:0:100:33_E2_190_240.wav
320,192,201736,1,0,0:0:0:100:4 80.wav
448,192,201815,1,0,0:0:0:100:5 80.wav
64,192,201894,1,0,0:0:0:100:4 80.wav
192,192,201973,1,0,0:0:0:100:0 80.wav
320,192,202052,128,0,202683:0:0:0:100:x 0 160.wav
64,192,202210,128,0,202683:0:0:0:70:Snare.wav
192,192,202210,128,0,202683:0:0:0:70:Hi-hat open.wav
448,192,202210,128,0,202683:0:0:0:100:33_B0_190_960.wav
64,192,202841,1,0,0:0:0:70:Snare.wav
192,192,202841,1,0,0:0:0:70:Kick.wav
448,192,202841,128,0,202999:0:0:0:70:Crash high.wav
320,192,202999,128,0,203157:0:0:0:100:x x 9 9 160.wav
64,192,203157,1,0,0:0:0:70:Snare.wav
192,192,203157,1,0,0:0:0:70:Hi-hat open.wav
448,192,203157,1,0,0:0:0:100:33_A0_190_240.wav
448,192,203315,128,0,203473:0:0:0:100:33_A0_190_240.wav
64,192,203473,1,0,0:0:0:70:Snare.wav
192,192,203473,1,0,0:0:0:70:Hi-hat open.wav
320,192,203473,128,0,203631:0:0:0:100:33_A0_190_240.wav
64,192,203631,128,0,203789:0:0:0:70:Kick.wav
448,192,203631,1,0,0:0:0:100:33_A0_190_240.wav
192,192,203789,1,0,0:0:0:70:Snare.wav
320,192,203789,1,0,0:0:0:70:Hi-hat open.wav
448,192,203789,1,0,0:0:0:100:33_A0_190_240.wav
192,192,203947,1,0,0:0:0:70:Kick.wav
448,192,203947,128,0,204105:0:0:0:100:33_A0_190_240.wav
64,192,204105,1,0,0:0:0:70:Snare.wav
192,192,204105,1,0,0:0:0:70:Hi-hat open.wav
320,192,204105,128,0,204262:0:0:0:100:33_A0_190_240.wav
64,192,204262,128,0,204420:0:0:0:100:33_A0_190_240.wav
192,192,204420,1,0,0:0:0:70:Snare.wav
320,192,204420,1,0,0:0:0:70:Hi-hat open.wav
448,192,204420,1,0,0:0:0:100:33_A0_190_240.wav
192,192,204578,128,0,204736:0:0:0:100:33_A0_190_240.wav
64,192,204736,128,0,204894:0:0:0:70:Snare.wav
320,192,204736,1,0,0:0:0:70:Hi-hat open.wav
448,192,204736,1,0,0:0:0:100:33_A0_190_240.wav
320,192,204894,128,0,205052:0:0:0:70:Kick.wav
448,192,204894,1,0,0:0:0:100:33_A0_190_240.wav
64,192,205052,1,0,0:0:0:70:Snare.wav
192,192,205052,1,0,0:0:0:70:Hi-hat open.wav
448,192,205052,128,0,205210:0:0:0:100:33_A0_190_240.wav
192,192,205210,128,0,205368:0:0:0:70:Kick.wav
320,192,205210,1,0,0:0:0:100:33_A0_190_240.wav
64,192,205368,1,0,0:0:0:70:Snare.wav
320,192,205368,128,0,205526:0:0:0:70:Hi-hat open.wav
448,192,205368,1,0,0:0:0:100:33_A0_190_240.wav
64,192,205526,128,0,205683:0:0:0:100:33_A0_190_240.wav
192,192,205683,1,0,0:0:0:70:Snare.wav
320,192,205683,1,0,0:0:0:70:Hi-hat open.wav
448,192,205683,1,0,0:0:0:100:33_A0_190_240.wav
320,192,205841,128,0,205999:0:0:0:100:33_A0_190_240.wav
64,192,205999,128,0,206157:0:0:0:70:Snare.wav
192,192,205999,1,0,0:0:0:70:Hi-hat open.wav
448,192,205999,1,0,0:0:0:100:33_A0_190_240.wav
320,192,206157,1,0,0:0:0:70:Kick.wav
448,192,206157,128,0,206315:0:0:0:100:33_E1_190_240.wav
64,192,206315,1,0,0:0:0:70:Snare.wav
192,192,206315,1,0,0:0:0:70:Hi-hat open.wav
320,192,206315,1,0,0:0:0:100:33_G#1_190_240.wav
192,192,206473,1,0,0:0:0:70:Kick.wav
320,192,206473,128,0,206631:0:0:0:100:33_A1_190_480.wav
64,192,206631,128,0,206789:0:0:0:70:Snare.wav
192,192,206631,1,0,0:0:0:70:Hi-hat open.wav
448,192,206631,1,0,0:0:0:100:x 4 4 4 160.wav
448,192,206789,128,0,206947:0:0:0:100:33_A1_190_240.wav
64,192,206947,1,0,0:0:0:70:Snare.wav
192,192,206947,1,0,0:0:0:70:Hi-hat open.wav
320,192,206947,1,0,0:0:0:100:33_E1_190_180.wav
192,192,207105,128,0,207262:0:0:0:100:33_B1_190_480.wav
64,192,207262,128,0,207420:0:0:0:70:Snare.wav
320,192,207262,1,0,0:0:0:70:Hi-hat open.wav
448,192,207262,1,0,0:0:0:100:x 4 4 4 160.wav
192,192,207420,1,0,0:0:0:70:Kick.wav
448,192,207420,128,0,207578:0:0:0:100:33_A1_190_240.wav
64,192,207578,1,0,0:0:0:70:Snare.wav
192,192,207578,1,0,0:0:0:70:Hi-hat open.wav
320,192,207578,128,0,207736:0:0:0:100:33_E1_190_480.wav
192,192,207736,128,0,207894:0:0:0:70:Kick.wav
448,192,207736,1,0,0:0:0:100:x 4 4 4 x 5 B7 160.wav
64,192,207894,128,0,207973:0:0:0:70:Snare.wav
320,192,207894,1,0,0:0:0:70:Kick.wav
448,192,207894,1,0,0:0:0:70:Crash high.wav
64,192,208052,128,0,208131:0:0:0:100:x x 4 4 x 4 160.wav
64,192,208210,128,0,208289:0:0:0:70:Snare.wav
320,192,208210,1,0,0:0:0:70:Hi-hat open.wav
448,192,208210,1,0,0:0:0:100:33_G#0_190_240.wav
64,192,208368,128,0,208447:0:0:0:100:33_G#0_190_240.wav
64,192,208526,128,0,208605:0:0:0:70:Snare.wav
192,192,208526,1,0,0:0:0:70:Hi-hat open.wav
320,192,208526,1,0,0:0:0:100:33_G#0_190_240.wav
64,192,208683,128,0,208762:0:0:0:70:Kick.wav
448,192,208683,1,0,0:0:0:100:33_G#0_190_240.wav
64,192,208841,128,0,208920:0:0:0:70:Snare.wav
192,192,208841,1,0,0:0:0:70:Hi-hat open.wav
320,192,208841,1,0,0:0:0:100:33_G#0_190_240.wav
64,192,208999,128,0,209078:0:0:0:70:Kick.wav
448,192,208999,1,0,0:0:0:100:33_G#0_190_240.wav
192,192,209157,1,0,0:0:0:70:Snare.wav
320,192,209157,128,0,209236:0:0:0:70:Hi-hat open.wav
448,192,209157,1,0,0:0:0:100:33_C1_190_240.wav
320,192,209315,128,0,209394:0:0:0:100:33_C1_190_240.wav
192,192,209473,1,0,0:0:0:70:Snare.wav
320,192,209473,128,0,209552:0:0:0:70:Hi-hat open.wav
448,192,209473,1,0,0:0:0:100:33_C1_190_240.wav
448,192,209631,128,0,209710:0:0:0:100:33_C1_190_240.wav
64,192,209789,1,0,0:0:0:70:Snare.wav
320,192,209789,1,0,0:0:0:70:Hi-hat open.wav
448,192,209789,128,0,209868:0:0:0:100:33_C1_190_240.wav
192,192,209947,1,0,0:0:0:70:Kick.wav
448,192,209947,128,0,210026:0:0:0:100:33_C1_190_240.wav
64,192,210105,1,0,0:0:0:70:Snare.wav
192,192,210105,128,0,210183:0:0:0:70:Hi-hat open.wav
320,192,210105,1,0,0:0:0:100:33_C1_190_240.wav
192,192,210262,128,0,210341:0:0:0:70:Kick.wav
448,192,210262,1,0,0:0:0:100:33_C1_190_240.wav
64,192,210420,128,0,210736:0:0:0:70:Snare.wav
320,192,210420,1,0,0:0:0:70:Hi-hat open.wav
448,192,210420,1,0,0:0:0:100:33_C#1_190_240.wav
192,192,210736,1,0,0:0:0:70:Snare.wav
320,192,210736,128,0,210894:0:0:0:70:Hi-hat open.wav
448,192,210736,1,0,0:0:0:100:33_C#1_190_240.wav
448,192,210894,128,0,211052:0:0:0:100:33_C#1_190_240.wav
64,192,211052,1,0,0:0:0:70:Snare.wav
192,192,211052,128,0,211210:0:0:0:70:Hi-hat open.wav
320,192,211052,1,0,0:0:0:100:33_C#1_190_240.wav
448,192,211210,1,0,0:0:0:70:Kick.wav
320,192,211262,1,0,0:0:0:100:4 54.wav
192,192,211315,1,0,0:0:0:100:2 54.wav
64,192,211368,1,0,0:0:0:70:Snare.wav
448,192,211368,128,0,211526:0:0:0:70:Hi-hat open.wav
192,192,211526,1,0,0:0:0:100:33_C#1_190_240.wav
320,192,211526,128,0,211683:0:0:0:100:x 0 160.wav
64,192,211683,128,0,211841:0:0:0:70:Kick.wav
192,192,211683,1,0,0:0:0:70:Hi-hat open.wav
320,192,211841,1,0,0:0:0:70:Snare.wav
448,192,211841,1,0,0:0:0:100:33_B0_190_240.wav
64,192,211920,1,0,0:0:0:59:Snare.wav
192,192,211920,1,0,0:0:0:0:
320,192,211999,1,0,0:0:0:70:Snare.wav
448,192,211999,1,0,0:0:0:70:Kick.wav
64,192,212078,1,0,0:0:0:59:Snare.wav
192,192,212078,1,0,0:0:0:0:
320,192,212157,1,0,0:0:0:70:Snare.wav
448,192,212157,1,0,0:0:0:100:33_F#1_190_240.wav
64,192,212236,1,0,0:0:0:59:Snare.wav
192,192,212236,1,0,0:0:0:0:
320,192,212315,1,0,0:0:0:70:Snare.wav
448,192,212315,1,0,0:0:0:70:Kick.wav
192,192,212394,1,0,0:0:0:59:Snare.wav
64,192,212473,1,0,0:0:0:70:Tom1.wav
448,192,212473,1,0,0:0:0:100:33_E1_190_240.wav
320,192,212552,1,0,0:0:0:70:Tom1.wav
64,192,212631,1,0,0:0:0:70:Kick.wav
192,192,212631,1,0,0:0:0:70:Tom2.wav
320,192,212710,1,0,0:0:0:70:Tom2.wav
64,192,212789,1,0,0:0:0:70:Tom3.wav
448,192,212789,1,0,0:0:0:100:33_G#1_190_240.wav
192,192,212868,1,0,0:0:0:70:Tom3.wav
64,192,212947,1,0,0:0:0:70:Kick.wav
320,192,212947,1,0,0:0:0:70:Crash medium.wav
448,192,212947,128,0,213105:0:0:0:100:33_A1_190_240.wav
192,192,213105,128,0,213262:0:0:0:100:33_A1_190_240.wav
64,192,213262,1,0,0:0:0:70:Snare.wav
320,192,213262,1,0,0:0:0:70:Hi-hat open.wav
448,192,213262,1,0,0:0:0:100:33_A1_190_240.wav
448,192,213420,128,0,213578:0:0:0:100:33_A1_190_240.wav
64,192,213578,1,0,0:0:0:70:Snare.wav
192,192,213578,128,0,213736:0:0:0:70:Hi-hat open.wav
320,192,213578,1,0,0:0:0:100:33_A1_190_240.wav
320,192,213736,128,0,213894:0:0:0:70:Kick.wav
448,192,213736,1,0,0:0:0:100:33_A1_190_240.wav
64,192,213894,1,0,0:0:0:70:Snare.wav
192,192,213894,1,0,0:0:0:70:Hi-hat open.wav
448,192,213894,1,0,0:0:0:100:33_A1_190_240.wav
64,192,214052,1,0,0:0:0:70:Kick.wav
448,192,214052,128,0,214210:0:0:0:100:33_A1_190_240.wav
64,192,214210,1,0,0:0:0:70:Snare.wav
192,192,214210,128,0,214368:0:0:0:70:Hi-hat open.wav
320,192,214210,1,0,0:0:0:100:33_A1_190_240.wav
320,192,214368,128,0,214526:0:0:0:100:33_A1_190_240.wav
64,192,214526,1,0,0:0:0:70:Snare.wav
192,192,214526,1,0,0:0:0:70:Hi-hat open.wav
448,192,214526,1,0,0:0:0:100:33_G#1_190_240.wav
64,192,214683,128,0,214841:0:0:0:70:Kick.wav
320,192,214683,1,0,0:0:0:100:33_A1_190_480.wav
192,192,214841,1,0,0:0:0:70:Snare.wav
320,192,214841,128,0,214999:0:0:0:70:Hi-hat open.wav
448,192,214841,1,0,0:0:0:100:x 9 9 9 160.wav
192,192,214999,128,0,215157:0:0:0:70:Kick.wav
448,192,214999,1,0,0:0:0:100:33_A1_190_240.wav
64,192,215157,1,0,0:0:0:70:Snare.wav
320,192,215157,1,0,0:0:0:70:Hi-hat open.wav
448,192,215157,128,0,215315:0:0:0:100:33_A1_190_480.wav
64,192,215315,1,0,0:0:0:70:Kick.wav
192,192,215315,1,0,0:0:0:100:x 9 11 9 160.wav
192,192,215473,128,0,215631:0:0:0:70:Snare.wav
320,192,215473,1,0,0:0:0:70:Crash high.wav
448,192,215473,1,0,0:0:0:100:33_B1_190_240.wav
320,192,215631,128,0,215789:0:0:0:100:33_E2_190_480.wav
64,192,215789,1,0,0:0:0:70:Snare.wav
192,192,215789,1,0,0:0:0:70:Hi-hat open.wav
448,192,215789,1,0,0:0:0:100:x 4 4 4 x 5 B7 160.wav
192,192,215947,128,0,216105:0:0:0:100:33_D#2_190_480.wav
64,192,216105,1,0,0:0:0:70:Snare.wav
320,192,216105,128,0,216262:0:0:0:70:Hi-hat open.wav
448,192,216105,1,0,0:0:0:100:x 4 4 4 160.wav
64,192,216262,128,0,216420:0:0:0:70:Kick.wav
448,192,216262,1,0,0:0:0:100:33_E2_190_420.wav
192,192,216420,1,0,0:0:0:70:Snare.wav
320,192,216420,1,0,0:0:0:70:Hi-hat open.wav
448,192,216420,1,0,0:0:0:100:x 4 4 4 x 5 B7 160.wav
192,192,216578,128,0,216736:0:0:0:70:Kick.wav
320,192,216578,1,0,0:0:0:100:33_F#2_190_480.wav
64,192,216736,1,0,0:0:0:70:Snare.wav
320,192,216736,128,0,216894:0:0:0:70:Crash medium.wav
448,192,216736,1,0,0:0:0:100:x 4 4 4 160.wav
64,192,216894,128,0,217052:0:0:0:70:Kick.wav
192,192,216894,1,0,0:0:0:100:33_B2_190_240.wav
192,192,217052,1,0,0:0:0:70:Snare.wav
320,192,217052,1,0,0:0:0:70:Hi-hat open.wav
448,192,217052,1,0,0:0:0:100:33_F#2_190_240.wav
64,192,217210,1,0,0:0:0:70:Kick.wav
448,192,217210,128,0,217368:0:0:0:100:33_B1_190_480.wav
64,192,217368,1,0,0:0:0:70:Snare.wav
192,192,217368,128,0,217526:0:0:0:70:Hi-hat open.wav
320,192,217368,1,0,0:0:0:100:x 4 4 4 160.wav
320,192,217526,128,0,217683:0:0:0:70:Kick.wav
448,192,217526,1,0,0:0:0:100:33_B1_190_240.wav
64,192,217683,128,0,217841:0:0:0:70:Snare.wav
192,192,217683,1,0,0:0:0:70:Hi-hat open.wav
448,192,217683,1,0,0:0:0:100:33_B0_190_480.wav
192,192,217841,128,0,217999:0:0:0:70:Kick.wav
320,192,217841,1,0,0:0:0:100:x 4 4 4 x 5 B7 160.wav
64,192,217999,1,0,0:0:0:70:Snare.wav
320,192,217999,1,0,0:0:0:70:Kick.wav
448,192,217999,128,0,218473:0:0:0:70:Crash high.wav
64,192,218315,1,0,0:0:0:70:Snare.wav
192,192,218315,1,0,0:0:0:70:Hi-hat open.wav
320,192,218315,1,0,0:0:0:100:33_G#0_190_240.wav
192,192,218473,128,0,218947:0:0:0:100:33_G#0_190_480.wav
64,192,218631,1,0,0:0:0:70:Snare.wav
320,192,218631,1,0,0:0:0:70:Hi-hat open.wav
448,192,218631,1,0,0:0:0:0:
64,192,218789,1,0,0:0:0:70:Kick.wav
320,192,218789,1,0,0:0:0:100:33_G#0_190_240.wav
64,192,218947,1,0,0:0:0:70:Snare.wav
320,192,218947,128,0,219262:0:0:0:70:Hi-hat open.wav
448,192,218947,1,0,0:0:0:100:33_G#0_190_240.wav
192,192,219105,1,0,0:0:0:70:Kick.wav
448,192,219105,1,0,0:0:0:100:33_G#0_190_240.wav
64,192,219262,128,0,219736:0:0:0:70:Snare.wav
192,192,219262,1,0,0:0:0:70:Hi-hat open.wav
448,192,219262,1,0,0:0:0:100:33_C1_190_240.wav
192,192,219578,1,0,0:0:0:70:Snare.wav
320,192,219578,1,0,0:0:0:70:Hi-hat open.wav
448,192,219578,1,0,0:0:0:100:33_C1_190_240.wav
320,192,219736,128,0,220210:0:0:0:70:Kick.wav
448,192,219736,1,0,0:0:0:100:33_C1_190_480.wav
64,192,219894,1,0,0:0:0:70:Snare.wav
192,192,219894,1,0,0:0:0:70:Hi-hat open.wav
448,192,219894,1,0,0:0:0:100:x 4 5 4 3 Cdim 160.wav
64,192,220052,1,0,0:0:0:70:Kick.wav
192,192,220052,1,0,0:0:0:100:33_C1_190_240.wav
64,192,220210,1,0,0:0:0:70:Snare.wav
192,192,220210,128,0,220526:0:0:0:70:Hi-hat open.wav
448,192,220210,1,0,0:0:0:100:33_F#1_190_240.wav
320,192,220368,1,0,0:0:0:70:Kick.wav
448,192,220368,1,0,0:0:0:100:33_C1_190_240.wav
64,192,220526,128,0,220999:0:0:0:70:Snare.wav
320,192,220526,1,0,0:0:0:70:Crash medium.wav
448,192,220526,1,0,0:0:0:100:33_C#1_190_240.wav
192,192,220683,1,0,0:0:0:70:Kick.wav
320,192,220683,1,0,0:0:0:100:33_C#1_190_240.wav
192,192,220841,1,0,0:0:0:70:Snare.wav
320,192,220841,1,0,0:0:0:70:Hi-hat open.wav
448,192,220841,1,0,0:0:0:100:33_C#1_190_240.wav
192,192,220999,1,0,0:0:0:70:Kick.wav
448,192,220999,128,0,221473:0:0:0:100:33_C#1_190_240.wav
64,192,221157,1,0,0:0:0:70:Snare.wav
192,192,221157,1,0,0:0:0:70:Crash high.wav
320,192,221157,1,0,0:0:0:100:33_C#1_190_240.wav
64,192,221315,1,0,0:0:0:70:Kick.wav
320,192,221315,1,0,0:0:0:100:33_C#1_190_240.wav
64,192,221473,1,0,0:0:0:70:Snare.wav
192,192,221473,1,0,0:0:0:70:Hi-hat open.wav
320,192,221473,1,0,0:0:0:100:33_C#1_190_480.wav
192,192,221631,1,0,0:0:0:100:x 5 4 x 4 C#m7 160.wav
64,192,221789,1,0,0:0:0:70:Tom1.wav
320,192,221789,128,0,221947:0:0:0:100:33_D1_190_240.wav
448,192,221789,1,0,0:0:0:100:12 12 160.wav
64,192,221947,128,0,222105:0:0:0:70:Kick.wav
192,192,221947,1,0,0:0:0:100:33_D1_190_240.wav
192,192,222105,1,0,0:0:0:70:Snare.wav
320,192,222105,1,0,0:0:0:70:Crash medium.wav
448,192,222105,128,0,222262:0:0:0:100:33_D1_190_240.wav
192,192,222262,128,0,222420:0:0:0:100:33_D1_190_240.wav
64,192,222420,1,0,0:0:0:70:Kick.wav
320,192,222420,1,0,0:0:0:70:Tom1.wav
448,192,222420,1,0,0:0:0:100:33_D1_190_240.wav
192,192,222526,1,0,0:0:0:70:Snare.wav
64,192,222631,1,0,0:0:0:70:Snare.wav
320,192,222736,1,0,0:0:0:70:Snare.wav
192,192,222841,1,0,0:0:0:70:Snare.wav
448,192,222947,1,0,0:0:0:70:Snare.wav
64,192,223052,128,0,223683:0:0:0:70:Kick.wav
192,192,223052,1,0,0:0:0:70:Crash high.wav
320,192,223052,1,0,0:0:0:100:33_A0_190_240.wav
448,192,223210,128,0,223368:0:0:0:100:33_A1_190_240.wav
320,192,223368,128,0,223526:0:0:0:70:Hi-hat open.wav
192,192,223526,1,0,0:0:0:70:Kick.wav
448,192,223526,128,0,223683:0:0:0:100:x x 11 11 160.wav
192,192,223683,128,0,223999:0:0:0:70:Snare.wav
320,192,223683,1,0,0:0:0:70:Hi-hat open.wav
320,192,223999,128,0,224157:0:0:0:70:Hi-hat open.wav
64,192,224157,128,0,224473:0:0:0:70:Kick.wav
192,192,224157,128,0,224315:0:0:0:100:33_A1_190_240.wav
320,192,224315,1,0,0:0:0:70:Kick.wav
448,192,224315,128,0,224631:0:0:0:70:Hi-hat open.wav
192,192,224473,1,0,0:0:0:59:Snare.wav
320,192,224473,128,0,224631:0:0:0:100:33_A1_190_240.wav
64,192,224631,128,0,224947:0:0:0:70:Hi-hat open.wav
192,192,224631,128,0,224789:0:0:0:100:33_A0_190_240.wav
320,192,224789,1,0,0:0:0:70:Kick.wav
448,192,224789,128,0,224947:0:0:0:100:x x 11 11 160.wav
192,192,224947,128,0,225105:0:0:0:70:Snare.wav
320,192,224947,128,0,225262:0:0:0:70:Hi-hat open.wav
64,192,225105,1,0,0:0:0:70:Kick.wav
448,192,225105,128,0,225262:0:0:0:100:x x 11 11 160.wav
64,192,225262,128,0,225420:0:0:0:70:Hi-hat open.wav
192,192,225262,1,0,0:0:0:100:33_A0_190_240.wav
192,192,225420,1,0,0:0:0:59:Snare.wav
320,192,225499,1,0,0:0:0:59:Snare.wav
64,192,225578,1,0,0:0:0:70:Kick.wav
448,192,225578,128,0,226210:0:0:0:70:Hi-hat open.wav
64,192,225736,128,0,225894:0:0:0:59:Snare.wav
192,192,225736,1,0,0:0:0:100:33_G#1_190_240.wav
320,192,225736,1,0,0:0:0:100:x 12 11 160.wav
192,192,225894,128,0,226052:0:0:0:70:Hi-hat open.wav
64,192,226052,1,0,0:0:0:70:Kick.wav
320,192,226052,128,0,226210:0:0:0:100:x x 11 11 160.wav
64,192,226210,1,0,0:0:0:70:Snare.wav
192,192,226210,128,0,226526:0:0:0:70:Hi-hat open.wav
320,192,226526,128,0,226683:0:0:0:70:Hi-hat open.wav
448,192,226683,1,0,0:0:0:59:Snare.wav
320,192,226762,1,0,0:0:0:59:Snare.wav
64,192,226841,1,0,0:0:0:70:Kick.wav
192,192,226841,128,0,227157:0:0:0:70:Hi-hat open.wav
320,192,226999,1,0,0:0:0:59:Snare.wav
448,192,226999,128,0,227157:0:0:0:100:33_G#1_190_240.wav
64,192,227157,128,0,227315:0:0:0:70:Hi-hat open.wav
320,192,227157,128,0,227473:0:0:0:100:33_G#0_190_240.wav
192,192,227315,1,0,0:0:0:70:Kick.wav
448,192,227315,128,0,227473:0:0:0:100:x x 11 11 160.wav
64,192,227473,128,0,227631:0:0:0:70:Snare.wav
192,192,227473,128,0,227789:0:0:0:70:Hi-hat open.wav
320,192,227631,1,0,0:0:0:70:Kick.wav
448,192,227631,128,0,227789:0:0:0:100:x x 11 11 160.wav
64,192,227789,128,0,228105:0:0:0:70:Hi-hat open.wav
320,192,227789,128,0,227947:0:0:0:100:33_G#0_190_240.wav
192,192,227947,1,0,0:0:0:70:Kick.wav
448,192,227947,128,0,228105:0:0:0:100:33_G#1_190_240.wav
192,192,228105,128,0,228736:0:0:0:70:Kick.wav
320,192,228105,1,0,0:0:0:70:Crash high.wav
448,192,228262,128,0,228420:0:0:0:100:33_F#1_190_240.wav
320,192,228420,128,0,228578:0:0:0:70:Hi-hat open.wav
64,192,228578,128,0,228736:0:0:0:70:Kick.wav
448,192,228578,1,0,0:0:0:100:x x 11 11 160.wav
320,192,228736,1,0,0:0:0:70:Snare.wav
448,192,228736,128,0,229052:0:0:0:70:Hi-hat open.wav
320,192,229052,128,0,229210:0:0:0:70:Hi-hat open.wav
192,192,229210,1,0,0:0:0:59:Snare.wav
320,192,229289,1,0,0:0:0:59:Snare.wav
64,192,229368,1,0,0:0:0:70:Kick.wav
448,192,229368,128,0,229683:0:0:0:70:Hi-hat open.wav
64,192,229526,1,0,0:0:0:59:Snare.wav
192,192,229526,128,0,229683:0:0:0:100:33_F#1_190_240.wav
320,192,229526,1,0,0:0:0:100:x 2 2 2 x 2 F#m7 160.wav
64,192,229683,128,0,229999:0:0:0:70:Hi-hat open.wav
320,192,229683,128,0,229841:0:0:0:100:33_F#0_190_240.wav
192,192,229841,1,0,0:0:0:70:Kick.wav
448,192,229841,128,0,229999:0:0:0:100:x x 11 11 160.wav
192,192,229999,128,0,230157:0:0:0:70:Snare.wav
320,192,229999,128,0,230315:0:0:0:70:Hi-hat open.wav
64,192,230157,128,0,230315:0:0:0:100:x x 11 11 160.wav
448,192,230315,128,0,230473:0:0:0:70:Hi-hat open.wav
64,192,230473,1,0,0:0:0:59:Snare.wav
192,192,230552,1,0,0:0:0:59:Snare.wav
320,192,230631,128,0,231262:0:0:0:70:Kick.wav
448,192,230631,1,0,0:0:0:70:Hi-hat open.wav
64,192,230789,1,0,0:0:0:59:Snare.wav
192,192,230789,1,0,0:0:0:100:33_C#2_190_240.wav
448,192,230789,128,0,230947:0:0:0:100:x 12 11 160.wav
64,192,230947,128,0,231105:0:0:0:70:Hi-hat open.wav
192,192,231105,128,0,231262:0:0:0:70:Kick.wav
448,192,231105,1,0,0:0:0:100:x x 11 11 160.wav
64,192,231262,128,0,231578:0:0:0:70:Snare.wav
448,192,231262,1,0,0:0:0:70:Crash high.wav
448,192,231578,128,0,231736:0:0:0:70:Hi-hat open.wav
64,192,231736,128,0,231894:0:0:0:70:Snare.wav
192,192,231736,128,0,232052:0:0:0:100:33_C#2_190_240.wav
320,192,231736,1,0,0:0:0:100:x x 11 11 160.wav
320,192,231894,128,0,232052:0:0:0:70:Kick.wav
448,192,231894,1,0,0:0:0:70:Hi-hat open.wav
64,192,232052,1,0,0:0:0:70:Snare.wav
448,192,232052,1,0,0:0:0:100:33_C#2_190_240.wav
64,192,232210,1,0,0:0:0:70:Snare.wav
320,192,232210,1,0,0:0:0:70:Kick.wav
192,192,232289,1,0,0:0:0:59:Snare.wav
448,192,232368,1,0,0:0:0:70:Snare.wav
320,192,232447,1,0,0:0:0:59:Snare.wav
64,192,232526,1,0,0:0:0:70:Snare.wav
192,192,232526,1,0,0:0:0:100:33_E2_190_240.wav
64,192,232683,1,0,0:0:0:70:Tom1.wav
320,192,232683,1,0,0:0:0:100:33_E2_190_240.wav
192,192,232841,1,0,0:0:0:70:Tom3.wav
448,192,232841,1,0,0:0:0:100:33_B1_190_240.wav
320,192,232999,1,0,0:0:0:70:Tom3.wav
448,192,232999,1,0,0:0:0:100:33_A1_190_240.wav
64,192,233157,128,0,233789:0:0:0:70:Kick.wav
192,192,233157,1,0,0:0:0:70:Crash medium.wav
448,192,233157,1,0,0:0:0:100:33_A0_190_240.wav
320,192,233315,128,0,233473:0:0:0:100:33_A1_190_240.wav
192,192,233473,128,0,233631:0:0:0:70:Hi-hat open.wav
320,192,233631,1,0,0:0:0:70:Kick.wav
448,192,233631,128,0,233789:0:0:0:100:x x 11 11 160.wav
192,192,233789,1,0,0:0:0:70:Snare.wav
320,192,233789,128,0,234105:0:0:0:70:Hi-hat open.wav
192,192,234105,128,0,234262:0:0:0:70:Hi-hat open.wav
64,192,234262,1,0,0:0:0:59:Snare.wav
192,192,234341,1,0,0:0:0:59:Snare.wav
320,192,234420,1,0,0:0:0:70:Kick.wav
448,192,234420,128,0,234736:0:0:0:70:Hi-hat open.wav
64,192,234578,1,0,0:0:0:59:Snare.wav
192,192,234578,128,0,234736:0:0:0:100:33_A1_190_240.wav
320,192,234578,1,0,0:0:0:100:x 5 6 6 x 5 Amaj7 160.wav
64,192,234736,128,0,234894:0:0:0:70:Hi-hat open.wav
320,192,234736,128,0,235052:0:0:0:100:33_A0_190_240.wav
192,192,234894,128,0,235052:0:0:0:70:Kick.wav
448,192,234894,1,0,0:0:0:100:x x 11 11 160.wav
64,192,235052,128,0,235368:0:0:0:70:Snare.wav
448,192,235052,128,0,235210:0:0:0:70:Hi-hat open.wav
192,192,235210,1,0,0:0:0:70:Kick.wav
320,192,235210,128,0,235368:0:0:0:100:x x 11 11 160.wav
192,192,235368,128,0,235526:0:0:0:70:Hi-hat open.wav
448,192,235526,1,0,0:0:0:59:Snare.wav
320,192,235605,1,0,0:0:0:59:Snare.wav
64,192,235683,1,0,0:0:0:70:Kick.wav
192,192,235683,128,0,236315:0:0:0:70:Hi-hat open.wav
64,192,235841,128,0,235999:0:0:0:59:Snare.wav
320,192,235841,1,0,0:0:0:100:33_G#1_190_240.wav
448,192,235841,1,0,0:0:0:100:x 12 11 160.wav
320,192,235999,128,0,236157:0:0:0:70:Hi-hat open.wav
64,192,236157,1,0,0:0:0:70:Kick.wav
448,192,236157,128,0,236315:0:0:0:100:x x 11 11 160.wav
64,192,236315,1,0,0:0:0:70:Snare.wav
320,192,236315,128,0,236631:0:0:0:70:Hi-hat open.wav
192,192,236631,128,0,236789:0:0:0:70:Hi-hat open.wav
64,192,236789,1,0,0:0:0:59:Snare.wav
192,192,236868,1,0,0:0:0:59:Snare.wav
320,192,236947,1,0,0:0:0:70:Kick.wav
448,192,236947,128,0,237262:0:0:0:70:Hi-hat open.wav
64,192,237105,1,0,0:0:0:59:Snare.wav
192,192,237105,128,0,237262:0:0:0:100:33_G#1_190_240.wav
320,192,237105,1,0,0:0:0:100:x 4 4 4 x 4 G#m7 160.wav
64,192,237262,128,0,237578:0:0:0:70:Hi-hat open.wav
320,192,237262,128,0,237420:0:0:0:100:33_G#0_190_240.wav
192,192,237420,1,0,0:0:0:70:Kick.wav
448,192,237420,128,0,237578:0:0:0:100:x x 11 11 160.wav
192,192,237578,128,0,237736:0:0:0:70:Snare.wav
320,192,237578,128,0,237894:0:0:0:70:Hi-hat open.wav
64,192,237736,128,0,237894:0:0:0:70:Kick.wav
448,192,237736,1,0,0:0:0:100:x x 11 11 160.wav
192,192,237894,128,0,238210:0:0:0:70:Hi-hat open.wav
448,192,237894,128,0,238052:0:0:0:100:33_G#0_190_240.wav
64,192,238052,1,0,0:0:0:70:Kick.wav
320,192,238052,128,0,238210:0:0:0:100:33_G#1_190_240.wav
64,192,238210,128,0,238841:0:0:0:70:Kick.wav
448,192,238210,1,0,0:0:0:70:Crash high.wav
320,192,238368,128,0,238526:0:0:0:100:33_F#1_190_240.wav
448,192,238526,128,0,238683:0:0:0:70:Hi-hat open.wav
192,192,238683,128,0,238841:0:0:0:70:Kick.wav
320,192,238683,1,0,0:0:0:100:x x 11 11 160.wav
320,192,238841,128,0,239157:0:0:0:70:Snare.wav
448,192,238841,1,0,0:0:0:70:Hi-hat open.wav
448,192,239157,128,0,239315:0:0:0:70:Hi-hat open.wav
320,192,239315,1,0,0:0:0:59:Snare.wav
192,192,239394,1,0,0:0:0:59:Snare.wav
64,192,239473,1,0,0:0:0:70:Kick.wav
448,192,239473,128,0,239789:0:0:0:70:Hi-hat open.wav
64,192,239631,1,0,0:0:0:59:Snare.wav
192,192,239631,128,0,239789:0:0:0:100:33_F#1_190_240.wav
320,192,239631,1,0,0:0:0:100:x 2 2 2 x 2 F#m7 160.wav
64,192,239789,128,0,240105:0:0:0:70:Hi-hat open.wav
320,192,239789,128,0,239947:0:0:0:100:33_F#0_190_240.wav
192,192,239947,128,0,240105:0:0:0:70:Kick.wav
448,192,239947,1,0,0:0:0:100:x x 11 11 160.wav
320,192,240105,128,0,240420:0:0:0:70:Snare.wav
448,192,240105,128,0,240262:0:0:0:70:Hi-hat open.wav
192,192,240262,128,0,240420:0:0:0:100:x x 11 11 160.wav
64,192,240420,128,0,240578:0:0:0:70:Hi-hat open.wav
448,192,240578,1,0,0:0:0:59:Snare.wav
320,192,240657,1,0,0:0:0:59:Snare.wav
64,192,240736,1,0,0:0:0:70:Kick.wav
192,192,240736,128,0,241368:0:0:0:70:Hi-hat open.wav
64,192,240894,1,0,0:0:0:59:Snare.wav
320,192,240894,1,0,0:0:0:100:33_E1_190_240.wav
448,192,240894,128,0,241052:0:0:0:100:x 12 11 160.wav
320,192,241052,128,0,241210:0:0:0:70:Hi-hat open.wav
64,192,241210,128,0,241368:0:0:0:70:Kick.wav
448,192,241210,1,0,0:0:0:100:x x 11 11 160.wav
320,192,241368,128,0,241683:0:0:0:70:Snare.wav
448,192,241368,1,0,0:0:0:70:Hi-hat open.wav
64,192,241683,1,0,0:0:0:70:Snare.wav
192,192,241683,128,0,241841:0:0:0:70:Crash medium.wav
448,192,241683,1,0,0:0:0:100:33_E0_190_240.wav
448,192,241841,128,0,241999:0:0:0:100:33_E1_190_240.wav
64,192,241999,1,0,0:0:0:50:Snare.wav
192,192,241999,1,0,0:0:0:70:Kick.wav
320,192,241999,1,0,0:0:0:50:Tom3.wav
64,192,242157,1,0,0:0:0:50:Snare.wav
320,192,242157,1,0,0:0:0:50:Tom3.wav
192,192,242315,1,0,0:0:0:59:Snare.wav
320,192,242315,1,0,0:0:0:70:Kick.wav
448,192,242315,1,0,0:0:0:59:Tom3.wav
192,192,242473,1,0,0:0:0:59:Snare.wav
448,192,242473,1,0,0:0:0:59:Tom3.wav
64,192,242631,1,0,0:0:0:70:Snare.wav
320,192,242631,1,0,0:0:0:70:Kick.wav
448,192,242631,1,0,0:0:0:70:Tom3.wav
192,192,242789,1,0,0:0:0:70:Snare.wav
320,192,242789,1,0,0:0:0:70:Tom3.wav
64,192,242947,1,0,0:0:0:80:Snare.wav
192,192,242947,1,0,0:0:0:70:Kick.wav
448,192,242947,1,0,0:0:0:80:Tom3.wav
192,192,243105,1,0,0:0:0:80:Snare.wav
320,192,243105,1,0,0:0:0:80:Tom3.wav
64,192,243262,128,0,248315:0:0:0:70:Crash medium.wav
320,192,243262,1,0,0:0:0:70:Kick.wav
448,192,243262,128,0,243420:0:0:0:70:Crash high.wav
192,192,243420,128,0,243578:0:0:0:100:x 9 160.wav
320,192,243578,128,0,243736:0:0:0:100:x 12 160.wav
448,192,243736,128,0,243894:0:0:0:100:x 0 160.wav
320,192,243894,128,0,244052:0:0:0:100:x 7 160.wav
192,192,244052,128,0,244210:0:0:0:100:x 9 160.wav
448,192,244210,128,0,244368:0:0:0:100:x 0 160.wav
192,192,244368,128,0,244526:0:0:0:100:x 5 160.wav
320,192,244526,128,0,244683:0:0:0:100:x 7 160.wav
192,192,244683,128,0,244841:0:0:0:100:x 0 160.wav
448,192,244841,128,0,244999:0:0:0:100:x 4 160.wav
320,192,244999,128,0,245157:0:0:0:100:x 5 160.wav
192,192,245157,128,0,245315:0:0:0:100:x 0 160.wav
448,192,245315,128,0,245473:0:0:0:100:x 5 160.wav
192,192,245473,128,0,245631:0:0:0:100:x 7 160.wav
320,192,245631,128,0,245789:0:0:0:100:x 0 160.wav
192,192,245789,128,0,245947:0:0:0:100:x 7 160.wav
320,192,245947,128,0,246105:0:0:0:100:x 9 160.wav
448,192,246105,128,0,246262:0:0:0:100:x 0 160.wav
192,192,246262,128,0,246420:0:0:0:100:x 9 160.wav
448,192,246420,128,0,246578:0:0:0:100:x 10 160.wav
320,192,246578,128,0,246736:0:0:0:100:x 9 160.wav
448,192,246736,128,0,246894:0:0:0:100:x 7 160.wav
192,192,246894,128,0,247052:0:0:0:100:x 9 160.wav
448,192,247052,128,0,247210:0:0:0:40:x 7 160.wav
320,192,247210,128,0,247368:0:0:0:40:x 9 160.wav
192,192,247999,128,0,248315:0:0:0:100:33_B0_190_480.wav
320,192,248315,128,0,248473:0:0:0:100:33_A1_190_7680.wav
448,192,248315,128,0,253368:0:0:0:100:x 0 160.wav
192,192,248473,128,0,248631:0:0:0:100:x 9 160.wav
320,192,248631,128,0,248789:0:0:0:100:x 12 160.wav
64,192,248789,128,0,248947:0:0:0:100:x 0 160.wav
192,192,248947,128,0,249105:0:0:0:100:x 7 160.wav
64,192,249105,128,0,249262:0:0:0:100:x 9 160.wav
320,192,249262,128,0,249420:0:0:0:100:x 0 160.wav
64,192,249420,128,0,249578:0:0:0:100:x 5 160.wav
192,192,249578,128,0,249736:0:0:0:100:x 7 160.wav
320,192,249736,128,0,249894:0:0:0:100:x 0 160.wav
64,192,249894,128,0,250052:0:0:0:100:x 4 160.wav
320,192,250052,128,0,250210:0:0:0:100:x 5 160.wav
192,192,250210,128,0,250368:0:0:0:100:x 0 160.wav
64,192,250368,128,0,250526:0:0:0:100:x 5 160.wav
320,192,250526,128,0,250683:0:0:0:100:x 7 160.wav
192,192,250683,128,0,250841:0:0:0:100:x 0 160.wav
320,192,250841,128,0,250999:0:0:0:100:x 7 160.wav
64,192,250999,128,0,251157:0:0:0:100:x 9 160.wav
192,192,251157,128,0,251315:0:0:0:100:x 0 160.wav
64,192,251315,128,0,251473:0:0:0:100:x 9 160.wav
320,192,251473,128,0,251631:0:0:0:100:x 10 160.wav
192,192,251631,128,0,251789:0:0:0:100:x 9 160.wav
64,192,251789,128,0,251947:0:0:0:100:x 7 160.wav
192,192,251947,128,0,252105:0:0:0:100:x x 9 160.wav
320,192,252105,128,0,252262:0:0:0:40:x 7 160.wav
64,192,252262,128,0,252420:0:0:0:40:x x 9 160.wav
64,192,253368,128,0,253526:0:0:0:100:33_A1_190_240.wav
192,192,253368,128,0,253526:0:0:0:100:x 0 160.wav
320,192,253526,128,0,253683:0:0:0:100:33_E2_190_240.wav
448,192,253526,128,0,253683:0:0:0:100:x 9 160.wav
64,192,253683,128,0,253841:0:0:0:100:33_G#2_190_240.wav
192,192,253683,128,0,253841:0:0:0:100:x 12 160.wav
320,192,253841,128,0,254157:0:0:0:100:33_A2_190_240.wav
448,192,253841,128,0,253999:0:0:0:100:x 0 160.wav
64,192,253999,128,0,254157:0:0:0:100:x 7 160.wav
192,192,254157,128,0,254473:0:0:0:100:33_G#2_190_240.wav
448,192,254157,128,0,254315:0:0:0:100:x 9 160.wav
320,192,254315,128,0,254473:0:0:0:100:x 0 160.wav
64,192,254473,128,0,254631:0:0:0:100:33_E2_190_240.wav
448,192,254473,128,0,254631:0:0:0:100:x 5 160.wav
192,192,254631,128,0,254789:0:0:0:100:33_A1_190_240.wav
320,192,254631,128,0,254789:0:0:0:100:x 7 160.wav
64,192,254789,128,0,254947:0:0:0:100:33_E2_190_240.wav
448,192,254789,128,0,254947:0:0:0:100:x 0 160.wav
192,192,254947,128,0,255105:0:0:0:100:33_B2_190_240.wav
320,192,254947,128,0,255105:0:0:0:100:x 4 160.wav
64,192,255105,128,0,255420:0:0:0:100:33_C#3_190_240.wav
448,192,255105,128,0,255262:0:0:0:100:x 5 160.wav
320,192,255262,128,0,255420:0:0:0:100:x 0 160.wav
192,192,255420,128,0,255578:0:0:0:100:x 5 160.wav
448,192,255578,128,0,255736:0:0:0:100:x 7 160.wav
64,192,255736,128,0,255894:0:0:0:100:x 0 160.wav
320,192,255894,128,0,256052:0:0:0:100:x 7 160.wav
192,192,256052,128,0,256210:0:0:0:100:x 9 160.wav
448,192,256210,128,0,256368:0:0:0:100:x 0 160.wav
320,192,256368,128,0,256526:0:0:0:100:x 9 160.wav
64,192,256526,128,0,256683:0:0:0:100:x 10 160.wav
448,192,256683,128,0,256841:0:0:0:100:x 9 160.wav
192,192,256841,128,0,256999:0:0:0:100:x 7 160.wav
320,192,256999,128,0,257157:0:0:0:100:x 9 160.wav
64,192,257157,128,0,257315:0:0:0:40:x 7 160.wav
192,192,257315,128,0,257473:0:0:0:40:x 9 160.wav
64,192,258420,128,0,258578:0:0:0:100:33_A1_190_240.wav
320,192,258420,128,0,258578:0:0:0:100:x 0 160.wav
192,192,258578,128,0,258736:0:0:0:100:33_E2_190_240.wav
448,192,258578,128,0,258736:0:0:0:100:x 9 160.wav
64,192,258736,128,0,258894:0:0:0:100:33_G#2_190_240.wav
320,192,258736,128,0,258894:0:0:0:100:x 12 160.wav
192,192,258894,128,0,259052:0:0:0:100:33_A2_190_240.wav
448,192,258894,128,0,259210:0:0:0:100:x 0 160.wav
320,192,259052,128,0,259210:0:0:0:100:x 7 160.wav
64,192,259210,128,0,259526:0:0:0:100:33_G#2_190_240.wav
192,192,259210,128,0,259368:0:0:0:100:x 9 160.wav
448,192,259368,128,0,259526:0:0:0:100:x 0 160.wav
192,192,259526,128,0,259683:0:0:0:100:33_E2_190_240.wav
320,192,259526,128,0,259683:0:0:0:100:x 5 160.wav
64,192,259683,128,0,259841:0:0:0:100:33_A1_190_240.wav
448,192,259683,128,0,259841:0:0:0:100:x 7 160.wav
192,192,259841,128,0,259999:0:0:0:100:33_E2_190_240.wav
320,192,259841,128,0,259999:0:0:0:100:x 0 160.wav
64,192,259999,128,0,260157:0:0:0:100:33_B2_190_240.wav
448,192,259999,128,0,260157:0:0:0:100:x 4 160.wav
192,192,260157,128,0,260315:0:0:0:100:33_C#3_190_240.wav
320,192,260157,128,0,260473:0:0:0:100:x 5 160.wav
64,192,260315,128,0,260473:0:0:0:100:x 0 160.wav
448,192,260473,128,0,260631:0:0:0:100:x 5 160.wav
192,192,260631,128,0,260789:0:0:0:100:x 7 160.wav
64,192,260789,128,0,260947:0:0:0:100:x 0 160.wav
320,192,260947,128,0,261105:0:0:0:100:x 7 160.wav
192,192,261105,128,0,261262:0:0:0:100:x 9 160.wav
448,192,261262,128,0,261420:0:0:0:100:x 12 160.wav
320,192,261420,128,0,261578:0:0:0:100:12 160.wav
