osu file format v14

[General]
AudioFilename: audio.ogg
AudioLeadIn: 0
PreviewTime: 170714
Countdown: 0
SampleSet: Soft
StackLeniency: 0.7
Mode: 3
LetterboxInBreaks: 0
SpecialStyle: 0
WidescreenStoryboard: 1
SamplesMatchPlaybackRate: 1

[Editor]
Bookmarks: 524,5550,13089,20628,21099,23770,33822,43560,43874,44345,44817,45288,46230,49372,49843,50314,51256,54398,54869,56283,58953,61466,63979,69005,71204,71832,72461,74031,78743,79057,80314,81571,82827,84084,89110,90366,91623,92251,92879,93822,94136,99476,100183,100733,101361,101675,102775,107958,112984,115183,115497,116440,118010,128063,138115,139293,140628,143141,144398,147853,148167,153194,158220,163246,163874,164502,165759,168272,168743,175811,177068,179581,179895,180209,180523,180838,185864,187120,188377,189319,190890,195916,197173,198429,199057,200628,200942,206283,206832,207539,208167,208482,209581,211309,211937,212565,213194,213508,214607,218534,223560,226387,228586,231099,233612,234869,236126,237696,238639,243508
DistanceSpacing: 1.3
BeatDivisor: 4
GridSize: 4
TimelineZoom: 1.5

[Metadata]
Title:Hikari no Naka e
TitleUnicode:光の中へ
Artist:kessoku band
ArtistUnicode:結束バンド
Creator:A04360436
Version:Normal
Source:ぼっち・ざ・ろっく!
Tags:anime japanese j-pop jpop pop j-rock jrock rock svwc-70620 female vocalist vocals bocchi the rock! btr 後藤ひとり gotoh hitori 山田リョウ yamada ryo 伊地知虹夏 ijichi nijika 喜多郁代 kita ikuyo 長谷川 育美 hasegawa ikumi 水野 朔 mizuno saku 鈴代 紗弓 suzushiro sayumi 青山 吉能 aoyama yoshino 藤森元生 genki fujimori 三井律郎 mitsui ritsuo aniplex sony music marketing united inc. into the light ひかりのなかへ 斜 斜坊 はすぼう Hasu bō bo Hasubō Hasubo isaribashi
BeatmapID:4185020
BeatmapSetID:2008098

[Difficulty]
HPDrainRate:7
CircleSize:4
OverallDifficulty:7
ApproachRate:5
SliderMultiplier:1.4
SliderTickRate:1

[Events]
//Background and Video events
0,0,"BG.jpg",0,0
//Break Periods
//Storyboard Layer 0 (Background)
//Storyboard Layer 1 (Fail)
//Storyboard Layer 2 (Pass)
//Storyboard Layer 3 (Foreground)
//Storyboard Layer 4 (Overlay)
//Storyboard Sound Samples
Sample,524,0,"Crash high.wav",67
Sample,524,0,"x x x x x 3 160.wav",78
Sample,681,0,"x x x x x 3 160.wav",78
Sample,838,0,"Arp. x x 2 320.wav",73
Sample,838,0,"x x x x x 3 Staccato 320.wav",78
Sample,1152,0,"Arp. 0 320.wav",73
Sample,1152,0,"x x x x x 3 Staccato 320.wav",78
Sample,1466,0,"Arp. x x x x 0 160.wav",73
Sample,1466,0,"x x x x x 3 160.wav",78
Sample,1623,0,"Arp. x 0 320.wav",73
Sample,1623,0,"x x x x x 3 160.wav",78
Sample,1780,0,"x x x x x 3 160.wav",78
Sample,1937,0,"Arp. x 0 160.wav",73
Sample,1937,0,"x x x x x 10 160.wav",78
Sample,2094,0,"Arp. x x 2 320.wav",73
Sample,2094,0,"x x x x x 10 Staccato 320.wav",78
Sample,2408,0,"Arp. 0 320.wav",73
Sample,2408,0,"x x x x x 10 Staccato 320.wav",78
Sample,2722,0,"Arp. x x 2 160.wav",73
Sample,2722,0,"x x x x x 10 160.wav",78
Sample,2880,0,"x x x x x 10 160.wav",78
Sample,3037,0,"Hi-Hat close.wav",66
Sample,3037,0,"Arp. x x x x 4 160.wav",73
Sample,3037,0,"x x x x x 10 160.wav",78
Sample,3194,0,"x x x x x 3 160.wav",78
Sample,3351,0,"Arp. x x 2 320.wav",73
Sample,3351,0,"x x x x x 3 Staccato 320.wav",78
Sample,3665,0,"Arp. 0 320.wav",73
Sample,3665,0,"x x x x x 3 Staccato 320.wav",78
Sample,3979,0,"Arp. x x x x 4 160.wav",73
Sample,3979,0,"x x x x x 3 160.wav",78
Sample,4136,0,"Arp. x 0 320.wav",73
Sample,4136,0,"x x x x x 3 160.wav",78
Sample,4293,0,"x x x x x 3 160.wav",78
Sample,4450,0,"Arp. x 0 160.wav",73
Sample,4450,0,"x x x x x 10 160.wav",78
Sample,4607,0,"Arp. x x 2 320.wav",73
Sample,4607,0,"x x x x x 10 Staccato 320.wav",78
Sample,4921,0,"bass 3-7 640.wav",65
Sample,4921,0,"Arp. 0 320.wav",73
Sample,4921,0,"x x x x x 10 Staccato 320.wav",78
Sample,5236,0,"Hi-Hat close.wav",66
Sample,5236,0,"Arp. x x 2 160.wav",73
Sample,5236,0,"x x x x x 10 160.wav",78
Sample,5393,0,"Arp. x 0 160.wav",73
Sample,5393,0,"x x x x x 10 160.wav",78
Sample,5550,0,"bass 2-14 320.wav",65
Sample,5550,0,"Arp. x x x 0 160.wav",73
Sample,5550,0,"x x x x x 10 160.wav",78
Sample,5707,0,"x x x x x 3 160.wav",78
Sample,5864,0,"bass 2-14 160.wav",65
Sample,5864,0,"Arp. x x 2 320.wav",73
Sample,5864,0,"x x x x x 3 Staccato 320.wav",78
Sample,6021,0,"bass 1-16 320.wav",65
Sample,6178,0,"Arp. 0 320.wav",73
Sample,6178,0,"x x x x x 3 Staccato 320.wav",78
Sample,6335,0,"bass 1-16 160.wav",65
Sample,6492,0,"bass 1-15 320.wav",65
Sample,6492,0,"Arp. x x x 0 160.wav",73
Sample,6492,0,"x x x x x 3 160.wav",78
Sample,6649,0,"Arp. x 0 320.wav",73
Sample,6649,0,"x x x x x 3 160.wav",78
Sample,6806,0,"bass 1-15 160.wav",65
Sample,6806,0,"x x x x x 3 160.wav",78
Sample,6963,0,"bass 2-16 320.wav",65
Sample,6963,0,"Arp. x 0 160.wav",73
Sample,6963,0,"x x x x x 10 160.wav",78
Sample,7120,0,"Arp. x x 2 320.wav",73
Sample,7120,0,"x x x x x 10 Staccato 320.wav",78
Sample,7277,0,"Hi-Hat close.wav",57
Sample,7277,0,"bass 2-16 160.wav",65
Sample,7434,0,"bass 2-13 160.wav",65
Sample,7434,0,"Arp. 0 320.wav",73
Sample,7434,0,"x x x x x 10 Staccato 320.wav",78
Sample,7749,0,"bass 2-13 320.wav",65
Sample,7749,0,"Arp. x x 2 160.wav",73
Sample,7749,0,"x x x x x 10 160.wav",78
Sample,7906,0,"x x x x x 10 160.wav",78
Sample,8063,0,"Hi-Hat close.wav",66
Sample,8063,0,"bass 3-11 160.wav",65
Sample,8063,0,"x x 11 x 9 160.wav",78
Sample,8141,0,"Snare.wav",58
Sample,8220,0,"bass 3-11 160.wav",65
Sample,8220,0,"0 0 2 2 x 2 F#m7(11) 160.wav",73
Sample,8220,0,"x x 11 x 9 160.wav",78
Sample,8298,0,"Snare.wav",58
Sample,8377,0,"bass 3-14 160.wav",65
Sample,8377,0,"0 0 2 2 x 2 F#m7(11) 160.wav",73
Sample,8377,0,"x x 11 x 9 160.wav",78
Sample,8455,0,"Snare.wav",58
Sample,8534,0,"bass 3-14 160.wav",65
Sample,8534,0,"0 0 2 2 x 2 F#m7(11) 160.wav",73
Sample,8534,0,"x x 11 x 9 160.wav",78
Sample,8613,0,"Snare.wav",58
Sample,8691,0,"bass 3-13 160.wav",65
Sample,8691,0,"0 0 2 2 0 Aadd9 160.wav",73
Sample,8691,0,"x x 12 x 10 160.wav",78
Sample,8770,0,"Snare.wav",58
Sample,8848,0,"bass 3-13 160.wav",65
Sample,8848,0,"0 0 2 2 0 Aadd9 160.wav",73
Sample,8848,0,"x x 12 x 10 160.wav",78
Sample,8927,0,"Snare.wav",58
Sample,9005,0,"bass 1-13 160.wav",65
Sample,9005,0,"0 0 2 2 0 Aadd9 160.wav",73
Sample,9005,0,"x x 12 x 10 320.wav",78
Sample,9084,0,"Snare.wav",58
Sample,9162,0,"bass 1-13 160.wav",65
Sample,9162,0,"0 0 2 2 0 Aadd9 160.wav",73
Sample,9241,0,"Snare.wav",58
Sample,9319,0,"bass 1-11 160.wav",65
Sample,9319,0,"0 0 1 2 2 0 E 160.wav",73
Sample,9319,0,"x x 7 x 5 160.wav",78
Sample,9398,0,"Snare.wav",58
Sample,9476,0,"bass 1-11 160.wav",65
Sample,9476,0,"0 0 1 2 2 0 E 160.wav",73
Sample,9476,0,"x x 7 x 5 160.wav",78
Sample,9555,0,"Snare.wav",58
Sample,9633,0,"bass 2-11 320.wav",65
Sample,9633,0,"0 0 1 2 2 0 E 160.wav",73
Sample,9633,0,"x x 7 x 5 160.wav",78
Sample,9712,0,"Snare.wav",58
Sample,9791,0,"0 0 1 2 2 0 E 160.wav",73
Sample,9791,0,"x x 7 x 5 160.wav",78
Sample,9869,0,"Snare.wav",58
Sample,9948,0,"bass 3-9 160.wav",65
Sample,9948,0,"0 0 1 2 2 0 E 160.wav",73
Sample,9948,0,"x x 0 0 0 640.wav",78
Sample,10026,0,"Snare.wav",58
Sample,10105,0,"bass 3-9 160.wav",65
Sample,10105,0,"0 0 1 2 2 0 E 160.wav",73
Sample,10183,0,"Snare.wav",58
Sample,10262,0,"bass 3-9 160.wav",65
Sample,10262,0,"0 0 1 2 2 0 E 160.wav",73
Sample,10340,0,"Snare.wav",58
Sample,10419,0,"bass 3-9 160.wav",65
Sample,10419,0,"0 0 1 2 2 0 E 160.wav",73
Sample,10497,0,"Snare.wav",58
Sample,12304,0,"x x 0 160.wav",44
Sample,12461,0,"8 8 Mute 160.wav",78
Sample,12618,0,"bass 4-0 480.wav",65
Sample,12618,0,"x x 4 3 4 C#7 480.wav",73
Sample,12618,0,"7 480.wav",78
Sample,12775,0,"Hi-Hat close.wav",58
Sample,13089,0,"bass 4-0 160.wav",65
Sample,13089,0,"x 7 6 7 5 Dmaj7 320.wav",73
Sample,13089,0,"12 160.wav",78
Sample,13246,0,"15 80.wav",78
Sample,13403,0,"bass 4-0 160.wav",65
Sample,13403,0,"x 7 6 7 5 Dmaj7 160.wav",73
Sample,13403,0,"x 15 160.wav",78
Sample,13560,0,"x 7 6 7 5 Dmaj7 320.wav",73
Sample,13560,0,"12 160.wav",78
Sample,13717,0,"Hi-Hat open.wav",66
Sample,13717,0,"bass 4-0 160.wav",65
Sample,13874,0,"bass 4-0 160.wav",65
Sample,13874,0,"x 7 6 7 5 Dmaj7 160.wav",73
Sample,13874,0,"x x 15 160.wav",78
Sample,14031,0,"bass 4-0 160.wav",65
Sample,14031,0,"x 7 6 7 5 Dmaj7 160.wav",73
Sample,14031,0,"x x 14 160.wav",78
Sample,14188,0,"bass 4-0 160.wav",65
Sample,14188,0,"x 7 6 7 5 Dmaj7 320.wav",73
Sample,14188,0,"x x 12 160.wav",78
Sample,14345,0,"Hi-Hat open.wav",66
Sample,14345,0,"bass 4-0 160.wav",65
Sample,14503,0,"bass 4-0 160.wav",65
Sample,14503,0,"x 7 6 7 5 Dmaj7 160.wav",73
Sample,14503,0,"x x x 12 160.wav",78
Sample,14660,0,"bass 4-0 160.wav",65
Sample,14660,0,"x 7 6 7 5 Dmaj7 160.wav",73
Sample,14660,0,"x x x 14 160.wav",78
Sample,14817,0,"x 7 6 7 5 Dmaj7 160.wav",73
Sample,14817,0,"x x 12 160.wav",78
Sample,14974,0,"bass 4-0 160.wav",65
Sample,14974,0,"x 7 6 7 5 Dmaj7 160.wav",73
Sample,14974,0,"x x 14 160 bend full release 320.wav",78
Sample,15131,0,"bass 4-0 160.wav",65
Sample,15131,0,"x 7 6 7 5 Dmaj7 160.wav",73
Sample,15288,0,"bass 4-0 160.wav",65
Sample,15288,0,"x 7 6 7 5 Dmaj7 160.wav",73
Sample,15445,0,"x 7 6 7 5 Dmaj7 160.wav",73
Sample,15445,0,"x x 12 160.wav",78
Sample,15602,0,"Hi-Hat open.wav",66
Sample,15602,0,"bass 3-6 160.wav",65
Sample,15602,0,"x 5 4 x 4 C#m7 320.wav",73
Sample,15602,0,"x 15 160.wav",78
Sample,15759,0,"x x 16 80.wav",78
Sample,15916,0,"bass 3-6 160.wav",65
Sample,15916,0,"x 5 4 x 4 C#m7 160.wav",73
Sample,15916,0,"x x 12 160.wav",78
Sample,16073,0,"x 5 4 x 4 C#m7 320.wav",73
Sample,16073,0,"x x 14 160.wav",78
Sample,16230,0,"Hi-Hat open.wav",66
Sample,16230,0,"bass 3-6 160.wav",65
Sample,16387,0,"bass 3-6 160.wav",65
Sample,16387,0,"x 5 4 x 4 C#m7 160.wav",73
Sample,16387,0,"x x x 14 160.wav",78
Sample,16544,0,"bass 3-6 160.wav",65
Sample,16544,0,"x 5 4 x 4 C#m7 160.wav",73
Sample,16544,0,"x x 12 320.wav",78
Sample,16702,0,"bass 3-6 160.wav",65
Sample,16702,0,"x 5 4 x 4 C#m7 320.wav",73
Sample,16859,0,"Hi-Hat open.wav",66
Sample,16859,0,"bass 3-6 160.wav",65
Sample,17016,0,"bass 3-6 160.wav",65
Sample,17016,0,"x 5 4 x 4 C#m7 160.wav",73
Sample,17016,0,"x x 12 160.wav",78
Sample,17173,0,"bass 3-6 160.wav",65
Sample,17173,0,"x 5 4 x 4 C#m7 160.wav",73
Sample,17173,0,"x x 14 bend half release 320 bend half release640.wav",78
Sample,17330,0,"x 5 4 x 4 C#m7 160.wav",73
Sample,17487,0,"bass 3-5 160.wav",65
Sample,17487,0,"x 5 4 x 4 C#m7 160.wav",73
Sample,17644,0,"bass 2-7 160.wav",65
Sample,17644,0,"x 5 4 x 4 C#m7 160.wav",73
Sample,17801,0,"bass 3-5 320.wav",65
Sample,17801,0,"x 5 4 x 4 C#m7 160.wav",73
Sample,17958,0,"x 5 4 x 4 C#m7 160.wav",73
Sample,18115,0,"Hi-Hat open.wav",66
Sample,18115,0,"bass 3-4 160.wav",65
Sample,18115,0,"x 3 2 x 2 Bm7 320.wav",73
Sample,18115,0,"12 160.wav",78
Sample,18272,0,"15 80.wav",78
Sample,18429,0,"bass 3-4 160.wav",65
Sample,18429,0,"x 3 2 x 2 Bm7 160.wav",73
Sample,18429,0,"x 15 160.wav",78
Sample,18586,0,"x 3 2 x 2 Bm7 320.wav",73
Sample,18586,0,"12 160.wav",78
Sample,18743,0,"Hi-Hat open.wav",66
Sample,18743,0,"bass 3-4 160.wav",65
Sample,18900,0,"bass 2-6 160.wav",65
Sample,18900,0,"x 3 2 x 2 Bm7 160.wav",73
Sample,18900,0,"x x 15 160.wav",78
Sample,19058,0,"bass 3-4 160.wav",65
Sample,19058,0,"x 3 2 x 2 Bm7 160.wav",73
Sample,19058,0,"x x 14 160.wav",78
Sample,19215,0,"bass 3-4 160.wav",65
Sample,19215,0,"x 3 2 x 2 Bm7 160.wav",73
Sample,19215,0,"x x 12 160.wav",78
Sample,19372,0,"Hi-Hat open.wav",66
Sample,19372,0,"bass 3-6 160.wav",65
Sample,19372,0,"x 5 4 x 4 C#m7 320.wav",73
Sample,19529,0,"bass 3-6 160.wav",65
Sample,19529,0,"x x x 12 160.wav",78
Sample,19686,0,"bass 3-6 160.wav",65
Sample,19686,0,"x 5 4 x 4 C#m7 160.wav",73
Sample,19686,0,"x x x 14 160.wav",78
Sample,19843,0,"x 5 4 x 4 C#m7 320.wav",73
Sample,19843,0,"x x 12 160.wav",78
Sample,20000,0,"bass 3-6 160.wav",65
Sample,20000,0,"x x 14 160 bend full release 320.wav",78
Sample,20157,0,"bass 2-8 160.wav",65
Sample,20157,0,"x 5 4 x 4 C#m7 160.wav",73
Sample,20314,0,"bass 3-6 160.wav",65
Sample,20314,0,"x 5 4 x 4 C#m7 160.wav",73
Sample,20471,0,"x 5 4 x 4 C#m7 160.wav",73
Sample,20471,0,"x x 12 160.wav",78
Sample,20628,0,"Crash high.wav",67
Sample,20628,0,"bass 3-7 320.wav",65
Sample,20628,0,"x x 6 4 5 Dmaj7 320.wav",73
Sample,20628,0,"x 13 160.wav",78
Sample,20942,0,"bass 3-7 Mute 160.wav",65
Sample,20942,0,"x x 6 4 5 Dmaj7 Mute 160.wav",73
Sample,20942,0,"x x 14 160.wav",78
Sample,21099,0,"bass 4-5 320.wav",65
Sample,21099,0,"x x x 4 2 3 Gmaj7 160.wav",73
Sample,21099,0,"x x 12 160.wav",78
Sample,21414,0,"bass 4-5 Mute 160.wav",65
Sample,21414,0,"x x x 4 2 3 Gmaj7 Mute 160.wav",73
Sample,21414,0,"x x 12 160.wav",78
Sample,21571,0,"bass 3-5 320.wav",65
Sample,21571,0,"x x 4 2 3 Cmaj7 320.wav",73
Sample,21571,0,"x 15 160.wav",78
Sample,21885,0,"Hi-Hat close.wav",58
Sample,21885,0,"bass 3-5 Mute 160.wav",65
Sample,21885,0,"x x 4 2 3 Cmaj7 Mute 160.wav",73
Sample,21885,0,"x x 14 160.wav",78
Sample,22042,0,"bass 4-3 1120.wav",65
Sample,22042,0,"0 0 2 2 x 1 F#m7(#11) 1120.wav",73
Sample,22042,0,"x x 12 1120.wav",78
Sample,22984,0,"Hi-Hat close.wav",58
Sample,23141,0,"bass 4-0 160.wav",65
Sample,23141,0,"0 0 2 2 0 Aadd9 160.wav",73
Sample,23141,0,"x 15 160.wav",78
Sample,23298,0,"bass 4-9 480.wav",65
Sample,23298,0,"0 0 2 2 0 Aadd9 160.wav",73
Sample,23298,0,"x 15 480.wav",78
Sample,23770,0,"bass 3-7 2560.wav",65
Sample,23770,0,"x 5 6 7 5 Dmaj9 Arpeggio down 2560.wav",73
Sample,24241,0,"Hi-Hat close.wav",57
Sample,24398,0,"Hi-Hat close.wav",66
Sample,24555,0,"Hi-Hat close.wav",57
Sample,24869,0,"Hi-Hat close.wav",57
Sample,25026,0,"Hi-Hat close.wav",66
Sample,25183,0,"Hi-Hat close.wav",57
Sample,25497,0,"Hi-Hat close.wav",57
Sample,25654,0,"Hi-Hat close.wav",66
Sample,25811,0,"Hi-Hat close.wav",57
Sample,26126,0,"Hi-Hat close.wav",57
Sample,26283,0,"bass 3-6 1920.wav",65
Sample,26283,0,"x 5 4 x 4 C#m7 Arpeggio down 2560.wav",73
Sample,26440,0,"Hi-Hat close.wav",57
Sample,26754,0,"Hi-Hat close.wav",57
Sample,26911,0,"Hi-Hat close.wav",66
Sample,27068,0,"Hi-Hat close.wav",57
Sample,27382,0,"Hi-Hat close.wav",57
Sample,27539,0,"Hi-Hat close.wav",66
Sample,27696,0,"Hi-Hat close.wav",57
Sample,28010,0,"Hi-Hat close.wav",57
Sample,28167,0,"Hi-Hat close.wav",66
Sample,28324,0,"Hi-Hat close.wav",57
Sample,28324,0,"bass 4-7 160.wav",65
Sample,28482,0,"bass 3-4 160.wav",65
Sample,28639,0,"bass 3-6 160.wav",65
Sample,28796,0,"bass 3-4 1920.wav",65
Sample,28796,0,"x 3 2 x 2 Bm7 Arpeggio down 2560.wav",73
Sample,28953,0,"Hi-Hat close.wav",57
Sample,29267,0,"Hi-Hat close.wav",57
Sample,29424,0,"Hi-Hat close.wav",66
Sample,29581,0,"Hi-Hat close.wav",57
Sample,29895,0,"Hi-Hat close.wav",57
Sample,30052,0,"Hi-Hat close.wav",66
Sample,30209,0,"Hi-Hat close.wav",57
Sample,30523,0,"Hi-Hat close.wav",57
Sample,30680,0,"Hi-Hat close.wav",66
Sample,30838,0,"Hi-Hat close.wav",57
Sample,30838,0,"bass 4-4 160.wav",65
Sample,30995,0,"bass 4-7 160.wav",65
Sample,31152,0,"bass 4-4 160.wav",65
Sample,31309,0,"bass 4-4 960.wav",65
Sample,31309,0,"2 2 2 2 x 2 Arpeggio down F#m7 2240.wav",73
Sample,31309,0,"12 12 12 Arpeggio down N.H. 1280.wav",78
Sample,31466,0,"Hi-Hat close.wav",57
Sample,31780,0,"Hi-Hat close.wav",57
Sample,31937,0,"Hi-Hat close.wav",66
Sample,32094,0,"Hi-Hat close.wav",57
Sample,32251,0,"bass 3-6 160.wav",65
Sample,32408,0,"Hi-Hat close.wav",57
Sample,32408,0,"bass 2-6 160.wav",65
Sample,32565,0,"Hi-Hat close.wav",66
Sample,32565,0,"x x x 0 0 0 sl. x x x 12 12 12 .wav",100
Sample,32722,0,"Hi-Hat close.wav",57
Sample,32722,0,"bass 3-6 160.wav",65
Sample,33037,0,"bass 2-9 160.wav",65
Sample,33115,0,"Snare.wav",58
Sample,33351,0,"bass 2-8 160.wav",65
Sample,33429,0,"Snare.wav",57
Sample,33508,0,"bass 3-9 320.wav",65
Sample,33822,0,"bass 3-7 320.wav",65
Sample,33822,0,"x 5 6 7 5 Dmaj9 160.wav",73
Sample,33822,0,"x x x x 7 160.wav",78
Sample,33979,0,"x 5 6 7 5 Dmaj9 160.wav",73
Sample,33979,0,"x x x 9 160.wav",78
Sample,34136,0,"bass 4-0 320.wav",65
Sample,34136,0,"x 5 6 7 5 Dmaj9 160.wav",73
Sample,34136,0,"x x 7 7 7 Mute 160.wav",78
Sample,34293,0,"x 5 6 7 5 Dmaj9 160.wav",73
Sample,34293,0,"x x x 7 160.wav",78
Sample,34450,0,"Hi-Hat close.wav",66
Sample,34450,0,"x x 7 7 7 Mute 160.wav",78
Sample,34607,0,"Hi-Hat close.wav",57
Sample,34607,0,"bass 3-7 160.wav",65
Sample,34607,0,"x 5 6 7 5 Dmaj9 160.wav",73
Sample,34607,0,"x x 7 7 7 Mute 160.wav",78
Sample,34764,0,"Hi-Hat close.wav",66
Sample,34764,0,"x x 7 160.wav",78
Sample,34921,0,"bass 4-7 160.wav",65
Sample,34921,0,"x 5 6 7 5 Dmaj9 320.wav",73
Sample,34921,0,"x x 7 160.wav",78
Sample,35078,0,"Hi-Hat close.wav",66
Sample,35078,0,"x x 7 7 7 Mute 160.wav",78
Sample,35235,0,"Hi-Hat close.wav",57
Sample,35235,0,"bass 2-9 160.wav",65
Sample,35235,0,"x 5 6 7 5 Dmaj9 160.wav",73
Sample,35235,0,"x x 7 7 7 Mute 160.wav",78
Sample,35393,0,"bass 2-11 160.wav",65
Sample,35393,0,"x x 7 7 7 Mute 160.wav",78
Sample,35550,0,"bass 3-9 160.wav",65
Sample,35550,0,"x 5 6 7 5 Dmaj9 320.wav",73
Sample,35550,0,"x x 7 9 160.wav",78
Sample,35707,0,"Hi-Hat close.wav",66
Sample,35707,0,"bass 3-11 160.wav",65
Sample,35864,0,"Hi-Hat close.wav",57
Sample,35864,0,"bass 4-9 160.wav",65
Sample,35864,0,"x 5 6 7 5 Dmaj9 160.wav",73
Sample,35864,0,"x x 5 7 320.wav",78
Sample,36021,0,"bass 4-11 160.wav",65
Sample,36021,0,"x 5 6 7 5 Dmaj9 160.wav",73
Sample,36178,0,"Hi-Hat close.wav",57
Sample,36178,0,"bass 3-9 160.wav",65
Sample,36178,0,"x 5 6 7 5 Dmaj9 160.wav",73
Sample,36178,0,"x x 5 7 160.wav",78
Sample,36335,0,"Hi-Hat close.wav",66
Sample,36335,0,"bass 4-11 320.wav",65
Sample,36335,0,"x 5 4 x 4 C#m7 160.wav",73
Sample,36335,0,"x x x x x 7 160.wav",78
Sample,36492,0,"Hi-Hat close.wav",57
Sample,36492,0,"x 5 4 x 4 C#m7 160.wav",73
Sample,36492,0,"x x x 7 160.wav",78
Sample,36649,0,"bass 3-6 320.wav",65
Sample,36649,0,"x 5 4 x 4 C#m7 160.wav",73
Sample,36649,0,"x x 5 5 5 Mute 160.wav",78
Sample,36806,0,"x 5 4 x 4 C#m7 160.wav",73
Sample,36806,0,"x x x 5 160.wav",78
Sample,36963,0,"Hi-Hat close.wav",66
Sample,36963,0,"x x 5 5 5 Mute 160.wav",78
Sample,37120,0,"Hi-Hat close.wav",57
Sample,37120,0,"bass 2-8 160.wav",65
Sample,37120,0,"x 5 4 x 4 C#m7 160.wav",73
Sample,37120,0,"x x 5 5 5 Mute 160.wav",78
Sample,37277,0,"Hi-Hat close.wav",66
Sample,37277,0,"bass 3-6 160.wav",65
Sample,37277,0,"x x 7 160.wav",78
Sample,37434,0,"bass 4-4 160.wav",65
Sample,37434,0,"0 0 2 2 x 2 F#m7(11) 320.wav",73
Sample,37434,0,"x x 7 160.wav",78
Sample,37591,0,"Hi-Hat close.wav",66
Sample,37591,0,"x x 5 5 5 Mute 160.wav",78
Sample,37749,0,"Hi-Hat close.wav",57
Sample,37749,0,"bass 4-4 160.wav",65
Sample,37749,0,"0 0 2 2 x 2 F#m7(11) 160.wav",73
Sample,37749,0,"x x 5 5 5 Mute 160.wav",78
Sample,37906,0,"12 x 12 80.wav",78
Sample,37984,0,"12 x 12 80.wav",78
Sample,38063,0,"Hi-Hat close.wav",57
Sample,38063,0,"bass 4-4 160.wav",65
Sample,38063,0,"0 0 2 2 x 2 F#m7(11) 320.wav",73
Sample,38063,0,"12 x 12 80.wav",78
Sample,38141,0,"Snare.wav",58
Sample,38141,0,"12 x 12 80.wav",78
Sample,38220,0,"Hi-Hat close.wav",66
Sample,38220,0,"bass 4-6 160.wav",65
Sample,38220,0,"12 x 12 80.wav",78
Sample,38298,0,"12 x 12 80.wav",78
Sample,38377,0,"Hi-Hat close.wav",57
Sample,38377,0,"bass 4-7 160.wav",65
Sample,38377,0,"0 0 2 2 x 2 F#m7(11) 160.wav",73
Sample,38377,0,"12 x 12 80.wav",78
Sample,38455,0,"12 x 12 80.wav",78
Sample,38534,0,"bass 3-6 320.wav",65
Sample,38534,0,"0 0 2 2 x 2 F#m7(11) 160.wav",73
Sample,38534,0,"12 x 12 320.wav",78
Sample,38691,0,"Hi-Hat close.wav",57
Sample,38691,0,"0 0 2 2 x 2 F#m7(11) 160.wav",73
Sample,38848,0,"Hi-Hat close.wav",66
Sample,38848,0,"bass 3-4 160.wav",65
Sample,38848,0,"x 3 2 x 2 Bm7 160.wav",73
Sample,38848,0,"x x x x x 5 160.wav",78
Sample,39005,0,"Hi-Hat close.wav",57
Sample,39005,0,"bass 3-4 160.wav",65
Sample,39005,0,"x 3 2 x 2 Bm7 160.wav",73
Sample,39005,0,"x x x 7 160.wav",78
Sample,39162,0,"bass 2-6 160.wav",65
Sample,39162,0,"x 3 2 x 2 Bm7 160.wav",73
Sample,39162,0,"x x 5 5 5 Mute 160.wav",78
Sample,39319,0,"bass 3-4 160.wav",65
Sample,39319,0,"x 3 2 x 2 Bm7 160.wav",73
Sample,39319,0,"x x x 5 160.wav",78
Sample,39476,0,"Hi-Hat close.wav",66
Sample,39476,0,"x x 5 5 5 Mute 160.wav",78
Sample,39633,0,"Hi-Hat close.wav",57
Sample,39633,0,"bass 3-4 160.wav",65
Sample,39633,0,"x 3 2 x 2 Bm7 160.wav",73
Sample,39633,0,"x x 5 5 5 Mute 160.wav",78
Sample,39790,0,"Hi-Hat close.wav",66
Sample,39790,0,"bass 3-2 160.wav",65
Sample,39790,0,"x x x 7 160.wav",78
Sample,39948,0,"bass 3-6 320.wav",65
Sample,39948,0,"x 6 4 6 4 C#7 320.wav",73
Sample,39948,0,"x x x 7 160.wav",78
Sample,40105,0,"Hi-Hat close.wav",66
Sample,40105,0,"x x 5 5 5 Mute 160.wav",78
Sample,40262,0,"Hi-Hat close.wav",57
Sample,40262,0,"bass 2-5 160.wav",65
Sample,40262,0,"x 6 4 6 4 C#7 160.wav",73
Sample,40262,0,"x x 5 5 5 Mute 160.wav",78
Sample,40419,0,"bass 3-6 160.wav",65
Sample,40419,0,"x x 5 5 5 Mute 160.wav",78
Sample,40576,0,"bass 2-5 160.wav",65
Sample,40576,0,"x 6 4 6 4 C#7 320.wav",73
Sample,40576,0,"x 4 x 4 160.wav",78
Sample,40733,0,"Hi-Hat close.wav",66
Sample,40890,0,"Hi-Hat close.wav",57
Sample,40890,0,"bass 2-8 480.wav",65
Sample,40890,0,"x 6 4 6 4 C#7 160.wav",73
Sample,40890,0,"x 7 x 7 320.wav",78
Sample,41047,0,"x 6 4 6 4 C#7 160.wav",73
Sample,41204,0,"Hi-Hat close.wav",57
Sample,41204,0,"x 6 4 6 4 C#7 160.wav",73
Sample,41204,0,"x 7 x 7 160.wav",78
Sample,41361,0,"Hi-Hat close.wav",66
Sample,41361,0,"bass 2-6 160.wav",65
Sample,41361,0,"0 0 2 2 x 2 F#m7(11) 160.wav",73
Sample,41361,0,"x x x 5 5 5 Mute 160.wav",78
Sample,41518,0,"Hi-Hat close.wav",57
Sample,41518,0,"bass 2-6 160.wav",65
Sample,41518,0,"0 0 2 2 x 2 F#m7(11) 160.wav",73
Sample,41518,0,"x x x 5 5 5 Mute 160.wav",78
Sample,41675,0,"bass 3-6 160.wav",65
Sample,41675,0,"0 0 2 2 x 2 F#m7(11) 160.wav",73
Sample,41675,0,"x x 7 x 7 160.wav",78
Sample,41832,0,"Hi-Hat close.wav",57
Sample,41832,0,"bass 2-6 160.wav",65
Sample,41832,0,"0 0 2 2 x 2 F#m7(11) 160.wav",73
Sample,41832,0,"x x x 5 5 5 Mute 160.wav",78
Sample,41989,0,"x x x 5 5 5 Mute 160.wav",78
Sample,42146,0,"Hi-Hat close.wav",57
Sample,42146,0,"bass 3-6 160.wav",65
Sample,42146,0,"0 0 2 2 x 2 F#m7(11) 160.wav",73
Sample,42146,0,"x x 7 x 7 160.wav",78
Sample,42304,0,"Hi-Hat close.wav",66
Sample,42461,0,"bass 2-7 320.wav",65
Sample,42461,0,"x 3 4 4 x 3 Gmaj7 320.wav",73
Sample,42461,0,"x x 9 7 8 320.wav",78
Sample,42618,0,"Hi-Hat close.wav",66
Sample,42775,0,"Hi-Hat close.wav",57
Sample,42775,0,"bass 3-7 160.wav",65
Sample,42775,0,"x 3 4 4 x 3 Gmaj7 160.wav",73
Sample,42775,0,"x x 9 7 8 160.wav",78
Sample,42932,0,"x x 9 7 8 Mute 160.wav",78
Sample,43089,0,"bass 2-9 160.wav",65
Sample,43089,0,"x 3 4 4 x 3 Gmaj7 320.wav",73
Sample,43089,0,"x x 9 7 8 320.wav",78
Sample,43403,0,"bass 2-7 160.wav",65
Sample,43403,0,"x 3 4 4 x 3 Gmaj7 160.wav",73
Sample,43403,0,"x x 9 7 8 160.wav",78
Sample,43560,0,"bass 3-7 320.wav",65
Sample,43560,0,"x 3 4 4 x 3 Gmaj7 160.wav",73
Sample,43560,0,"x x 9 7 8 320.wav",78
Sample,43717,0,"x 3 4 4 x 3 Gmaj7 160.wav",73
Sample,43874,0,"Crash medium.wav",67
Sample,43874,0,"bass 3-4 160.wav",65
Sample,43874,0,"0 0 2 0 2 Bm7(11) 480.wav",73
Sample,43874,0,"3 3 160.wav",78
Sample,44031,0,"bass 3-4 160.wav",65
Sample,44031,0,"0 0 160.wav",78
Sample,44188,0,"bass 4-4 160.wav",65
Sample,44188,0,"x 3 2 160.wav",78
Sample,44345,0,"bass 3-4 160.wav",65
Sample,44345,0,"0 0 2 0 2 Bm7(11) 160.wav",73
Sample,44345,0,"x 0 0 160.wav",78
Sample,44502,0,"0 0 2 0 2 Bm7(11) Mute 160.wav",73
Sample,44660,0,"0 0 2 0 2 Bm7(11) Mute 160.wav",73
Sample,44660,0,"x 3 4 160.wav",78
Sample,44817,0,"bass 3-6 160.wav",65
Sample,44817,0,"0 0 4 2 4 C#m7 480.wav",73
Sample,44817,0,"x 1 2 160.wav",78
Sample,44974,0,"bass 3-6 160.wav",65
Sample,44974,0,"x 0 0 160.wav",78
Sample,45131,0,"bass 4-6 160.wav",65
Sample,45288,0,"bass 3-6 160.wav",65
Sample,45288,0,"0 0 4 2 4 C#m7 160.wav",73
Sample,45288,0,"x x x 0 160.wav",78
Sample,45445,0,"0 0 4 2 4 C#m7 Mute 160.wav",73
Sample,45445,0,"x x x 2 160.wav",78
Sample,45602,0,"0 0 4 2 4 C#m7 Mute 160.wav",73
Sample,45602,0,"x x 0 160.wav",78
Sample,45759,0,"bass 3-6 160.wav",65
Sample,45759,0,"0 0 4 2 4 C#m7 160.wav",73
Sample,45759,0,"x x 2 160.wav",78
Sample,45916,0,"bass 4-6 160.wav",65
Sample,45916,0,"0 0 4 2 4 C#m7 160.wav",73
Sample,45916,0,"x x 0 160.wav",78
Sample,46073,0,"bass 3-6 160.wav",65
Sample,46073,0,"0 0 4 2 4 C#m7 160.wav",73
Sample,46073,0,"x x x 0 160.wav",78
Sample,46230,0,"Crash medium.wav",67
Sample,46230,0,"bass 3-7 480.wav",65
Sample,46230,0,"0 0 6 4 5 Dmaj9(13) 320.wav",73
Sample,46230,0,"x x x x 3 320.wav",78
Sample,46544,0,"0 0 6 4 5 Dmaj9(13) 160.wav",73
Sample,46544,0,"x x 0 160.wav",78
Sample,46701,0,"bass 3-7 160.wav",65
Sample,46701,0,"0 0 6 4 5 Dmaj9(13) 160.wav",73
Sample,46701,0,"x x 12 160.wav",78
Sample,46859,0,"bass 3-7 160.wav",65
Sample,46859,0,"0 0 6 4 5 Dmaj9(13) 160.wav",73
Sample,46859,0,"15 160.wav",78
Sample,47016,0,"bass 3-7 160.wav",65
Sample,47016,0,"0 0 6 4 5 Dmaj9(13) 160.wav",73
Sample,47016,0,"14 160.wav",78
Sample,47173,0,"bass 3-7 160.wav",65
Sample,47173,0,"0 0 6 4 5 Dmaj9(13) 160.wav",73
Sample,47173,0,"x x 0 160.wav",78
Sample,47330,0,"bass 3-7 160.wav",65
Sample,47330,0,"0 0 6 4 5 Dmaj9(13) 160.wav",73
Sample,47330,0,"x x 11 160.wav",78
Sample,47487,0,"bass 3-7 160.wav",65
Sample,47487,0,"0 0 6 4 5 Dmaj9(13) 160.wav",73
Sample,47487,0,"14 160.wav",78
Sample,47644,0,"bass 3-7 160.wav",65
Sample,47644,0,"0 0 6 4 5 Dmaj9(13) 160.wav",73
Sample,47644,0,"12 160.wav",78
Sample,47801,0,"bass 3-7 160.wav",65
Sample,47801,0,"0 0 6 4 5 Dmaj9(13) 160.wav",73
Sample,47801,0,"x x 0 160.wav",78
Sample,47958,0,"bass 3-7 160.wav",65
Sample,47958,0,"0 0 6 4 5 Dmaj9(13) 160.wav",73
Sample,47958,0,"x x 9 160.wav",78
Sample,48115,0,"bass 3-7 160.wav",65
Sample,48115,0,"0 0 6 4 5 Dmaj9(13) 160.wav",73
Sample,48115,0,"12 160.wav",78
Sample,48272,0,"bass 3-7 160.wav",65
Sample,48272,0,"0 0 6 4 5 Dmaj9(13) 160.wav",73
Sample,48272,0,"10 160.wav",78
Sample,48429,0,"bass 3-7 160.wav",65
Sample,48429,0,"0 0 6 4 5 Dmaj9(13) 160.wav",73
Sample,48429,0,"x x 7 480.wav",78
Sample,48586,0,"bass 3-7 320.wav",65
Sample,48586,0,"0 0 6 4 5 Dmaj9(13) 160.wav",73
Sample,48743,0,"0 0 6 4 5 Dmaj9(13) 160.wav",73
Sample,48900,0,"0 0 2 0 2 Bm7(11) 480.wav",73
Sample,48900,0,"3 3 160.wav",78
Sample,49057,0,"bass 3-4 160.wav",65
Sample,49057,0,"0 0 160.wav",78
Sample,49215,0,"bass 4-4 160.wav",65
Sample,49215,0,"x 3 2 160.wav",78
Sample,49372,0,"bass 3-4 160.wav",65
Sample,49372,0,"0 0 2 0 2 Bm7(11) 160.wav",73
Sample,49372,0,"x 0 0 160.wav",78
Sample,49529,0,"0 0 2 0 2 Bm7(11) Mute 160.wav",73
Sample,49686,0,"0 0 2 0 2 Bm7(11) Mute 160.wav",73
Sample,49686,0,"x 3 4 160.wav",78
Sample,49843,0,"bass 3-6 160.wav",65
Sample,49843,0,"0 0 4 2 4 C#m7 480.wav",73
Sample,49843,0,"x 1 2 160.wav",78
Sample,50000,0,"bass 3-6 160.wav",65
Sample,50000,0,"x 0 0 160.wav",78
Sample,50157,0,"bass 4-6 160.wav",65
Sample,50314,0,"bass 3-6 160.wav",65
Sample,50314,0,"0 0 4 2 4 C#m7 160.wav",73
Sample,50314,0,"x x x 0 160.wav",78
Sample,50471,0,"0 0 4 2 4 C#m7 Mute 160.wav",73
Sample,50471,0,"x x x 2 160.wav",78
Sample,50628,0,"0 0 4 2 4 C#m7 Mute 160.wav",73
Sample,50628,0,"x x 0 160.wav",78
Sample,50785,0,"bass 3-6 160.wav",65
Sample,50785,0,"0 0 4 2 4 C#m7 160.wav",73
Sample,50785,0,"x x 2 160.wav",78
Sample,50942,0,"bass 4-6 160.wav",65
Sample,50942,0,"0 0 4 2 4 C#m7 160.wav",73
Sample,50942,0,"x x 0 160.wav",78
Sample,51099,0,"bass 3-6 160.wav",65
Sample,51099,0,"0 0 4 2 4 C#m7 160.wav",73
Sample,51099,0,"x x 2 160.wav",78
Sample,51256,0,"Crash medium.wav",67
Sample,51256,0,"bass 3-7 480.wav",65
Sample,51256,0,"0 0 6 4 5 Dmaj9(13) 320.wav",73
Sample,51256,0,"x x 4 320.wav",78
Sample,51571,0,"0 0 6 4 5 Dmaj9(13) 160.wav",73
Sample,51571,0,"x 5 4 160.wav",78
Sample,51728,0,"bass 2-9 160.wav",65
Sample,51728,0,"0 0 6 4 5 Dmaj9(13) 160.wav",73
Sample,51728,0,"x 3 2 160.wav",78
Sample,51885,0,"bass 2-9 160.wav",65
Sample,51885,0,"0 0 6 4 5 Dmaj9(13) 160.wav",73
Sample,51885,0,"x 0 0 160.wav",78
Sample,52042,0,"bass 1-9 160.wav",65
Sample,52042,0,"0 0 6 4 5 Dmaj9(13) 160.wav",73
Sample,52042,0,"x x 2 160.wav",78
Sample,52199,0,"bass 1-9 160.wav",65
Sample,52199,0,"0 0 6 4 5 Dmaj9(13) 160.wav",73
Sample,52199,0,"x x 0 160.wav",78
Sample,52356,0,"bass 1-8 160.wav",65
Sample,52356,0,"0 0 6 4 5 Dmaj9(13) 160.wav",73
Sample,52356,0,"x x 4 160.wav",78
Sample,52513,0,"bass 1-8 160.wav",65
Sample,52513,0,"0 0 6 4 5 Dmaj9(13) 160.wav",73
Sample,52513,0,"x x 0 160.wav",78
Sample,52670,0,"bass 2-9 160.wav",65
Sample,52670,0,"0 0 6 4 5 Dmaj9(13) 160.wav",73
Sample,52670,0,"x x 2 160.wav",78
Sample,52827,0,"bass 2-9 160.wav",65
Sample,52827,0,"0 0 6 4 5 Dmaj9(13) 160.wav",73
Sample,52827,0,"x x 0 160.wav",78
Sample,52984,0,"bass 3-9 160.wav",65
Sample,52984,0,"0 0 6 4 5 Dmaj9(13) 160.wav",73
Sample,52984,0,"x x x 4 160.wav",78
Sample,53141,0,"bass 3-9 160.wav",65
Sample,53141,0,"0 0 6 4 5 Dmaj9(13) 160.wav",73
Sample,53141,0,"x x x 0 160.wav",78
Sample,53298,0,"bass 3-7 160.wav",65
Sample,53298,0,"0 0 6 4 5 Dmaj9(13) 160.wav",73
Sample,53298,0,"x x x 2 160.wav",78
Sample,53455,0,"bass 3-7 160.wav",65
Sample,53455,0,"0 0 6 4 5 Dmaj9(13) 160.wav",73
Sample,53455,0,"x x x 0 480.wav",78
Sample,53612,0,"bass 3-6 320.wav",65
Sample,53612,0,"0 0 6 4 5 Dmaj9(13) 160.wav",73
Sample,53769,0,"0 0 6 4 5 Dmaj9(13) 160.wav",73
Sample,53927,0,"bass 3-4 160.wav",65
Sample,53927,0,"0 0 2 0 2 Bm7(11) 480.wav",73
Sample,53927,0,"3 3 160.wav",78
Sample,54084,0,"bass 3-4 160.wav",65
Sample,54084,0,"0 0 160.wav",78
Sample,54241,0,"bass 4-4 160.wav",65
Sample,54241,0,"x 3 2 160.wav",78
Sample,54398,0,"bass 3-4 160.wav",65
Sample,54398,0,"0 0 2 0 2 Bm7(11) 160.wav",73
Sample,54398,0,"x 0 0 160.wav",78
Sample,54555,0,"0 0 2 0 2 Bm7(11) Mute 160.wav",73
Sample,54712,0,"0 0 2 0 2 Bm7(11) Mute 160.wav",73
Sample,54712,0,"x 3 4 160.wav",78
Sample,54869,0,"bass 3-6 160.wav",65
Sample,54869,0,"0 0 4 2 4 C#m7 480.wav",73
Sample,54869,0,"x 1 2 160.wav",78
Sample,55026,0,"bass 3-6 160.wav",65
Sample,55026,0,"x 0 0 160.wav",78
Sample,55183,0,"bass 4-6 160.wav",65
Sample,55340,0,"bass 3-6 160.wav",65
Sample,55340,0,"0 0 4 2 4 C#m7 160.wav",73
Sample,55340,0,"x x x 0 160.wav",78
Sample,55497,0,"0 0 4 2 4 C#m7 Mute 160.wav",73
Sample,55497,0,"x x x 2 160.wav",78
Sample,55654,0,"0 0 4 2 4 C#m7 Mute 160.wav",73
Sample,55654,0,"x x 0 160.wav",78
Sample,55811,0,"bass 3-6 160.wav",65
Sample,55811,0,"0 0 4 2 4 C#m7 160.wav",73
Sample,55811,0,"x x 2 160.wav",78
Sample,55968,0,"bass 4-6 160.wav",65
Sample,55968,0,"0 0 4 2 4 C#m7 160.wav",73
Sample,55968,0,"x x 0 160.wav",78
Sample,56126,0,"bass 3-6 160.wav",65
Sample,56126,0,"0 0 4 2 4 C#m7 160.wav",73
Sample,56126,0,"x x x 0 160.wav",78
Sample,56283,0,"Crash medium.wav",67
Sample,56283,0,"bass 3-7 320.wav",65
Sample,56283,0,"0 0 6 4 5 Dmaj9(13) 320.wav",73
Sample,56283,0,"x x x x 3 320.wav",78
Sample,56597,0,"bass 4-0 160.wav",65
Sample,56597,0,"0 0 6 4 5 Dmaj9(13) 160.wav",73
Sample,56597,0,"x x 0 160.wav",78
Sample,56754,0,"bass 3-7 160.wav",65
Sample,56754,0,"0 0 6 4 5 Dmaj9(13) 160.wav",73
Sample,56754,0,"x x 12 160.wav",78
Sample,56911,0,"bass 3-7 160.wav",65
Sample,56911,0,"0 0 6 4 5 Dmaj9(13) 160.wav",73
Sample,56911,0,"15 160.wav",78
Sample,57068,0,"bass 3-7 160.wav",65
Sample,57068,0,"0 0 6 4 5 Dmaj9(13) 160.wav",73
Sample,57068,0,"14 160.wav",78
Sample,57225,0,"bass 4-0 160.wav",65
Sample,57225,0,"0 0 6 4 5 Dmaj9(13) 160.wav",73
Sample,57225,0,"x x 0 160.wav",78
Sample,57382,0,"bass 3-7 160.wav",65
Sample,57382,0,"0 0 6 4 5 Dmaj9(13) 160.wav",73
Sample,57382,0,"x x 11 160.wav",78
Sample,57539,0,"bass 3-7 160.wav",65
Sample,57539,0,"0 0 6 4 5 Dmaj9(13) 160.wav",73
Sample,57539,0,"14 160.wav",78
Sample,57696,0,"bass 3-7 160.wav",65
Sample,57696,0,"0 0 6 4 5 Dmaj9(13) 160.wav",73
Sample,57696,0,"12 160.wav",78
Sample,57853,0,"bass 4-0 160.wav",65
Sample,57853,0,"0 0 6 4 5 Dmaj9(13) 160.wav",73
Sample,57853,0,"x x 0 160.wav",78
Sample,58010,0,"bass 3-7 160.wav",65
Sample,58010,0,"0 0 6 4 5 Dmaj9(13) 160.wav",73
Sample,58010,0,"x x 9 160.wav",78
Sample,58167,0,"0 0 6 4 5 Dmaj9(13) 160.wav",73
Sample,58167,0,"12 160.wav",78
Sample,58246,0,"Snare.wav",57
Sample,58324,0,"bass 3-7 160.wav",65
Sample,58324,0,"0 0 6 4 5 Dmaj9(13) 160.wav",73
Sample,58324,0,"10 160.wav",78
Sample,58482,0,"0 0 6 4 5 Dmaj9(13) 160.wav",73
Sample,58482,0,"x x 7 480.wav",78
Sample,58639,0,"bass 3-9 160.wav",65
Sample,58639,0,"0 0 6 4 5 Dmaj9(13) 160.wav",73
Sample,58796,0,"0 0 6 4 5 Dmaj9(13) 160.wav",73
Sample,58953,0,"bass 3-11 1280.wav",65
Sample,58953,0,"Arp. x x 2 2 x 2 F#m7(11) 640.wav",73
Sample,58953,0,"x x 0 2 2 0 640.wav",78
Sample,59267,0,"Hi-Hat open.wav",66
Sample,59581,0,"Arp. 0 0 640.wav",73
Sample,59581,0,"0 0 640.wav",78
Sample,59895,0,"Hi-Hat open.wav",66
Sample,60209,0,"Hi-Hat open.wav",66
Sample,60209,0,"bass 3-9 320.wav",65
Sample,60209,0,"Arp. x x 2 2 x 0 Esus4 640.wav",73
Sample,60209,0,"x 3 2 0 1280.wav",78
Sample,60523,0,"Hi-Hat open.wav",66
Sample,60523,0,"bass 2-9 160.wav",65
Sample,60680,0,"bass 2-11 160.wav",65
Sample,60838,0,"bass 3-9 320.wav",65
Sample,60838,0,"Arp. 0 0 640.wav",73
Sample,61152,0,"Hi-Hat open.wav",66
Sample,61152,0,"bass 2-11 320.wav",65
Sample,61466,0,"bass 3-0 960.wav",65
Sample,61466,0,"x 2 2 2 x 3 Arpeggio down A-G 1920.wav",73
Sample,61466,0,"x 12 12 12 N.H. 1920.wav",78
Sample,63351,0,"x 3 0 2 x 0 Em7 160.wav",73
Sample,63351,0,"x 5 5 5 5 160.wav",78
Sample,63508,0,"bass 4-2 160.wav",65
Sample,63508,0,"x 3 0 2 x 0 Em7 160.wav",73
Sample,63508,0,"x 5 5 5 5 160.wav",78
Sample,63665,0,"Hi-Hat close.wav",58
Sample,63822,0,"3 3 0 0 x 3 80.wav",78
Sample,63900,0,"3 3 0 0 x 3 80.wav",78
Sample,63979,0,"bass 3-2 320.wav",65
Sample,63979,0,"0 2 2 2 0 A 320.wav",73
Sample,63979,0,"3 3 0 0 x 3 160.wav",78
Sample,64136,0,"3 3 0 0 x 3 160.wav",78
Sample,64293,0,"bass 3-2 160.wav",65
Sample,64293,0,"0 2 2 2 0 A 160.wav",73
Sample,64293,0,"3 3 0 0 x 3 160.wav",78
Sample,64450,0,"bass 3-2 160.wav",65
Sample,64450,0,"0 2 2 2 0 A 320.wav",73
Sample,64450,0,"3 3 0 0 x 3 160.wav",78
Sample,64607,0,"Hi-Hat open.wav",66
Sample,64607,0,"bass 3-2 160.wav",65
Sample,64607,0,"3 3 0 0 x 3 160.wav",78
Sample,64764,0,"bass 3-2 160.wav",65
Sample,64764,0,"0 2 2 2 0 A 160.wav",73
Sample,64764,0,"3 3 0 0 x 3 160.wav",78
Sample,64921,0,"bass 3-2 160.wav",65
Sample,64921,0,"0 2 2 2 0 A 160.wav",73
Sample,64921,0,"3 3 0 0 x 3 160.wav",78
Sample,65078,0,"bass 3-2 160.wav",65
Sample,65078,0,"0 2 2 2 0 A 160.wav",73
Sample,65078,0,"3 3 0 0 x 3 160.wav",78
Sample,65235,0,"Hi-Hat open.wav",66
Sample,65235,0,"bass 3-6 320.wav",65
Sample,65235,0,"x 5 4 x 4 C#m7 320.wav",73
Sample,65235,0,"x x 4 x 2 160.wav",78
Sample,65393,0,"x x 4 x 2 160.wav",78
Sample,65550,0,"bass 3-6 160.wav",65
Sample,65550,0,"x 5 4 x 4 C#m7 160.wav",73
Sample,65550,0,"x x 4 x 2 160.wav",78
Sample,65707,0,"bass 3-6 160.wav",65
Sample,65707,0,"x 5 4 x 4 C#m7 320.wav",73
Sample,65707,0,"x x 4 x 2 160.wav",78
Sample,65864,0,"Hi-Hat open.wav",66
Sample,65864,0,"bass 3-6 160.wav",65
Sample,65864,0,"x x 7 x 5 160.wav",78
Sample,66021,0,"bass 3-6 160.wav",65
Sample,66021,0,"x 5 4 x 4 C#m7 160.wav",73
Sample,66021,0,"x x 7 x 5 160.wav",78
Sample,66178,0,"bass 3-6 160.wav",65
Sample,66178,0,"x 5 4 x 4 C#m7 160.wav",73
Sample,66178,0,"x x 7 x 5 320.wav",78
Sample,66335,0,"bass 3-6 160.wav",65
Sample,66335,0,"x 5 4 x 4 C#m7 160.wav",73
Sample,66492,0,"Hi-Hat open.wav",66
Sample,66492,0,"bass 3-8 320.wav",65
Sample,66492,0,"x 7 6 7 6 D#m7b5 320.wav",73
Sample,66492,0,"x x 12 x 10 160.wav",78
Sample,66649,0,"x x 12 x 10 160.wav",78
Sample,66806,0,"bass 3-8 160.wav",65
Sample,66806,0,"x 7 6 7 6 D#m7b5 160.wav",73
Sample,66806,0,"x x 12 x 10 160.wav",78
Sample,66963,0,"bass 3-8 160.wav",65
Sample,66963,0,"x 7 6 7 6 D#m7b5 320.wav",73
Sample,66963,0,"x x 12 x 10 160.wav",78
Sample,67120,0,"Hi-Hat open.wav",66
Sample,67120,0,"bass 3-8 160.wav",65
Sample,67120,0,"x x 12 x 10 160.wav",78
Sample,67277,0,"bass 2-9 160.wav",65
Sample,67277,0,"x 7 6 7 6 D#m7b5 160.wav",73
Sample,67277,0,"x x 12 x 10 160.wav",78
Sample,67434,0,"bass 3-8 160.wav",65
Sample,67434,0,"x 7 6 7 6 D#m7b5 160.wav",73
Sample,67434,0,"x x 12 x 10 320.wav",78
Sample,67591,0,"bass 3-8 160.wav",65
Sample,67591,0,"x 7 6 7 6 D#m7b5 160.wav",73
Sample,67749,0,"Hi-Hat open.wav",66
Sample,67749,0,"bass 3-7 160.wav",65
Sample,67749,0,"x 7 6 7 5 Dmaj7 320.wav",73
Sample,67749,0,"x x 16 x 14 160.wav",78
Sample,67906,0,"bass 3-7 160.wav",65
Sample,67906,0,"x x 16 x 14 160.wav",78
Sample,68063,0,"bass 3-7 160.wav",65
Sample,68063,0,"x 7 6 7 5 Dmaj7 160.wav",73
Sample,68063,0,"x x 16 x 14 160.wav",78
Sample,68220,0,"bass 3-7 160.wav",65
Sample,68220,0,"x 7 6 7 5 Dmaj7 320.wav",73
Sample,68220,0,"x x 16 x 14 160.wav",78
Sample,68377,0,"Hi-Hat open.wav",66
Sample,68377,0,"bass 3-7 160.wav",65
Sample,68377,0,"x x 14 x 12 160.wav",78
Sample,68534,0,"bass 4-7 160.wav",65
Sample,68534,0,"x 7 6 7 5 Dmaj7 160.wav",73
Sample,68534,0,"x x 14 x 12 160.wav",78
Sample,68691,0,"bass 4-7 160.wav",65
Sample,68691,0,"x 7 6 7 5 Dmaj7 160.wav",73
Sample,68691,0,"x x 14 x 12 160.wav",78
Sample,68848,0,"bass 3-7 160.wav",65
Sample,68848,0,"x 7 6 7 5 Dmaj7 160.wav",73
Sample,68848,0,"x x 14 x 12 160.wav",78
Sample,69005,0,"bass 3-6 320.wav",65
Sample,69005,0,"x 5 4 x 4 C#m7 320.wav",73
Sample,69005,0,"x 15 x 12 160.wav",78
Sample,69162,0,"x 15 x 12 160.wav",78
Sample,69319,0,"bass 3-6 160.wav",65
Sample,69319,0,"x 5 4 x 4 C#m7 160.wav",73
Sample,69319,0,"x 15 x 12 160.wav",78
Sample,69476,0,"bass 3-6 160.wav",65
Sample,69476,0,"x 5 4 x 4 C#m7 320.wav",73
Sample,69476,0,"x 15 x 12 160.wav",78
Sample,69633,0,"Hi-Hat open.wav",66
Sample,69633,0,"bass 3-6 160.wav",65
Sample,69633,0,"x 15 x 12 160.wav",78
Sample,69790,0,"bass 3-6 160.wav",65
Sample,69790,0,"x 5 4 x 4 C#m7 160.wav",73
Sample,69790,0,"x 15 x 12 160.wav",78
Sample,69948,0,"bass 3-6 320.wav",65
Sample,69948,0,"x 5 4 x 4 C#m7 160.wav",73
Sample,69948,0,"x 15 x 12 160.wav",78
Sample,70105,0,"x 5 4 x 4 C#m7 160.wav",73
Sample,70105,0,"x 15 x 12 160.wav",78
Sample,70262,0,"Hi-Hat open.wav",66
Sample,70262,0,"bass 4-3 320.wav",65
Sample,70262,0,"x 3 1 3 x 1 Ddim-F 320.wav",73
Sample,70262,0,"x 16 x 13 160.wav",78
Sample,70419,0,"x 16 x 13 160.wav",78
Sample,70576,0,"bass 4-3 160.wav",65
Sample,70576,0,"x 3 1 3 x 1 Ddim-F 160.wav",73
Sample,70576,0,"x 16 x 13 320.wav",78
Sample,70733,0,"bass 4-3 160.wav",65
Sample,70733,0,"x 3 1 3 x 1 Ddim-F 320.wav",73
Sample,70890,0,"Hi-Hat open.wav",66
Sample,70890,0,"bass 4-3 160.wav",65
Sample,70890,0,"x 12 x 9 160.wav",78
Sample,71047,0,"bass 4-3 160.wav",65
Sample,71047,0,"x 3 1 3 x 1 Ddim-F 160.wav",73
Sample,71047,0,"x 12 x 9 160.wav",78
Sample,71204,0,"bass 4-3 160.wav",65
Sample,71204,0,"x 3 1 3 x 1 Ddim-F 160.wav",73
Sample,71204,0,"x 12 x 9 320.wav",78
Sample,71361,0,"bass 4-3 160.wav",65
Sample,71361,0,"x 3 1 3 x 1 Ddim-F 160.wav",73
Sample,71518,0,"Hi-Hat open.wav",66
Sample,71518,0,"bass 4-4 160.wav",65
Sample,71518,0,"0 0 2 2 x 2 F#m7(11) 320.wav",73
Sample,71518,0,"x 3 160.wav",78
Sample,71675,0,"bass 4-4 160.wav",65
Sample,71675,0,"x x 4 80.wav",78
Sample,71754,0,"x x 2 80.wav",78
Sample,71832,0,"bass 4-4 160.wav",65
Sample,71832,0,"0 0 2 2 x 2 F#m7(11) 160.wav",73
Sample,71832,0,"x x 0 160.wav",78
Sample,71989,0,"bass 4-4 160.wav",65
Sample,71989,0,"0 0 2 2 x 2 F#m7(11) 320.wav",73
Sample,71989,0,"x x x 0 160.wav",78
Sample,72146,0,"Hi-Hat open.wav",66
Sample,72146,0,"bass 4-4 160.wav",65
Sample,72146,0,"x x x 2 160.wav",78
Sample,72304,0,"bass 4-11 160.wav",65
Sample,72304,0,"0 0 2 2 x 2 F#m7(11) 160.wav",73
Sample,72304,0,"x x 0 160.wav",78
Sample,72461,0,"bass 3-11 160.wav",65
Sample,72461,0,"0 0 2 2 x 2 F#m7(11) 160.wav",73
Sample,72461,0,"x x 2 160.wav",78
Sample,72618,0,"bass 4-11 160.wav",65
Sample,72618,0,"0 0 2 2 x 2 F#m7(11) 160.wav",73
Sample,72618,0,"x x 0 160.wav",78
Sample,72775,0,"Hi-Hat open.wav",66
Sample,72775,0,"bass 3-9 160.wav",65
Sample,72775,0,"x 3 0 2 x 0 Em7 160.wav",73
Sample,72775,0,"x 3 4 160.wav",78
Sample,72932,0,"bass 3-9 160.wav",65
Sample,72932,0,"x 3 0 2 x 0 Em7 160.wav",73
Sample,72932,0,"x 0 0 160.wav",78
Sample,73089,0,"bass 3-9 160.wav",65
Sample,73089,0,"x 3 0 2 x 0 Em7 160.wav",73
Sample,73089,0,"x 1 2 160.wav",78
Sample,73246,0,"bass 3-9 160.wav",65
Sample,73246,0,"x 3 0 2 x 0 Em7 160.wav",73
Sample,73246,0,"x 0 0 320.wav",78
Sample,73403,0,"Hi-Hat open.wav",66
Sample,73403,0,"bass 2-9 160.wav",65
Sample,73403,0,"0 2 0 2 0 A7 160.wav",73
Sample,73560,0,"bass 2-9 160.wav",65
Sample,73560,0,"0 2 0 2 0 A7 160.wav",73
Sample,73560,0,"3 3 4 480.wav",78
Sample,73717,0,"Kick.wav",67
Sample,73717,0,"bass 2-9 320.wav",65
Sample,73717,0,"0 2 0 2 0 A7 160.wav",73
Sample,73796,0,"Snare.wav",57
Sample,73874,0,"0 2 0 2 0 A7 160.wav",73
Sample,74031,0,"bass 3-7 320.wav",65
Sample,74031,0,"x 7 6 7 5 Dmaj7 320.wav",73
Sample,74031,0,"x 12 12 Mute 160.wav",78
Sample,74188,0,"x 12 12 160.wav",78
Sample,74345,0,"x 7 6 7 5 Dmaj7 160.wav",73
Sample,74345,0,"x 13 14 160.wav",78
Sample,74502,0,"Ride.wav",67
Sample,74502,0,"x 7 6 7 5 Dmaj7 320.wav",73
Sample,74502,0,"x 15 16 160.wav",78
Sample,74660,0,"bass 4-0 160.wav",65
Sample,74660,0,"x 13 14 160.wav",78
Sample,74817,0,"Ride.wav",67
Sample,74817,0,"bass 4-0 160.wav",65
Sample,74817,0,"x 7 6 7 5 Dmaj7 160.wav",73
Sample,74817,0,"x 12 12 160.wav",78
Sample,74974,0,"x 7 6 7 5 Dmaj7 160.wav",73
Sample,74974,0,"x x 12 14 160.wav",78
Sample,75131,0,"Ride.wav",67
Sample,75131,0,"bass 4-0 160.wav",65
Sample,75131,0,"x 7 6 7 5 Dmaj7 160.wav",73
Sample,75131,0,"x 12 12 160.wav",78
Sample,75288,0,"bass 4-0 160.wav",65
Sample,75288,0,"x 6 5 7 5 Dm7 320.wav",73
Sample,75288,0,"x 12 12 Mute 160.wav",78
Sample,75445,0,"Ride.wav",67
Sample,75445,0,"bass 4-0 160.wav",65
Sample,75445,0,"x 12 12 160.wav",78
Sample,75602,0,"x 6 5 7 5 Dm7 160.wav",73
Sample,75602,0,"x 13 14 160.wav",78
Sample,75759,0,"Ride.wav",67
Sample,75759,0,"bass 3-7 320.wav",65
Sample,75759,0,"x 6 5 7 5 Dm7 320.wav",73
Sample,75759,0,"x 12 12 160.wav",78
Sample,75916,0,"x 13 14 160.wav",78
Sample,76073,0,"Ride.wav",67
Sample,76073,0,"bass 3-7 160.wav",65
Sample,76073,0,"x 6 5 7 5 Dm7 160.wav",73
Sample,76073,0,"x 12 12 160.wav",78
Sample,76230,0,"x 6 5 7 5 Dm7 160.wav",73
Sample,76230,0,"x 12 12 Mute 160.wav",78
Sample,76387,0,"Ride.wav",67
Sample,76387,0,"bass 4-7 160.wav",65
Sample,76387,0,"x 6 5 7 5 Dm7 160.wav",73
Sample,76387,0,"x 12 12 160.wav",78
Sample,76544,0,"bass 3-6 320.wav",65
Sample,76544,0,"x 5 4 x 4 C#m7 320.wav",73
Sample,76544,0,"x 12 12 Mute 160.wav",78
Sample,76701,0,"Ride.wav",67
Sample,76701,0,"x 12 12 160.wav",78
Sample,76859,0,"x 5 4 x 4 C#m7 160.wav",73
Sample,76859,0,"x 13 14 160.wav",78
Sample,77016,0,"Ride.wav",67
Sample,77016,0,"bass 3-6 160.wav",65
Sample,77016,0,"x 5 4 x 4 C#m7 320.wav",73
Sample,77016,0,"x 15 16 160.wav",78
Sample,77173,0,"bass 3-6 160.wav",65
Sample,77173,0,"x 13 14 160.wav",78
Sample,77330,0,"Ride.wav",67
Sample,77330,0,"bass 3-6 160.wav",65
Sample,77330,0,"x 5 4 x 4 C#m7 160.wav",73
Sample,77330,0,"x 12 12 160.wav",78
Sample,77487,0,"x 5 4 x 4 C#m7 160.wav",73
Sample,77487,0,"x x 12 14 160.wav",78
Sample,77644,0,"Ride.wav",67
Sample,77644,0,"bass 3-6 160.wav",65
Sample,77644,0,"x 5 4 x 4 C#m7 160.wav",73
Sample,77644,0,"x 12 12 160.wav",78
Sample,77801,0,"bass 3-5 160.wav",65
Sample,77801,0,"x 4 2 4 3 Cdim7 320.wav",73
Sample,77801,0,"x 12 12 Mute 160.wav",78
Sample,77958,0,"Ride.wav",67
Sample,77958,0,"bass 3-5 160.wav",65
Sample,77958,0,"x 12 12 160.wav",78
Sample,78115,0,"x 4 2 4 3 Cdim7 160.wav",73
Sample,78115,0,"x 13 14 160.wav",78
Sample,78272,0,"Ride.wav",67
Sample,78272,0,"bass 2-6 320.wav",65
Sample,78272,0,"x 4 2 4 3 Cdim7 320.wav",73
Sample,78272,0,"x 12 12 160.wav",78
Sample,78429,0,"x 13 14 160.wav",78
Sample,78586,0,"Ride.wav",67
Sample,78586,0,"bass 3-8 160.wav",65
Sample,78586,0,"x 4 2 4 3 Cdim7 160.wav",73
Sample,78586,0,"x 12 12 160.wav",78
Sample,78743,0,"bass 3-5 160.wav",65
Sample,78743,0,"x 4 2 4 3 Cdim7 160.wav",73
Sample,78743,0,"x x x 7 x 5 Mute 160.wav",78
Sample,78900,0,"bass 3-5 160.wav",65
Sample,78900,0,"x 4 2 4 3 Cdim7 160.wav",73
Sample,78900,0,"x x x 7 x 5 80.wav",78
Sample,79057,0,"Crash high.wav",67
Sample,79057,0,"bass 3-4 320.wav",65
Sample,79057,0,"x 3 2 x 2 Bm7 320.wav",73
Sample,79057,0,"x x x 7 x 5 160.wav",78
Sample,79215,0,"x x x 7 x 5 160.wav",78
Sample,79372,0,"bass 3-4 160.wav",65
Sample,79372,0,"x 3 2 x 2 Bm7 160.wav",73
Sample,79372,0,"x x x 7 x 5 160.wav",78
Sample,79529,0,"bass 3-4 160.wav",65
Sample,79529,0,"x 3 2 x 2 Bm7 160.wav",73
Sample,79529,0,"x x x 7 x 5 160.wav",78
Sample,79686,0,"bass 4-4 160.wav",65
Sample,79686,0,"x 3 2 x 2 Bm7 160.wav",73
Sample,79686,0,"x x x 10 x 8 160.wav",78
Sample,79843,0,"bass 4-4 160.wav",65
Sample,79843,0,"x 3 2 x 2 Bm7 160.wav",73
Sample,79843,0,"x x x 10 x 8 160.wav",78
Sample,80000,0,"bass 3-2 160.wav",65
Sample,80000,0,"x 3 2 x 2 Bm7 160.wav",73
Sample,80000,0,"x x x 10 x 8 160.wav",78
Sample,80157,0,"bass 3-4 160.wav",65
Sample,80157,0,"x 3 2 x 2 Bm7 160.wav",73
Sample,80157,0,"x x x 10 x 8 160.wav",78
Sample,80314,0,"bass 3-6 160.wav",65
Sample,80314,0,"x 5 4 x 4 C#m7 320.wav",73
Sample,80314,0,"x x x 12 x 10 160.wav",78
Sample,80471,0,"bass 3-6 160.wav",65
Sample,80471,0,"x x x 12 x 10 160.wav",78
Sample,80628,0,"bass 3-6 160.wav",65
Sample,80628,0,"x 5 4 x 4 C#m7 160.wav",73
Sample,80628,0,"x x x 12 x 10 160.wav",78
Sample,80785,0,"bass 3-6 160.wav",65
Sample,80785,0,"x 5 4 x 4 C#m7 160.wav",73
Sample,80785,0,"x x x 12 x 10 160.wav",78
Sample,80942,0,"bass 4-6 160.wav",65
Sample,80942,0,"x 5 4 x 4 C#m7 160.wav",73
Sample,80942,0,"x x x 9 x 7 160.wav",78
Sample,81099,0,"bass 4-6 160.wav",65
Sample,81099,0,"x 5 4 x 4 C#m7 160.wav",73
Sample,81099,0,"x x x 9 x 7 160.wav",78
Sample,81256,0,"bass 3-4 160.wav",65
Sample,81256,0,"x 5 4 x 4 C#m7 160.wav",73
Sample,81256,0,"x x x 9 x 7 160.wav",78
Sample,81413,0,"bass 3-6 160.wav",65
Sample,81413,0,"x 5 4 x 4 C#m7 160.wav",73
Sample,81413,0,"x x x 9 x 7 160.wav",78
Sample,81571,0,"bass 4-0 320.wav",65
Sample,81571,0,"1 1 2 3 3 1 F 320.wav",73
Sample,81571,0,"x 4 6 bend full 320.wav",78
Sample,81885,0,"bass 4-12 160.wav",65
Sample,81885,0,"1 1 2 3 3 1 F 160.wav",73
Sample,81885,0,"x 4 6 bend full 320.wav",78
Sample,82042,0,"bass 4-12 160.wav",65
Sample,82042,0,"1 1 2 3 3 1 F 160.wav",73
Sample,82199,0,"bass 4-10 160.wav",65
Sample,82199,0,"1 1 2 3 3 1 F 160.wav",73
Sample,82199,0,"x 4 6 bend full 320.wav",78
Sample,82356,0,"bass 4-10 160.wav",65
Sample,82356,0,"1 1 2 3 3 1 F 160.wav",73
Sample,82513,0,"bass 3-10 160.wav",65
Sample,82513,0,"1 1 2 3 3 1 F 160.wav",73
Sample,82513,0,"x 4 6 bend full 320.wav",78
Sample,82670,0,"bass 3-10 160.wav",65
Sample,82670,0,"1 1 2 3 3 1 F 160.wav",73
Sample,82827,0,"bass 3-9 160.wav",65
Sample,82827,0,"0 0 1 2 2 0 E 320.wav",73
Sample,82827,0,"x 3 5 bend full 320.wav",78
Sample,82984,0,"bass 3-9 160.wav",65
Sample,83141,0,"bass 3-9 160.wav",65
Sample,83141,0,"0 0 1 2 2 0 E 160.wav",73
Sample,83141,0,"x 3 5 bend full 320.wav",78
Sample,83298,0,"bass 3-12 160.wav",65
Sample,83298,0,"0 0 1 2 2 0 E 160.wav",73
Sample,83455,0,"bass 2-11 160.wav",65
Sample,83455,0,"0 0 1 2 2 0 E 160.wav",73
Sample,83455,0,"x 3 5 bend full 320.wav",78
Sample,83534,0,"Snare.wav",57
Sample,83612,0,"bass 1-11 160.wav",65
Sample,83612,0,"0 0 1 2 2 0 E 160.wav",73
Sample,83769,0,"Kick.wav",67
Sample,83769,0,"bass 2-11 320.wav",65
Sample,83769,0,"0 0 1 2 2 0 E 160.wav",73
Sample,83769,0,"x 3 5 bend full 320.wav",78
Sample,83848,0,"Snare.wav",57
Sample,83927,0,"0 0 1 2 2 0 E 160.wav",73
Sample,84084,0,"bass 3-2 320.wav",65
Sample,84084,0,"0 2 2 2 0 A 320.wav",73
Sample,84084,0,"x 0 0 Mute 160.wav",78
Sample,84241,0,"x 0 0 160.wav",78
Sample,84398,0,"0 2 2 2 0 A 160.wav",73
Sample,84398,0,"x 1 2 160.wav",78
Sample,84555,0,"Hi-Hat open.wav",66
Sample,84555,0,"bass 3-2 160.wav",65
Sample,84555,0,"0 2 2 2 0 A 320.wav",73
Sample,84555,0,"x 3 4 160.wav",78
Sample,84712,0,"Hi-Hat close.wav",58
Sample,84712,0,"bass 3-2 160.wav",65
Sample,84712,0,"x 1 2 160.wav",78
Sample,84869,0,"Hi-Hat open.wav",66
Sample,84869,0,"bass 3-2 160.wav",65
Sample,84869,0,"0 2 2 2 0 A 160.wav",73
Sample,84869,0,"x 0 0 160.wav",78
Sample,85026,0,"bass 3-4 160.wav",65
Sample,85026,0,"0 2 2 2 0 A 160.wav",73
Sample,85026,0,"x x 0 2 160.wav",78
Sample,85183,0,"Hi-Hat open.wav",66
Sample,85183,0,"bass 3-5 160.wav",65
Sample,85183,0,"0 2 2 2 0 A 160.wav",73
Sample,85183,0,"x 0 0 160.wav",78
Sample,85340,0,"Hi-Hat close.wav",58
Sample,85340,0,"bass 3-6 320.wav",65
Sample,85340,0,"x 5 4 x 4 C#m7 320.wav",73
Sample,85340,0,"x 0 0 Mute 160.wav",78
Sample,85497,0,"Hi-Hat open.wav",66
Sample,85497,0,"x 0 0 160.wav",78
Sample,85654,0,"bass 3-6 160.wav",65
Sample,85654,0,"x 5 4 x 4 C#m7 160.wav",73
Sample,85654,0,"x 1 2 160.wav",78
Sample,85811,0,"Hi-Hat open.wav",66
Sample,85811,0,"bass 3-6 160.wav",65
Sample,85811,0,"x 5 4 x 4 C#m7 320.wav",73
Sample,85811,0,"x 0 0 160.wav",78
Sample,85890,0,"Snare.wav",57
Sample,85968,0,"Hi-Hat close.wav",58
Sample,85968,0,"bass 3-6 160.wav",65
Sample,85968,0,"x 1 2 160.wav",78
Sample,86126,0,"Hi-Hat open.wav",66
Sample,86126,0,"bass 3-6 160.wav",65
Sample,86126,0,"x 5 4 x 4 C#m7 160.wav",73
Sample,86126,0,"x 0 0 160.wav",78
Sample,86283,0,"bass 3-6 160.wav",65
Sample,86283,0,"x 5 4 x 4 C#m7 160.wav",73
Sample,86283,0,"x 0 0 Mute 160.wav",78
Sample,86440,0,"Hi-Hat open.wav",66
Sample,86440,0,"bass 3-6 160.wav",65
Sample,86440,0,"x 5 4 x 4 C#m7 160.wav",73
Sample,86440,0,"x 0 0 160.wav",78
Sample,86597,0,"Hi-Hat close.wav",58
Sample,86597,0,"bass 3-6 160.wav",65
Sample,86597,0,"x 7 6 7 6 D#m7b5 320.wav",73
Sample,86597,0,"x 0 0 Mute 160.wav",78
Sample,86754,0,"Hi-Hat open.wav",66
Sample,86754,0,"bass 3-7 160.wav",65
Sample,86754,0,"x 0 0 160.wav",78
Sample,86911,0,"bass 3-7 160.wav",65
Sample,86911,0,"x 7 6 7 6 D#m7b5 160.wav",73
Sample,86911,0,"x 1 2 160.wav",78
Sample,87068,0,"Hi-Hat open.wav",66
Sample,87068,0,"bass 2-9 320.wav",65
Sample,87068,0,"x 7 6 7 6 D#m7b5 320.wav",73
Sample,87068,0,"x 3 4 160.wav",78
Sample,87146,0,"Snare.wav",57
Sample,87225,0,"Hi-Hat close.wav",58
Sample,87225,0,"x 1 2 160.wav",78
Sample,87382,0,"Hi-Hat open.wav",66
Sample,87382,0,"bass 2-9 160.wav",65
Sample,87382,0,"x 7 6 7 6 D#m7b5 160.wav",73
Sample,87382,0,"x 0 0 160.wav",78
Sample,87539,0,"bass 3-8 320.wav",65
Sample,87539,0,"x 7 6 7 6 D#m7b5 160.wav",73
Sample,87539,0,"x x 0 0 160.wav",78
Sample,87696,0,"Hi-Hat open.wav",66
Sample,87696,0,"x 7 6 7 6 D#m7b5 160.wav",73
Sample,87696,0,"x 0 0 160.wav",78
Sample,87853,0,"Hi-Hat close.wav",58
Sample,87853,0,"bass 3-7 320.wav",65
Sample,87853,0,"x 7 6 7 5 Dmaj7 320.wav",73
Sample,87853,0,"x 0 0 Mute 160.wav",78
Sample,88010,0,"Hi-Hat open.wav",66
Sample,88010,0,"x 0 0 160.wav",78
Sample,88167,0,"bass 2-11 160.wav",65
Sample,88167,0,"x 7 6 7 5 Dmaj7 160.wav",73
Sample,88167,0,"x 1 2 160.wav",78
Sample,88324,0,"Hi-Hat open.wav",66
Sample,88324,0,"bass 2-9 320.wav",65
Sample,88324,0,"x 7 6 7 5 Dmaj7 320.wav",73
Sample,88324,0,"x 0 0 160.wav",78
Sample,88403,0,"Snare.wav",57
Sample,88482,0,"Hi-Hat close.wav",58
Sample,88482,0,"x 1 2 160.wav",78
Sample,88639,0,"Hi-Hat open.wav",66
Sample,88639,0,"bass 3-9 160.wav",65
Sample,88639,0,"x 7 6 7 5 Dmaj7 160.wav",73
Sample,88639,0,"x 0 0 160.wav",78
Sample,88796,0,"bass 3-7 320.wav",65
Sample,88796,0,"x 7 6 7 5 Dmaj7 160.wav",73
Sample,88796,0,"x x 4 x 2 Mute 160.wav",78
Sample,88953,0,"x 7 6 7 5 Dmaj7 160.wav",73
Sample,88953,0,"x x 4 x 2 80.wav",78
Sample,89110,0,"bass 3-6 320.wav",65
Sample,89110,0,"x 5 4 x 4 C#m7 320.wav",73
Sample,89110,0,"x x 4 x 2 160.wav",78
Sample,89267,0,"x x 4 x 2 160.wav",78
Sample,89424,0,"x 5 4 x 4 C#m7 160.wav",73
Sample,89424,0,"x x 4 x 2 160.wav",78
Sample,89581,0,"Hi-Hat open.wav",66
Sample,89581,0,"bass 3-6 160.wav",65
Sample,89581,0,"x 5 4 x 4 C#m7 320.wav",73
Sample,89581,0,"x x 4 x 2 160.wav",78
Sample,89738,0,"Hi-Hat close.wav",58
Sample,89738,0,"bass 3-6 160.wav",65
Sample,89738,0,"x x 7 x 5 160.wav",78
Sample,89895,0,"Hi-Hat open.wav",66
Sample,89895,0,"bass 3-6 160.wav",65
Sample,89895,0,"x 5 4 x 4 C#m7 160.wav",73
Sample,89895,0,"x x 7 x 5 160.wav",78
Sample,90052,0,"bass 3-8 160.wav",65
Sample,90052,0,"x 5 4 x 4 C#m7 160.wav",73
Sample,90052,0,"x x 7 x 5 160.wav",78
Sample,90209,0,"Hi-Hat open.wav",66
Sample,90209,0,"bass 3-9 160.wav",65
Sample,90209,0,"x 5 4 x 4 C#m7 160.wav",73
Sample,90209,0,"x x 7 x 5 160.wav",78
Sample,90366,0,"bass 3-10 320.wav",65
Sample,90366,0,"x 3 1 3 x 1 Ddim-F 320.wav",73
Sample,90366,0,"x 4 x 4 160.wav",78
Sample,90523,0,"x 4 x 4 160.wav",78
Sample,90680,0,"x 3 1 3 x 1 Ddim-F 160.wav",73
Sample,90680,0,"x 4 x 4 160.wav",78
Sample,90838,0,"Hi-Hat open.wav",66
Sample,90838,0,"bass 4-3 160.wav",65
Sample,90838,0,"x 3 1 3 x 1 Ddim-F 320.wav",73
Sample,90838,0,"x 4 x 4 160.wav",78
Sample,90995,0,"Hi-Hat close.wav",58
Sample,90995,0,"bass 4-3 160.wav",65
Sample,90995,0,"x 7 x 7 160.wav",78
Sample,91152,0,"Hi-Hat open.wav",66
Sample,91152,0,"bass 4-3 160.wav",65
Sample,91152,0,"x 3 1 3 x 1 Ddim-F 160.wav",73
Sample,91152,0,"x 7 x 7 160.wav",78
Sample,91309,0,"bass 4-3 320.wav",65
Sample,91309,0,"x 3 1 3 x 1 Ddim-F 160.wav",73
Sample,91309,0,"x 7 x 7 320.wav",78
Sample,91466,0,"Hi-Hat open.wav",66
Sample,91466,0,"x 3 1 3 x 1 Ddim-F 160.wav",73
Sample,91623,0,"bass 3-11 240.wav",65
Sample,91623,0,"0 0 2 2 x 2 F#m7(11) 160.wav",73
Sample,91623,0,"12 12 160.wav",78
Sample,91780,0,"0 0 2 2 x 2 F#m7(11) 160.wav",73
Sample,91780,0,"12 12 160.wav",78
Sample,91859,0,"bass 2-13 240.wav",65
Sample,91937,0,"0 0 2 2 x 2 F#m7(11) 160.wav",73
Sample,91937,0,"x 15 160.wav",78
Sample,92016,0,"Snare.wav",57
Sample,92094,0,"bass 1-13 160.wav",65
Sample,92094,0,"0 0 2 2 x 2 F#m7(11) 160.wav",73
Sample,92094,0,"x x 14 160.wav",78
Sample,92173,0,"Snare.wav",57
Sample,92251,0,"bass 1-12 240.wav",65
Sample,92251,0,"x 1 1 1 x 1 Fm7 160.wav",73
Sample,92251,0,"x 12 160.wav",78
Sample,92408,0,"x 1 1 1 x 1 Fm7 160.wav",73
Sample,92408,0,"x x 12 160.wav",78
Sample,92487,0,"bass 2-12 240.wav",65
Sample,92565,0,"Snare.wav",67
Sample,92565,0,"x 1 1 1 x 1 Fm7 160.wav",73
Sample,92565,0,"x x 14 160.wav",78
Sample,92644,0,"Snare.wav",57
Sample,92722,0,"bass 3-10 160.wav",65
Sample,92722,0,"x 1 1 1 x 1 Fm7 160.wav",73
Sample,92722,0,"x x x 14 160.wav",78
Sample,92801,0,"Snare.wav",57
Sample,92879,0,"bass 3-9 240.wav",65
Sample,92879,0,"x 3 0 2 x 0 Em7 160.wav",73
Sample,92879,0,"x x 12 160.wav",78
Sample,93037,0,"x 3 0 2 x 0 Em7 160.wav",73
Sample,93037,0,"x x x 12 160.wav",78
Sample,93115,0,"bass 2-11 240.wav",65
Sample,93194,0,"Kick.wav",67
Sample,93194,0,"x 3 0 2 x 0 Em7 160.wav",73
Sample,93194,0,"x x x 14 160.wav",78
Sample,93272,0,"Snare.wav",57
Sample,93351,0,"Snare.wav",57
Sample,93351,0,"bass 3-9 160.wav",65
Sample,93351,0,"x 3 0 2 x 0 Em7 160.wav",73
Sample,93351,0,"x 12 12 12 320.wav",78
Sample,93429,0,"Snare.wav",57
Sample,93508,0,"bass 3-12 320.wav",65
Sample,93508,0,"0 2 0 2 0 A7 160.wav",73
Sample,93586,0,"Tom1.wav",67
Sample,93665,0,"0 2 0 2 0 A7 160.wav",73
Sample,93665,0,"x 12 12 12 Mute 160.wav",78
Sample,93822,0,"bass 4-7 320.wav",65
Sample,93822,0,"0 2 0 2 0 A7 160.wav",73
Sample,93822,0,"x 12 12 12 320.wav",78
Sample,93979,0,"0 2 0 2 0 A7 160.wav",73
Sample,94136,0,"bass 4-0 320.wav",65
Sample,94136,0,"x 7 6 7 5 Dmaj7 320.wav",73
Sample,94136,0,"x x 9 x 7 160.wav",78
Sample,94293,0,"x x 9 x 7 160.wav",78
Sample,94450,0,"x 7 6 7 5 Dmaj7 160.wav",73
Sample,94450,0,"x x 9 x 7 160.wav",78
Sample,94607,0,"Hi-Hat open.wav",66
Sample,94607,0,"bass 4-0 160.wav",65
Sample,94607,0,"x 7 6 7 5 Dmaj7 320.wav",73
Sample,94607,0,"x x 9 x 7 160.wav",78
Sample,94764,0,"Hi-Hat close.wav",58
Sample,94764,0,"bass 4-0 160.wav",65
Sample,94764,0,"x x 9 x 7 160.wav",78
Sample,94921,0,"Hi-Hat open.wav",66
Sample,94921,0,"bass 4-0 160.wav",65
Sample,94921,0,"x 7 6 7 5 Dmaj7 160.wav",73
Sample,94921,0,"x x 9 x 7 160.wav",78
Sample,95078,0,"bass 4-0 160.wav",65
Sample,95078,0,"x 7 6 7 5 Dmaj7 160.wav",73
Sample,95078,0,"x x 9 x 7 160.wav",78
Sample,95235,0,"Hi-Hat open.wav",66
Sample,95235,0,"bass 4-0 160.wav",65
Sample,95235,0,"x 7 6 7 5 Dmaj7 160.wav",73
Sample,95235,0,"x x 9 x 7 160.wav",78
Sample,95393,0,"Hi-Hat close.wav",58
Sample,95393,0,"bass 4-2 320.wav",65
Sample,95393,0,"x 6 5 7 5 Dm7 320.wav",73
Sample,95393,0,"x x 8 x 6 160.wav",78
Sample,95550,0,"Hi-Hat open.wav",66
Sample,95550,0,"x x 8 x 6 160.wav",78
Sample,95707,0,"bass 3-10 160.wav",65
Sample,95707,0,"x 6 5 7 5 Dm7 160.wav",73
Sample,95707,0,"x x 8 x 6 320.wav",78
Sample,95864,0,"Hi-Hat open.wav",66
Sample,95864,0,"bass 3-9 320.wav",65
Sample,95864,0,"x 6 5 7 5 Dm7 320.wav",73
Sample,95942,0,"Snare.wav",57
Sample,96021,0,"Hi-Hat close.wav",58
Sample,96021,0,"x x 12 x 10 160.wav",78
Sample,96178,0,"Hi-Hat open.wav",66
Sample,96178,0,"bass 3-9 160.wav",65
Sample,96178,0,"x 6 5 7 5 Dm7 160.wav",73
Sample,96178,0,"x x 12 x 10 160.wav",78
Sample,96335,0,"bass 3-7 320.wav",65
Sample,96335,0,"x 6 5 7 5 Dm7 160.wav",73
Sample,96335,0,"x x 12 x 10 320.wav",78
Sample,96492,0,"Hi-Hat open.wav",66
Sample,96492,0,"x 6 5 7 5 Dm7 160.wav",73
Sample,96649,0,"Hi-Hat close.wav",58
Sample,96649,0,"bass 3-6 320.wav",65
Sample,96649,0,"x 5 4 x 4 C#m7 320.wav",73
Sample,96649,0,"x x 7 x 5 160.wav",78
Sample,96806,0,"Hi-Hat open.wav",66
Sample,96806,0,"x x 7 x 5 160.wav",78
Sample,96963,0,"bass 3-6 160.wav",65
Sample,96963,0,"x 5 4 x 4 C#m7 160.wav",73
Sample,96963,0,"x x 7 x 5 160.wav",78
Sample,97120,0,"Hi-Hat open.wav",66
Sample,97120,0,"bass 2-8 320.wav",65
Sample,97120,0,"x 5 4 x 4 C#m7 320.wav",73
Sample,97120,0,"x x 7 x 5 160.wav",78
Sample,97199,0,"Snare.wav",57
Sample,97277,0,"Hi-Hat close.wav",58
Sample,97277,0,"x x 7 x 5 160.wav",78
Sample,97434,0,"Hi-Hat open.wav",66
Sample,97434,0,"bass 2-8 160.wav",65
Sample,97434,0,"x 5 4 x 4 C#m7 160.wav",73
Sample,97434,0,"x x 7 x 5 160.wav",78
Sample,97591,0,"bass 3-6 160.wav",65
Sample,97591,0,"x 5 4 x 4 C#m7 160.wav",73
Sample,97591,0,"x x 7 x 5 160.wav",78
Sample,97749,0,"Hi-Hat open.wav",66
Sample,97749,0,"bass 3-6 160.wav",65
Sample,97749,0,"x 5 4 x 4 C#m7 160.wav",73
Sample,97749,0,"x x 7 x 5 160.wav",78
Sample,97906,0,"Hi-Hat close.wav",58
Sample,97906,0,"bass 3-5 320.wav",65
Sample,97906,0,"x 4 2 4 3 Cdim7 320.wav",73
Sample,97906,0,"x x 6 x 4 160.wav",78
Sample,98063,0,"Hi-Hat open.wav",66
Sample,98063,0,"x x 6 x 4 160.wav",78
Sample,98220,0,"bass 2-6 160.wav",65
Sample,98220,0,"x 4 2 4 3 Cdim7 160.wav",73
Sample,98220,0,"x x 6 x 4 320.wav",78
Sample,98377,0,"Hi-Hat open.wav",66
Sample,98377,0,"bass 3-8 320.wav",65
Sample,98377,0,"x 4 2 4 3 Cdim7 320.wav",73
Sample,98455,0,"Snare.wav",57
Sample,98534,0,"Hi-Hat close.wav",58
Sample,98534,0,"x x 9 x 7 160.wav",78
Sample,98691,0,"Hi-Hat open.wav",66
Sample,98691,0,"bass 3-8 160.wav",65
Sample,98691,0,"x 4 2 4 3 Cdim7 160.wav",73
Sample,98691,0,"x x 9 x 7 160.wav",78
Sample,98848,0,"bass 3-5 160.wav",65
Sample,98848,0,"x 4 2 4 3 Cdim7 160.wav",73
Sample,98848,0,"x x 9 x 7 320.wav",78
Sample,99005,0,"Hi-Hat open.wav",66
Sample,99005,0,"bass 3-5 160.wav",65
Sample,99005,0,"x 4 2 4 3 Cdim7 160.wav",73
Sample,99162,0,"bass 3-4 160.wav",65
Sample,99162,0,"x 3 2 x 2 Bm7 160.wav",73
Sample,99162,0,"x 1 0 2 0 160.wav",78
Sample,99319,0,"bass 3-4 160.wav",65
Sample,99319,0,"x 3 2 x 2 Bm7 160.wav",73
Sample,99319,0,"x 1 0 2 0 160.wav",78
Sample,99476,0,"bass 3-4 160.wav",65
Sample,99476,0,"x 3 2 x 2 Bm7 160.wav",73
Sample,99476,0,"x 1 0 2 0 160.wav",78
Sample,99633,0,"bass 3-4 160.wav",65
Sample,99633,0,"x 3 2 x 2 Bm7 160.wav",73
Sample,99633,0,"x 1 0 2 0 160.wav",78
Sample,99790,0,"bass 3-6 160.wav",65
Sample,99790,0,"x 5 4 x 4 C#m7 160.wav",73
Sample,99790,0,"x 3 2 0 2 160.wav",78
Sample,99948,0,"bass 3-6 160.wav",65
Sample,99948,0,"x 5 4 x 4 C#m7 160.wav",73
Sample,99948,0,"x 3 2 0 2 160.wav",78
Sample,100105,0,"bass 3-6 160.wav",65
Sample,100105,0,"x 5 4 x 4 C#m7 160.wav",73
Sample,100105,0,"x 3 2 0 2 160.wav",78
Sample,100262,0,"bass 3-6 160.wav",65
Sample,100262,0,"x 5 4 x 4 C#m7 160.wav",73
Sample,100262,0,"x 3 2 0 2 160.wav",78
Sample,100419,0,"bass 3-7 320.wav",65
Sample,100419,0,"x 5 6 7 5 Dmaj9 160.wav",73
Sample,100419,0,"x 3 0 2 3 160.wav",78
Sample,100576,0,"x 5 6 7 5 Dmaj9 160.wav",73
Sample,100576,0,"x 3 0 2 3 160.wav",78
Sample,100733,0,"bass 4-0 320.wav",65
Sample,100733,0,"x 5 6 7 5 Dmaj9 160.wav",73
Sample,100733,0,"x 3 0 2 3 160.wav",78
Sample,100890,0,"x 5 6 7 5 Dmaj9 160.wav",73
Sample,100890,0,"x 3 0 2 3 160.wav",78
Sample,101047,0,"bass 4-2 160.wav",65
Sample,101047,0,"0 0 1 2 2 0 E 160.wav",73
Sample,101047,0,"x 3 2 0 160.wav",78
Sample,101204,0,"bass 4-2 160.wav",65
Sample,101204,0,"0 0 1 2 2 0 E 160.wav",73
Sample,101204,0,"x 3 2 0 160.wav",78
Sample,101361,0,"bass 4-2 160.wav",65
Sample,101361,0,"0 0 1 2 2 0 E 160.wav",73
Sample,101361,0,"x 3 2 0 320.wav",78
Sample,101518,0,"bass 4-2 160.wav",65
Sample,101518,0,"0 0 1 2 2 0 E 160.wav",73
Sample,101675,0,"bass 4-4 160.wav",65
Sample,101675,0,"0 0 2 2 x 2 F#m7(11) 160.wav",73
Sample,101675,0,"12 12 160.wav",78
Sample,101832,0,"bass 3-6 160.wav",65
Sample,101832,0,"0 0 2 2 x 2 F#m7(11) 160.wav",73
Sample,101832,0,"x x 14 bend full release 320.wav",78
Sample,101989,0,"bass 2-6 160.wav",65
Sample,101989,0,"0 0 2 2 x 2 F#m7(11) 160.wav",73
Sample,102146,0,"bass 2-6 160.wav",65
Sample,102146,0,"0 0 2 2 x 2 F#m7(11) 160.wav",73
Sample,102146,0,"x x 12 320.wav",78
Sample,102304,0,"bass 2-9 160.wav",65
Sample,102304,0,"0 0 2 2 x 2 F#m7(11) 160.wav",73
Sample,102461,0,"0 0 2 2 x 2 F#m7(11) 160.wav",73
Sample,102461,0,"x x x 14 160.wav",78
Sample,102618,0,"bass 3-9 160.wav",65
Sample,102618,0,"x x x 12 160.wav",78
Sample,102775,0,"bass 3-8 320.wav",65
Sample,102775,0,"x 4 2 4 2 B7 320.wav",73
Sample,102775,0,"x x x 11 320.wav",78
Sample,103089,0,"bass 3-8 160.wav",65
Sample,103089,0,"x 4 2 4 2 B7 160.wav",73
Sample,103089,0,"12 x 12 80.wav",78
Sample,103167,0,"14 x 14 80.wav",78
Sample,103246,0,"bass 3-8 160.wav",65
Sample,103246,0,"x 4 2 4 2 B7 160.wav",73
Sample,103403,0,"bass 2-11 320.wav",65
Sample,103403,0,"x 4 2 4 2 B7 320.wav",73
Sample,103403,0,"12 x 12 800.wav",78
Sample,103717,0,"bass 2-11 160.wav",65
Sample,103717,0,"x 4 2 4 2 B7 160.wav",73
Sample,103874,0,"bass 2-11 320.wav",65
Sample,103874,0,"x 4 2 4 2 B7 160.wav",73
Sample,104031,0,"x 4 2 4 2 B7 160.wav",73
Sample,107330,0,"8 8 Mute 160.wav",78
Sample,107487,0,"bass 4-0 480.wav",65
Sample,107487,0,"x x 4 3 4 C#7 480.wav",73
Sample,107487,0,"7 480.wav",78
Sample,107644,0,"Hi-Hat close.wav",58
Sample,107958,0,"bass 4-0 160.wav",65
Sample,107958,0,"x 7 6 7 5 Dmaj7 320.wav",73
Sample,107958,0,"12 160.wav",78
Sample,108115,0,"15 80.wav",78
Sample,108272,0,"bass 4-0 160.wav",65
Sample,108272,0,"x 7 6 7 5 Dmaj7 160.wav",73
Sample,108272,0,"x 15 160.wav",78
Sample,108429,0,"x 7 6 7 5 Dmaj7 320.wav",73
Sample,108429,0,"12 160.wav",78
Sample,108586,0,"Hi-Hat open.wav",66
Sample,108586,0,"bass 4-0 160.wav",65
Sample,108743,0,"bass 4-0 160.wav",65
Sample,108743,0,"x 7 6 7 5 Dmaj7 160.wav",73
Sample,108743,0,"x x 15 160.wav",78
Sample,108900,0,"bass 4-0 160.wav",65
Sample,108900,0,"x 7 6 7 5 Dmaj7 160.wav",73
Sample,108900,0,"x x 14 160.wav",78
Sample,109057,0,"bass 4-0 160.wav",65
Sample,109057,0,"x 7 6 7 5 Dmaj7 320.wav",73
Sample,109057,0,"x x 12 160.wav",78
Sample,109215,0,"Hi-Hat open.wav",66
Sample,109215,0,"bass 4-0 160.wav",65
Sample,109372,0,"bass 4-0 160.wav",65
Sample,109372,0,"x 7 6 7 5 Dmaj7 160.wav",73
Sample,109372,0,"x x x 12 160.wav",78
Sample,109529,0,"bass 4-0 160.wav",65
Sample,109529,0,"x 7 6 7 5 Dmaj7 160.wav",73
Sample,109529,0,"x x x 14 160.wav",78
Sample,109686,0,"x 7 6 7 5 Dmaj7 160.wav",73
Sample,109686,0,"x x 12 160.wav",78
Sample,109843,0,"bass 4-0 160.wav",65
Sample,109843,0,"x 7 6 7 5 Dmaj7 160.wav",73
Sample,109843,0,"x x 14 160 bend full release 320.wav",78
Sample,110000,0,"bass 4-0 160.wav",65
Sample,110000,0,"x 7 6 7 5 Dmaj7 160.wav",73
Sample,110157,0,"bass 4-0 160.wav",65
Sample,110157,0,"x 7 6 7 5 Dmaj7 160.wav",73
Sample,110314,0,"x 7 6 7 5 Dmaj7 160.wav",73
Sample,110314,0,"x x 12 160.wav",78
Sample,110471,0,"Hi-Hat open.wav",66
Sample,110471,0,"bass 3-6 160.wav",65
Sample,110471,0,"x 5 4 x 4 C#m7 320.wav",73
Sample,110471,0,"x 15 160.wav",78
Sample,110628,0,"x x 16 80.wav",78
Sample,110785,0,"bass 3-6 160.wav",65
Sample,110785,0,"x 5 4 x 4 C#m7 160.wav",73
Sample,110785,0,"x x 12 160.wav",78
Sample,110942,0,"x 5 4 x 4 C#m7 320.wav",73
Sample,110942,0,"x x 14 160.wav",78
Sample,111099,0,"Hi-Hat open.wav",66
Sample,111099,0,"bass 3-6 160.wav",65
Sample,111256,0,"bass 3-6 160.wav",65
Sample,111256,0,"x 5 4 x 4 C#m7 160.wav",73
Sample,111256,0,"x x x 14 160.wav",78
Sample,111413,0,"bass 3-6 160.wav",65
Sample,111413,0,"x 5 4 x 4 C#m7 160.wav",73
Sample,111413,0,"x x 12 320.wav",78
Sample,111571,0,"bass 3-6 160.wav",65
Sample,111571,0,"x 5 4 x 4 C#m7 320.wav",73
Sample,111728,0,"Hi-Hat open.wav",66
Sample,111728,0,"bass 3-6 160.wav",65
Sample,111885,0,"bass 3-6 160.wav",65
Sample,111885,0,"x 5 4 x 4 C#m7 160.wav",73
Sample,111885,0,"x x 12 160.wav",78
Sample,112042,0,"bass 3-6 160.wav",65
Sample,112042,0,"x 5 4 x 4 C#m7 160.wav",73
Sample,112042,0,"x x 14 bend half release 320 bend half release640.wav",78
Sample,112199,0,"x 5 4 x 4 C#m7 160.wav",73
Sample,112356,0,"bass 3-5 160.wav",65
Sample,112356,0,"x 5 4 x 4 C#m7 160.wav",73
Sample,112513,0,"bass 2-7 160.wav",65
Sample,112513,0,"x 5 4 x 4 C#m7 160.wav",73
Sample,112670,0,"bass 3-5 320.wav",65
Sample,112670,0,"x 5 4 x 4 C#m7 160.wav",73
Sample,112827,0,"x 5 4 x 4 C#m7 160.wav",73
Sample,112906,0,"Snare.wav",58
Sample,112984,0,"bass 3-4 160.wav",65
Sample,112984,0,"x 3 2 x 2 Bm7 320.wav",73
Sample,112984,0,"12 160.wav",78
Sample,113141,0,"15 80.wav",78
Sample,113298,0,"bass 3-4 160.wav",65
Sample,113298,0,"x 3 2 x 2 Bm7 160.wav",73
Sample,113298,0,"x 15 160.wav",78
Sample,113455,0,"x 3 2 x 2 Bm7 320.wav",73
Sample,113455,0,"12 160.wav",78
Sample,113612,0,"Hi-Hat open.wav",66
Sample,113612,0,"bass 3-4 160.wav",65
Sample,113769,0,"bass 2-6 160.wav",65
Sample,113769,0,"x 3 2 x 2 Bm7 160.wav",73
Sample,113769,0,"x x 15 160.wav",78
Sample,113927,0,"bass 3-4 160.wav",65
Sample,113927,0,"x 3 2 x 2 Bm7 160.wav",73
Sample,113927,0,"x x 14 160.wav",78
Sample,114084,0,"bass 3-4 160.wav",65
Sample,114084,0,"x 3 2 x 2 Bm7 160.wav",73
Sample,114084,0,"x x 12 160.wav",78
Sample,114241,0,"Hi-Hat open.wav",66
Sample,114241,0,"bass 3-6 160.wav",65
Sample,114241,0,"x 5 4 x 4 C#m7 320.wav",73
Sample,114398,0,"bass 3-6 160.wav",65
Sample,114398,0,"x x x 12 160.wav",78
Sample,114555,0,"bass 3-6 160.wav",65
Sample,114555,0,"x 5 4 x 4 C#m7 160.wav",73
Sample,114555,0,"x x x 14 160.wav",78
Sample,114712,0,"x 5 4 x 4 C#m7 320.wav",73
Sample,114712,0,"x x 12 160.wav",78
Sample,114869,0,"bass 3-6 160.wav",65
Sample,114869,0,"x x 14 160 bend full release 320.wav",78
Sample,115026,0,"bass 2-8 160.wav",65
Sample,115026,0,"x 5 4 x 4 C#m7 160.wav",73
Sample,115183,0,"bass 3-6 320.wav",65
Sample,115183,0,"x 5 4 x 4 C#m7 160.wav",73
Sample,115340,0,"x x 12 160.wav",78
Sample,115497,0,"Crash high.wav",67
Sample,115497,0,"bass 4-0 320.wav",65
Sample,115497,0,"x x 6 4 5 Dmaj7 320.wav",73
Sample,115497,0,"x 15 160.wav",78
Sample,115654,0,"x x 12 160.wav",78
Sample,115811,0,"bass 4-0 Mute 160.wav",65
Sample,115811,0,"x x 6 4 5 Dmaj7 Mute 160.wav",73
Sample,115811,0,"x x 14 160.wav",78
Sample,115968,0,"bass 4-0 320.wav",65
Sample,115968,0,"x 7 6 7 5 Dmaj7 160.wav",73
Sample,115968,0,"x x 12 160.wav",78
Sample,116126,0,"Hi-Hat close.wav",58
Sample,116126,0,"x 12 12 12 Mute 160.wav",78
Sample,116283,0,"bass 4-2 Mute 160.wav",65
Sample,116283,0,"7 7 7 7 7 D6 Mute 160.wav",73
Sample,116283,0,"x x 12 160.wav",78
Sample,116440,0,"bass 4-2 1600.wav",65
Sample,116440,0,"7 7 7 7 7 D6 480.wav",73
Sample,116440,0,"x 15 960.wav",78
Sample,116911,0,"7 7 7 7 7 D6 160.wav",73
Sample,117068,0,"Hi-Hat close.wav",58
Sample,117068,0,"7 7 7 7 7 D6 160.wav",73
Sample,117225,0,"7 7 7 7 7 D6 160.wav",73
Sample,117382,0,"15 1600.wav",78
Sample,117539,0,"7 7 7 7 7 D6 160.wav",73
Sample,117696,0,"7 7 7 7 7 D6 160.wav",73
Sample,117853,0,"7 7 7 7 7 D6 480.wav",73
Sample,120209,0,"clean 5 7 6 Dmaj7 Staccato 320.wav",78
Sample,120995,0,"bass 2-13 160.wav",65
Sample,122094,0,"clean 4 5 4 C#m7 Staccato 320.wav",78
Sample,122722,0,"clean 4 5 4 C#m7 Staccato 320.wav",78
Sample,123508,0,"bass 3-16 160.wav",65
Sample,123979,0,"clean 2 3 2 Bm7 Staccato 320.wav",78
Sample,124293,0,"Hi-Hat close.wav",57
Sample,124607,0,"clean 2 3 2 Bm7 Staccato 320.wav",78
Sample,126963,0,"bass 3-16 160.wav",65
Sample,127120,0,"Kick.wav",67
Sample,127120,0,"bass 2-13 160.wav",65
Sample,127160,0,"Snare.wav",15
Sample,127199,0,"Snare.wav",20
Sample,127238,0,"Snare.wav",25
Sample,127277,0,"Snare.wav",30
Sample,127277,0,"bass 3-14 160.wav",65
Sample,127317,0,"Snare.wav",35
Sample,127356,0,"Snare.wav",40
Sample,127395,0,"Snare.wav",45
Sample,127434,0,"Kick.wav",67
Sample,127474,0,"Snare.wav",55
Sample,127513,0,"Snare.wav",60
Sample,127552,0,"Snare.wav",65
Sample,127591,0,"Snare.wav",70
Sample,127631,0,"Snare.wav",75
Sample,127670,0,"Snare.wav",73
Sample,127709,0,"Snare.wav",75
Sample,128063,0,"bass 3-7 320.wav",65
Sample,128063,0,"x 5 6 7 5 Dmaj9 160.wav",73
Sample,128063,0,"x x x x 7 160.wav",78
Sample,128220,0,"x x x 9 160.wav",78
Sample,128377,0,"bass 4-0 320.wav",65
Sample,128377,0,"x 5 6 7 5 Dmaj9 160.wav",73
Sample,128377,0,"x x 7 7 7 Mute 160.wav",78
Sample,128534,0,"x 5 6 7 5 Dmaj9 160.wav",73
Sample,128534,0,"x x x 7 160.wav",78
Sample,128691,0,"Hi-Hat close.wav",66
Sample,128691,0,"x x 7 7 7 Mute 160.wav",78
Sample,128848,0,"Hi-Hat close.wav",57
Sample,128848,0,"bass 3-7 160.wav",65
Sample,128848,0,"x 5 6 7 5 Dmaj9 160.wav",73
Sample,128848,0,"x x 7 7 7 Mute 160.wav",78
Sample,129005,0,"Hi-Hat close.wav",66
Sample,129005,0,"x x 7 160.wav",78
Sample,129162,0,"bass 4-7 160.wav",65
Sample,129162,0,"x 5 6 7 5 Dmaj9 320.wav",73
Sample,129162,0,"x x 7 160.wav",78
Sample,129319,0,"Hi-Hat close.wav",66
Sample,129319,0,"x x 7 7 7 Mute 160.wav",78
Sample,129476,0,"Hi-Hat close.wav",57
Sample,129476,0,"bass 2-9 160.wav",65
Sample,129476,0,"x 5 6 7 5 Dmaj9 160.wav",73
Sample,129476,0,"x x 7 7 7 Mute 160.wav",78
Sample,129633,0,"bass 2-11 160.wav",65
Sample,129633,0,"x x 7 7 7 Mute 160.wav",78
Sample,129790,0,"bass 3-9 160.wav",65
Sample,129790,0,"x 5 6 7 5 Dmaj9 320.wav",73
Sample,129790,0,"x x 7 9 160.wav",78
Sample,129948,0,"Hi-Hat close.wav",66
Sample,129948,0,"bass 3-11 160.wav",65
Sample,130105,0,"Hi-Hat close.wav",57
Sample,130105,0,"bass 4-9 160.wav",65
Sample,130105,0,"x 5 6 7 5 Dmaj9 160.wav",73
Sample,130105,0,"x x 5 7 320.wav",78
Sample,130262,0,"bass 4-11 160.wav",65
Sample,130262,0,"x 5 6 7 5 Dmaj9 160.wav",73
Sample,130419,0,"bass 3-9 160.wav",65
Sample,130419,0,"x 5 6 7 5 Dmaj9 160.wav",73
Sample,130419,0,"x x 5 7 160.wav",78
Sample,130576,0,"Hi-Hat close.wav",66
Sample,130576,0,"bass 4-11 320.wav",65
Sample,130576,0,"x 5 4 x 4 C#m7 160.wav",73
Sample,130576,0,"x x x x x 7 160.wav",78
Sample,130733,0,"Hi-Hat close.wav",57
Sample,130733,0,"x 5 4 x 4 C#m7 160.wav",73
Sample,130733,0,"x x x 7 160.wav",78
Sample,130890,0,"bass 2-8 160.wav",65
Sample,130890,0,"x 5 4 x 4 C#m7 160.wav",73
Sample,130890,0,"x x 5 5 5 Mute 160.wav",78
Sample,131047,0,"bass 3-6 160.wav",65
Sample,131047,0,"x 5 4 x 4 C#m7 160.wav",73
Sample,131047,0,"x x x 5 160.wav",78
Sample,131204,0,"Hi-Hat close.wav",66
Sample,131204,0,"x x 5 5 5 Mute 160.wav",78
Sample,131361,0,"Hi-Hat close.wav",57
Sample,131361,0,"bass 2-8 160.wav",65
Sample,131361,0,"x 5 4 x 4 C#m7 160.wav",73
Sample,131361,0,"x x 5 5 5 Mute 160.wav",78
Sample,131518,0,"Hi-Hat close.wav",66
Sample,131518,0,"x x 7 160.wav",78
Sample,131675,0,"bass 4-4 320.wav",65
Sample,131675,0,"0 0 2 2 x 2 F#m7(11) 320.wav",73
Sample,131675,0,"x x 7 160.wav",78
Sample,131832,0,"Hi-Hat close.wav",66
Sample,131832,0,"x x 5 5 5 Mute 160.wav",78
Sample,131989,0,"Hi-Hat close.wav",57
Sample,131989,0,"bass 4-7 160.wav",65
Sample,131989,0,"0 0 2 2 x 2 F#m7(11) 160.wav",73
Sample,131989,0,"x x 5 5 5 Mute 160.wav",78
Sample,132146,0,"12 x 12 80.wav",78
Sample,132225,0,"12 x 12 80.wav",78
Sample,132304,0,"bass 4-6 160.wav",65
Sample,132304,0,"0 0 2 2 x 2 F#m7(11) 320.wav",73
Sample,132304,0,"12 x 12 80.wav",78
Sample,132382,0,"12 x 12 80.wav",78
Sample,132461,0,"12 x 12 80.wav",78
Sample,132539,0,"12 x 12 80.wav",78
Sample,132618,0,"Hi-Hat close.wav",57
Sample,132618,0,"bass 2-8 160.wav",65
Sample,132618,0,"0 0 2 2 x 2 F#m7(11) 160.wav",73
Sample,132618,0,"12 x 12 80.wav",78
Sample,132696,0,"12 x 12 80.wav",78
Sample,132775,0,"bass 2-6 320.wav",65
Sample,132775,0,"0 0 2 2 x 2 F#m7(11) 160.wav",73
Sample,132775,0,"12 x 12 320.wav",78
Sample,132932,0,"0 0 2 2 x 2 F#m7(11) 160.wav",73
Sample,133089,0,"Hi-Hat close.wav",66
Sample,133089,0,"bass 3-4 160.wav",65
Sample,133089,0,"x 3 2 x 2 Bm7 160.wav",73
Sample,133089,0,"x x x x x 5 160.wav",78
Sample,133246,0,"Hi-Hat close.wav",57
Sample,133246,0,"bass 3-4 160.wav",65
Sample,133246,0,"x 3 2 x 2 Bm7 160.wav",73
Sample,133246,0,"x x x 7 160.wav",78
Sample,133403,0,"bass 4-4 160.wav",65
Sample,133403,0,"x 3 2 x 2 Bm7 160.wav",73
Sample,133403,0,"x x 5 5 5 Mute 160.wav",78
Sample,133560,0,"bass 3-4 160.wav",65
Sample,133560,0,"x 3 2 x 2 Bm7 160.wav",73
Sample,133560,0,"x x x 5 160.wav",78
Sample,133717,0,"Hi-Hat close.wav",66
Sample,133717,0,"x x 5 5 5 Mute 160.wav",78
Sample,133874,0,"Hi-Hat close.wav",57
Sample,133874,0,"bass 3-4 160.wav",65
Sample,133874,0,"x 3 2 x 2 Bm7 160.wav",73
Sample,133874,0,"x x 5 5 5 Mute 160.wav",78
Sample,134031,0,"Hi-Hat close.wav",66
Sample,134031,0,"x x x 7 160.wav",78
Sample,134188,0,"bass 2-8 160.wav",65
Sample,134188,0,"x 6 4 6 4 C#7 320.wav",73
Sample,134188,0,"x x x 7 160.wav",78
Sample,134345,0,"Hi-Hat close.wav",66
Sample,134345,0,"x x 5 5 5 Mute 160.wav",78
Sample,134502,0,"Hi-Hat close.wav",57
Sample,134502,0,"bass 2-5 160.wav",65
Sample,134502,0,"x 6 4 6 4 C#7 160.wav",73
Sample,134502,0,"x x 5 5 5 Mute 160.wav",78
Sample,134660,0,"x x 5 5 5 Mute 160.wav",78
Sample,134817,0,"bass 3-6 160.wav",65
Sample,134817,0,"x 6 4 6 4 C#7 320.wav",73
Sample,134817,0,"x 4 x 4 160.wav",78
Sample,134974,0,"Hi-Hat close.wav",66
Sample,135131,0,"Hi-Hat close.wav",57
Sample,135131,0,"bass 3-4 160.wav",65
Sample,135131,0,"x 6 4 6 4 C#7 160.wav",73
Sample,135131,0,"x 7 x 7 320.wav",78
Sample,135288,0,"bass 3-6 160.wav",65
Sample,135288,0,"x 6 4 6 4 C#7 160.wav",73
Sample,135445,0,"bass 4-4 160.wav",65
Sample,135445,0,"x 6 4 6 4 C#7 160.wav",73
Sample,135445,0,"x 7 x 7 160.wav",78
Sample,135602,0,"Hi-Hat close.wav",66
Sample,135602,0,"bass 4-4 160.wav",65
Sample,135602,0,"0 0 2 2 x 2 F#m7(11) 160.wav",73
Sample,135602,0,"x x x 5 5 5 Mute 160.wav",78
Sample,135759,0,"Hi-Hat close.wav",57
Sample,135759,0,"bass 4-4 160.wav",65
Sample,135759,0,"0 0 2 2 x 2 F#m7(11) 160.wav",73
Sample,135759,0,"x x x 5 5 5 Mute 160.wav",78
Sample,135916,0,"bass 3-6 160.wav",65
Sample,135916,0,"0 0 2 2 x 2 F#m7(11) 160.wav",73
Sample,135916,0,"x x 7 x 7 160.wav",78
Sample,136073,0,"Hi-Hat close.wav",57
Sample,136073,0,"bass 2-6 160.wav",65
Sample,136073,0,"0 0 2 2 x 2 F#m7(11) 160.wav",73
Sample,136073,0,"x x x 5 5 5 Mute 160.wav",78
Sample,136230,0,"x x x 5 5 5 Mute 160.wav",78
Sample,136387,0,"Hi-Hat close.wav",57
Sample,136387,0,"bass 2-6 160.wav",65
Sample,136387,0,"0 0 2 2 x 2 F#m7(11) 160.wav",73
Sample,136387,0,"x x 7 x 7 160.wav",78
Sample,136544,0,"Hi-Hat close.wav",66
Sample,136701,0,"bass 2-7 320.wav",65
Sample,136701,0,"x 3 4 4 x 3 Gmaj7 320.wav",73
Sample,136701,0,"x x 9 7 8 320.wav",78
Sample,136859,0,"Hi-Hat close.wav",66
Sample,137016,0,"Hi-Hat close.wav",57
Sample,137016,0,"bass 3-7 160.wav",65
Sample,137016,0,"x 3 4 4 x 3 Gmaj7 160.wav",73
Sample,137016,0,"x x 9 7 8 160.wav",78
Sample,137173,0,"x x 9 7 8 160.wav",78
Sample,137330,0,"bass 2-9 160.wav",65
Sample,137330,0,"x 3 4 4 x 3 Gmaj7 320.wav",73
Sample,137330,0,"x x 9 7 8 320.wav",78
Sample,137644,0,"bass 2-7 160.wav",65
Sample,137644,0,"x 3 4 4 x 3 Gmaj7 160.wav",73
Sample,137644,0,"x x 9 7 8 160.wav",78
Sample,137801,0,"bass 3-7 320.wav",65
Sample,137801,0,"x 3 4 4 x 3 Gmaj7 160.wav",73
Sample,137801,0,"x x 9 7 8 160.wav",78
Sample,137958,0,"x 3 4 4 x 3 Gmaj7 160.wav",73
Sample,137958,0,"x x 9 7 8 160.wav",78
Sample,138115,0,"bass 4-0 1280.wav",65
Sample,138115,0,"x 5 6 7 5 Dmaj9 1280.wav",73
Sample,138115,0,"x x x x 3 320.wav",78
Sample,139372,0,"bass 4-2 1280.wav",65
Sample,139372,0,"0 0 1 2 2 0 E 1280.wav",73
Sample,140628,0,"bass 4-4 960.wav",65
Sample,140628,0,"0 0 2 2 x 2 F#m7(11) 1280.wav",73
Sample,141571,0,"x x x 4 320.wav",78
Sample,141885,0,"bass 2-9 480.wav",65
Sample,141885,0,"0 0 1 2 0 Amaj9 160.wav",73
Sample,141885,0,"x x 0 320.wav",78
Sample,142199,0,"0 0 1 2 0 Amaj9 160.wav",73
Sample,142199,0,"x x x 4 320.wav",78
Sample,142356,0,"bass 2-8 480.wav",65
Sample,142356,0,"0 0 1 2 0 Amaj9 160.wav",73
Sample,142513,0,"0 0 1 2 0 Amaj9 160.wav",73
Sample,142513,0,"x x x 0 640.wav",78
Sample,142670,0,"0 0 1 2 0 Amaj9 160.wav",73
Sample,142827,0,"bass 3-9 320.wav",65
Sample,142827,0,"0 0 1 2 0 Amaj9 320.wav",73
Sample,143141,0,"bass 4-0 1280.wav",65
Sample,143141,0,"x 5 6 7 5 Dmaj9 1280.wav",73
Sample,143141,0,"x x x x 3 320.wav",78
Sample,144398,0,"bass 3-9 640.wav",65
Sample,144398,0,"0 0 1 2 2 0 E 1280.wav",73
Sample,145026,0,"x x 2 160.wav",78
Sample,145654,0,"bass 4-4 320.wav",65
Sample,145654,0,"0 0 1 2 x 2 E-F# 320.wav",73
Sample,145968,0,"bass 4-4 320.wav",65
Sample,145968,0,"0 0 1 2 x 2 E-F# 320.wav",73
Sample,145968,0,"x 7 320.wav",78
Sample,146283,0,"bass 4-4 320.wav",65
Sample,146283,0,"0 0 1 2 x 2 E-F# 320.wav",73
Sample,146283,0,"x x 7 320.wav",78
Sample,146597,0,"bass 4-4 320.wav",65
Sample,146597,0,"0 0 1 2 x 2 E-F# 320.wav",73
Sample,146597,0,"x 10 640.wav",78
Sample,146911,0,"bass 3-11 320.wav",65
Sample,146911,0,"0 0 2 2 x 2 F#m7(11) 320.wav",73
Sample,147225,0,"bass 3-11 320.wav",65
Sample,147225,0,"0 0 2 2 x 2 F#m7(11) 320.wav",73
Sample,147225,0,"x 15 960.wav",78
Sample,147539,0,"bass 3-11 320.wav",65
Sample,147539,0,"0 0 2 2 x 2 F#m7(11) 320.wav",73
Sample,147853,0,"bass 3-11 320.wav",65
Sample,147853,0,"0 0 2 2 x 2 F#m7(11) 320.wav",73
Sample,148167,0,"bass 4-0 320.wav",65
Sample,148167,0,"0 0 6 4 5 Dmaj9(13) 320.wav",73
Sample,148167,0,"x x x 12 x 10 160.wav",78
Sample,148324,0,"x x x 12 x 10 160.wav",78
Sample,148482,0,"bass 4-0 160.wav",65
Sample,148482,0,"0 0 6 4 5 Dmaj9(13) 160.wav",73
Sample,148482,0,"x x x 12 x 10 160.wav",78
Sample,148639,0,"Tom3.wav",67
Sample,148639,0,"bass 4-0 160.wav",65
Sample,148639,0,"0 0 6 4 5 Dmaj9(13) 160.wav",73
Sample,148639,0,"x x x 12 x 10 160.wav",78
Sample,148796,0,"0 0 6 4 5 Dmaj9(13) 320.wav",73
Sample,148796,0,"x x x 12 x 10 160.wav",78
Sample,148953,0,"bass 4-0 160.wav",65
Sample,148953,0,"x x x 12 x 10 160.wav",78
Sample,149110,0,"bass 4-0 160.wav",65
Sample,149110,0,"0 0 6 4 5 Dmaj9(13) 160.wav",73
Sample,149110,0,"x x x 12 x 10 160.wav",78
Sample,149267,0,"Tom3.wav",67
Sample,149267,0,"bass 4-0 160.wav",65
Sample,149267,0,"0 0 6 4 5 Dmaj9(13) 320.wav",73
Sample,149267,0,"x x x 12 x 10 160.wav",78
Sample,149424,0,"bass 4-0 160.wav",65
Sample,149424,0,"x x x 12 x 10 160.wav",78
Sample,149581,0,"bass 4-0 160.wav",65
Sample,149581,0,"0 0 6 4 5 Dmaj9(13) 160.wav",73
Sample,149581,0,"x x x 12 x 10 160.wav",78
Sample,149738,0,"bass 4-0 160.wav",65
Sample,149738,0,"0 0 6 4 5 Dmaj9(13) 320.wav",73
Sample,149738,0,"x x x 12 x 10 160.wav",78
Sample,149895,0,"Tom3.wav",67
Sample,149895,0,"bass 4-0 160.wav",65
Sample,149895,0,"x x x 12 x 10 160.wav",78
Sample,150052,0,"0 0 6 4 5 Dmaj9(13) 160.wav",73
Sample,150052,0,"x x x 12 x 10 160.wav",78
Sample,150209,0,"0 0 6 4 5 Dmaj9(13) 160.wav",73
Sample,150209,0,"x x x 14 x 12 160.wav",78
Sample,150366,0,"bass 4-0 160.wav",65
Sample,150366,0,"0 0 6 4 5 Dmaj9(13) 160.wav",73
Sample,150366,0,"x x x 14 x 12 160.wav",78
Sample,150523,0,"0 0 6 4 5 Dmaj9(13) 160.wav",73
Sample,150523,0,"x x x 14 x 12 160.wav",78
Sample,150680,0,"bass 4-4 320.wav",65
Sample,150680,0,"0 0 2 2 x 2 F#m7(11) 320.wav",73
Sample,150680,0,"x x x 12 x 10 160.wav",78
Sample,150838,0,"x x x 12 x 10 160.wav",78
Sample,150995,0,"bass 4-4 160.wav",65
Sample,150995,0,"0 0 2 2 x 2 F#m7(11) 160.wav",73
Sample,150995,0,"x x x 12 x 10 160.wav",78
Sample,151152,0,"Tom3.wav",67
Sample,151152,0,"bass 4-4 160.wav",65
Sample,151152,0,"0 0 2 2 x 2 F#m7(11) 160.wav",73
Sample,151152,0,"x x x 12 x 10 160.wav",78
Sample,151309,0,"0 0 2 2 x 2 F#m7(11) 320.wav",73
Sample,151309,0,"x x x 12 x 10 160.wav",78
Sample,151466,0,"bass 4-4 160.wav",65
Sample,151466,0,"x x x 12 x 10 160.wav",78
Sample,151623,0,"bass 4-4 160.wav",65
Sample,151623,0,"0 0 2 2 x 2 F#m7(11) 160.wav",73
Sample,151623,0,"x x x 12 x 10 160.wav",78
Sample,151780,0,"Tom3.wav",67
Sample,151780,0,"bass 4-4 160.wav",65
Sample,151780,0,"0 0 2 2 x 2 F#m7(11) 320.wav",73
Sample,151780,0,"x x x 12 x 10 160.wav",78
Sample,151937,0,"bass 4-4 160.wav",65
Sample,151937,0,"x x x 12 x 10 160.wav",78
Sample,152094,0,"bass 4-4 160.wav",65
Sample,152094,0,"0 0 2 2 x 2 F#m7(11) 160.wav",73
Sample,152094,0,"x x x 12 x 10 160.wav",78
Sample,152251,0,"bass 4-4 160.wav",65
Sample,152251,0,"0 0 2 2 x 2 F#m7(11) 320.wav",73
Sample,152251,0,"x x x 12 x 10 160.wav",78
Sample,152408,0,"bass 4-4 160.wav",65
Sample,152408,0,"x x x 12 x 10 160.wav",78
Sample,152565,0,"0 0 2 2 x 2 F#m7(11) 160.wav",73
Sample,152565,0,"x x x 12 x 10 160.wav",78
Sample,152722,0,"bass 4-4 160.wav",65
Sample,152722,0,"0 0 2 2 x 2 F#m7(11) 160.wav",73
Sample,152722,0,"x x x 9 x 7 160.wav",78
Sample,152879,0,"bass 4-4 160.wav",65
Sample,152879,0,"0 0 2 2 x 2 F#m7(11) 160.wav",73
Sample,152879,0,"x x x 9 x 7 160.wav",78
Sample,153037,0,"bass 4-4 160.wav",65
Sample,153037,0,"0 0 2 2 x 2 F#m7(11) 160.wav",73
Sample,153037,0,"x x x 9 x 7 160.wav",78
Sample,153194,0,"bass 4-0 320.wav",65
Sample,153194,0,"0 0 6 4 5 Dmaj9(13) 320.wav",73
Sample,153194,0,"x x x 12 x 10 160.wav",78
Sample,153351,0,"x x x 12 x 10 160.wav",78
Sample,153508,0,"bass 4-0 160.wav",65
Sample,153508,0,"0 0 6 4 5 Dmaj9(13) 160.wav",73
Sample,153508,0,"x x x 12 x 10 160.wav",78
Sample,153665,0,"Tom3.wav",67
Sample,153665,0,"bass 4-0 160.wav",65
Sample,153665,0,"0 0 6 4 5 Dmaj9(13) 160.wav",73
Sample,153665,0,"x x x 12 x 10 160.wav",78
Sample,153822,0,"0 0 6 4 5 Dmaj9(13) 320.wav",73
Sample,153822,0,"x x x 12 x 10 160.wav",78
Sample,153979,0,"bass 4-0 160.wav",65
Sample,153979,0,"x x x 12 x 10 160.wav",78
Sample,154136,0,"bass 4-0 160.wav",65
Sample,154136,0,"0 0 6 4 5 Dmaj9(13) 160.wav",73
Sample,154136,0,"x x x 12 x 10 160.wav",78
Sample,154293,0,"Tom3.wav",67
Sample,154293,0,"bass 4-0 160.wav",65
Sample,154293,0,"0 0 6 4 5 Dmaj9(13) 320.wav",73
Sample,154293,0,"x x x 12 x 10 160.wav",78
Sample,154450,0,"bass 4-0 160.wav",65
Sample,154450,0,"x x x 12 x 10 160.wav",78
Sample,154607,0,"bass 4-0 160.wav",65
Sample,154607,0,"0 0 6 4 5 Dmaj9(13) 160.wav",73
Sample,154607,0,"x x x 12 x 10 160.wav",78
Sample,154764,0,"bass 4-0 160.wav",65
Sample,154764,0,"0 0 6 4 5 Dmaj9(13) 320.wav",73
Sample,154764,0,"x x x 12 x 10 160.wav",78
Sample,154921,0,"Tom3.wav",67
Sample,154921,0,"bass 4-0 160.wav",65
Sample,154921,0,"x x x 12 x 10 160.wav",78
Sample,155078,0,"0 0 6 4 5 Dmaj9(13) 160.wav",73
Sample,155078,0,"x x x 12 x 10 160.wav",78
Sample,155235,0,"0 0 6 4 5 Dmaj9(13) 160.wav",73
Sample,155235,0,"x x x 14 x 12 160.wav",78
Sample,155393,0,"bass 4-2 160.wav",65
Sample,155393,0,"0 0 6 4 5 Dmaj9(13) 160.wav",73
Sample,155393,0,"x x x 14 x 12 160.wav",78
Sample,155550,0,"0 0 6 4 5 Dmaj9(13) 160.wav",73
Sample,155550,0,"x x x 14 x 12 160.wav",78
Sample,155707,0,"bass 4-4 320.wav",65
Sample,155707,0,"0 0 2 2 x 2 F#m7(11) 320.wav",73
Sample,155707,0,"x x x 12 x 10 160.wav",78
Sample,155864,0,"x x x 12 x 10 160.wav",78
Sample,156021,0,"bass 4-4 160.wav",65
Sample,156021,0,"0 0 2 2 x 2 F#m7(11) 160.wav",73
Sample,156021,0,"x x x 12 x 10 160.wav",78
Sample,156178,0,"Tom3.wav",67
Sample,156178,0,"bass 4-4 160.wav",65
Sample,156178,0,"0 0 2 2 x 2 F#m7(11) 160.wav",73
Sample,156178,0,"x x x 12 x 10 160.wav",78
Sample,156335,0,"0 0 2 2 x 2 F#m7(11) 320.wav",73
Sample,156335,0,"x x x 12 x 10 160.wav",78
Sample,156492,0,"bass 4-4 160.wav",65
Sample,156492,0,"x x x 12 x 10 160.wav",78
Sample,156649,0,"bass 4-4 160.wav",65
Sample,156649,0,"0 0 2 2 x 2 F#m7(11) 160.wav",73
Sample,156649,0,"x x x 12 x 10 160.wav",78
Sample,156806,0,"Tom3.wav",67
Sample,156806,0,"bass 4-4 160.wav",65
Sample,156806,0,"0 0 2 2 x 2 F#m7(11) 320.wav",73
Sample,156806,0,"x x x 12 x 10 160.wav",78
Sample,156963,0,"bass 4-4 160.wav",65
Sample,156963,0,"x x x 12 x 10 160.wav",78
Sample,157120,0,"bass 4-4 160.wav",65
Sample,157120,0,"0 0 2 2 x 2 F#m7(11) 160.wav",73
Sample,157120,0,"x x x 12 x 10 160.wav",78
Sample,157277,0,"bass 4-4 160.wav",65
Sample,157277,0,"0 0 2 2 x 2 F#m7(11) 320.wav",73
Sample,157277,0,"x x x 12 x 10 160.wav",78
Sample,157434,0,"bass 4-4 160.wav",65
Sample,157434,0,"x x x 12 x 10 160.wav",78
Sample,157591,0,"0 0 2 2 x 2 F#m7(11) 160.wav",73
Sample,157591,0,"x x x 12 x 10 160.wav",78
Sample,157749,0,"bass 4-4 160.wav",65
Sample,157749,0,"0 0 2 2 x 2 F#m7(11) 160.wav",73
Sample,157749,0,"x x x 9 x 7 160.wav",78
Sample,157906,0,"bass 4-4 160.wav",65
Sample,157906,0,"0 0 2 2 x 2 F#m7(11) 160.wav",73
Sample,157906,0,"x x x 9 x 7 160.wav",78
Sample,158063,0,"bass 4-4 160.wav",65
Sample,158063,0,"0 0 2 2 x 2 F#m7(11) 160.wav",73
Sample,158063,0,"x x x 9 x 7 160.wav",78
Sample,158220,0,"bass 4-0 320.wav",65
Sample,158220,0,"0 0 6 4 5 Dmaj9(13) 320.wav",73
Sample,158220,0,"x x 12 12 160.wav",78
Sample,158377,0,"x x 12 12 160.wav",78
Sample,158534,0,"bass 4-0 160.wav",65
Sample,158534,0,"0 0 6 4 5 Dmaj9(13) 160.wav",73
Sample,158534,0,"x x 12 12 160.wav",78
Sample,158691,0,"Tom3.wav",67
Sample,158691,0,"bass 4-0 160.wav",65
Sample,158691,0,"0 0 6 4 5 Dmaj9(13) 160.wav",73
Sample,158691,0,"x x 12 12 160.wav",78
Sample,158848,0,"0 0 6 4 5 Dmaj9(13) 320.wav",73
Sample,158848,0,"x x 12 12 160.wav",78
Sample,159005,0,"bass 4-0 160.wav",65
Sample,159005,0,"x x 12 12 160.wav",78
Sample,159162,0,"bass 4-1 320.wav",65
Sample,159162,0,"0 0 6 4 5 Dmaj9(13) 160.wav",73
Sample,159162,0,"x x 12 12 160.wav",78
Sample,159319,0,"Tom3.wav",67
Sample,159319,0,"0 0 6 4 5 Dmaj9(13) 320.wav",73
Sample,159319,0,"x x 12 12 160.wav",78
Sample,159476,0,"bass 3-7 160.wav",65
Sample,159476,0,"x x 11 12 160.wav",78
Sample,159633,0,"bass 3-7 160.wav",65
Sample,159633,0,"0 0 6 4 5 Dmaj9(13) 160.wav",73
Sample,159633,0,"x x 11 12 160.wav",78
Sample,159790,0,"bass 3-7 160.wav",65
Sample,159790,0,"0 0 6 4 5 Dmaj9(13) 320.wav",73
Sample,159790,0,"x x 11 12 160.wav",78
Sample,159948,0,"Tom3.wav",67
Sample,159948,0,"bass 3-7 160.wav",65
Sample,159948,0,"x x 11 12 160.wav",78
Sample,160105,0,"0 0 6 4 5 Dmaj9(13) 160.wav",73
Sample,160105,0,"x x 11 12 160.wav",78
Sample,160262,0,"0 0 6 4 5 Dmaj9(13) 160.wav",73
Sample,160262,0,"x x 11 12 160.wav",78
Sample,160419,0,"bass 3-7 160.wav",65
Sample,160419,0,"0 0 6 4 5 Dmaj9(13) 160.wav",73
Sample,160419,0,"x x 11 12 160.wav",78
Sample,160576,0,"0 0 6 4 5 Dmaj9(13) 160.wav",73
Sample,160576,0,"x x 11 12 160.wav",78
Sample,160733,0,"bass 3-6 160.wav",65
Sample,160733,0,"x 5 4 x 4 C#m7 320.wav",73
Sample,160733,0,"x x 11 12 160.wav",78
Sample,160890,0,"bass 3-6 160.wav",65
Sample,160890,0,"x x 11 12 160.wav",78
Sample,161047,0,"bass 3-6 160.wav",65
Sample,161047,0,"x 5 4 x 4 C#m7 160.wav",73
Sample,161047,0,"x x 11 12 160.wav",78
Sample,161204,0,"Tom3.wav",67
Sample,161204,0,"bass 3-6 160.wav",65
Sample,161204,0,"x 5 4 x 4 C#m7 160.wav",73
Sample,161204,0,"x x 11 12 160.wav",78
Sample,161361,0,"x 5 4 x 4 C#m7 160.wav",73
Sample,161361,0,"x x 11 12 160.wav",78
Sample,161518,0,"bass 3-6 160.wav",65
Sample,161518,0,"x 5 4 x 4 C#m7 160.wav",73
Sample,161518,0,"x x 11 12 160.wav",78
Sample,161675,0,"Tom3.wav",67
Sample,161675,0,"bass 3-6 160.wav",65
Sample,161675,0,"x 5 4 x 4 C#m7 160.wav",73
Sample,161675,0,"x x 11 12 160.wav",78
Sample,161832,0,"bass 3-6 160.wav",65
Sample,161832,0,"x 5 4 x 4 C#m7 160.wav",73
Sample,161832,0,"x x 11 12 160.wav",78
Sample,161989,0,"Hi-Hat open.wav",66
Sample,161989,0,"bass 3-4 160.wav",65
Sample,161989,0,"x 4 2 4 2 B7 160.wav",73
Sample,161989,0,"x x 9 11 160.wav",78
Sample,162146,0,"bass 3-4 160.wav",65
Sample,162146,0,"x 4 2 4 2 B7 160.wav",73
Sample,162146,0,"x x 9 11 160.wav",78
Sample,162304,0,"bass 3-4 160.wav",65
Sample,162304,0,"x 4 2 4 2 B7 160.wav",73
Sample,162304,0,"x x 9 11 160.wav",78
Sample,162382,0,"Snare.wav",58
Sample,162461,0,"bass 3-4 160.wav",65
Sample,162461,0,"x 4 2 4 2 B7 160.wav",73
Sample,162461,0,"x x 9 11 160.wav",78
Sample,162539,0,"Snare.wav",58
Sample,162618,0,"bass 3-6 160.wav",65
Sample,162618,0,"x x 4 x 2 Mute 160.wav",73
Sample,162618,0,"x x x 9 9 7 Mute 160.wav",78
Sample,162696,0,"Snare.wav",58
Sample,162775,0,"bass 3-6 480.wav",65
Sample,162775,0,"x x 6 x 4 crunch 320.wav",73
Sample,162775,0,"x x x 9 x 7 320.wav",78
Sample,162853,0,"Snare.wav",58
Sample,163010,0,"Snare.wav",58
Sample,163089,0,"x x x 9 9 7 Mute 160.wav",78
Sample,163246,0,"bass 3-7 640.wav",65
Sample,163246,0,"5 7 6 7 5 Dmaj7 640.wav",73
Sample,163246,0,"x 5 7 bend full 640.wav",78
Sample,163874,0,"bass 3-6 640.wav",65
Sample,163874,0,"4 5 4 6 4 C#m7 640.wav",73
Sample,163874,0,"x 3 5 bend full 640.wav",78
Sample,164502,0,"bass 3-4 1280.wav",65
Sample,164502,0,"2 3 2 4 2 Bm7 1280.wav",73
Sample,164502,0,"5 5 5 1280.wav",78
Sample,165759,0,"Crash medium.wav",67
Sample,165759,0,"bass 4-2 1920.wav",65
Sample,165759,0,"2 3 2 0 0 0 D-E 1920.wav",73
Sample,165759,0,"5 5 5 1920.wav",78
Sample,168272,0,"bass 3-7 320.wav",65
Sample,168272,0,"x x 6 4 5 Dmaj7 320.wav",73
Sample,168272,0,"x 12 14 bend full 320.wav",78
Sample,168586,0,"bass 3-7 Mute 160.wav",65
Sample,168586,0,"x x 6 4 5 Dmaj7 Mute 160.wav",73
Sample,168586,0,"x 10 12 10 Mute 160.wav",78
Sample,168743,0,"bass 4-5 320.wav",65
Sample,168743,0,"x x x 4 2 3 Gmaj7 160.wav",73
Sample,168743,0,"x 10 12 bend full 160.wav",78
Sample,169057,0,"bass 4-5 Mute 160.wav",65
Sample,169057,0,"x x x 4 2 3 Gmaj7 Mute 160.wav",73
Sample,169057,0,"x 10 12 10 Mute 160.wav",78
Sample,169215,0,"bass 3-5 320.wav",65
Sample,169215,0,"x x 4 2 3 Cmaj7 320.wav",73
Sample,169215,0,"10 13 bend full 320.wav",78
Sample,169529,0,"bass 3-5 Mute 160.wav",65
Sample,169529,0,"x x 4 2 3 Cmaj7 Mute 160.wav",73
Sample,169529,0,"x 10 12 10 Mute 160.wav",78
Sample,169686,0,"bass 4-3 480.wav",65
Sample,169686,0,"0 0 2 2 x 1 F#m7(#11) 480.wav",73
Sample,169686,0,"8 11 bend full 1120.wav",78
Sample,170157,0,"Hi-Hat close.wav",48
Sample,170785,0,"Hi-Hat close.wav",66
Sample,170785,0,"Wah x x 0 160.wav",78
Sample,171099,0,"Hi-Hat close.wav",66
Sample,171099,0,"Wah x 10 160.wav",78
Sample,171413,0,"Hi-Hat close.wav",66
Sample,171413,0,"Wah 10 160.wav",78
Sample,171728,0,"Hi-Hat close.wav",66
Sample,171728,0,"Wah x 10 160.wav",78
Sample,172042,0,"Hi-Hat close.wav",66
Sample,172042,0,"Wah x 0 160.wav",78
Sample,172356,0,"Hi-Hat close.wav",66
Sample,172356,0,"Wah x 10 160.wav",78
Sample,172670,0,"Hi-Hat close.wav",66
Sample,172670,0,"Wah 10 160.wav",78
Sample,172984,0,"Hi-Hat close.wav",66
Sample,172984,0,"Wah x 10 160.wav",78
Sample,173298,0,"Hi-Hat close.wav",66
Sample,173298,0,"Wah x x x 11 160.wav",78
Sample,173612,0,"Hi-Hat close.wav",66
Sample,173612,0,"Wah x 10 160.wav",78
Sample,173927,0,"Hi-Hat open.wav",66
Sample,173927,0,"Wah 10 160.wav",78
Sample,174241,0,"Hi-Hat open.wav",66
Sample,174241,0,"Wah x 10 160.wav",78
Sample,174555,0,"Hi-Hat open.wav",66
Sample,174555,0,"Wah x x x 10 160.wav",78
Sample,174869,0,"Wah x 10 160.wav",78
Sample,175026,0,"Wah x x 12 160.wav",78
Sample,175183,0,"x x 6 4 5 Dmaj7 Mute 160.wav",73
Sample,175183,0,"x 12 12 12 Mute 160.wav",78
Sample,175340,0,"bass 4-0 160.wav",65
Sample,175340,0,"x x 6 4 5 Dmaj7 320.wav",73
Sample,175340,0,"12 12 12 12 480.wav",78
Sample,175497,0,"Hi-Hat close.wav",58
Sample,175654,0,"x 5 4 x 4 C#m7 80.wav",73
Sample,175733,0,"x 5 4 x 4 C#m7 80.wav",73
Sample,175811,0,"Crash high.wav",67
Sample,175811,0,"bass 3-6 160.wav",65
Sample,175811,0,"x 5 4 x 4 C#m7 320.wav",73
Sample,175811,0,"x x 4 x 2 160.wav",78
Sample,175968,0,"bass 3-6 160.wav",65
Sample,175968,0,"x x 4 x 2 160.wav",78
Sample,176126,0,"Tom3.wav",57
Sample,176126,0,"bass 3-6 160.wav",65
Sample,176126,0,"x 5 4 x 4 C#m7 160.wav",73
Sample,176126,0,"x x 4 x 2 160.wav",78
Sample,176283,0,"Tom3.wav",57
Sample,176283,0,"bass 3-6 160.wav",65
Sample,176283,0,"x 5 4 x 4 C#m7 320.wav",73
Sample,176283,0,"x x 4 x 2 160.wav",78
Sample,176440,0,"Tom3.wav",67
Sample,176440,0,"bass 3-6 160.wav",65
Sample,176440,0,"x x 7 x 5 160.wav",78
Sample,176597,0,"Tom3.wav",67
Sample,176597,0,"bass 3-6 160.wav",65
Sample,176597,0,"x 5 4 x 4 C#m7 160.wav",73
Sample,176597,0,"x x 7 x 5 160.wav",78
Sample,176754,0,"Tom3.wav",77
Sample,176754,0,"bass 3-8 160.wav",65
Sample,176754,0,"x 5 4 x 4 C#m7 160.wav",73
Sample,176754,0,"x x 7 x 5 160.wav",78
Sample,176911,0,"Tom3.wav",77
Sample,176911,0,"bass 3-9 160.wav",65
Sample,176911,0,"x 5 4 x 4 C#m7 160.wav",73
Sample,176911,0,"x x 7 x 5 160.wav",78
Sample,177068,0,"Crash medium.wav",67
Sample,177068,0,"bass 3-10 160.wav",65
Sample,177068,0,"x 3 1 3 x 1 Ddim-F 320.wav",73
Sample,177068,0,"x 4 x 4 160.wav",78
Sample,177225,0,"bass 3-10 160.wav",65
Sample,177225,0,"x 4 x 4 160.wav",78
Sample,177382,0,"bass 3-10 160.wav",65
Sample,177382,0,"x 3 1 3 x 1 Ddim-F 160.wav",73
Sample,177382,0,"x 4 x 4 160.wav",78
Sample,177461,0,"Snare.wav",48
Sample,177539,0,"bass 3-10 160.wav",65
Sample,177539,0,"x 3 1 3 x 1 Ddim-F 320.wav",73
Sample,177539,0,"x 4 x 4 160.wav",78
Sample,177618,0,"Snare.wav",48
Sample,177696,0,"bass 2-11 160.wav",65
Sample,177696,0,"x 7 x 7 160.wav",78
Sample,177775,0,"Snare.wav",48
Sample,177853,0,"bass 2-11 160.wav",65
Sample,177853,0,"x 3 1 3 x 1 Ddim-F 160.wav",73
Sample,177853,0,"x 7 x 7 160.wav",78
Sample,177932,0,"Snare.wav",48
Sample,178010,0,"bass 3-10 160.wav",65
Sample,178010,0,"x 3 1 3 x 1 Ddim-F 160.wav",73
Sample,178010,0,"x 7 x 7 160.wav",78
Sample,178089,0,"Snare.wav",58
Sample,178167,0,"bass 3-10 160.wav",65
Sample,178167,0,"x 3 1 3 x 1 Ddim-F 160.wav",73
Sample,178167,0,"x 7 x 7 160.wav",78
Sample,178246,0,"Snare.wav",58
Sample,179895,0,"bass 4-4 320.wav",65
Sample,179895,0,"0 0 2 2 x 2 F#m7(11) 320.wav",73
Sample,179895,0,"x 8 7 9 320.wav",78
Sample,180209,0,"bass 4-2 320.wav",65
Sample,180209,0,"0 3 0 2 x 0 Em7 320.wav",73
Sample,180209,0,"x 6 5 7 320.wav",78
Sample,180523,0,"bass 3-2 320.wav",65
Sample,180523,0,"0 0 2 2 0 Aadd9 320.wav",73
Sample,180523,0,"x 5 4 5 320.wav",78
Sample,180838,0,"bass 4-0 320.wav",65
Sample,180838,0,"x 7 6 7 5 Dmaj7 320.wav",73
Sample,180838,0,"x 12 12 Mute 160.wav",78
Sample,180995,0,"x 12 12 160.wav",78
Sample,181152,0,"x 7 6 7 5 Dmaj7 160.wav",73
Sample,181152,0,"x 13 14 160.wav",78
Sample,181309,0,"Ride.wav",67
Sample,181309,0,"bass 4-0 160.wav",65
Sample,181309,0,"x 7 6 7 5 Dmaj7 320.wav",73
Sample,181309,0,"x 15 16 160.wav",78
Sample,181466,0,"bass 4-0 160.wav",65
Sample,181466,0,"x 13 14 160.wav",78
Sample,181623,0,"Ride.wav",67
Sample,181623,0,"bass 4-0 160.wav",65
Sample,181623,0,"x 7 6 7 5 Dmaj7 160.wav",73
Sample,181623,0,"x 12 12 160.wav",78
Sample,181780,0,"x 7 6 7 5 Dmaj7 160.wav",73
Sample,181780,0,"x x 12 14 160.wav",78
Sample,181937,0,"Ride.wav",67
Sample,181937,0,"bass 4-0 160.wav",65
Sample,181937,0,"x 7 6 7 5 Dmaj7 160.wav",73
Sample,181937,0,"x 12 12 160.wav",78
Sample,182094,0,"bass 4-0 160.wav",65
Sample,182094,0,"x 6 5 7 5 Dm7 320.wav",73
Sample,182094,0,"x 12 12 Mute 160.wav",78
Sample,182251,0,"Ride.wav",67
Sample,182251,0,"bass 4-0 160.wav",65
Sample,182251,0,"x 12 12 160.wav",78
Sample,182408,0,"x 6 5 7 5 Dm7 160.wav",73
Sample,182408,0,"x 13 14 160.wav",78
Sample,182565,0,"Ride.wav",67
Sample,182565,0,"bass 3-7 320.wav",65
Sample,182565,0,"x 6 5 7 5 Dm7 320.wav",73
Sample,182565,0,"x 12 12 160.wav",78
Sample,182722,0,"x 13 14 160.wav",78
Sample,182879,0,"Ride.wav",67
Sample,182879,0,"bass 3-7 160.wav",65
Sample,182879,0,"x 6 5 7 5 Dm7 160.wav",73
Sample,182879,0,"x 12 12 160.wav",78
Sample,183037,0,"x 6 5 7 5 Dm7 160.wav",73
Sample,183037,0,"x 12 12 Mute 160.wav",78
Sample,183194,0,"Ride.wav",67
Sample,183194,0,"bass 4-0 160.wav",65
Sample,183194,0,"x 6 5 7 5 Dm7 160.wav",73
Sample,183194,0,"x 12 12 160.wav",78
Sample,183351,0,"bass 3-6 320.wav",65
Sample,183351,0,"x 5 4 x 4 C#m7 320.wav",73
Sample,183351,0,"x 12 12 Mute 160.wav",78
Sample,183508,0,"Ride.wav",67
Sample,183508,0,"x 12 12 160.wav",78
Sample,183665,0,"x 5 4 x 4 C#m7 160.wav",73
Sample,183665,0,"x 13 14 160.wav",78
Sample,183822,0,"Ride.wav",67
Sample,183822,0,"bass 3-6 160.wav",65
Sample,183822,0,"x 5 4 x 4 C#m7 320.wav",73
Sample,183822,0,"x 15 16 160.wav",78
Sample,183979,0,"bass 3-6 160.wav",65
Sample,183979,0,"x 13 14 160.wav",78
Sample,184136,0,"Ride.wav",67
Sample,184136,0,"bass 3-6 160.wav",65
Sample,184136,0,"x 5 4 x 4 C#m7 160.wav",73
Sample,184136,0,"x 12 12 160.wav",78
Sample,184293,0,"x 5 4 x 4 C#m7 160.wav",73
Sample,184293,0,"x x 12 14 160.wav",78
Sample,184450,0,"Ride.wav",67
Sample,184450,0,"bass 1-7 320.wav",65
Sample,184450,0,"x 5 4 x 4 C#m7 160.wav",73
Sample,184450,0,"x 12 12 160.wav",78
Sample,184607,0,"x 4 2 4 3 Cdim7 320.wav",73
Sample,184607,0,"x 12 12 Mute 160.wav",78
Sample,184764,0,"Ride.wav",67
Sample,184764,0,"bass 2-9 320.wav",65
Sample,184764,0,"x 12 12 160.wav",78
Sample,184921,0,"x 13 14 160.wav",78
Sample,185078,0,"Ride.wav",67
Sample,185078,0,"bass 2-6 320.wav",65
Sample,185078,0,"x 4 2 4 3 Cdim7 320.wav",73
Sample,185078,0,"x 12 12 160.wav",78
Sample,185235,0,"x 13 14 160.wav",78
Sample,185393,0,"Ride.wav",67
Sample,185393,0,"bass 1-7 160.wav",65
Sample,185393,0,"x 4 2 4 3 Cdim7 160.wav",73
Sample,185393,0,"x 12 12 160.wav",78
Sample,185550,0,"x 4 2 4 3 Cdim7 160.wav",73
Sample,185550,0,"x x x 7 x 5 Mute 160.wav",78
Sample,185707,0,"Ride.wav",67
Sample,185707,0,"x 4 2 4 3 Cdim7 160.wav",73
Sample,185707,0,"x x x 7 x 5 80.wav",78
Sample,185785,0,"x x x 7 x 5 80.wav",78
Sample,185864,0,"Crash high.wav",67
Sample,185864,0,"bass 3-4 160.wav",65
Sample,185864,0,"x 3 2 x 2 Bm7 320.wav",73
Sample,185864,0,"x x x 7 x 5 160.wav",78
Sample,186021,0,"bass 3-4 160.wav",65
Sample,186021,0,"x x x 7 x 5 160.wav",78
Sample,186178,0,"bass 4-4 160.wav",65
Sample,186178,0,"x 3 2 x 2 Bm7 160.wav",73
Sample,186178,0,"x x x 7 x 5 160.wav",78
Sample,186335,0,"bass 4-4 160.wav",65
Sample,186335,0,"x 3 2 x 2 Bm7 160.wav",73
Sample,186335,0,"x x x 7 x 5 160.wav",78
Sample,186492,0,"bass 3-2 160.wav",65
Sample,186492,0,"x 3 2 x 2 Bm7 160.wav",73
Sample,186492,0,"x x x 10 x 8 160.wav",78
Sample,186649,0,"bass 3-2 160.wav",65
Sample,186649,0,"x 3 2 x 2 Bm7 160.wav",73
Sample,186649,0,"x x x 10 x 8 160.wav",78
Sample,186806,0,"bass 3-4 160.wav",65
Sample,186806,0,"x 3 2 x 2 Bm7 160.wav",73
Sample,186806,0,"x x x 10 x 8 160.wav",78
Sample,186963,0,"bass 3-4 160.wav",65
Sample,186963,0,"x 3 2 x 2 Bm7 160.wav",73
Sample,186963,0,"x x x 10 x 8 160.wav",78
Sample,187120,0,"bass 3-6 160.wav",65
Sample,187120,0,"x 5 4 x 4 C#m7 320.wav",73
Sample,187120,0,"x x x 12 x 10 160.wav",78
Sample,187277,0,"bass 3-6 160.wav",65
Sample,187277,0,"x x x 12 x 10 160.wav",78
Sample,187434,0,"bass 4-6 160.wav",65
Sample,187434,0,"x 5 4 x 4 C#m7 160.wav",73
Sample,187434,0,"x x x 12 x 10 160.wav",78
Sample,187591,0,"bass 4-6 160.wav",65
Sample,187591,0,"x 5 4 x 4 C#m7 160.wav",73
Sample,187591,0,"x x x 12 x 10 160.wav",78
Sample,187749,0,"bass 3-4 160.wav",65
Sample,187749,0,"x 5 4 x 4 C#m7 160.wav",73
Sample,187749,0,"x x x 9 x 7 160.wav",78
Sample,187906,0,"bass 3-4 160.wav",65
Sample,187906,0,"x 5 4 x 4 C#m7 160.wav",73
Sample,187906,0,"x x x 9 x 7 160.wav",78
Sample,188063,0,"bass 3-6 160.wav",65
Sample,188063,0,"x 5 4 x 4 C#m7 160.wav",73
Sample,188063,0,"x x x 9 x 7 160.wav",78
Sample,188220,0,"bass 3-6 160.wav",65
Sample,188220,0,"x 5 4 x 4 C#m7 160.wav",73
Sample,188220,0,"x x x 9 x 7 160.wav",78
Sample,188377,0,"bass 3-10 160.wav",65
Sample,188377,0,"1 1 2 3 3 1 F 320.wav",73
Sample,188377,0,"x 4 6 bend full 320.wav",78
Sample,188534,0,"bass 3-10 160.wav",65
Sample,188691,0,"bass 4-10 160.wav",65
Sample,188691,0,"1 1 2 3 3 1 F 160.wav",73
Sample,188691,0,"x 4 6 bend full 320.wav",78
Sample,188848,0,"bass 4-10 160.wav",65
Sample,188848,0,"1 1 2 3 3 1 F 160.wav",73
Sample,189005,0,"bass 2-9 160.wav",65
Sample,189005,0,"1 1 2 3 3 1 F 160.wav",73
Sample,189005,0,"x 4 6 bend full 320.wav",78
Sample,189162,0,"bass 2-9 160.wav",65
Sample,189162,0,"1 1 2 3 3 1 F 160.wav",73
Sample,189319,0,"bass 3-10 160.wav",65
Sample,189319,0,"1 1 2 3 3 1 F 160.wav",73
Sample,189319,0,"x 4 6 bend full 320.wav",78
Sample,189476,0,"bass 3-10 160.wav",65
Sample,189476,0,"1 1 2 3 3 1 F 160.wav",73
Sample,189633,0,"bass 3-9 160.wav",65
Sample,189633,0,"0 0 1 2 2 0 E 320.wav",73
Sample,189633,0,"x 3 5 bend full 320.wav",78
Sample,189790,0,"bass 3-9 160.wav",65
Sample,189869,0,"Snare.wav",58
Sample,189948,0,"bass 2-9 160.wav",65
Sample,189948,0,"0 0 1 2 2 0 E 160.wav",73
Sample,189948,0,"x 3 5 bend full 320.wav",78
Sample,190026,0,"Snare.wav",58
Sample,190105,0,"bass 2-9 160.wav",65
Sample,190105,0,"0 0 1 2 2 0 E 160.wav",73
Sample,190183,0,"Snare.wav",58
Sample,190262,0,"bass 3-11 160.wav",65
Sample,190262,0,"0 0 1 2 2 0 E 160.wav",73
Sample,190262,0,"x 3 5 bend full 320.wav",78
Sample,190340,0,"Snare.wav",58
Sample,190419,0,"bass 1-12 160.wav",65
Sample,190419,0,"0 0 1 2 2 0 E 160.wav",73
Sample,190497,0,"Snare.wav",58
Sample,190576,0,"bass 1-11 320.wav",65
Sample,190576,0,"0 0 1 2 2 0 E 160.wav",73
Sample,190576,0,"x 3 5 bend full 320.wav",78
Sample,190654,0,"Snare.wav",58
Sample,190733,0,"0 0 1 2 2 0 E 160.wav",73
Sample,190890,0,"bass 3-2 320.wav",65
Sample,190890,0,"0 2 2 2 0 A 320.wav",73
Sample,190890,0,"x 0 0 Mute 160.wav",78
Sample,191047,0,"x 0 0 160.wav",78
Sample,191204,0,"0 2 2 2 0 A 160.wav",73
Sample,191204,0,"x 1 2 160.wav",78
Sample,191361,0,"Hi-Hat open.wav",66
Sample,191361,0,"bass 3-2 160.wav",65
Sample,191361,0,"0 2 2 2 0 A 320.wav",73
Sample,191361,0,"x 3 4 160.wav",78
Sample,191518,0,"Hi-Hat close.wav",58
Sample,191518,0,"bass 3-2 160.wav",65
Sample,191518,0,"x 1 2 160.wav",78
Sample,191675,0,"Hi-Hat open.wav",66
Sample,191675,0,"bass 3-2 160.wav",65
Sample,191675,0,"0 2 2 2 0 A 160.wav",73
Sample,191675,0,"x 0 0 160.wav",78
Sample,191832,0,"bass 3-4 160.wav",65
Sample,191832,0,"0 2 2 2 0 A 160.wav",73
Sample,191832,0,"x x 0 2 160.wav",78
Sample,191989,0,"Hi-Hat open.wav",66
Sample,191989,0,"bass 3-5 160.wav",65
Sample,191989,0,"0 2 2 2 0 A 160.wav",73
Sample,191989,0,"x 0 0 160.wav",78
Sample,192146,0,"Hi-Hat close.wav",58
Sample,192146,0,"bass 3-6 320.wav",65
Sample,192146,0,"x 5 4 x 4 C#m7 320.wav",73
Sample,192146,0,"x 0 0 Mute 160.wav",78
Sample,192304,0,"Hi-Hat open.wav",66
Sample,192304,0,"x 0 0 160.wav",78
Sample,192461,0,"bass 3-6 160.wav",65
Sample,192461,0,"x 5 4 x 4 C#m7 160.wav",73
Sample,192461,0,"x 1 2 160.wav",78
Sample,192618,0,"Hi-Hat open.wav",66
Sample,192618,0,"bass 3-6 160.wav",65
Sample,192618,0,"x 5 4 x 4 C#m7 320.wav",73
Sample,192618,0,"x 0 0 160.wav",78
Sample,192696,0,"Snare.wav",57
Sample,192775,0,"Hi-Hat close.wav",58
Sample,192775,0,"bass 3-6 160.wav",65
Sample,192775,0,"x 1 2 160.wav",78
Sample,192932,0,"Hi-Hat open.wav",66
Sample,192932,0,"bass 3-6 160.wav",65
Sample,192932,0,"x 5 4 x 4 C#m7 160.wav",73
Sample,192932,0,"x 0 0 160.wav",78
Sample,193089,0,"bass 3-6 160.wav",65
Sample,193089,0,"x 5 4 x 4 C#m7 160.wav",73
Sample,193089,0,"x 0 0 Mute 160.wav",78
Sample,193246,0,"Hi-Hat open.wav",66
Sample,193246,0,"bass 3-6 160.wav",65
Sample,193246,0,"x 5 4 x 4 C#m7 160.wav",73
Sample,193246,0,"x 0 0 160.wav",78
Sample,193403,0,"Hi-Hat close.wav",58
Sample,193403,0,"bass 3-6 160.wav",65
Sample,193403,0,"x 7 6 7 6 D#m7b5 320.wav",73
Sample,193403,0,"x 0 0 Mute 160.wav",78
Sample,193560,0,"Hi-Hat open.wav",66
Sample,193560,0,"bass 3-7 160.wav",65
Sample,193560,0,"x 0 0 160.wav",78
Sample,193717,0,"bass 3-7 160.wav",65
Sample,193717,0,"x 7 6 7 6 D#m7b5 160.wav",73
Sample,193717,0,"x 1 2 160.wav",78
Sample,193874,0,"Hi-Hat open.wav",66
Sample,193874,0,"bass 2-9 320.wav",65
Sample,193874,0,"x 7 6 7 6 D#m7b5 320.wav",73
Sample,193874,0,"x 3 4 160.wav",78
Sample,193953,0,"Snare.wav",57
Sample,194031,0,"Hi-Hat close.wav",58
Sample,194031,0,"x 1 2 160.wav",78
Sample,194188,0,"Hi-Hat open.wav",66
Sample,194188,0,"bass 2-9 160.wav",65
Sample,194188,0,"x 7 6 7 6 D#m7b5 160.wav",73
Sample,194188,0,"x 0 0 160.wav",78
Sample,194345,0,"bass 3-8 320.wav",65
Sample,194345,0,"x 7 6 7 6 D#m7b5 160.wav",73
Sample,194345,0,"x x 0 0 160.wav",78
Sample,194502,0,"Hi-Hat open.wav",66
Sample,194502,0,"x 7 6 7 6 D#m7b5 160.wav",73
Sample,194502,0,"x 0 0 160.wav",78
Sample,194660,0,"Hi-Hat close.wav",58
Sample,194660,0,"bass 3-7 320.wav",65
Sample,194660,0,"x 7 6 7 5 Dmaj7 320.wav",73
Sample,194660,0,"x 0 0 Mute 160.wav",78
Sample,194817,0,"Hi-Hat open.wav",66
Sample,194817,0,"x 0 0 160.wav",78
Sample,194974,0,"bass 2-11 160.wav",65
Sample,194974,0,"x 7 6 7 5 Dmaj7 160.wav",73
Sample,194974,0,"x 1 2 160.wav",78
Sample,195131,0,"Hi-Hat open.wav",66
Sample,195131,0,"bass 2-9 320.wav",65
Sample,195131,0,"x 7 6 7 5 Dmaj7 320.wav",73
Sample,195131,0,"x 0 0 160.wav",78
Sample,195209,0,"Snare.wav",57
Sample,195288,0,"Hi-Hat close.wav",58
Sample,195288,0,"x 1 2 160.wav",78
Sample,195445,0,"Hi-Hat open.wav",66
Sample,195445,0,"bass 3-9 160.wav",65
Sample,195445,0,"x 7 6 7 5 Dmaj7 160.wav",73
Sample,195445,0,"x 0 0 160.wav",78
Sample,195602,0,"bass 3-7 320.wav",65
Sample,195602,0,"x 7 6 7 5 Dmaj7 160.wav",73
Sample,195602,0,"x x 4 x 2 Mute 160.wav",78
Sample,195759,0,"Hi-Hat open.wav",66
Sample,195759,0,"x 7 6 7 5 Dmaj7 160.wav",73
Sample,195759,0,"x x 4 x 2 80.wav",78
Sample,195838,0,"x x 4 x 2 80.wav",78
Sample,195916,0,"bass 3-6 320.wav",65
Sample,195916,0,"x 5 4 x 4 C#m7 320.wav",73
Sample,195916,0,"x x 4 x 2 160.wav",78
Sample,196073,0,"x x 4 x 2 160.wav",78
Sample,196230,0,"x 5 4 x 4 C#m7 160.wav",73
Sample,196230,0,"x x 4 x 2 160.wav",78
Sample,196387,0,"Hi-Hat open.wav",66
Sample,196387,0,"bass 3-6 160.wav",65
Sample,196387,0,"x 5 4 x 4 C#m7 320.wav",73
Sample,196387,0,"x x 4 x 2 160.wav",78
Sample,196466,0,"Snare.wav",57
Sample,196544,0,"Hi-Hat close.wav",58
Sample,196544,0,"bass 3-6 160.wav",65
Sample,196544,0,"x x 7 x 5 160.wav",78
Sample,196701,0,"Hi-Hat open.wav",66
Sample,196701,0,"bass 3-6 160.wav",65
Sample,196701,0,"x 5 4 x 4 C#m7 160.wav",73
Sample,196701,0,"x x 7 x 5 160.wav",78
Sample,196859,0,"bass 3-8 160.wav",65
Sample,196859,0,"x 5 4 x 4 C#m7 160.wav",73
Sample,196859,0,"x x 7 x 5 160.wav",78
Sample,197016,0,"Hi-Hat open.wav",66
Sample,197016,0,"bass 3-9 160.wav",65
Sample,197016,0,"x 5 4 x 4 C#m7 160.wav",73
Sample,197016,0,"x x 7 x 5 160.wav",78
Sample,197173,0,"bass 3-10 320.wav",65
Sample,197173,0,"x 3 1 3 x 1 Ddim-F 320.wav",73
Sample,197173,0,"x 4 x 4 160.wav",78
Sample,197330,0,"x 4 x 4 160.wav",78
Sample,197487,0,"x 3 1 3 x 1 Ddim-F 160.wav",73
Sample,197487,0,"x 4 x 4 160.wav",78
Sample,197644,0,"Hi-Hat open.wav",66
Sample,197644,0,"bass 4-3 160.wav",65
Sample,197644,0,"x 3 1 3 x 1 Ddim-F 320.wav",73
Sample,197644,0,"x 4 x 4 160.wav",78
Sample,197801,0,"Hi-Hat close.wav",58
Sample,197801,0,"bass 4-3 160.wav",65
Sample,197801,0,"x 7 x 7 160.wav",78
Sample,197958,0,"bass 4-3 160.wav",65
Sample,197958,0,"x 3 1 3 x 1 Ddim-F 160.wav",73
Sample,197958,0,"x 7 x 7 160.wav",78
Sample,198115,0,"Kick.wav",67
Sample,198115,0,"bass 4-3 320.wav",65
Sample,198115,0,"x 3 1 3 x 1 Ddim-F 160.wav",73
Sample,198115,0,"x 7 x 7 320.wav",78
Sample,198194,0,"Snare.wav",57
Sample,198272,0,"x 3 1 3 x 1 Ddim-F 160.wav",73
Sample,198429,0,"bass 3-11 240.wav",65
Sample,198429,0,"0 0 2 2 x 2 F#m7(11) 160.wav",73
Sample,198429,0,"12 12 160.wav",78
Sample,198586,0,"0 0 2 2 x 2 F#m7(11) 160.wav",73
Sample,198586,0,"12 12 160.wav",78
Sample,198665,0,"bass 2-13 240.wav",65
Sample,198743,0,"0 0 2 2 x 2 F#m7(11) 160.wav",73
Sample,198743,0,"x 15 160.wav",78
Sample,198822,0,"Snare.wav",57
Sample,198900,0,"bass 1-13 160.wav",65
Sample,198900,0,"0 0 2 2 x 2 F#m7(11) 160.wav",73
Sample,198900,0,"x x 14 160.wav",78
Sample,198979,0,"Snare.wav",57
Sample,199057,0,"bass 1-12 240.wav",65
Sample,199057,0,"x 1 1 1 x 1 Fm7 160.wav",73
Sample,199057,0,"x 12 160.wav",78
Sample,199215,0,"x 1 1 1 x 1 Fm7 160.wav",73
Sample,199215,0,"x x 12 160.wav",78
Sample,199293,0,"bass 2-12 240.wav",65
Sample,199372,0,"Snare.wav",67
Sample,199372,0,"x 1 1 1 x 1 Fm7 160.wav",73
Sample,199372,0,"x x 14 160.wav",78
Sample,199450,0,"Snare.wav",57
Sample,199529,0,"bass 3-10 160.wav",65
Sample,199529,0,"x 1 1 1 x 1 Fm7 160.wav",73
Sample,199529,0,"x x x 14 160.wav",78
Sample,199607,0,"Snare.wav",57
Sample,199686,0,"bass 3-9 240.wav",65
Sample,199686,0,"x 3 0 2 x 0 Em7 160.wav",73
Sample,199686,0,"x x 12 160.wav",78
Sample,199843,0,"x 3 0 2 x 0 Em7 160.wav",73
Sample,199843,0,"x x x 12 160.wav",78
Sample,199921,0,"bass 2-11 240.wav",65
Sample,200000,0,"Kick.wav",67
Sample,200000,0,"x 3 0 2 x 0 Em7 160.wav",73
Sample,200000,0,"x 15 bend full release Left-hand vibrato 640.wav",78
Sample,200078,0,"Snare.wav",57
Sample,200157,0,"Snare.wav",57
Sample,200157,0,"bass 3-9 160.wav",65
Sample,200157,0,"x 3 0 2 x 0 Em7 160.wav",73
Sample,200235,0,"Snare.wav",57
Sample,200314,0,"bass 4-11 320.wav",65
Sample,200314,0,"0 2 0 2 0 A7 160.wav",73
Sample,200393,0,"Tom1.wav",67
Sample,200471,0,"0 2 0 2 0 A7 160.wav",73
Sample,200628,0,"bass 2-9 320.wav",65
Sample,200628,0,"0 2 0 2 0 A7 160.wav",73
Sample,200628,0,"x 0 0 320.wav",78
Sample,200785,0,"0 2 0 2 0 A7 160.wav",73
Sample,200942,0,"bass 3-7 320.wav",65
Sample,200942,0,"x 7 6 7 5 Dmaj7 320.wav",73
Sample,200942,0,"x x 9 x 7 160.wav",78
Sample,201099,0,"x x 9 x 7 160.wav",78
Sample,201256,0,"bass 4-0 160.wav",65
Sample,201256,0,"x 7 6 7 5 Dmaj7 160.wav",73
Sample,201256,0,"x x 9 x 7 160.wav",78
Sample,201413,0,"Ride.wav",57
Sample,201413,0,"bass 4-0 160.wav",65
Sample,201413,0,"x 7 6 7 5 Dmaj7 320.wav",73
Sample,201413,0,"x x 9 x 7 160.wav",78
Sample,201571,0,"Ride.wav",67
Sample,201571,0,"bass 4-0 160.wav",65
Sample,201571,0,"x x 9 x 7 160.wav",78
Sample,201728,0,"Ride.wav",57
Sample,201728,0,"bass 4-0 160.wav",65
Sample,201728,0,"x 7 6 7 5 Dmaj7 160.wav",73
Sample,201728,0,"x x 9 x 7 160.wav",78
Sample,201885,0,"bass 4-0 160.wav",65
Sample,201885,0,"x 7 6 7 5 Dmaj7 160.wav",73
Sample,201885,0,"x x 9 x 7 160.wav",78
Sample,202042,0,"Ride.wav",57
Sample,202042,0,"bass 4-0 160.wav",65
Sample,202042,0,"x 7 6 7 5 Dmaj7 160.wav",73
Sample,202042,0,"x x 9 x 7 160.wav",78
Sample,202199,0,"Ride.wav",67
Sample,202199,0,"bass 4-2 320.wav",65
Sample,202199,0,"x 6 5 7 5 Dm7 320.wav",73
Sample,202199,0,"x x 8 x 6 160.wav",78
Sample,202356,0,"Ride.wav",57
Sample,202356,0,"x x 8 x 6 160.wav",78
Sample,202513,0,"bass 3-10 160.wav",65
Sample,202513,0,"x 6 5 7 5 Dm7 160.wav",73
Sample,202513,0,"x x 8 x 6 320.wav",78
Sample,202670,0,"Ride.wav",57
Sample,202670,0,"bass 3-9 320.wav",65
Sample,202670,0,"x 6 5 7 5 Dm7 320.wav",73
Sample,202827,0,"Ride.wav",67
Sample,202827,0,"x x 12 x 10 160.wav",78
Sample,202984,0,"Ride.wav",57
Sample,202984,0,"bass 3-9 160.wav",65
Sample,202984,0,"x 6 5 7 5 Dm7 160.wav",73
Sample,202984,0,"x x 12 x 10 160.wav",78
Sample,203141,0,"bass 3-7 320.wav",65
Sample,203141,0,"x 6 5 7 5 Dm7 160.wav",73
Sample,203141,0,"x x 12 x 10 320.wav",78
Sample,203298,0,"Ride.wav",57
Sample,203298,0,"x 6 5 7 5 Dm7 160.wav",73
Sample,203455,0,"Ride.wav",67
Sample,203455,0,"bass 3-6 320.wav",65
Sample,203455,0,"x 5 4 x 4 C#m7 320.wav",73
Sample,203455,0,"x x 7 x 5 160.wav",78
Sample,203612,0,"Ride.wav",57
Sample,203612,0,"x x 7 x 5 160.wav",78
Sample,203769,0,"bass 3-6 160.wav",65
Sample,203769,0,"x 5 4 x 4 C#m7 160.wav",73
Sample,203769,0,"x x 7 x 5 160.wav",78
Sample,203927,0,"Ride.wav",57
Sample,203927,0,"bass 3-6 160.wav",65
Sample,203927,0,"x 5 4 x 4 C#m7 320.wav",73
Sample,203927,0,"x x 7 x 5 160.wav",78
Sample,204084,0,"Ride.wav",67
Sample,204084,0,"bass 3-6 160.wav",65
Sample,204084,0,"x x 7 x 5 160.wav",78
Sample,204241,0,"Ride.wav",57
Sample,204241,0,"bass 3-6 160.wav",65
Sample,204241,0,"x 5 4 x 4 C#m7 160.wav",73
Sample,204241,0,"x x 7 x 5 160.wav",78
Sample,204398,0,"bass 3-6 160.wav",65
Sample,204398,0,"x 5 4 x 4 C#m7 160.wav",73
Sample,204398,0,"x x 7 x 5 160.wav",78
Sample,204555,0,"Ride.wav",57
Sample,204555,0,"bass 3-6 160.wav",65
Sample,204555,0,"x 5 4 x 4 C#m7 160.wav",73
Sample,204555,0,"x x 7 x 5 160.wav",78
Sample,204712,0,"Ride.wav",67
Sample,204712,0,"bass 3-5 160.wav",65
Sample,204712,0,"x 4 2 4 3 Cdim7 320.wav",73
Sample,204712,0,"x x 6 x 4 160.wav",78
Sample,204869,0,"Ride.wav",57
Sample,204869,0,"bass 2-6 320.wav",65
Sample,204869,0,"x x 6 x 4 160.wav",78
Sample,205026,0,"x 4 2 4 3 Cdim7 160.wav",73
Sample,205026,0,"x x 6 x 4 320.wav",78
Sample,205183,0,"Ride.wav",57
Sample,205183,0,"bass 3-8 320.wav",65
Sample,205183,0,"x 4 2 4 3 Cdim7 320.wav",73
Sample,205340,0,"Ride.wav",67
Sample,205340,0,"x x 9 x 7 160.wav",78
Sample,205497,0,"Ride.wav",57
Sample,205497,0,"bass 3-8 160.wav",65
Sample,205497,0,"x 4 2 4 3 Cdim7 160.wav",73
Sample,205497,0,"x x 9 x 7 160.wav",78
Sample,205654,0,"bass 3-5 320.wav",65
Sample,205654,0,"x 4 2 4 3 Cdim7 160.wav",73
Sample,205654,0,"x x 9 x 7 320.wav",78
Sample,205811,0,"Ride.wav",57
Sample,205811,0,"x 4 2 4 3 Cdim7 160.wav",73
Sample,205968,0,"bass 3-4 160.wav",65
Sample,205968,0,"x 3 2 x 2 Bm7 160.wav",73
Sample,205968,0,"x 1 0 2 0 160.wav",78
Sample,206126,0,"bass 4-4 160.wav",65
Sample,206126,0,"x 3 2 x 2 Bm7 160.wav",73
Sample,206126,0,"x 1 0 2 0 160.wav",78
Sample,206283,0,"bass 3-4 320.wav",65
Sample,206283,0,"x 3 2 x 2 Bm7 160.wav",73
Sample,206283,0,"x 1 0 2 0 160.wav",78
Sample,206440,0,"x 3 2 x 2 Bm7 160.wav",73
Sample,206440,0,"x 1 0 2 0 160.wav",78
Sample,206597,0,"bass 3-6 160.wav",65
Sample,206597,0,"x 5 4 x 4 C#m7 160.wav",73
Sample,206597,0,"x 3 2 0 2 160.wav",78
Sample,206754,0,"bass 4-6 160.wav",65
Sample,206754,0,"x 5 4 x 4 C#m7 160.wav",73
Sample,206754,0,"x 3 2 0 2 160.wav",78
Sample,206911,0,"bass 3-6 320.wav",65
Sample,206911,0,"x 5 4 x 4 C#m7 160.wav",73
Sample,206911,0,"x 3 2 0 2 160.wav",78
Sample,207068,0,"x 5 4 x 4 C#m7 160.wav",73
Sample,207068,0,"x 3 2 0 2 160.wav",78
Sample,207225,0,"bass 3-7 160.wav",65
Sample,207225,0,"x 5 6 7 5 Dmaj9 160.wav",73
Sample,207225,0,"x 3 0 2 3 160.wav",78
Sample,207382,0,"bass 4-7 160.wav",65
Sample,207382,0,"x 5 6 7 5 Dmaj9 160.wav",73
Sample,207382,0,"x 3 0 2 3 160.wav",78
Sample,207539,0,"bass 3-7 320.wav",65
Sample,207539,0,"x 5 6 7 5 Dmaj9 160.wav",73
Sample,207539,0,"x 3 0 2 3 160.wav",78
Sample,207696,0,"x 5 6 7 5 Dmaj9 160.wav",73
Sample,207696,0,"x 3 0 2 3 160.wav",78
Sample,207853,0,"bass 3-9 160.wav",65
Sample,207853,0,"0 0 1 2 2 0 E 160.wav",73
Sample,207853,0,"x 3 2 0 160.wav",78
Sample,208010,0,"bass 3-9 160.wav",65
Sample,208010,0,"0 0 1 2 2 0 E 160.wav",73
Sample,208010,0,"x 3 2 0 160.wav",78
Sample,208167,0,"bass 2-8 320.wav",65
Sample,208167,0,"0 0 1 2 2 0 E 160.wav",73
Sample,208167,0,"x 3 2 0 320.wav",78
Sample,208324,0,"0 0 1 2 2 0 E 160.wav",73
Sample,208482,0,"bass 3-11 160.wav",65
Sample,208482,0,"0 0 2 2 x 2 F#m7(11) 160.wav",73
Sample,208482,0,"12 12 160.wav",78
Sample,208639,0,"bass 3-11 160.wav",65
Sample,208639,0,"0 0 2 2 x 2 F#m7(11) 160.wav",73
Sample,208639,0,"x x 14 bend full release 320.wav",78
Sample,208796,0,"bass 2-8 160.wav",65
Sample,208796,0,"0 0 2 2 x 2 F#m7(11) 160.wav",73
Sample,208953,0,"0 0 2 2 x 2 F#m7(11) 160.wav",73
Sample,208953,0,"x x 12 320.wav",78
Sample,209110,0,"Ride.wav",67
Sample,209110,0,"bass 2-9 160.wav",65
Sample,209110,0,"0 0 2 2 x 2 F#m7(11) 160.wav",73
Sample,209267,0,"bass 2-9 160.wav",65
Sample,209267,0,"0 0 2 2 x 2 F#m7(11) 160.wav",73
Sample,209267,0,"x x x 14 160.wav",78
Sample,209424,0,"x x x 12 160.wav",78
Sample,209581,0,"bass 2-11 320.wav",65
Sample,209581,0,"x 4 2 4 2 B7 320.wav",73
Sample,209581,0,"x x x 11 320.wav",78
Sample,209895,0,"bass 3-11 160.wav",65
Sample,209895,0,"x 4 2 4 2 B7 160.wav",73
Sample,209895,0,"12 x 12 80.wav",78
Sample,209974,0,"14 x 14 80.wav",78
Sample,210052,0,"bass 1-11 160.wav",65
Sample,210052,0,"x 4 2 4 2 B7 160.wav",73
Sample,210209,0,"x 4 2 4 2 B7 320.wav",73
Sample,210209,0,"12 x 12 480.wav",78
Sample,210366,0,"Ride.wav",67
Sample,210523,0,"bass 2-11 160.wav",65
Sample,210523,0,"x 4 2 4 2 B7 160.wav",73
Sample,210680,0,"bass 3-11 320.wav",65
Sample,210680,0,"x 4 2 4 2 B7 160.wav",73
Sample,210680,0,"x 0 0 0 320.wav",78
Sample,210838,0,"x 4 2 4 2 B7 160.wav",73
Sample,210995,0,"bass 3-7 160.wav",65
Sample,210995,0,"x 5 6 7 5 Dmaj9 160.wav",73
Sample,210995,0,"x 3 0 2 3 320.wav",78
Sample,211152,0,"bass 4-7 160.wav",65
Sample,211152,0,"x 5 6 7 5 Dmaj9 160.wav",73
Sample,211309,0,"bass 4-0 320.wav",65
Sample,211309,0,"x 5 6 7 5 Dmaj9 160.wav",73
Sample,211309,0,"x 3 0 2 3 320.wav",78
Sample,211466,0,"x 5 6 7 5 Dmaj9 160.wav",73
Sample,211623,0,"bass 3-6 160.wav",65
Sample,211623,0,"x 5 4 x 4 C#m7 160.wav",73
Sample,211623,0,"x 3 0 2 3 320.wav",78
Sample,211780,0,"bass 3-6 160.wav",65
Sample,211780,0,"x 5 4 x 4 C#m7 160.wav",73
Sample,211937,0,"bass 3-6 320.wav",65
Sample,211937,0,"x 5 4 x 4 C#m7 160.wav",73
Sample,211937,0,"x 3 0 2 3 320.wav",78
Sample,212094,0,"x 5 4 x 4 C#m7 160.wav",73
Sample,212251,0,"bass 3-4 160.wav",65
Sample,212251,0,"x 3 2 x 2 Bm7 160.wav",73
Sample,212251,0,"x 5 5 5 320.wav",78
Sample,212408,0,"bass 3-4 160.wav",65
Sample,212408,0,"x 3 2 x 2 Bm7 160.wav",73
Sample,212565,0,"bass 3-4 320.wav",65
Sample,212565,0,"x 3 2 x 2 Bm7 160.wav",73
Sample,212565,0,"x 5 5 5 320.wav",78
Sample,212722,0,"x 3 2 x 2 Bm7 160.wav",73
Sample,212879,0,"bass 4-2 160.wav",65
Sample,212879,0,"0 0 1 2 2 0 E 160.wav",73
Sample,212879,0,"5 5 5 5 320.wav",78
Sample,213037,0,"bass 4-2 160.wav",65
Sample,213037,0,"0 0 1 2 2 0 E 160.wav",73
Sample,213194,0,"bass 4-2 320.wav",65
Sample,213194,0,"0 0 1 2 2 0 E 160.wav",73
Sample,213194,0,"5 5 5 5 320.wav",78
Sample,213351,0,"0 0 1 2 2 0 E 160.wav",73
Sample,213508,0,"bass 3-4 320.wav",65
Sample,213508,0,"0 0 2 2 0 Aadd9 160.wav",73
Sample,213508,0,"x x x x x 0 160.wav",78
Sample,213665,0,"0 0 2 2 0 Aadd9 160.wav",73
Sample,213665,0,"x x x x x 2 160.wav",78
Sample,213822,0,"bass 2-6 160.wav",65
Sample,213822,0,"0 0 2 2 0 Aadd9 160.wav",73
Sample,213822,0,"x x x x x 3 160.wav",78
Sample,213979,0,"bass 2-6 160.wav",65
Sample,213979,0,"0 0 2 2 0 Aadd9 160.wav",73
Sample,213979,0,"x x x x 0 320.wav",78
Sample,214136,0,"bass 3-9 160.wav",65
Sample,214136,0,"0 0 2 2 0 Aadd9 160.wav",73
Sample,214293,0,"bass 3-9 160.wav",65
Sample,214293,0,"0 0 2 2 0 Aadd9 160.wav",73
Sample,214293,0,"x x x x 2 160.wav",78
Sample,214450,0,"bass 2-6 160.wav",65
Sample,214450,0,"0 0 2 2 0 Aadd9 160.wav",73
Sample,214450,0,"x x x x 3 160.wav",78
Sample,214607,0,"bass 2-9 320.wav",65
Sample,214607,0,"0 0 2 2 0 Aadd9 320.wav",73
Sample,214607,0,"x x x x 5 320.wav",78
Sample,214921,0,"bass 3-9 160.wav",65
Sample,214921,0,"0 0 2 2 0 Aadd9 160.wav",73
Sample,214921,0,"x x x x 2 160.wav",78
Sample,215078,0,"0 0 2 2 0 Aadd9 160.wav",73
Sample,215078,0,"x x x x 0 160.wav",78
Sample,215235,0,"bass 3-7 320.wav",65
Sample,215235,0,"0 0 2 2 0 Aadd9 320.wav",73
Sample,215235,0,"x x x x x 3 800.wav",78
Sample,215550,0,"bass 3-9 160.wav",65
Sample,215550,0,"0 0 2 2 0 Aadd9 160.wav",73
Sample,215707,0,"bass 4-7 320.wav",65
Sample,215707,0,"0 0 2 2 0 Aadd9 160.wav",73
Sample,215864,0,"0 0 2 2 0 Aadd9 160.wav",73
Sample,217906,0,"bass 1-11 160.wav",65
Sample,217906,0,"clean 7 7 7 7 Arpeggio down Asus4 640.wav",78
Sample,217906,0,"3 640.wav",78
Sample,217984,0,"Snare.wav",48
Sample,218063,0,"Snare.wav",58
Sample,218063,0,"bass 2-11 480.wav",65
Sample,218141,0,"Snare.wav",48
Sample,218298,0,"Snare.wav",57
Sample,218534,0,"bass 4-0 320.wav",65
Sample,218534,0,"x 7 6 7 5 Dmaj7 320.wav",73
Sample,218534,0,"12 160.wav",78
Sample,218848,0,"bass 4-0 160.wav",65
Sample,218848,0,"x 7 6 7 5 Dmaj7 160.wav",73
Sample,218848,0,"x 15 160.wav",78
Sample,219005,0,"x 7 6 7 5 Dmaj7 320.wav",73
Sample,219005,0,"12 160.wav",78
Sample,219084,0,"Snare.wav",57
Sample,219162,0,"Ride.wav",67
Sample,219162,0,"bass 4-0 160.wav",65
Sample,219319,0,"bass 4-0 160.wav",65
Sample,219319,0,"x 7 6 7 5 Dmaj7 160.wav",73
Sample,219319,0,"x x 15 160.wav",78
Sample,219476,0,"bass 4-0 160.wav",65
Sample,219476,0,"x 7 6 7 5 Dmaj7 160.wav",73
Sample,219476,0,"x x 14 160.wav",78
Sample,219633,0,"bass 4-0 160.wav",65
Sample,219633,0,"x 7 6 7 5 Dmaj7 320.wav",73
Sample,219633,0,"x x 12 160.wav",78
Sample,219790,0,"Ride.wav",67
Sample,219790,0,"bass 4-0 160.wav",65
Sample,219948,0,"bass 4-0 160.wav",65
Sample,219948,0,"x 7 6 7 5 Dmaj7 160.wav",73
Sample,219948,0,"x x x 12 160.wav",78
Sample,220105,0,"bass 4-0 160.wav",65
Sample,220105,0,"x 7 6 7 5 Dmaj7 160.wav",73
Sample,220105,0,"x x x 14 160.wav",78
Sample,220262,0,"x 7 6 7 5 Dmaj7 160.wav",73
Sample,220262,0,"x x 12 160.wav",78
Sample,220340,0,"Snare.wav",57
Sample,220419,0,"Ride.wav",67
Sample,220419,0,"bass 4-0 160.wav",65
Sample,220419,0,"x 7 6 7 5 Dmaj7 160.wav",73
Sample,220419,0,"x x 14 160 bend full release 320.wav",78
Sample,220576,0,"bass 4-0 160.wav",65
Sample,220576,0,"x 7 6 7 5 Dmaj7 160.wav",73
Sample,220733,0,"bass 4-0 160.wav",65
Sample,220733,0,"x 7 6 7 5 Dmaj7 160.wav",73
Sample,220890,0,"x 7 6 7 5 Dmaj7 160.wav",73
Sample,220890,0,"x x 12 160.wav",78
Sample,221047,0,"Ride.wav",67
Sample,221047,0,"bass 3-6 160.wav",65
Sample,221047,0,"x 5 4 x 4 C#m7 320.wav",73
Sample,221047,0,"x 15 160.wav",78
Sample,221204,0,"x x 16 80.wav",78
Sample,221361,0,"bass 3-6 160.wav",65
Sample,221361,0,"x 5 4 x 4 C#m7 160.wav",73
Sample,221361,0,"x x 12 160.wav",78
Sample,221518,0,"x 5 4 x 4 C#m7 320.wav",73
Sample,221518,0,"x x 14 160.wav",78
Sample,221597,0,"Snare.wav",57
Sample,221675,0,"Ride.wav",67
Sample,221675,0,"bass 3-6 160.wav",65
Sample,221832,0,"bass 3-6 160.wav",65
Sample,221832,0,"x 5 4 x 4 C#m7 160.wav",73
Sample,221832,0,"x x x 14 160.wav",78
Sample,221989,0,"bass 3-6 160.wav",65
Sample,221989,0,"x 5 4 x 4 C#m7 160.wav",73
Sample,221989,0,"x x 12 320.wav",78
Sample,222146,0,"bass 3-6 160.wav",65
Sample,222146,0,"x 5 4 x 4 C#m7 320.wav",73
Sample,222304,0,"Ride.wav",67
Sample,222304,0,"bass 3-6 160.wav",65
Sample,222461,0,"bass 3-6 160.wav",65
Sample,222461,0,"x 5 4 x 4 C#m7 160.wav",73
Sample,222461,0,"x x 12 160.wav",78
Sample,222618,0,"bass 3-6 160.wav",65
Sample,222618,0,"x 5 4 x 4 C#m7 160.wav",73
Sample,222618,0,"x x 14 bend half release 320 bend half release640.wav",78
Sample,222775,0,"x 5 4 x 4 C#m7 160.wav",73
Sample,222853,0,"Snare.wav",57
Sample,222932,0,"Ride.wav",67
Sample,222932,0,"bass 3-5 160.wav",65
Sample,222932,0,"x 5 4 x 4 C#m7 160.wav",73
Sample,223089,0,"bass 3-5 160.wav",65
Sample,223089,0,"x 5 4 x 4 C#m7 160.wav",73
Sample,223246,0,"bass 3-5 160.wav",65
Sample,223246,0,"x 5 4 x 4 C#m7 160.wav",73
Sample,223403,0,"bass 3-5 160.wav",65
Sample,223403,0,"x 5 4 x 4 C#m7 160.wav",73
Sample,223560,0,"bass 3-4 160.wav",65
Sample,223560,0,"x 3 2 x 2 Bm7 320.wav",73
Sample,223560,0,"12 160.wav",78
Sample,223717,0,"15 80.wav",78
Sample,223874,0,"bass 3-4 160.wav",65
Sample,223874,0,"x 3 2 x 2 Bm7 160.wav",73
Sample,223874,0,"x 15 160.wav",78
Sample,224031,0,"x 3 2 x 2 Bm7 320.wav",73
Sample,224031,0,"12 160.wav",78
Sample,224110,0,"Snare.wav",57
Sample,224188,0,"Ride.wav",67
Sample,224188,0,"bass 3-4 160.wav",65
Sample,224345,0,"bass 2-6 160.wav",65
Sample,224345,0,"x 3 2 x 2 Bm7 320.wav",73
Sample,224345,0,"x x 15 160.wav",78
Sample,224502,0,"bass 3-4 160.wav",65
Sample,224502,0,"x 3 2 x 2 Bm7 160.wav",73
Sample,224502,0,"x x 14 160.wav",78
Sample,224660,0,"bass 3-4 160.wav",65
Sample,224660,0,"x 3 2 x 2 Bm7 160.wav",73
Sample,224660,0,"x x 12 160.wav",78
Sample,224817,0,"Ride.wav",67
Sample,224817,0,"bass 3-9 160.wav",65
Sample,224817,0,"x 3 2 0 x 0 E7(11) 320.wav",73
Sample,224974,0,"bass 3-9 160.wav",65
Sample,224974,0,"x x x 12 160.wav",78
Sample,225131,0,"bass 3-9 160.wav",65
Sample,225131,0,"x 3 2 0 x 0 E7(11) 160.wav",73
Sample,225131,0,"x x x 14 160.wav",78
Sample,225288,0,"x 3 2 0 x 0 E7(11) 320.wav",73
Sample,225288,0,"x x 12 160.wav",78
Sample,225366,0,"Snare.wav",57
Sample,225445,0,"Ride.wav",67
Sample,225445,0,"bass 3-9 160.wav",65
Sample,225445,0,"x x 14 160 bend full release 320.wav",78
Sample,225602,0,"bass 3-9 160.wav",65
Sample,225602,0,"x 3 2 0 x 0 E7(11) 160.wav",73
Sample,225759,0,"bass 3-9 160.wav",65
Sample,225759,0,"x 3 2 0 x 0 E7(11) 160.wav",73
Sample,225916,0,"x 3 2 0 x 0 E7(11) 160.wav",73
Sample,225916,0,"x x 12 160.wav",78
Sample,226073,0,"bass 3-11 160.wav",65
Sample,226073,0,"0 0 2 2 x 2 F#m7(11) 320.wav",73
Sample,226073,0,"x x 12 160.wav",78
Sample,226230,0,"bass 3-11 160.wav",65
Sample,226230,0,"x x 14 80.wav",78
Sample,226387,0,"bass 4-9 160.wav",65
Sample,226387,0,"0 0 2 2 x 2 F#m7(11) 160.wav",73
Sample,226387,0,"x x x 14 160.wav",78
Sample,226544,0,"0 0 2 2 x 2 F#m7(11) 320.wav",73
Sample,226544,0,"x x x 12 160.wav",78
Sample,226701,0,"Ride.wav",67
Sample,226701,0,"bass 4-11 160.wav",65
Sample,226859,0,"bass 4-11 160.wav",65
Sample,226859,0,"0 0 2 2 x 2 F#m7(11) 160.wav",73
Sample,226859,0,"x x x 12 160.wav",78
Sample,227016,0,"bass 3-11 160.wav",65
Sample,227016,0,"0 0 2 2 x 2 F#m7(11) 160.wav",73
Sample,227016,0,"x x x 12 160.wav",78
Sample,227173,0,"0 0 2 2 x 2 F#m7(11) 160.wav",73
Sample,227173,0,"x x x 14 80.wav",78
Sample,227330,0,"Hi-Hat open.wav",66
Sample,227330,0,"bass 3-9 160.wav",65
Sample,227330,0,"x 3 2 x 2 Bm7 160.wav",73
Sample,227330,0,"x x x x 14 160.wav",78
Sample,227487,0,"bass 3-9 160.wav",65
Sample,227487,0,"x 3 2 x 2 Bm7 160.wav",73
Sample,227487,0,"x x x x 12 160.wav",78
Sample,227644,0,"Hi-Hat open.wav",66
Sample,227644,0,"bass 2-11 320.wav",65
Sample,227644,0,"x 3 2 x 2 Bm7 160.wav",73
Sample,227801,0,"x 3 2 x 2 Bm7 160.wav",73
Sample,227801,0,"x x x x 12 P.M. 160.wav",78
Sample,227958,0,"Hi-Hat open.wav",66
Sample,227958,0,"bass 2-9 160.wav",65
Sample,227958,0,"0 0 1 2 2 0 E 160.wav",73
Sample,227958,0,"x x x 12 Left-hand vibrato 640.wav",78
Sample,228115,0,"Snare.wav",67
Sample,228115,0,"bass 2-9 160.wav",65
Sample,228115,0,"0 0 1 2 2 0 E 160.wav",73
Sample,228194,0,"Snare.wav",57
Sample,228272,0,"bass 4-7 320.wav",65
Sample,228272,0,"0 0 1 2 2 0 E 160.wav",73
Sample,228351,0,"Snare.wav",58
Sample,228429,0,"0 0 1 2 2 0 E 160.wav",73
Sample,228586,0,"bass 4-0 320.wav",65
Sample,228586,0,"x 7 6 7 5 Dmaj7 320.wav",73
Sample,228586,0,"x x 12 160.wav",78
Sample,228900,0,"Ride.wav",67
Sample,228900,0,"bass 4-0 160.wav",65
Sample,228900,0,"x 7 6 7 5 Dmaj7 160.wav",73
Sample,228900,0,"x 15 160.wav",78
Sample,229057,0,"x 7 6 7 5 Dmaj7 320.wav",73
Sample,229057,0,"x x 12 160.wav",78
Sample,229136,0,"Snare.wav",57
Sample,229215,0,"Ride.wav",67
Sample,229215,0,"bass 4-0 160.wav",65
Sample,229215,0,"x x 14 160.wav",78
Sample,229372,0,"bass 4-0 160.wav",65
Sample,229372,0,"x 7 6 7 5 Dmaj7 160.wav",73
Sample,229372,0,"x 15 160.wav",78
Sample,229529,0,"Ride.wav",67
Sample,229529,0,"bass 4-0 160.wav",65
Sample,229529,0,"x 7 6 7 5 Dmaj7 160.wav",73
Sample,229529,0,"x x 12 160.wav",78
Sample,229686,0,"bass 4-0 160.wav",65
Sample,229686,0,"x 7 6 7 5 Dmaj7 320.wav",73
Sample,229686,0,"x x 14 160.wav",78
Sample,229843,0,"bass 4-0 160.wav",65
Sample,229843,0,"x 15 160.wav",78
Sample,230000,0,"bass 4-0 160.wav",65
Sample,230000,0,"x 7 6 7 5 Dmaj7 160.wav",73
Sample,230000,0,"x x 12 160.wav",78
Sample,230157,0,"Ride.wav",67
Sample,230157,0,"bass 4-0 160.wav",65
Sample,230157,0,"x 7 6 7 5 Dmaj7 160.wav",73
Sample,230157,0,"x x 14 160.wav",78
Sample,230314,0,"x 7 6 7 5 Dmaj7 160.wav",73
Sample,230314,0,"x 15 160.wav",78
Sample,230393,0,"Snare.wav",57
Sample,230471,0,"Ride.wav",67
Sample,230471,0,"x 7 6 7 5 Dmaj7 160.wav",73
Sample,230471,0,"x x 12 160.wav",78
Sample,230628,0,"bass 3-7 160.wav",65
Sample,230628,0,"x 7 6 7 5 Dmaj7 160.wav",73
Sample,230628,0,"x x 14 160.wav",78
Sample,230785,0,"Ride.wav",67
Sample,230785,0,"bass 4-7 160.wav",65
Sample,230785,0,"x 7 6 7 5 Dmaj7 160.wav",73
Sample,230785,0,"x 15 160.wav",78
Sample,230942,0,"x 7 6 7 5 Dmaj7 160.wav",73
Sample,230942,0,"x x 12 160.wav",78
Sample,231021,0,"Snare.wav",57
Sample,231099,0,"bass 3-6 160.wav",65
Sample,231099,0,"x 5 4 x 4 C#m7 320.wav",73
Sample,231099,0,"x x 14 160.wav",78
Sample,231256,0,"14 160.wav",78
Sample,231413,0,"Ride.wav",67
Sample,231413,0,"bass 3-6 160.wav",65
Sample,231413,0,"x 5 4 x 4 C#m7 160.wav",73
Sample,231413,0,"x x 12 160.wav",78
Sample,231571,0,"x 5 4 x 4 C#m7 320.wav",73
Sample,231571,0,"x x 14 160.wav",78
Sample,231728,0,"Ride.wav",67
Sample,231728,0,"bass 3-6 160.wav",65
Sample,231728,0,"14 160.wav",78
Sample,231885,0,"bass 3-6 160.wav",65
Sample,231885,0,"x 5 4 x 4 C#m7 160.wav",73
Sample,231885,0,"x x 12 160.wav",78
Sample,232042,0,"Ride.wav",67
Sample,232042,0,"bass 3-6 160.wav",65
Sample,232042,0,"x 5 4 x 4 C#m7 160.wav",73
Sample,232042,0,"x x 14 160.wav",78
Sample,232199,0,"x 5 4 x 4 C#m7 160.wav",73
Sample,232199,0,"14 160.wav",78
Sample,232356,0,"Ride.wav",67
Sample,232356,0,"bass 3-6 160.wav",65
Sample,232356,0,"0 0 2 2 x 2 F#m7(11) 320.wav",73
Sample,232356,0,"x x 12 160.wav",78
Sample,232513,0,"bass 3-6 160.wav",65
Sample,232513,0,"x x 14 160.wav",78
Sample,232670,0,"Ride.wav",67
Sample,232670,0,"bass 3-4 160.wav",65
Sample,232670,0,"0 0 2 2 x 2 F#m7(11) 160.wav",73
Sample,232670,0,"15 160.wav",78
Sample,232827,0,"bass 3-4 160.wav",65
Sample,232827,0,"0 0 2 2 x 2 F#m7(11) 320.wav",73
Sample,232827,0,"x x 12 160.wav",78
Sample,232984,0,"bass 3-6 160.wav",65
Sample,232984,0,"x x 14 160.wav",78
Sample,233141,0,"bass 3-7 160.wav",65
Sample,233141,0,"0 0 2 2 x 2 F#m7(11) 160.wav",73
Sample,233141,0,"15 480.wav",78
Sample,233298,0,"bass 3-6 320.wav",65
Sample,233298,0,"0 0 2 2 x 2 F#m7(11) 160.wav",73
Sample,233455,0,"0 0 2 2 x 2 F#m7(11) 160.wav",73
Sample,233612,0,"Crash medium.wav",67
Sample,233612,0,"bass 3-4 160.wav",65
Sample,233612,0,"x 3 2 x 2 Bm7 320.wav",73
Sample,233612,0,"x 1 3 bend full 80.wav",78
Sample,233691,0,"x 1 3 bend full 80.wav",78
Sample,233769,0,"bass 3-4 160.wav",65
Sample,233769,0,"x 1 3 bend full 80.wav",78
Sample,233848,0,"x 1 3 bend full 80.wav",78
Sample,233927,0,"bass 4-4 160.wav",65
Sample,233927,0,"x 3 2 x 2 Bm7 160.wav",73
Sample,233927,0,"x 1 3 bend full 80.wav",78
Sample,234005,0,"x 1 3 bend full 80.wav",78
Sample,234084,0,"bass 4-4 160.wav",65
Sample,234084,0,"x 3 2 x 2 Bm7 160.wav",73
Sample,234084,0,"x 1 3 bend full 80.wav",78
Sample,234162,0,"x 1 3 bend full 80.wav",78
Sample,234241,0,"bass 3-2 160.wav",65
Sample,234241,0,"x 3 2 x 2 Bm7 160.wav",73
Sample,234241,0,"x 3 5 bend full 80.wav",78
Sample,234319,0,"x 3 5 bend full 80.wav",78
Sample,234398,0,"bass 3-2 160.wav",65
Sample,234398,0,"x 3 2 x 2 Bm7 160.wav",73
Sample,234398,0,"x 3 5 bend full 80.wav",78
Sample,234476,0,"x 3 5 bend full 80.wav",78
Sample,234555,0,"bass 3-4 160.wav",65
Sample,234555,0,"x 3 2 x 2 Bm7 160.wav",73
Sample,234555,0,"x 3 5 bend full 80.wav",78
Sample,234633,0,"x 3 5 bend full 80.wav",78
Sample,234712,0,"bass 3-4 160.wav",65
Sample,234712,0,"x 3 2 x 2 Bm7 160.wav",73
Sample,234712,0,"x 3 5 bend full 80.wav",78
Sample,234790,0,"x 3 5 bend full 80.wav",78
Sample,234869,0,"bass 3-6 160.wav",65
Sample,234869,0,"x 5 4 x 4 C#m7 320.wav",73
Sample,234869,0,"x 5 7 bend full 80.wav",78
Sample,234948,0,"x 5 7 bend full 80.wav",78
Sample,235026,0,"bass 3-6 160.wav",65
Sample,235026,0,"x 5 7 bend full 80.wav",78
Sample,235105,0,"x 5 7 bend full 80.wav",78
Sample,235183,0,"bass 4-6 160.wav",65
Sample,235183,0,"x 5 4 x 4 C#m7 160.wav",73
Sample,235183,0,"x 5 7 bend full 80.wav",78
Sample,235262,0,"x 5 7 bend full 80.wav",78
Sample,235340,0,"bass 4-6 160.wav",65
Sample,235340,0,"x 5 4 x 4 C#m7 160.wav",73
Sample,235340,0,"x 5 7 bend full 80.wav",78
Sample,235419,0,"x 5 7 bend full 80.wav",78
Sample,235497,0,"bass 3-4 160.wav",65
Sample,235497,0,"x 5 4 x 4 C#m7 160.wav",73
Sample,235497,0,"x 7 9 bend full 80.wav",78
Sample,235576,0,"x 7 9 bend full 80.wav",78
Sample,235654,0,"bass 3-4 160.wav",65
Sample,235654,0,"x 5 4 x 4 C#m7 160.wav",73
Sample,235654,0,"x 7 9 bend full 80.wav",78
Sample,235733,0,"x 7 9 bend full 80.wav",78
Sample,235811,0,"bass 3-6 160.wav",65
Sample,235811,0,"x 5 4 x 4 C#m7 160.wav",73
Sample,235811,0,"x 7 9 bend full 80.wav",78
Sample,235890,0,"x 7 9 bend full 80.wav",78
Sample,235968,0,"bass 3-6 160.wav",65
Sample,235968,0,"x 5 4 x 4 C#m7 160.wav",73
Sample,235968,0,"x 7 9 bend full 80.wav",78
Sample,236047,0,"x 7 9 bend full 80.wav",78
Sample,236126,0,"bass 3-10 160.wav",65
Sample,236126,0,"1 1 2 3 3 1 F 320.wav",73
Sample,236126,0,"15 x 12 80.wav",78
Sample,236204,0,"15 x 12 80.wav",78
Sample,236283,0,"bass 3-10 160.wav",65
Sample,236283,0,"15 x 12 80.wav",78
Sample,236361,0,"15 x 12 80.wav",78
Sample,236440,0,"Tom3.wav",57
Sample,236440,0,"bass 3-10 160.wav",65
Sample,236440,0,"1 1 2 3 3 1 F 160.wav",73
Sample,236440,0,"15 x 12 80.wav",78
Sample,236518,0,"15 x 12 80.wav",78
Sample,236597,0,"bass 3-10 160.wav",65
Sample,236597,0,"1 1 2 3 3 1 F 160.wav",73
Sample,236597,0,"15 x 12 80.wav",78
Sample,236675,0,"15 x 12 80.wav",78
Sample,236754,0,"Tom3.wav",67
Sample,236754,0,"bass 3-12 160.wav",65
Sample,236754,0,"1 1 2 3 3 1 F 160.wav",73
Sample,236754,0,"11 x 8 80.wav",78
Sample,236832,0,"11 x 8 80.wav",78
Sample,236911,0,"bass 3-12 160.wav",65
Sample,236911,0,"1 1 2 3 3 1 F 160.wav",73
Sample,236911,0,"11 x 8 80.wav",78
Sample,236989,0,"11 x 8 80.wav",78
Sample,237068,0,"Tom3.wav",77
Sample,237068,0,"bass 3-10 320.wav",65
Sample,237068,0,"1 1 2 3 3 1 F 160.wav",73
Sample,237068,0,"11 x 8 80.wav",78
Sample,237146,0,"11 x 8 80.wav",78
Sample,237225,0,"1 1 2 3 3 1 F 160.wav",73
Sample,237225,0,"11 x 8 80.wav",78
Sample,237304,0,"11 x 8 80.wav",78
Sample,237382,0,"bass 3-9 160.wav",65
Sample,237382,0,"0 0 1 2 2 0 E 320.wav",73
Sample,237382,0,"10 x 7 80.wav",78
Sample,237461,0,"10 x 7 80.wav",78
Sample,237539,0,"bass 3-9 160.wav",65
Sample,237539,0,"10 x 7 80.wav",78
Sample,237618,0,"10 x 7 80.wav",78
Sample,237696,0,"bass 3-9 320.wav",65
Sample,237696,0,"0 0 1 2 2 0 E 160.wav",73
Sample,237696,0,"10 x 7 80.wav",78
Sample,237775,0,"10 x 7 80.wav",78
Sample,237853,0,"0 0 1 2 2 0 E 160.wav",73
Sample,237853,0,"10 x 7 80.wav",78
Sample,237932,0,"10 x 7 80.wav",78
Sample,238010,0,"Kick.wav",67
Sample,238010,0,"bass 4-2 160.wav",65
Sample,238010,0,"0 0 1 2 2 0 E 160.wav",73
Sample,238010,0,"x x x 7 7 N.H. 640.wav",78
Sample,238167,0,"bass 4-2 160.wav",65
Sample,238167,0,"0 0 1 2 2 0 E 160.wav",73
Sample,238324,0,"bass 4-2 320.wav",65
Sample,238324,0,"0 0 1 2 2 0 E 160.wav",73
Sample,238482,0,"0 0 1 2 2 0 E 160.wav",73
Sample,238639,0,"bass 4-0 1920.wav",65
Sample,238639,0,"Arp. x x x 0 160.wav",73
Sample,238639,0,"x x x x x 3 160.wav",78
Sample,238796,0,"x x x x x 3 160.wav",78
Sample,238953,0,"Arp. x x 2 320.wav",73
Sample,238953,0,"x x x x x 3 Staccato 320.wav",78
Sample,239267,0,"Arp. 0 320.wav",73
Sample,239267,0,"x x x x x 3 Staccato 320.wav",78
Sample,239581,0,"Arp. x x x 0 160.wav",73
Sample,239581,0,"x x x x x 3 160.wav",78
Sample,239738,0,"Arp. x 0 320.wav",73
Sample,239738,0,"x x x x x 3 160.wav",78
Sample,239895,0,"x x x x x 3 160.wav",78
Sample,240052,0,"Arp. x 0 160.wav",73
Sample,240052,0,"x x x x x 10 160.wav",78
Sample,240209,0,"Arp. x x 2 320.wav",73
Sample,240209,0,"x x x x x 10 Staccato 320.wav",78
Sample,240523,0,"bass 4-7 640.wav",65
Sample,240523,0,"Arp. 0 320.wav",73
Sample,240523,0,"x x x x x 10 Staccato 320.wav",78
Sample,240838,0,"Arp. x x 2 160.wav",73
Sample,240838,0,"x x x x x 10 160.wav",78
Sample,240995,0,"x x x x x 10 160.wav",78
Sample,241152,0,"Hi-Hat close.wav",66
Sample,241152,0,"bass 4-0 1600.wav",65
Sample,241152,0,"Arp. x x x 0 160.wav",73
Sample,241152,0,"x x x x x 10 160.wav",78
Sample,241309,0,"x x x x x 3 160.wav",78
Sample,241466,0,"Arp. x x 2 320.wav",73
Sample,241466,0,"x x x x x 3 Staccato 320.wav",78
Sample,241780,0,"Arp. 0 320.wav",73
Sample,241780,0,"x x x x x 3 Staccato 320.wav",78
Sample,242094,0,"Arp. x x x 0 160.wav",73
Sample,242094,0,"x x x x x 3 160.wav",78
Sample,242251,0,"Arp. x 0 320.wav",73
Sample,242251,0,"x x x x x 3 160.wav",78
Sample,242408,0,"x x x x x 3 160.wav",78
Sample,242565,0,"Arp. x 0 160.wav",73
Sample,242565,0,"x x x x x 10 160.wav",78
Sample,242722,0,"bass 4-7 320.wav",65
Sample,242722,0,"Arp. x x 2 320.wav",73
Sample,242722,0,"x x x x x 10 Staccato 320.wav",78
Sample,243037,0,"0 0 2 0 D6_9 160.wav",73
Sample,243037,0,"x x x x 9 bend half release 480.wav",78
Sample,243194,0,"bass 4-12 160.wav",65
Sample,243194,0,"0 0 2 0 D6_9 160.wav",73
Sample,243351,0,"bass 4-12 160.wav",65
Sample,243351,0,"0 0 2 0 D6_9 160.wav",73
Sample,243508,0,"Crash medium.wav",67
Sample,243508,0,"bass 4-12 7520.wav",65
Sample,243508,0,"0 0 2 0 D6_9 7520.wav",73
Sample,243508,0,"x 8 0 0 x 8 7520.wav",78

[TimingPoints]
524,314.13612565445,4,2,1,40,1,0
23770,314.13612565445,4,2,1,40,1,0
63979,-100.0,4,2,1,40,0,1
82827,-100.0,4,2,1,40,0,0
84084,-100.0,4,2,1,40,0,1
104188,-100.0,4,2,1,40,0,0
175811,-100.0,4,2,1,40,0,1
178324,-100.0,4,2,1,40,0,0
179895,-100.0,4,2,1,40,0,1
189633,-100.0,4,2,1,40,0,0
190890,-100.0,4,2,1,40,0,1
216021,-100.0,4,2,1,40,0,0

[HitObjects]
64,192,366,1,0,0:0:0:67:Snare.wav
192,192,445,1,0,0:0:0:57:Snare.wav
320,192,524,1,0,0:0:0:67:Kick.wav
448,192,524,1,0,0:0:0:73:Arp. x x x x 0 160.wav
64,192,681,1,0,0:0:0:73:Arp. x 0 160.wav
192,192,838,1,0,0:0:0:66:Hi-Hat close.wav
448,192,995,1,0,0:0:0:67:Kick.wav
64,192,1152,1,0,0:0:0:67:Snare.wav
320,192,1152,1,0,0:0:0:66:Hi-Hat close.wav
448,192,1466,1,0,0:0:0:66:Hi-Hat close.wav
192,192,1623,1,0,0:0:0:67:Kick.wav
64,192,1780,1,0,0:0:0:66:Hi-Hat close.wav
192,192,1937,1,0,0:0:0:67:Kick.wav
448,192,2094,1,0,0:0:0:66:Hi-Hat close.wav
192,192,2251,1,0,0:0:0:67:Kick.wav
320,192,2408,1,0,0:0:0:67:Snare.wav
448,192,2408,1,0,0:0:0:66:Hi-Hat close.wav
64,192,2722,1,0,0:0:0:66:Hi-Hat close.wav
192,192,2880,1,0,0:0:0:73:Arp. x 0 160.wav
320,192,3037,1,0,0:0:0:67:Kick.wav
64,192,3194,1,0,0:0:0:73:Arp. x 0 160.wav
448,192,3351,1,0,0:0:0:66:Hi-Hat close.wav
320,192,3508,1,0,0:0:0:67:Kick.wav
64,192,3665,1,0,0:0:0:67:Snare.wav
192,192,3665,1,0,0:0:0:66:Hi-Hat close.wav
448,192,3979,1,0,0:0:0:66:Hi-Hat close.wav
64,192,4136,1,0,0:0:0:67:Kick.wav
320,192,4293,1,0,0:0:0:66:Hi-Hat close.wav
64,192,4450,1,0,0:0:0:67:Kick.wav
448,192,4607,1,0,0:0:0:66:Hi-Hat close.wav
64,192,4764,1,0,0:0:0:67:Kick.wav
320,192,4921,1,0,0:0:0:67:Snare.wav
448,192,4921,1,0,0:0:0:66:Hi-Hat close.wav
320,192,5078,1,0,0:0:0:67:Snare.wav
448,192,5078,1,0,0:0:0:0:
64,192,5236,1,0,0:0:0:67:Kick.wav
320,192,5393,1,0,0:0:0:67:Snare.wav
192,192,5550,1,0,0:0:0:67:Kick.wav
448,192,5550,1,0,0:0:0:67:Crash high.wav
64,192,5707,1,0,0:0:0:73:Arp. x 0 160.wav
320,192,5864,1,0,0:0:0:66:Hi-Hat close.wav
192,192,6021,1,0,0:0:0:67:Kick.wav
64,192,6178,1,0,0:0:0:67:Snare.wav
448,192,6178,1,0,0:0:0:66:Hi-Hat close.wav
192,192,6492,1,0,0:0:0:66:Hi-Hat close.wav
448,192,6649,1,0,0:0:0:67:Kick.wav
320,192,6806,1,0,0:0:0:66:Hi-Hat close.wav
448,192,6963,1,0,0:0:0:67:Kick.wav
64,192,7120,1,0,0:0:0:66:Hi-Hat close.wav
448,192,7277,1,0,0:0:0:67:Kick.wav
64,192,7434,1,0,0:0:0:67:Snare.wav
192,192,7434,1,0,0:0:0:66:Hi-Hat close.wav
64,192,7592,1,0,0:0:0:67:Snare.wav
192,192,7592,1,0,0:0:0:65:bass 2-14 160.wav
448,192,7749,1,0,0:0:0:66:Hi-Hat open.wav
320,192,7906,1,0,0:0:0:73:0 0 2 2 x 2 Arpeggio up F#m7(11) 320.wav
64,192,8063,1,0,0:0:0:67:Snare.wav
448,192,8063,1,0,0:0:0:67:Kick.wav
192,192,8220,1,0,0:0:0:57:Snare.wav
64,192,8377,1,0,0:0:0:67:Snare.wav
320,192,8377,1,0,0:0:0:67:Kick.wav
448,192,8534,1,0,0:0:0:57:Snare.wav
192,192,8691,1,0,0:0:0:67:Snare.wav
320,192,8691,1,0,0:0:0:67:Kick.wav
64,192,8848,1,0,0:0:0:57:Snare.wav
320,192,9005,1,0,0:0:0:67:Snare.wav
448,192,9005,1,0,0:0:0:67:Kick.wav
192,192,9162,1,0,0:0:0:57:Snare.wav
64,192,9319,1,0,0:0:0:67:Snare.wav
448,192,9319,1,0,0:0:0:67:Kick.wav
320,192,9476,1,0,0:0:0:57:Snare.wav
64,192,9633,1,0,0:0:0:67:Snare.wav
448,192,9633,1,0,0:0:0:67:Kick.wav
192,192,9791,1,0,0:0:0:57:Snare.wav
320,192,9948,1,0,0:0:0:67:Snare.wav
448,192,9948,1,0,0:0:0:67:Kick.wav
192,192,10105,1,0,0:0:0:57:Snare.wav
64,192,10262,1,0,0:0:0:67:Snare.wav
448,192,10262,1,0,0:0:0:67:Kick.wav
320,192,10419,1,0,0:0:0:57:Snare.wav
64,192,10576,128,0,10733:0:0:0:44:x x x x 3 160.wav
192,192,10733,128,0,10890:0:0:0:44:x x 4 160.wav
320,192,10890,128,0,11047:0:0:0:44:x x 0 160.wav
448,192,11047,128,0,11204:0:0:0:44:x x x 0 160.wav
192,192,11204,128,0,11361:0:0:0:44:x x x 4 160.wav
320,192,11361,128,0,11518:0:0:0:44:x x 0 160.wav
448,192,11675,128,0,11832:0:0:0:44:x x x x 3 P.M. 160.wav
320,192,11832,128,0,11989:0:0:0:44:x x 4 160.wav
192,192,11989,128,0,12147:0:0:0:44:x x 0 160.wav
64,192,12147,128,0,12304:0:0:0:44:x x x 4 160.wav
448,192,12304,1,0,0:0:0:67:Snare.wav
320,192,12382,1,0,0:0:0:57:Snare.wav
64,192,12461,1,0,0:0:0:67:Snare.wav
192,192,12461,1,0,0:0:0:73:x x 4 3 4 C#7 Mute 160.wav
320,192,12618,1,0,0:0:0:67:Kick.wav
448,192,12618,128,0,13089:0:0:0:66:Hi-Hat open.wav
64,192,13089,1,0,0:0:0:67:Kick.wav
192,192,13089,1,0,0:0:0:67:Crash high.wav
320,192,13246,1,0,0:0:0:65:bass 4-0 160.wav
192,192,13325,1,0,0:0:0:78:12 80.wav
64,192,13403,1,0,0:0:0:67:Snare.wav
448,192,13403,1,0,0:0:0:66:Hi-Hat open.wav
320,192,13560,128,0,13717:0:0:0:65:bass 4-0 160.wav
192,192,13874,1,0,0:0:0:67:Kick.wav
64,192,14031,1,0,0:0:0:67:Snare.wav
448,192,14031,1,0,0:0:0:66:Hi-Hat open.wav
192,192,14188,128,0,14345:0:0:0:67:Kick.wav
320,192,14503,1,0,0:0:0:67:Kick.wav
64,192,14660,1,0,0:0:0:67:Snare.wav
448,192,14660,1,0,0:0:0:66:Hi-Hat open.wav
320,192,14817,1,0,0:0:0:65:bass 4-0 160.wav
64,192,14974,128,0,15131:0:0:0:66:Hi-Hat open.wav
192,192,15131,1,0,0:0:0:67:Kick.wav
320,192,15288,1,0,0:0:0:67:Snare.wav
448,192,15288,128,0,15445:0:0:0:66:Hi-Hat open.wav
192,192,15445,1,0,0:0:0:65:bass 4-0 160.wav
64,192,15602,1,0,0:0:0:67:Kick.wav
448,192,15759,1,0,0:0:0:65:bass 3-6 160.wav
320,192,15838,1,0,0:0:0:78:x x 14 80.wav
64,192,15916,1,0,0:0:0:67:Snare.wav
192,192,15916,1,0,0:0:0:66:Hi-Hat open.wav
448,192,16073,128,0,16230:0:0:0:65:bass 3-6 160.wav
192,192,16387,1,0,0:0:0:67:Kick.wav
320,192,16544,128,0,16859:0:0:0:67:Snare.wav
448,192,16544,1,0,0:0:0:66:Hi-Hat open.wav
64,192,16702,1,0,0:0:0:67:Kick.wav
192,192,17016,1,0,0:0:0:67:Kick.wav
64,192,17173,1,0,0:0:0:67:Snare.wav
320,192,17173,128,0,17330:0:0:0:66:Hi-Hat open.wav
448,192,17330,1,0,0:0:0:65:bass 3-6 160.wav
64,192,17487,128,0,17644:0:0:0:66:Hi-Hat open.wav
192,192,17644,1,0,0:0:0:67:Kick.wav
320,192,17801,1,0,0:0:0:67:Snare.wav
448,192,17801,128,0,18115:0:0:0:66:Hi-Hat open.wav
64,192,18115,1,0,0:0:0:67:Kick.wav
192,192,18272,1,0,0:0:0:65:bass 3-4 160.wav
320,192,18351,1,0,0:0:0:78:12 80.wav
64,192,18429,1,0,0:0:0:67:Snare.wav
448,192,18429,1,0,0:0:0:66:Hi-Hat open.wav
320,192,18586,128,0,18743:0:0:0:65:bass 3-4 160.wav
64,192,18900,1,0,0:0:0:67:Kick.wav
192,192,19058,1,0,0:0:0:67:Snare.wav
320,192,19058,1,0,0:0:0:66:Hi-Hat open.wav
64,192,19215,128,0,19372:0:0:0:67:Kick.wav
448,192,19529,1,0,0:0:0:67:Kick.wav
192,192,19686,1,0,0:0:0:67:Snare.wav
320,192,19686,1,0,0:0:0:66:Hi-Hat open.wav
448,192,19843,1,0,0:0:0:65:bass 3-6 160.wav
192,192,20000,128,0,20157:0:0:0:66:Hi-Hat open.wav
64,192,20157,1,0,0:0:0:67:Kick.wav
320,192,20314,128,0,20471:0:0:0:67:Snare.wav
448,192,20314,1,0,0:0:0:66:Hi-Hat open.wav
192,192,20471,1,0,0:0:0:65:bass 4-6 160.wav
64,192,20628,1,0,0:0:0:67:Snare.wav
448,192,20628,1,0,0:0:0:67:Kick.wav
320,192,20785,1,0,0:0:0:78:x 12 160.wav
64,192,20942,1,0,0:0:0:67:Kick.wav
192,192,21099,128,0,21256:0:0:0:67:Snare.wav
320,192,21099,1,0,0:0:0:67:Crash medium.wav
448,192,21414,1,0,0:0:0:67:Kick.wav
64,192,21571,1,0,0:0:0:67:Snare.wav
320,192,21571,1,0,0:0:0:66:Hi-Hat open.wav
192,192,21728,1,0,0:0:0:78:x x 12 160.wav
448,192,21885,1,0,0:0:0:67:Kick.wav
192,192,22042,128,0,22984:0:0:0:67:Snare.wav
320,192,22042,1,0,0:0:0:66:Hi-Hat open.wav
64,192,22984,1,0,0:0:0:67:Kick.wav
320,192,23141,1,0,0:0:0:67:Snare.wav
448,192,23141,1,0,0:0:0:67:Tom3.wav
320,192,23298,1,0,0:0:0:67:Snare.wav
448,192,23298,1,0,0:0:0:67:Tom3.wav
320,192,23770,1,0,0:0:0:67:Kick.wav
448,192,23770,128,0,24555:0:0:0:67:Crash high.wav
64,192,24084,1,0,0:0:0:67:Snare.wav
192,192,24084,1,0,0:0:0:66:Hi-Hat close.wav
320,192,24555,1,0,0:0:0:67:Kick.wav
64,192,24712,1,0,0:0:0:67:Snare.wav
192,192,24712,1,0,0:0:0:66:Hi-Hat close.wav
320,192,25026,1,0,0:0:0:67:Kick.wav
64,192,25340,1,0,0:0:0:67:Snare.wav
448,192,25340,1,0,0:0:0:66:Hi-Hat close.wav
320,192,25497,1,0,0:0:0:67:Kick.wav
320,192,25811,1,0,0:0:0:67:Kick.wav
64,192,25968,1,0,0:0:0:67:Snare.wav
448,192,25968,1,0,0:0:0:66:Hi-Hat close.wav
64,192,26283,128,0,27068:0:0:0:67:Kick.wav
192,192,26283,1,0,0:0:0:66:Hi-Hat close.wav
320,192,26597,1,0,0:0:0:67:Snare.wav
448,192,26597,1,0,0:0:0:66:Hi-Hat close.wav
192,192,27068,1,0,0:0:0:67:Kick.wav
320,192,27225,1,0,0:0:0:67:Snare.wav
448,192,27225,1,0,0:0:0:66:Hi-Hat close.wav
192,192,27539,1,0,0:0:0:67:Kick.wav
64,192,27853,1,0,0:0:0:67:Snare.wav
448,192,27853,1,0,0:0:0:66:Hi-Hat close.wav
192,192,28010,1,0,0:0:0:67:Kick.wav
192,192,28324,1,0,0:0:0:67:Kick.wav
64,192,28482,1,0,0:0:0:67:Snare.wav
448,192,28482,1,0,0:0:0:66:Hi-Hat close.wav
320,192,28639,1,0,0:0:0:57:Hi-Hat close.wav
64,192,28796,1,0,0:0:0:67:Kick.wav
192,192,28796,128,0,29581:0:0:0:66:Hi-Hat close.wav
320,192,29110,1,0,0:0:0:67:Snare.wav
448,192,29110,1,0,0:0:0:66:Hi-Hat close.wav
64,192,29581,1,0,0:0:0:67:Kick.wav
320,192,29738,1,0,0:0:0:67:Snare.wav
448,192,29738,1,0,0:0:0:66:Hi-Hat close.wav
64,192,30052,1,0,0:0:0:67:Kick.wav
192,192,30366,1,0,0:0:0:67:Snare.wav
320,192,30366,1,0,0:0:0:66:Hi-Hat close.wav
64,192,30523,1,0,0:0:0:67:Kick.wav
64,192,30838,1,0,0:0:0:67:Kick.wav
192,192,30995,1,0,0:0:0:67:Snare.wav
320,192,30995,1,0,0:0:0:66:Hi-Hat close.wav
448,192,31152,1,0,0:0:0:57:Hi-Hat close.wav
64,192,31309,1,0,0:0:0:67:Kick.wav
320,192,31309,128,0,32094:0:0:0:66:Hi-Hat close.wav
192,192,31623,1,0,0:0:0:67:Snare.wav
448,192,31623,1,0,0:0:0:66:Hi-Hat close.wav
64,192,32094,1,0,0:0:0:67:Kick.wav
192,192,32251,1,0,0:0:0:67:Snare.wav
448,192,32251,1,0,0:0:0:66:Hi-Hat close.wav
320,192,32565,1,0,0:0:0:67:Kick.wav
320,192,32722,1,0,0:0:0:67:Kick.wav
64,192,32879,1,0,0:0:0:67:Snare.wav
448,192,32879,1,0,0:0:0:66:Hi-Hat open.wav
320,192,33194,1,0,0:0:0:67:Kick.wav
448,192,33194,1,0,0:0:0:67:Tom1.wav
64,192,33508,1,0,0:0:0:67:Snare.wav
192,192,33508,1,0,0:0:0:67:Kick.wav
320,192,33822,1,0,0:0:0:67:Kick.wav
448,192,33822,1,0,0:0:0:67:Crash high.wav
192,192,33979,1,0,0:0:0:67:Kick.wav
64,192,34136,1,0,0:0:0:67:Snare.wav
320,192,34136,1,0,0:0:0:66:Hi-Hat close.wav
448,192,34293,128,0,34607:0:0:0:57:Hi-Hat close.wav
192,192,34607,1,0,0:0:0:67:Kick.wav
64,192,34921,1,0,0:0:0:67:Snare.wav
320,192,34921,1,0,0:0:0:66:Hi-Hat close.wav
192,192,35235,1,0,0:0:0:67:Kick.wav
64,192,35393,1,0,0:0:0:67:Snare.wav
320,192,35393,1,0,0:0:0:66:Hi-Hat close.wav
448,192,35550,128,0,35864:0:0:0:57:Hi-Hat close.wav
192,192,35864,1,0,0:0:0:67:Kick.wav
64,192,36021,1,0,0:0:0:67:Snare.wav
320,192,36021,1,0,0:0:0:66:Hi-Hat close.wav
448,192,36335,1,0,0:0:0:67:Kick.wav
448,192,36492,1,0,0:0:0:67:Kick.wav
192,192,36649,1,0,0:0:0:67:Snare.wav
320,192,36649,1,0,0:0:0:66:Hi-Hat close.wav
64,192,36806,128,0,37120:0:0:0:57:Hi-Hat close.wav
448,192,37120,1,0,0:0:0:67:Kick.wav
192,192,37434,1,0,0:0:0:67:Snare.wav
320,192,37434,1,0,0:0:0:66:Hi-Hat close.wav
448,192,37749,1,0,0:0:0:67:Kick.wav
192,192,37906,1,0,0:0:0:67:Snare.wav
320,192,37906,1,0,0:0:0:66:Hi-Hat close.wav
448,192,38220,1,0,0:0:0:67:Kick.wav
448,192,38377,1,0,0:0:0:67:Kick.wav
192,192,38534,1,0,0:0:0:67:Snare.wav
320,192,38534,1,0,0:0:0:66:Hi-Hat close.wav
64,192,38848,1,0,0:0:0:67:Kick.wav
64,192,39005,1,0,0:0:0:67:Kick.wav
192,192,39162,1,0,0:0:0:67:Snare.wav
448,192,39162,1,0,0:0:0:66:Hi-Hat close.wav
320,192,39319,128,0,39633:0:0:0:57:Hi-Hat close.wav
64,192,39633,1,0,0:0:0:67:Kick.wav
192,192,39948,1,0,0:0:0:67:Snare.wav
448,192,39948,1,0,0:0:0:66:Hi-Hat close.wav
64,192,40262,1,0,0:0:0:67:Kick.wav
192,192,40419,1,0,0:0:0:67:Snare.wav
448,192,40419,1,0,0:0:0:66:Hi-Hat close.wav
320,192,40576,128,0,40890:0:0:0:57:Hi-Hat close.wav
64,192,40890,1,0,0:0:0:67:Kick.wav
192,192,41047,1,0,0:0:0:67:Snare.wav
448,192,41047,1,0,0:0:0:66:Hi-Hat close.wav
320,192,41361,1,0,0:0:0:67:Kick.wav
320,192,41518,1,0,0:0:0:67:Kick.wav
192,192,41675,128,0,41989:0:0:0:67:Snare.wav
448,192,41675,1,0,0:0:0:66:Hi-Hat close.wav
64,192,41989,1,0,0:0:0:66:Hi-Hat close.wav
320,192,42146,128,0,42461:0:0:0:67:Kick.wav
192,192,42461,1,0,0:0:0:67:Snare.wav
448,192,42461,1,0,0:0:0:66:Hi-Hat close.wav
320,192,42775,1,0,0:0:0:67:Kick.wav
64,192,42932,1,0,0:0:0:67:Snare.wav
448,192,42932,1,0,0:0:0:66:Hi-Hat open.wav
192,192,43089,1,0,0:0:0:67:Kick.wav
64,192,43246,1,0,0:0:0:67:Snare.wav
448,192,43246,1,0,0:0:0:66:Hi-Hat open.wav
320,192,43403,1,0,0:0:0:67:Kick.wav
64,192,43560,1,0,0:0:0:67:Snare.wav
192,192,43560,1,0,0:0:0:67:Crash high.wav
320,192,43717,1,0,0:0:0:67:Kick.wav
64,192,43874,1,0,0:0:0:67:Snare.wav
448,192,43874,1,0,0:0:0:67:Kick.wav
192,192,44031,1,0,0:0:0:67:Snare.wav
320,192,44110,1,0,0:0:0:57:Snare.wav
448,192,44188,1,0,0:0:0:67:Kick.wav
64,192,44345,128,0,44660:0:0:0:67:Snare.wav
192,192,44345,1,0,0:0:0:67:Crash high.wav
320,192,44660,1,0,0:0:0:67:Kick.wav
192,192,44817,1,0,0:0:0:67:Snare.wav
448,192,44817,128,0,45131:0:0:0:67:Crash medium.wav
320,192,45131,1,0,0:0:0:67:Kick.wav
64,192,45288,1,0,0:0:0:67:Snare.wav
192,192,45288,128,0,45602:0:0:0:67:China.wav
448,192,45602,1,0,0:0:0:67:Kick.wav
64,192,45759,1,0,0:0:0:67:Snare.wav
192,192,45759,1,0,0:0:0:67:Tom3.wav
64,192,45916,1,0,0:0:0:67:Snare.wav
192,192,45916,1,0,0:0:0:67:Tom3.wav
320,192,46073,1,0,0:0:0:67:Snare.wav
448,192,46073,1,0,0:0:0:67:Tom3.wav
320,192,46230,1,0,0:0:0:67:Snare.wav
448,192,46230,1,0,0:0:0:67:Kick.wav
320,192,46544,1,0,0:0:0:67:Kick.wav
64,192,46701,1,0,0:0:0:67:Snare.wav
448,192,46701,1,0,0:0:0:66:Hi-Hat open.wav
192,192,46859,1,0,0:0:0:67:Kick.wav
320,192,47016,1,0,0:0:0:67:Snare.wav
448,192,47016,1,0,0:0:0:66:Hi-Hat open.wav
64,192,47173,1,0,0:0:0:67:Kick.wav
192,192,47330,1,0,0:0:0:67:Snare.wav
320,192,47330,1,0,0:0:0:66:Hi-Hat open.wav
448,192,47487,1,0,0:0:0:67:Kick.wav
64,192,47644,1,0,0:0:0:67:Snare.wav
192,192,47644,1,0,0:0:0:66:Hi-Hat open.wav
320,192,47801,1,0,0:0:0:67:Kick.wav
64,192,47958,1,0,0:0:0:67:Snare.wav
448,192,47958,1,0,0:0:0:66:Hi-Hat open.wav
192,192,48115,1,0,0:0:0:67:Kick.wav
320,192,48272,1,0,0:0:0:67:Snare.wav
448,192,48272,1,0,0:0:0:66:Hi-Hat open.wav
64,192,48429,1,0,0:0:0:67:Kick.wav
192,192,48586,1,0,0:0:0:67:Snare.wav
320,192,48586,1,0,0:0:0:66:Hi-Hat open.wav
448,192,48743,1,0,0:0:0:67:Kick.wav
64,192,48900,1,0,0:0:0:67:Snare.wav
192,192,48900,1,0,0:0:0:65:bass 3-4 160.wav
320,192,49057,1,0,0:0:0:67:Tom3.wav
192,192,49136,1,0,0:0:0:67:Tom3.wav
64,192,49215,1,0,0:0:0:67:Kick.wav
320,192,49372,1,0,0:0:0:67:Snare.wav
448,192,49372,128,0,49686:0:0:0:67:Crash high.wav
192,192,49686,1,0,0:0:0:67:Kick.wav
64,192,49843,128,0,50157:0:0:0:67:Snare.wav
320,192,49843,1,0,0:0:0:67:Crash medium.wav
448,192,50157,1,0,0:0:0:67:Kick.wav
192,192,50314,1,0,0:0:0:67:Snare.wav
320,192,50314,128,0,50628:0:0:0:67:China.wav
64,192,50628,1,0,0:0:0:67:Kick.wav
320,192,50785,1,0,0:0:0:67:Snare.wav
448,192,50785,1,0,0:0:0:67:Tom3.wav
320,192,50942,1,0,0:0:0:67:Snare.wav
448,192,50942,1,0,0:0:0:67:Tom3.wav
64,192,51099,1,0,0:0:0:67:Snare.wav
192,192,51099,1,0,0:0:0:67:Tom3.wav
64,192,51256,1,0,0:0:0:67:Snare.wav
192,192,51256,1,0,0:0:0:67:Kick.wav
320,192,51571,1,0,0:0:0:67:Kick.wav
64,192,51728,1,0,0:0:0:67:Snare.wav
448,192,51728,1,0,0:0:0:66:Hi-Hat open.wav
192,192,51885,1,0,0:0:0:67:Kick.wav
64,192,52042,1,0,0:0:0:67:Snare.wav
320,192,52042,1,0,0:0:0:66:Hi-Hat open.wav
192,192,52199,1,0,0:0:0:67:Kick.wav
320,192,52356,1,0,0:0:0:67:Snare.wav
448,192,52356,1,0,0:0:0:66:Hi-Hat open.wav
64,192,52513,1,0,0:0:0:67:Kick.wav
192,192,52670,1,0,0:0:0:67:Snare.wav
448,192,52670,1,0,0:0:0:66:Hi-Hat open.wav
320,192,52827,1,0,0:0:0:67:Kick.wav
64,192,52984,1,0,0:0:0:67:Snare.wav
192,192,52984,1,0,0:0:0:66:Hi-Hat open.wav
448,192,53141,1,0,0:0:0:67:Kick.wav
192,192,53298,1,0,0:0:0:67:Snare.wav
320,192,53298,1,0,0:0:0:66:Hi-Hat open.wav
64,192,53455,1,0,0:0:0:67:Kick.wav
192,192,53612,1,0,0:0:0:67:Snare.wav
448,192,53612,1,0,0:0:0:66:Hi-Hat open.wav
320,192,53769,1,0,0:0:0:67:Kick.wav
64,192,53927,1,0,0:0:0:67:Kick.wav
192,192,53927,1,0,0:0:0:67:Tom1.wav
448,192,54084,1,0,0:0:0:67:Snare.wav
320,192,54162,1,0,0:0:0:57:Snare.wav
192,192,54241,1,0,0:0:0:67:Kick.wav
64,192,54398,1,0,0:0:0:67:Snare.wav
448,192,54398,128,0,54712:0:0:0:67:Crash high.wav
192,192,54712,1,0,0:0:0:67:Kick.wav
64,192,54869,1,0,0:0:0:67:Snare.wav
320,192,54869,128,0,55183:0:0:0:67:Crash medium.wav
448,192,55183,1,0,0:0:0:67:Kick.wav
64,192,55340,1,0,0:0:0:67:Snare.wav
192,192,55340,128,0,55654:0:0:0:66:Hi-Hat open.wav
320,192,55654,1,0,0:0:0:67:Kick.wav
64,192,55811,1,0,0:0:0:67:Snare.wav
448,192,55811,1,0,0:0:0:67:Tom3.wav
64,192,55968,1,0,0:0:0:67:Snare.wav
448,192,55968,1,0,0:0:0:67:Tom3.wav
192,192,56126,1,0,0:0:0:67:Snare.wav
320,192,56126,1,0,0:0:0:67:Tom3.wav
192,192,56283,1,0,0:0:0:67:Snare.wav
320,192,56283,1,0,0:0:0:67:Kick.wav
320,192,56597,1,0,0:0:0:67:Kick.wav
64,192,56754,1,0,0:0:0:67:Snare.wav
448,192,56754,1,0,0:0:0:66:Hi-Hat open.wav
192,192,56911,1,0,0:0:0:67:Kick.wav
320,192,57068,1,0,0:0:0:67:Snare.wav
448,192,57068,1,0,0:0:0:66:Hi-Hat open.wav
64,192,57225,1,0,0:0:0:67:Kick.wav
192,192,57382,1,0,0:0:0:67:Snare.wav
320,192,57382,1,0,0:0:0:66:Hi-Hat open.wav
448,192,57539,1,0,0:0:0:67:Kick.wav
64,192,57696,1,0,0:0:0:67:Snare.wav
192,192,57696,1,0,0:0:0:66:Hi-Hat open.wav
320,192,57853,1,0,0:0:0:67:Kick.wav
192,192,58010,1,0,0:0:0:67:Snare.wav
448,192,58010,1,0,0:0:0:66:Hi-Hat open.wav
64,192,58167,1,0,0:0:0:65:bass 3-7 160.wav
320,192,58324,1,0,0:0:0:67:Snare.wav
448,192,58324,1,0,0:0:0:67:Kick.wav
320,192,58482,1,0,0:0:0:67:Snare.wav
448,192,58482,1,0,0:0:0:65:bass 3-9 160.wav
64,192,58639,1,0,0:0:0:67:Snare.wav
192,192,58639,1,0,0:0:0:67:Kick.wav
64,192,58796,1,0,0:0:0:67:Snare.wav
192,192,58796,1,0,0:0:0:65:bass 3-9 160.wav
320,192,58953,1,0,0:0:0:67:Kick.wav
448,192,58953,128,0,59424:0:0:0:67:Crash high.wav
64,192,59424,1,0,0:0:0:67:Kick.wav
192,192,59581,128,0,60209:0:0:0:67:Snare.wav
320,192,59581,1,0,0:0:0:66:Hi-Hat open.wav
64,192,60209,1,0,0:0:0:67:Kick.wav
320,192,60366,1,0,0:0:0:67:Snare.wav
448,192,60366,1,0,0:0:0:0:
192,192,60523,1,0,0:0:0:67:Kick.wav
64,192,60680,1,0,0:0:0:67:Kick.wav
320,192,60838,1,0,0:0:0:67:Snare.wav
448,192,60838,128,0,61152:0:0:0:66:Hi-Hat open.wav
192,192,61152,1,0,0:0:0:67:Kick.wav
64,192,61309,1,0,0:0:0:67:Snare.wav
320,192,61309,1,0,0:0:0:0:
192,192,61466,128,0,62408:0:0:0:67:Kick.wav
448,192,61466,1,0,0:0:0:67:Crash high.wav
320,192,62408,128,0,62722:0:0:0:65:bass 3-7 320.wav
64,192,62722,128,0,63194:0:0:0:65:bass 3-12 640.wav
448,192,63194,1,0,0:0:0:67:Snare.wav
320,192,63272,1,0,0:0:0:57:Snare.wav
64,192,63351,1,0,0:0:0:67:Snare.wav
192,192,63351,1,0,0:0:0:65:bass 4-2 160.wav
320,192,63508,1,0,0:0:0:67:Kick.wav
448,192,63508,1,0,0:0:0:66:Hi-Hat open.wav
64,192,63822,1,0,0:0:0:73:0 2 2 2 0 A 80.wav
192,192,63900,1,0,0:0:0:73:0 2 2 2 0 A 80.wav
320,192,63979,1,0,0:0:0:67:Kick.wav
448,192,63979,128,0,64293:0:0:0:67:Crash high.wav
64,192,64293,1,0,0:0:0:67:Snare.wav
192,192,64293,1,0,0:0:0:66:Hi-Hat open.wav
448,192,64607,1,0,0:0:0:67:Kick.wav
448,192,64764,1,0,0:0:0:67:Kick.wav
64,192,64921,1,0,0:0:0:67:Snare.wav
320,192,64921,1,0,0:0:0:66:Hi-Hat open.wav
192,192,65235,128,0,65550:0:0:0:67:Kick.wav
320,192,65550,1,0,0:0:0:67:Snare.wav
448,192,65550,1,0,0:0:0:66:Hi-Hat open.wav
64,192,65864,1,0,0:0:0:67:Kick.wav
64,192,66021,1,0,0:0:0:67:Kick.wav
320,192,66178,128,0,66492:0:0:0:67:Snare.wav
448,192,66178,1,0,0:0:0:66:Hi-Hat open.wav
64,192,66492,128,0,66806:0:0:0:67:Kick.wav
192,192,66806,1,0,0:0:0:67:Snare.wav
448,192,66806,1,0,0:0:0:66:Hi-Hat open.wav
320,192,67120,1,0,0:0:0:67:Kick.wav
320,192,67277,1,0,0:0:0:67:Kick.wav
64,192,67434,1,0,0:0:0:67:Snare.wav
448,192,67434,128,0,67749:0:0:0:66:Hi-Hat open.wav
192,192,67749,128,0,68063:0:0:0:67:Kick.wav
64,192,68063,1,0,0:0:0:67:Snare.wav
448,192,68063,1,0,0:0:0:66:Hi-Hat open.wav
192,192,68377,1,0,0:0:0:67:Kick.wav
192,192,68534,1,0,0:0:0:67:Kick.wav
64,192,68691,1,0,0:0:0:67:Snare.wav
320,192,68691,1,0,0:0:0:66:Hi-Hat open.wav
64,192,69005,128,0,69319:0:0:0:67:Kick.wav
448,192,69005,1,0,0:0:0:67:Crash high.wav
192,192,69319,1,0,0:0:0:67:Snare.wav
320,192,69319,1,0,0:0:0:66:Hi-Hat open.wav
448,192,69633,1,0,0:0:0:67:Kick.wav
448,192,69790,1,0,0:0:0:67:Kick.wav
64,192,69948,1,0,0:0:0:67:Snare.wav
192,192,69948,128,0,70262:0:0:0:66:Hi-Hat open.wav
320,192,70262,128,0,70576:0:0:0:67:Kick.wav
64,192,70576,128,0,70890:0:0:0:67:Snare.wav
448,192,70576,1,0,0:0:0:66:Hi-Hat open.wav
192,192,70890,1,0,0:0:0:67:Kick.wav
192,192,71047,1,0,0:0:0:67:Kick.wav
64,192,71204,1,0,0:0:0:67:Snare.wav
448,192,71204,128,0,71518:0:0:0:67:Crash medium.wav
320,192,71518,1,0,0:0:0:67:Kick.wav
320,192,71675,1,0,0:0:0:67:Kick.wav
64,192,71832,128,0,72146:0:0:0:67:Snare.wav
448,192,71832,1,0,0:0:0:67:Crash high.wav
192,192,72146,1,0,0:0:0:67:Kick.wav
192,192,72304,1,0,0:0:0:67:Kick.wav
64,192,72461,1,0,0:0:0:67:Snare.wav
320,192,72461,128,0,72775:0:0:0:67:Crash medium.wav
448,192,72775,1,0,0:0:0:67:Kick.wav
448,192,72932,1,0,0:0:0:67:Kick.wav
64,192,73089,1,0,0:0:0:67:Snare.wav
192,192,73089,1,0,0:0:0:66:Hi-Hat open.wav
448,192,73403,1,0,0:0:0:67:Kick.wav
64,192,73560,1,0,0:0:0:67:Snare.wav
192,192,73639,1,0,0:0:0:57:Snare.wav
320,192,73717,1,0,0:0:0:67:Snare.wav
448,192,73874,1,0,0:0:0:57:Snare.wav
320,192,73953,1,0,0:0:0:57:Snare.wav
64,192,74031,128,0,74345:0:0:0:67:Kick.wav
192,192,74031,1,0,0:0:0:67:Crash high.wav
320,192,74345,128,0,74660:0:0:0:67:Snare.wav
448,192,74345,1,0,0:0:0:65:bass 4-0 320.wav
192,192,74660,1,0,0:0:0:67:Kick.wav
192,192,74817,1,0,0:0:0:67:Kick.wav
64,192,74974,1,0,0:0:0:67:Snare.wav
448,192,74974,1,0,0:0:0:65:bass 4-0 160.wav
64,192,75288,128,0,75602:0:0:0:67:Kick.wav
192,192,75602,1,0,0:0:0:67:Snare.wav
448,192,75602,1,0,0:0:0:65:bass 4-0 160.wav
320,192,75916,1,0,0:0:0:67:Kick.wav
320,192,76073,1,0,0:0:0:67:Kick.wav
192,192,76230,1,0,0:0:0:67:Snare.wav
448,192,76230,1,0,0:0:0:65:bass 4-7 160.wav
192,192,76544,128,0,76859:0:0:0:67:Kick.wav
64,192,76859,1,0,0:0:0:67:Snare.wav
320,192,76859,1,0,0:0:0:65:bass 3-6 160.wav
448,192,77173,1,0,0:0:0:67:Kick.wav
448,192,77330,1,0,0:0:0:67:Kick.wav
192,192,77487,1,0,0:0:0:67:Snare.wav
320,192,77487,1,0,0:0:0:65:bass 3-6 160.wav
64,192,77801,128,0,78115:0:0:0:67:Kick.wav
320,192,78115,1,0,0:0:0:67:Snare.wav
448,192,78115,1,0,0:0:0:65:bass 3-5 160.wav
192,192,78429,1,0,0:0:0:67:Kick.wav
192,192,78586,1,0,0:0:0:67:Kick.wav
64,192,78743,1,0,0:0:0:67:Snare.wav
320,192,78743,1,0,0:0:0:67:Crash medium.wav
192,192,78900,1,0,0:0:0:67:Kick.wav
320,192,78979,1,0,0:0:0:78:x x x 7 x 5 80.wav
64,192,79057,1,0,0:0:0:67:Snare.wav
448,192,79057,128,0,79372:0:0:0:67:Kick.wav
192,192,79372,1,0,0:0:0:67:Snare.wav
320,192,79372,1,0,0:0:0:66:Hi-Hat open.wav
64,192,79529,1,0,0:0:0:67:Kick.wav
320,192,79686,1,0,0:0:0:67:Snare.wav
448,192,79686,1,0,0:0:0:66:Hi-Hat open.wav
192,192,79843,1,0,0:0:0:67:Kick.wav
64,192,80000,1,0,0:0:0:67:Snare.wav
448,192,80000,1,0,0:0:0:66:Hi-Hat open.wav
320,192,80157,1,0,0:0:0:67:Kick.wav
64,192,80314,1,0,0:0:0:67:Snare.wav
192,192,80314,128,0,80628:0:0:0:67:Crash medium.wav
320,192,80628,1,0,0:0:0:67:Snare.wav
448,192,80628,1,0,0:0:0:66:Hi-Hat open.wav
64,192,80785,1,0,0:0:0:67:Kick.wav
192,192,80942,1,0,0:0:0:67:Snare.wav
320,192,80942,1,0,0:0:0:66:Hi-Hat open.wav
448,192,81099,1,0,0:0:0:67:Kick.wav
64,192,81256,1,0,0:0:0:67:Snare.wav
192,192,81256,1,0,0:0:0:66:Hi-Hat open.wav
320,192,81413,1,0,0:0:0:67:Kick.wav
64,192,81571,128,0,81885:0:0:0:67:Snare.wav
448,192,81571,1,0,0:0:0:67:Crash high.wav
192,192,81885,1,0,0:0:0:67:Snare.wav
448,192,81885,1,0,0:0:0:66:Hi-Hat open.wav
320,192,82042,1,0,0:0:0:67:Kick.wav
64,192,82199,1,0,0:0:0:67:Snare.wav
448,192,82199,1,0,0:0:0:66:Hi-Hat open.wav
192,192,82356,1,0,0:0:0:67:Kick.wav
320,192,82513,1,0,0:0:0:67:Snare.wav
448,192,82513,1,0,0:0:0:66:Hi-Hat open.wav
64,192,82670,1,0,0:0:0:67:Kick.wav
192,192,82827,1,0,0:0:0:67:Snare.wav
448,192,82827,1,0,0:0:0:67:Crash medium.wav
320,192,82984,1,0,0:0:0:67:Kick.wav
64,192,83141,1,0,0:0:0:67:Snare.wav
448,192,83141,1,0,0:0:0:66:Hi-Hat open.wav
64,192,83455,1,0,0:0:0:67:Snare.wav
448,192,83455,1,0,0:0:0:67:Kick.wav
320,192,83612,1,0,0:0:0:57:Snare.wav
192,192,83691,1,0,0:0:0:57:Snare.wav
64,192,83769,1,0,0:0:0:67:Snare.wav
192,192,83927,1,0,0:0:0:57:Snare.wav
320,192,84005,1,0,0:0:0:57:Snare.wav
64,192,84084,128,0,84398:0:0:0:67:Kick.wav
448,192,84084,1,0,0:0:0:67:Crash high.wav
320,192,84398,1,0,0:0:0:67:Snare.wav
448,192,84398,1,0,0:0:0:65:bass 3-2 160.wav
64,192,84712,1,0,0:0:0:67:Kick.wav
64,192,84869,1,0,0:0:0:67:Kick.wav
192,192,85026,1,0,0:0:0:67:Snare.wav
448,192,85026,1,0,0:0:0:66:Hi-Hat close.wav
320,192,85340,128,0,85654:0:0:0:67:Kick.wav
64,192,85654,1,0,0:0:0:67:Snare.wav
192,192,85654,1,0,0:0:0:66:Hi-Hat close.wav
448,192,85968,1,0,0:0:0:67:Kick.wav
448,192,86126,1,0,0:0:0:67:Kick.wav
64,192,86283,1,0,0:0:0:67:Snare.wav
192,192,86283,1,0,0:0:0:66:Hi-Hat close.wav
448,192,86597,128,0,86911:0:0:0:67:Kick.wav
64,192,86911,1,0,0:0:0:67:Snare.wav
320,192,86911,1,0,0:0:0:66:Hi-Hat close.wav
192,192,87225,1,0,0:0:0:67:Kick.wav
192,192,87382,1,0,0:0:0:67:Kick.wav
64,192,87539,1,0,0:0:0:67:Snare.wav
320,192,87539,1,0,0:0:0:66:Hi-Hat close.wav
192,192,87853,128,0,88167:0:0:0:67:Kick.wav
64,192,88167,1,0,0:0:0:67:Snare.wav
448,192,88167,1,0,0:0:0:66:Hi-Hat close.wav
320,192,88482,1,0,0:0:0:67:Kick.wav
320,192,88639,1,0,0:0:0:67:Kick.wav
192,192,88796,1,0,0:0:0:67:Snare.wav
448,192,88796,1,0,0:0:0:66:Hi-Hat close.wav
64,192,88953,1,0,0:0:0:66:Hi-Hat open.wav
192,192,89031,1,0,0:0:0:78:x x 4 x 2 80.wav
320,192,89110,1,0,0:0:0:67:Kick.wav
448,192,89110,128,0,89424:0:0:0:67:Crash high.wav
192,192,89424,1,0,0:0:0:67:Snare.wav
320,192,89424,1,0,0:0:0:65:bass 3-6 160.wav
64,192,89738,1,0,0:0:0:67:Kick.wav
64,192,89895,1,0,0:0:0:67:Kick.wav
320,192,90052,1,0,0:0:0:67:Snare.wav
448,192,90052,1,0,0:0:0:66:Hi-Hat close.wav
64,192,90366,1,0,0:0:0:67:Kick.wav
192,192,90366,128,0,90680:0:0:0:67:Crash medium.wav
64,192,90680,1,0,0:0:0:67:Snare.wav
448,192,90680,1,0,0:0:0:65:bass 4-3 160.wav
320,192,90995,1,0,0:0:0:67:Kick.wav
320,192,91152,1,0,0:0:0:67:Kick.wav
64,192,91309,128,0,91623:0:0:0:67:Snare.wav
448,192,91309,1,0,0:0:0:66:Hi-Hat close.wav
192,192,91623,128,0,91937:0:0:0:67:Kick.wav
448,192,91623,1,0,0:0:0:67:Crash medium.wav
320,192,91937,128,0,92094:0:0:0:67:Snare.wav
64,192,92094,1,0,0:0:0:57:Snare.wav
192,192,92251,1,0,0:0:0:67:Kick.wav
448,192,92251,128,0,92408:0:0:0:67:Crash high.wav
64,192,92408,128,0,92722:0:0:0:67:Kick.wav
448,192,92722,1,0,0:0:0:57:Snare.wav
192,192,92879,128,0,93194:0:0:0:67:Kick.wav
320,192,92879,1,0,0:0:0:67:Crash medium.wav
448,192,93194,128,0,93508:0:0:0:67:Snare.wav
64,192,93508,1,0,0:0:0:67:Snare.wav
320,192,93508,1,0,0:0:0:67:Kick.wav
192,192,93665,1,0,0:0:0:67:Tom3.wav
320,192,93743,1,0,0:0:0:67:Kick.wav
64,192,93822,128,0,94136:0:0:0:67:Snare.wav
448,192,93822,1,0,0:0:0:67:China.wav
320,192,94136,128,0,94450:0:0:0:67:Kick.wav
448,192,94136,1,0,0:0:0:67:Crash high.wav
64,192,94450,1,0,0:0:0:67:Snare.wav
192,192,94450,1,0,0:0:0:65:bass 4-0 160.wav
448,192,94764,1,0,0:0:0:67:Kick.wav
448,192,94921,1,0,0:0:0:67:Kick.wav
64,192,95078,1,0,0:0:0:67:Snare.wav
320,192,95078,1,0,0:0:0:66:Hi-Hat close.wav
448,192,95393,128,0,95707:0:0:0:67:Kick.wav
64,192,95707,1,0,0:0:0:67:Snare.wav
192,192,95707,128,0,96021:0:0:0:66:Hi-Hat close.wav
320,192,96021,1,0,0:0:0:67:Kick.wav
320,192,96178,1,0,0:0:0:67:Kick.wav
64,192,96335,128,0,96649:0:0:0:67:Snare.wav
448,192,96335,1,0,0:0:0:66:Hi-Hat close.wav
320,192,96649,128,0,96963:0:0:0:67:Kick.wav
192,192,96963,1,0,0:0:0:67:Snare.wav
448,192,96963,1,0,0:0:0:66:Hi-Hat close.wav
64,192,97277,1,0,0:0:0:67:Kick.wav
64,192,97434,1,0,0:0:0:67:Kick.wav
192,192,97591,1,0,0:0:0:67:Snare.wav
320,192,97591,1,0,0:0:0:66:Hi-Hat close.wav
448,192,97906,128,0,98220:0:0:0:67:Kick.wav
64,192,98220,128,0,98534:0:0:0:67:Snare.wav
320,192,98220,1,0,0:0:0:66:Hi-Hat close.wav
192,192,98534,1,0,0:0:0:67:Kick.wav
192,192,98691,1,0,0:0:0:67:Kick.wav
64,192,98848,1,0,0:0:0:67:Snare.wav
320,192,98848,128,0,99162:0:0:0:66:Hi-Hat close.wav
64,192,99162,1,0,0:0:0:67:Kick.wav
448,192,99162,1,0,0:0:0:58:Hi-Hat close.wav
448,192,99319,1,0,0:0:0:67:Kick.wav
192,192,99476,1,0,0:0:0:67:Snare.wav
320,192,99476,128,0,99790:0:0:0:67:Crash high.wav
64,192,99790,1,0,0:0:0:67:Kick.wav
64,192,99948,1,0,0:0:0:67:Kick.wav
192,192,100105,128,0,100419:0:0:0:67:Snare.wav
448,192,100105,1,0,0:0:0:67:Crash medium.wav
320,192,100419,1,0,0:0:0:67:Kick.wav
320,192,100576,1,0,0:0:0:67:Kick.wav
64,192,100733,128,0,101047:0:0:0:67:Snare.wav
448,192,100733,1,0,0:0:0:67:Crash high.wav
192,192,101047,1,0,0:0:0:67:Kick.wav
192,192,101204,1,0,0:0:0:67:Kick.wav
64,192,101361,1,0,0:0:0:67:Snare.wav
448,192,101361,128,0,101675:0:0:0:67:Crash medium.wav
192,192,101675,1,0,0:0:0:67:Snare.wav
320,192,101675,1,0,0:0:0:67:Crash high.wav
64,192,101832,1,0,0:0:0:67:Kick.wav
320,192,101989,1,0,0:0:0:67:Snare.wav
448,192,101989,1,0,0:0:0:66:Hi-Hat open.wav
192,192,102146,1,0,0:0:0:67:Kick.wav
64,192,102304,1,0,0:0:0:67:Snare.wav
448,192,102304,1,0,0:0:0:67:Tom3.wav
192,192,102461,1,0,0:0:0:67:Snare.wav
320,192,102461,1,0,0:0:0:65:bass 2-8 160.wav
448,192,102618,1,0,0:0:0:67:Kick.wav
64,192,102775,128,0,103089:0:0:0:67:Snare.wav
320,192,102775,1,0,0:0:0:67:Crash medium.wav
192,192,103089,1,0,0:0:0:67:Kick.wav
320,192,103246,1,0,0:0:0:67:Snare.wav
448,192,103246,1,0,0:0:0:66:Hi-Hat open.wav
64,192,103403,1,0,0:0:0:67:Kick.wav
320,192,103560,1,0,0:0:0:67:Snare.wav
448,192,103560,1,0,0:0:0:67:Tom3.wav
320,192,103717,1,0,0:0:0:67:Snare.wav
448,192,103717,1,0,0:0:0:67:Tom3.wav
64,192,103874,1,0,0:0:0:67:Snare.wav
192,192,103874,1,0,0:0:0:67:Tom3.wav
64,192,104031,1,0,0:0:0:67:Snare.wav
192,192,104031,1,0,0:0:0:67:Tom3.wav
320,192,104188,128,0,104502:0:0:0:78:clean 5 7 6 7 5 Arpeggio down Dmaj7 320.wav
192,192,104817,128,0,105131:0:0:0:78:clean 4 5 4 6 4 Arpeggio down C#m7 320.wav
64,192,105445,128,0,105759:0:0:0:78:clean 2 3 2 4 2 Arpeggio down Bm7 320.wav
448,192,106073,128,0,107016:0:0:0:78:clean 7 7 7 7 Arpeggio down Asus4 1280.wav
64,192,107173,1,0,0:0:0:67:Snare.wav
192,192,107251,1,0,0:0:0:57:Snare.wav
320,192,107330,1,0,0:0:0:67:Snare.wav
448,192,107330,1,0,0:0:0:73:x x 4 3 4 C#7 Mute 160.wav
64,192,107487,128,0,107958:0:0:0:67:Kick.wav
192,192,107487,1,0,0:0:0:66:Hi-Hat open.wav
320,192,107958,1,0,0:0:0:67:Kick.wav
448,192,107958,1,0,0:0:0:67:Crash high.wav
192,192,108115,1,0,0:0:0:65:bass 4-0 160.wav
320,192,108194,1,0,0:0:0:78:12 80.wav
64,192,108272,1,0,0:0:0:67:Snare.wav
448,192,108272,1,0,0:0:0:66:Hi-Hat open.wav
320,192,108429,128,0,108586:0:0:0:65:bass 4-0 160.wav
64,192,108743,1,0,0:0:0:67:Kick.wav
192,192,108900,1,0,0:0:0:67:Snare.wav
448,192,108900,1,0,0:0:0:66:Hi-Hat open.wav
64,192,109057,128,0,109215:0:0:0:67:Kick.wav
448,192,109372,1,0,0:0:0:67:Kick.wav
192,192,109529,1,0,0:0:0:67:Snare.wav
320,192,109529,1,0,0:0:0:66:Hi-Hat open.wav
448,192,109686,1,0,0:0:0:65:bass 4-0 160.wav
192,192,109843,128,0,110000:0:0:0:66:Hi-Hat open.wav
320,192,110000,1,0,0:0:0:67:Kick.wav
64,192,110157,1,0,0:0:0:67:Snare.wav
448,192,110157,128,0,110314:0:0:0:66:Hi-Hat open.wav
192,192,110314,1,0,0:0:0:65:bass 4-0 160.wav
320,192,110471,1,0,0:0:0:67:Kick.wav
64,192,110628,1,0,0:0:0:65:bass 3-6 160.wav
192,192,110707,1,0,0:0:0:78:x x 14 80.wav
320,192,110785,1,0,0:0:0:67:Snare.wav
448,192,110785,1,0,0:0:0:66:Hi-Hat open.wav
64,192,110942,128,0,111099:0:0:0:65:bass 3-6 160.wav
320,192,111256,1,0,0:0:0:67:Kick.wav
64,192,111413,1,0,0:0:0:67:Snare.wav
192,192,111413,128,0,111728:0:0:0:66:Hi-Hat open.wav
448,192,111571,1,0,0:0:0:67:Kick.wav
64,192,111885,1,0,0:0:0:67:Kick.wav
192,192,112042,128,0,112199:0:0:0:67:Snare.wav
320,192,112042,1,0,0:0:0:66:Hi-Hat open.wav
64,192,112199,1,0,0:0:0:65:bass 3-6 160.wav
448,192,112356,128,0,112513:0:0:0:66:Hi-Hat open.wav
320,192,112513,1,0,0:0:0:67:Kick.wav
64,192,112670,128,0,112984:0:0:0:67:Snare.wav
192,192,112670,1,0,0:0:0:66:Hi-Hat open.wav
320,192,112984,1,0,0:0:0:67:Kick.wav
448,192,112984,1,0,0:0:0:67:Crash high.wav
192,192,113141,1,0,0:0:0:65:bass 3-4 160.wav
320,192,113220,1,0,0:0:0:78:12 80.wav
64,192,113298,1,0,0:0:0:67:Snare.wav
448,192,113298,1,0,0:0:0:66:Hi-Hat open.wav
192,192,113455,128,0,113612:0:0:0:65:bass 3-4 160.wav
320,192,113769,1,0,0:0:0:67:Kick.wav
64,192,113927,1,0,0:0:0:67:Snare.wav
448,192,113927,1,0,0:0:0:66:Hi-Hat open.wav
320,192,114084,128,0,114241:0:0:0:67:Kick.wav
192,192,114398,1,0,0:0:0:67:Kick.wav
64,192,114555,1,0,0:0:0:67:Snare.wav
448,192,114555,1,0,0:0:0:66:Hi-Hat open.wav
192,192,114712,1,0,0:0:0:65:bass 3-6 160.wav
320,192,114869,128,0,115026:0:0:0:66:Hi-Hat open.wav
448,192,115026,1,0,0:0:0:67:Kick.wav
64,192,115183,1,0,0:0:0:67:Snare.wav
192,192,115183,128,0,115340:0:0:0:67:Crash medium.wav
448,192,115340,1,0,0:0:0:73:x 5 4 x 4 C#m7 160.wav
64,192,115497,1,0,0:0:0:67:Snare.wav
320,192,115497,1,0,0:0:0:67:Kick.wav
448,192,115654,1,0,0:0:0:67:Tom1.wav
320,192,115733,1,0,0:0:0:67:Tom1.wav
192,192,115811,1,0,0:0:0:67:Kick.wav
64,192,115968,128,0,116126:0:0:0:67:Snare.wav
320,192,115968,1,0,0:0:0:66:Hi-Hat open.wav
192,192,116283,1,0,0:0:0:67:Kick.wav
320,192,116440,1,0,0:0:0:67:Snare.wav
448,192,116440,128,0,116754:0:0:0:67:Crash high.wav
192,192,116754,1,0,0:0:0:67:Kick.wav
64,192,116911,1,0,0:0:0:67:Snare.wav
320,192,116911,1,0,0:0:0:66:Hi-Hat open.wav
320,192,117225,1,0,0:0:0:67:Tom1.wav
192,192,117304,1,0,0:0:0:67:Tom1.wav
64,192,117382,1,0,0:0:0:67:Snare.wav
448,192,117382,128,0,118010:0:0:0:73:7 7 7 7 7 D6 160.wav
320,192,117539,1,0,0:0:0:67:Tom1.wav
64,192,117696,1,0,0:0:0:67:Tom3.wav
192,192,117853,1,0,0:0:0:67:Tom3.wav
64,192,118010,1,0,0:0:0:67:Splash.wav
320,192,118010,1,0,0:0:0:0:
320,192,118324,128,0,118482:0:0:0:78:clean 5 7 6 Dmaj7 Staccato 320.wav
192,192,118482,1,0,0:0:0:65:bass 2-14 160.wav
448,192,118639,1,0,0:0:0:65:bass 1-16 160.wav
64,192,118796,1,0,0:0:0:65:bass 1-15 160.wav
192,192,118953,128,0,119110:0:0:0:65:bass 2-16 160.wav
448,192,118953,1,0,0:0:0:78:clean 5 7 6 Dmaj7 Staccato 320.wav
320,192,119110,1,0,0:0:0:65:bass 2-14 160.wav
448,192,119424,1,0,0:0:0:65:bass 2-14 160.wav
64,192,119581,128,0,119738:0:0:0:78:clean 5 7 6 Dmaj7 Staccato 320.wav
192,192,119738,1,0,0:0:0:57:Kick.wav
320,192,119895,1,0,0:0:0:67:Snare side strick.wav
320,192,120052,1,0,0:0:0:67:Snare side strick.wav
448,192,120209,128,0,120366:0:0:0:66:Hi-Hat open.wav
192,192,120523,1,0,0:0:0:57:Hi-Hat close.wav
64,192,120838,128,0,120995:0:0:0:78:clean 4 5 4 C#m7 Staccato 320.wav
320,192,120995,1,0,0:0:0:57:Kick.wav
192,192,121152,1,0,0:0:0:67:Snare side strick.wav
448,192,121152,1,0,0:0:0:65:bass 1-16 160.wav
320,192,121309,1,0,0:0:0:65:bass 1-15 160.wav
64,192,121466,1,0,0:0:0:65:bass 2-16 160.wav
448,192,121466,128,0,121623:0:0:0:78:clean 4 5 4 C#m7 Staccato 320.wav
192,192,121623,1,0,0:0:0:65:bass 2-13 160.wav
64,192,121937,1,0,0:0:0:65:bass 2-13 160.wav
448,192,122094,1,0,0:0:0:58:Snare.wav
320,192,122173,1,0,0:0:0:48:Snare.wav
64,192,122251,1,0,0:0:0:58:Snare.wav
192,192,122330,1,0,0:0:0:48:Snare.wav
320,192,122408,1,0,0:0:0:67:Snare.wav
320,192,122644,1,0,0:0:0:67:Snare.wav
320,192,122879,1,0,0:0:0:67:Snare.wav
64,192,123351,128,0,123508:0:0:0:78:clean 2 3 2 Bm7 Staccato 320.wav
448,192,123508,1,0,0:0:0:66:Hi-Hat close.wav
192,192,123665,1,0,0:0:0:67:Snare side strick.wav
320,192,123665,1,0,0:0:0:65:bass 1-16 160.wav
64,192,123822,1,0,0:0:0:65:bass 1-15 160.wav
320,192,123979,1,0,0:0:0:66:Hi-Hat open.wav
448,192,123979,128,0,124136:0:0:0:65:bass 2-16 160.wav
192,192,124136,1,0,0:0:0:65:bass 3-16 160.wav
64,192,124450,1,0,0:0:0:65:bass 3-16 160.wav
320,192,124607,128,0,124764:0:0:0:57:Kick.wav
448,192,124764,1,0,0:0:0:57:Kick.wav
192,192,124921,1,0,0:0:0:67:Snare side strick.wav
192,192,125078,1,0,0:0:0:67:Snare side strick.wav
64,192,125235,128,0,125393:0:0:0:78:clean 2 3 2 Bm7 Staccato 320.wav
320,192,125550,1,0,0:0:0:57:Kick.wav
448,192,125707,1,0,0:0:0:65:bass 3-11 160.wav
64,192,125864,128,0,126021:0:0:0:65:bass 2-13 160.wav
192,192,125864,1,0,0:0:0:78:clean 9 10 11 F#m Staccato 320.wav
320,192,126021,1,0,0:0:0:65:bass 1-13 160.wav
192,192,126178,1,0,0:0:0:57:Kick.wav
64,192,126335,1,0,0:0:0:65:bass 1-16 160.wav
320,192,126492,128,0,126649:0:0:0:65:bass 1-15 160.wav
448,192,126492,1,0,0:0:0:78:clean 9 10 11 F#m Staccato 320.wav
192,192,126649,1,0,0:0:0:65:bass 2-16 160.wav
64,192,126806,128,0,127749:0:0:0:57:Kick.wav
448,192,126806,1,0,0:0:0:78:12 12 N.H. 1280.wav
448,192,127120,1,0,0:0:0:10:Snare.wav
448,192,127434,1,0,0:0:0:50:Snare.wav
448,192,127749,128,0,128063:0:0:0:90:Snare.wav
64,192,128063,1,0,0:0:0:67:Kick.wav
320,192,128063,1,0,0:0:0:67:Crash high.wav
192,192,128220,1,0,0:0:0:73:x 5 6 7 5 Dmaj9 160.wav
320,192,128377,1,0,0:0:0:67:Snare.wav
448,192,128377,1,0,0:0:0:66:Hi-Hat close.wav
64,192,128534,128,0,128848:0:0:0:57:Hi-Hat close.wav
192,192,128848,1,0,0:0:0:67:Kick.wav
320,192,129162,1,0,0:0:0:67:Snare.wav
448,192,129162,1,0,0:0:0:66:Hi-Hat close.wav
192,192,129476,1,0,0:0:0:67:Kick.wav
320,192,129633,1,0,0:0:0:67:Snare.wav
448,192,129633,1,0,0:0:0:66:Hi-Hat close.wav
64,192,129790,128,0,130105:0:0:0:57:Hi-Hat close.wav
192,192,130105,1,0,0:0:0:67:Kick.wav
320,192,130262,1,0,0:0:0:67:Snare.wav
448,192,130262,1,0,0:0:0:66:Hi-Hat open.wav
64,192,130576,1,0,0:0:0:67:Kick.wav
64,192,130733,1,0,0:0:0:67:Kick.wav
192,192,130890,1,0,0:0:0:67:Snare.wav
320,192,130890,1,0,0:0:0:66:Hi-Hat close.wav
448,192,131047,128,0,131361:0:0:0:57:Hi-Hat close.wav
64,192,131361,1,0,0:0:0:67:Kick.wav
192,192,131675,1,0,0:0:0:67:Snare.wav
320,192,131675,1,0,0:0:0:66:Hi-Hat close.wav
64,192,131989,1,0,0:0:0:67:Kick.wav
192,192,132146,1,0,0:0:0:67:Snare.wav
320,192,132146,1,0,0:0:0:66:Hi-Hat close.wav
448,192,132304,1,0,0:0:0:57:Hi-Hat close.wav
320,192,132461,1,0,0:0:0:66:Hi-Hat close.wav
64,192,132618,1,0,0:0:0:67:Kick.wav
192,192,132775,1,0,0:0:0:67:Snare.wav
320,192,132775,1,0,0:0:0:66:Hi-Hat open.wav
448,192,133089,1,0,0:0:0:67:Kick.wav
448,192,133246,1,0,0:0:0:67:Kick.wav
64,192,133403,1,0,0:0:0:67:Snare.wav
320,192,133403,1,0,0:0:0:66:Hi-Hat close.wav
192,192,133560,128,0,133874:0:0:0:57:Hi-Hat close.wav
448,192,133874,1,0,0:0:0:67:Kick.wav
64,192,134188,1,0,0:0:0:67:Snare.wav
320,192,134188,1,0,0:0:0:66:Hi-Hat close.wav
448,192,134502,1,0,0:0:0:67:Kick.wav
64,192,134660,1,0,0:0:0:67:Snare.wav
320,192,134660,1,0,0:0:0:66:Hi-Hat close.wav
192,192,134817,128,0,135131:0:0:0:57:Hi-Hat close.wav
448,192,135131,1,0,0:0:0:67:Kick.wav
64,192,135288,1,0,0:0:0:67:Snare.wav
320,192,135288,1,0,0:0:0:66:Hi-Hat open.wav
320,192,135602,1,0,0:0:0:67:Kick.wav
320,192,135759,1,0,0:0:0:67:Kick.wav
64,192,135916,128,0,136230:0:0:0:67:Snare.wav
448,192,135916,1,0,0:0:0:66:Hi-Hat close.wav
192,192,136230,1,0,0:0:0:66:Hi-Hat close.wav
320,192,136387,128,0,136701:0:0:0:67:Kick.wav
64,192,136701,1,0,0:0:0:67:Snare.wav
448,192,136701,1,0,0:0:0:66:Hi-Hat close.wav
320,192,137016,1,0,0:0:0:67:Kick.wav
64,192,137173,1,0,0:0:0:67:Snare.wav
448,192,137173,1,0,0:0:0:66:Hi-Hat open.wav
192,192,137330,1,0,0:0:0:67:Kick.wav
64,192,137487,1,0,0:0:0:67:Snare.wav
448,192,137487,1,0,0:0:0:66:Hi-Hat open.wav
320,192,137644,1,0,0:0:0:67:Kick.wav
192,192,137801,1,0,0:0:0:67:Snare.wav
448,192,137801,1,0,0:0:0:66:Hi-Hat open.wav
320,192,137958,1,0,0:0:0:67:Kick.wav
64,192,138115,128,0,138429:0:0:0:67:Kick.wav
192,192,138115,1,0,0:0:0:67:Crash high.wav
320,192,138429,128,0,138743:0:0:0:78:x x 4 320.wav
64,192,138743,128,0,139057:0:0:0:78:x x 2 320.wav
448,192,139057,128,0,139686:0:0:0:78:x 3 640.wav
64,192,139372,1,0,0:0:0:67:Kick.wav
192,192,139372,1,0,0:0:0:67:Crash medium.wav
64,192,139686,1,0,0:0:0:78:x x 4 80.wav
192,192,139764,1,0,0:0:0:78:x x 2 80.wav
320,192,139843,128,0,140000:0:0:0:78:x x 0 160.wav
448,192,140000,128,0,140157:0:0:0:78:x x 2 160.wav
192,192,140157,128,0,140314:0:0:0:78:x x 4 160.wav
64,192,140314,128,0,140942:0:0:0:78:x x 0 640.wav
320,192,140628,1,0,0:0:0:67:Kick.wav
448,192,140628,1,0,0:0:0:67:Crash high.wav
320,192,140942,128,0,141256:0:0:0:78:x x x 4 320.wav
192,192,141256,128,0,141571:0:0:0:78:x x 0 320.wav
448,192,141571,128,0,141885:0:0:0:65:bass 3-6 320.wav
320,192,141885,1,0,0:0:0:67:Kick.wav
64,192,142042,1,0,0:0:0:67:Snare.wav
192,192,142042,1,0,0:0:0:73:0 0 1 2 0 Amaj9 160.wav
448,192,142199,1,0,0:0:0:67:Kick.wav
320,192,142356,1,0,0:0:0:67:Snare.wav
192,192,142513,1,0,0:0:0:67:Kick.wav
448,192,142670,1,0,0:0:0:67:Tom1.wav
64,192,142827,1,0,0:0:0:67:Tom2.wav
320,192,142984,1,0,0:0:0:67:Tom3.wav
64,192,143141,1,0,0:0:0:67:Kick.wav
448,192,143141,128,0,143455:0:0:0:67:Crash medium.wav
320,192,143455,128,0,143769:0:0:0:78:x x 4 320.wav
192,192,143769,128,0,144084:0:0:0:78:x x 2 320.wav
64,192,144084,128,0,144712:0:0:0:78:x 3 640.wav
320,192,144398,1,0,0:0:0:67:Kick.wav
448,192,144398,1,0,0:0:0:67:Crash high.wav
448,192,144712,1,0,0:0:0:78:x x 4 80.wav
320,192,144790,1,0,0:0:0:78:x x 2 80.wav
192,192,144869,128,0,145026:0:0:0:78:x x 0 160.wav
448,192,145026,128,0,145183:0:0:0:65:bass 2-11 640.wav
64,192,145183,128,0,145340:0:0:0:78:x x 4 160.wav
320,192,145340,128,0,145968:0:0:0:78:x 3 640.wav
64,192,145654,1,0,0:0:0:67:Kick.wav
192,192,145654,1,0,0:0:0:66:Hi-Hat open.wav
64,192,145968,128,0,146283:0:0:0:67:Kick.wav
192,192,145968,1,0,0:0:0:66:Hi-Hat open.wav
320,192,146283,1,0,0:0:0:67:Kick.wav
448,192,146283,128,0,146597:0:0:0:66:Hi-Hat open.wav
64,192,146597,1,0,0:0:0:67:Kick.wav
192,192,146597,128,0,147225:0:0:0:66:Hi-Hat open.wav
320,192,146911,1,0,0:0:0:67:Kick.wav
448,192,146911,1,0,0:0:0:66:Hi-Hat open.wav
320,192,147225,1,0,0:0:0:67:Kick.wav
448,192,147225,128,0,148167:0:0:0:66:Hi-Hat open.wav
64,192,147539,1,0,0:0:0:67:Kick.wav
192,192,147539,1,0,0:0:0:66:Hi-Hat open.wav
64,192,147853,1,0,0:0:0:67:Kick.wav
192,192,147853,1,0,0:0:0:67:Crash high.wav
64,192,148167,1,0,0:0:0:67:Kick.wav
192,192,148167,1,0,0:0:0:67:Crash medium.wav
320,192,148482,1,0,0:0:0:67:Tom3.wav
192,192,148639,1,0,0:0:0:67:Kick.wav
64,192,148796,1,0,0:0:0:67:Snare.wav
320,192,148796,1,0,0:0:0:65:bass 4-0 160.wav
448,192,148953,1,0,0:0:0:67:Tom3.wav
192,192,149110,1,0,0:0:0:67:Tom3.wav
64,192,149267,1,0,0:0:0:67:Kick.wav
448,192,149424,1,0,0:0:0:67:Tom3.wav
320,192,149581,1,0,0:0:0:67:Tom1.wav
192,192,149738,1,0,0:0:0:67:Tom3.wav
448,192,149895,1,0,0:0:0:67:Kick.wav
64,192,150052,1,0,0:0:0:67:Snare.wav
192,192,150052,1,0,0:0:0:65:bass 4-0 160.wav
64,192,150209,1,0,0:0:0:67:Snare.wav
192,192,150209,1,0,0:0:0:65:bass 4-0 160.wav
320,192,150366,1,0,0:0:0:67:Tom3.wav
64,192,150523,1,0,0:0:0:67:Snare.wav
192,192,150523,1,0,0:0:0:65:bass 4-0 160.wav
320,192,150680,1,0,0:0:0:67:Kick.wav
448,192,150680,1,0,0:0:0:67:Tom3.wav
192,192,150838,1,0,0:0:0:67:Tom3.wav
64,192,150995,1,0,0:0:0:67:Tom3.wav
320,192,151152,1,0,0:0:0:67:Kick.wav
192,192,151309,1,0,0:0:0:67:Snare.wav
448,192,151309,1,0,0:0:0:65:bass 4-4 160.wav
64,192,151466,1,0,0:0:0:67:Tom3.wav
320,192,151623,1,0,0:0:0:67:Tom3.wav
192,192,151780,1,0,0:0:0:67:Kick.wav
64,192,151937,1,0,0:0:0:67:Tom3.wav
320,192,152094,1,0,0:0:0:67:Tom1.wav
192,192,152251,1,0,0:0:0:67:Tom3.wav
448,192,152408,1,0,0:0:0:67:Tom3.wav
320,192,152487,1,0,0:0:0:67:Tom3.wav
64,192,152565,1,0,0:0:0:67:Snare.wav
192,192,152565,1,0,0:0:0:65:bass 4-4 160.wav
448,192,152722,1,0,0:0:0:67:Tom1.wav
192,192,152879,1,0,0:0:0:67:Tom3.wav
320,192,153037,1,0,0:0:0:67:Tom3.wav
64,192,153194,128,0,153508:0:0:0:67:Kick.wav
448,192,153194,1,0,0:0:0:67:Crash medium.wav
192,192,153508,1,0,0:0:0:67:Tom3.wav
320,192,153665,1,0,0:0:0:67:Kick.wav
64,192,153822,1,0,0:0:0:67:Snare.wav
448,192,153822,1,0,0:0:0:65:bass 4-0 160.wav
192,192,153979,1,0,0:0:0:67:Tom3.wav
448,192,154136,1,0,0:0:0:67:Tom3.wav
320,192,154293,1,0,0:0:0:67:Kick.wav
64,192,154450,1,0,0:0:0:67:Tom3.wav
448,192,154607,1,0,0:0:0:67:Tom1.wav
192,192,154764,1,0,0:0:0:67:Tom3.wav
64,192,154921,1,0,0:0:0:67:Kick.wav
320,192,155078,1,0,0:0:0:67:Snare.wav
448,192,155078,1,0,0:0:0:65:bass 4-0 160.wav
320,192,155235,1,0,0:0:0:67:Snare.wav
448,192,155235,1,0,0:0:0:65:bass 4-0 160.wav
192,192,155393,1,0,0:0:0:67:Tom3.wav
320,192,155550,1,0,0:0:0:67:Snare.wav
448,192,155550,1,0,0:0:0:65:bass 4-3 160.wav
64,192,155707,1,0,0:0:0:67:Kick.wav
192,192,155707,1,0,0:0:0:67:Tom3.wav
320,192,155864,1,0,0:0:0:67:Tom3.wav
448,192,156021,1,0,0:0:0:67:Tom3.wav
192,192,156178,1,0,0:0:0:67:Kick.wav
64,192,156335,1,0,0:0:0:67:Snare.wav
448,192,156335,1,0,0:0:0:65:bass 4-4 160.wav
320,192,156492,1,0,0:0:0:67:Tom3.wav
192,192,156649,1,0,0:0:0:67:Tom3.wav
448,192,156806,1,0,0:0:0:67:Kick.wav
64,192,156963,1,0,0:0:0:67:Tom3.wav
320,192,157120,1,0,0:0:0:67:Tom1.wav
448,192,157277,1,0,0:0:0:67:Tom3.wav
64,192,157434,1,0,0:0:0:67:Tom3.wav
192,192,157513,1,0,0:0:0:67:Tom3.wav
320,192,157591,1,0,0:0:0:67:Snare.wav
448,192,157591,1,0,0:0:0:65:bass 4-4 160.wav
64,192,157749,1,0,0:0:0:67:Tom1.wav
320,192,157906,1,0,0:0:0:67:Tom3.wav
192,192,158063,1,0,0:0:0:67:Tom3.wav
64,192,158220,1,0,0:0:0:67:Kick.wav
448,192,158220,128,0,158534:0:0:0:67:Crash medium.wav
320,192,158534,1,0,0:0:0:67:Tom3.wav
192,192,158691,1,0,0:0:0:67:Kick.wav
64,192,158848,1,0,0:0:0:67:Snare.wav
448,192,158848,1,0,0:0:0:65:bass 4-0 160.wav
320,192,159005,1,0,0:0:0:67:Tom3.wav
64,192,159162,1,0,0:0:0:67:Tom3.wav
192,192,159319,1,0,0:0:0:67:Kick.wav
320,192,159476,1,0,0:0:0:67:Tom3.wav
448,192,159633,1,0,0:0:0:67:Tom1.wav
64,192,159790,1,0,0:0:0:67:Tom3.wav
192,192,159948,1,0,0:0:0:67:Kick.wav
320,192,160105,1,0,0:0:0:67:Snare.wav
448,192,160105,1,0,0:0:0:65:bass 3-7 160.wav
320,192,160262,1,0,0:0:0:67:Snare.wav
448,192,160262,1,0,0:0:0:65:bass 3-7 160.wav
64,192,160419,1,0,0:0:0:67:Tom3.wav
320,192,160576,1,0,0:0:0:67:Snare.wav
448,192,160576,1,0,0:0:0:65:bass 3-7 160.wav
64,192,160733,1,0,0:0:0:67:Kick.wav
192,192,160733,1,0,0:0:0:67:Tom3.wav
448,192,160890,1,0,0:0:0:67:Tom3.wav
192,192,161047,1,0,0:0:0:67:Tom3.wav
320,192,161204,1,0,0:0:0:67:Kick.wav
64,192,161361,1,0,0:0:0:67:Snare.wav
448,192,161361,1,0,0:0:0:65:bass 2-8 160.wav
192,192,161518,1,0,0:0:0:67:Tom3.wav
448,192,161675,1,0,0:0:0:67:Kick.wav
320,192,161832,1,0,0:0:0:67:Tom1.wav
64,192,161989,1,0,0:0:0:67:Kick.wav
192,192,162304,1,0,0:0:0:67:Snare.wav
448,192,162304,1,0,0:0:0:67:Kick.wav
320,192,162461,1,0,0:0:0:57:Snare.wav
64,192,162618,1,0,0:0:0:67:Snare.wav
448,192,162618,1,0,0:0:0:67:Kick.wav
192,192,162775,1,0,0:0:0:57:Snare.wav
64,192,162932,1,0,0:0:0:67:Snare.wav
320,192,162932,1,0,0:0:0:67:Kick.wav
448,192,163089,1,0,0:0:0:57:Snare.wav
320,192,163167,1,0,0:0:0:58:Snare.wav
64,192,163246,1,0,0:0:0:67:Kick.wav
192,192,163246,128,0,163874:0:0:0:67:Crash high.wav
64,192,163874,128,0,164502:0:0:0:67:Kick.wav
320,192,163874,1,0,0:0:0:67:Crash medium.wav
320,192,164502,1,0,0:0:0:67:Kick.wav
448,192,164502,128,0,165759:0:0:0:67:Crash high.wav
64,192,165759,1,0,0:0:0:67:Kick.wav
320,192,165759,128,0,167644:0:0:0:67:Crash high.wav
448,192,167801,1,0,0:0:0:67:Kick.wav
64,192,167958,1,0,0:0:0:67:Snare.wav
192,192,167958,1,0,0:0:0:0:
320,192,168115,1,0,0:0:0:67:Kick.wav
64,192,168272,1,0,0:0:0:67:Kick.wav
448,192,168272,1,0,0:0:0:67:Crash high.wav
64,192,168586,1,0,0:0:0:67:Kick.wav
192,192,168743,1,0,0:0:0:67:Snare.wav
448,192,168743,1,0,0:0:0:67:Crash medium.wav
448,192,169057,1,0,0:0:0:67:Kick.wav
64,192,169215,1,0,0:0:0:67:Snare.wav
320,192,169215,1,0,0:0:0:66:Hi-Hat open.wav
192,192,169372,1,0,0:0:0:67:Tom3.wav
320,192,169450,1,0,0:0:0:67:Tom3.wav
448,192,169529,1,0,0:0:0:67:Kick.wav
64,192,169686,128,0,170785:0:0:0:67:Snare.wav
192,192,169686,1,0,0:0:0:66:Hi-Hat open.wav
448,192,170785,128,0,170942:0:0:0:67:Kick.wav
320,192,170942,128,0,171099:0:0:0:78:Wah x x 12 160.wav
192,192,171099,128,0,171256:0:0:0:67:Kick.wav
320,192,171256,128,0,171413:0:0:0:78:Wah x x 12 160.wav
64,192,171413,128,0,171571:0:0:0:67:Kick.wav
192,192,171571,128,0,171728:0:0:0:78:Wah x 12 160.wav
320,192,171728,128,0,171885:0:0:0:67:Kick.wav
448,192,171885,128,0,172042:0:0:0:78:Wah x x 12 160.wav
64,192,172042,128,0,172199:0:0:0:67:Kick.wav
192,192,172199,128,0,172356:0:0:0:78:Wah x x 12 160.wav
320,192,172356,128,0,172513:0:0:0:67:Kick.wav
192,192,172513,128,0,172670:0:0:0:78:Wah x x 12 160.wav
448,192,172670,128,0,172827:0:0:0:67:Kick.wav
320,192,172827,128,0,172984:0:0:0:78:Wah x 12 160.wav
192,192,172984,128,0,173141:0:0:0:67:Kick.wav
64,192,173141,128,0,173298:0:0:0:78:Wah x x 12 160.wav
320,192,173298,128,0,173455:0:0:0:67:Kick.wav
64,192,173455,128,0,173612:0:0:0:78:Wah x x 12 160.wav
320,192,173612,128,0,173769:0:0:0:67:Kick.wav
192,192,173769,128,0,173927:0:0:0:78:Wah x x 12 160.wav
448,192,173927,128,0,174084:0:0:0:67:Kick.wav
320,192,174084,128,0,174241:0:0:0:78:Wah x 12 160.wav
64,192,174241,128,0,174398:0:0:0:67:Kick.wav
192,192,174398,128,0,174555:0:0:0:78:Wah x x 12 160.wav
448,192,174555,128,0,174712:0:0:0:67:Kick.wav
320,192,174712,128,0,174869:0:0:0:78:Wah x x 12 160.wav
64,192,174869,128,0,175026:0:0:0:67:Kick.wav
448,192,175026,1,0,0:0:0:67:Snare.wav
320,192,175105,1,0,0:0:0:57:Snare.wav
64,192,175183,1,0,0:0:0:67:Snare.wav
192,192,175183,1,0,0:0:0:65:bass 3-14 160.wav
320,192,175340,1,0,0:0:0:67:Kick.wav
448,192,175340,128,0,175811:0:0:0:66:Hi-Hat open.wav
64,192,175811,1,0,0:0:0:67:Snare.wav
192,192,175811,128,0,176126:0:0:0:67:Kick.wav
320,192,176126,1,0,0:0:0:58:Snare.wav
448,192,176126,1,0,0:0:0:67:Kick.wav
64,192,176283,1,0,0:0:0:58:Snare.wav
192,192,176440,1,0,0:0:0:57:Snare.wav
448,192,176440,1,0,0:0:0:67:Kick.wav
320,192,176597,1,0,0:0:0:57:Snare.wav
64,192,176754,1,0,0:0:0:67:Snare.wav
448,192,176754,1,0,0:0:0:67:Kick.wav
192,192,176911,1,0,0:0:0:67:Snare.wav
320,192,177068,1,0,0:0:0:67:Snare.wav
448,192,177068,128,0,177382:0:0:0:67:Kick.wav
64,192,177382,1,0,0:0:0:57:Snare.wav
192,192,177382,1,0,0:0:0:67:Kick.wav
320,192,177539,1,0,0:0:0:58:Snare.wav
64,192,177696,1,0,0:0:0:57:Snare.wav
448,192,177696,1,0,0:0:0:67:Kick.wav
192,192,177853,1,0,0:0:0:58:Snare.wav
64,192,178010,1,0,0:0:0:67:Snare.wav
320,192,178010,1,0,0:0:0:67:Kick.wav
448,192,178167,1,0,0:0:0:57:Snare.wav
64,192,179581,1,0,0:0:0:67:Crash high.wav
448,192,179581,1,0,0:0:0:0:
64,192,179895,128,0,180209:0:0:0:67:Kick.wav
448,192,179895,128,0,180209:0:0:0:67:Crash medium.wav
192,192,180209,128,0,180523:0:0:0:67:Kick.wav
320,192,180209,128,0,180523:0:0:0:67:Crash high.wav
64,192,180523,128,0,180838:0:0:0:67:Kick.wav
448,192,180523,128,0,180838:0:0:0:67:Crash medium.wav
192,192,180838,128,0,181152:0:0:0:67:Kick.wav
320,192,180838,128,0,181152:0:0:0:67:Crash high.wav
64,192,181152,1,0,0:0:0:67:Snare.wav
448,192,181152,1,0,0:0:0:65:bass 4-0 160.wav
320,192,181466,1,0,0:0:0:67:Kick.wav
320,192,181623,1,0,0:0:0:67:Kick.wav
64,192,181780,1,0,0:0:0:67:Snare.wav
448,192,181780,1,0,0:0:0:65:bass 4-0 160.wav
448,192,182094,128,0,182408:0:0:0:67:Kick.wav
64,192,182408,1,0,0:0:0:67:Snare.wav
320,192,182408,1,0,0:0:0:65:bass 4-0 160.wav
192,192,182722,1,0,0:0:0:67:Kick.wav
192,192,182879,1,0,0:0:0:67:Kick.wav
64,192,183037,1,0,0:0:0:67:Snare.wav
320,192,183037,1,0,0:0:0:65:bass 4-0 160.wav
320,192,183351,128,0,183665:0:0:0:67:Kick.wav
192,192,183665,1,0,0:0:0:67:Snare.wav
448,192,183665,1,0,0:0:0:65:bass 3-6 160.wav
64,192,183979,1,0,0:0:0:67:Kick.wav
64,192,184136,1,0,0:0:0:67:Kick.wav
192,192,184293,1,0,0:0:0:67:Snare.wav
320,192,184293,1,0,0:0:0:65:bass 3-6 160.wav
448,192,184607,128,0,184921:0:0:0:67:Kick.wav
64,192,184921,1,0,0:0:0:67:Snare.wav
192,192,184921,1,0,0:0:0:73:x 4 2 4 3 Cdim7 160.wav
320,192,185235,1,0,0:0:0:67:Kick.wav
320,192,185393,1,0,0:0:0:67:Kick.wav
192,192,185550,128,0,185864:0:0:0:67:Snare.wav
448,192,185550,1,0,0:0:0:65:bass 2-6 320.wav
64,192,185864,128,0,186178:0:0:0:67:Snare.wav
448,192,185864,1,0,0:0:0:67:Kick.wav
192,192,186178,1,0,0:0:0:67:Snare.wav
320,192,186178,1,0,0:0:0:66:Hi-Hat open.wav
448,192,186335,1,0,0:0:0:67:Kick.wav
64,192,186492,1,0,0:0:0:67:Snare.wav
192,192,186492,1,0,0:0:0:66:Hi-Hat open.wav
320,192,186649,1,0,0:0:0:67:Kick.wav
64,192,186806,1,0,0:0:0:67:Snare.wav
448,192,186806,1,0,0:0:0:66:Hi-Hat open.wav
192,192,186963,1,0,0:0:0:67:Kick.wav
320,192,187120,128,0,187434:0:0:0:67:Snare.wav
448,192,187120,1,0,0:0:0:67:Crash medium.wav
64,192,187434,1,0,0:0:0:67:Snare.wav
192,192,187434,1,0,0:0:0:66:Hi-Hat open.wav
448,192,187591,1,0,0:0:0:67:Kick.wav
192,192,187749,1,0,0:0:0:67:Snare.wav
320,192,187749,1,0,0:0:0:66:Hi-Hat open.wav
64,192,187906,1,0,0:0:0:67:Kick.wav
320,192,188063,1,0,0:0:0:67:Snare.wav
448,192,188063,1,0,0:0:0:66:Hi-Hat open.wav
192,192,188220,1,0,0:0:0:67:Kick.wav
64,192,188377,128,0,188691:0:0:0:67:Snare.wav
320,192,188377,1,0,0:0:0:67:Crash high.wav
320,192,188691,1,0,0:0:0:67:Snare.wav
448,192,188691,1,0,0:0:0:66:Hi-Hat open.wav
192,192,188848,1,0,0:0:0:67:Kick.wav
64,192,189005,1,0,0:0:0:67:Snare.wav
448,192,189005,1,0,0:0:0:66:Hi-Hat open.wav
320,192,189162,1,0,0:0:0:67:Kick.wav
64,192,189319,1,0,0:0:0:67:Snare.wav
192,192,189319,128,0,189633:0:0:0:67:Crash high.wav
320,192,189633,1,0,0:0:0:67:Kick.wav
448,192,189633,1,0,0:0:0:66:Hi-Hat open.wav
64,192,189790,1,0,0:0:0:57:Snare.wav
192,192,189948,1,0,0:0:0:67:Snare.wav
448,192,189948,1,0,0:0:0:67:Kick.wav
320,192,190105,1,0,0:0:0:57:Snare.wav
64,192,190262,1,0,0:0:0:67:Snare.wav
448,192,190262,1,0,0:0:0:67:Kick.wav
192,192,190419,1,0,0:0:0:57:Snare.wav
64,192,190576,1,0,0:0:0:67:Snare.wav
320,192,190576,1,0,0:0:0:67:Kick.wav
192,192,190733,1,0,0:0:0:57:Snare.wav
320,192,190811,1,0,0:0:0:58:Snare.wav
64,192,190890,1,0,0:0:0:67:Kick.wav
448,192,190890,128,0,191204:0:0:0:67:Crash high.wav
64,192,191204,1,0,0:0:0:67:Snare.wav
192,192,191204,1,0,0:0:0:65:bass 3-2 160.wav
448,192,191518,1,0,0:0:0:67:Kick.wav
448,192,191675,1,0,0:0:0:67:Kick.wav
64,192,191832,1,0,0:0:0:67:Snare.wav
320,192,191832,1,0,0:0:0:66:Hi-Hat close.wav
192,192,192146,128,0,192461:0:0:0:67:Kick.wav
320,192,192461,1,0,0:0:0:67:Snare.wav
448,192,192461,1,0,0:0:0:66:Hi-Hat close.wav
64,192,192775,1,0,0:0:0:67:Kick.wav
64,192,192932,1,0,0:0:0:67:Kick.wav
320,192,193089,1,0,0:0:0:67:Snare.wav
448,192,193089,1,0,0:0:0:66:Hi-Hat close.wav
64,192,193403,128,0,193717:0:0:0:67:Kick.wav
192,192,193717,1,0,0:0:0:67:Snare.wav
448,192,193717,1,0,0:0:0:66:Hi-Hat close.wav
320,192,194031,1,0,0:0:0:67:Kick.wav
320,192,194188,1,0,0:0:0:67:Kick.wav
64,192,194345,1,0,0:0:0:67:Snare.wav
448,192,194345,128,0,194660:0:0:0:66:Hi-Hat close.wav
320,192,194660,128,0,194974:0:0:0:67:Kick.wav
64,192,194974,1,0,0:0:0:67:Snare.wav
448,192,194974,1,0,0:0:0:66:Hi-Hat close.wav
192,192,195288,1,0,0:0:0:67:Kick.wav
192,192,195445,1,0,0:0:0:67:Kick.wav
320,192,195602,1,0,0:0:0:67:Snare.wav
448,192,195602,128,0,195916:0:0:0:66:Hi-Hat close.wav
64,192,195916,128,0,196230:0:0:0:67:Kick.wav
192,192,195916,1,0,0:0:0:67:Crash high.wav
192,192,196230,1,0,0:0:0:67:Snare.wav
320,192,196230,1,0,0:0:0:65:bass 3-6 160.wav
448,192,196544,1,0,0:0:0:67:Kick.wav
448,192,196701,1,0,0:0:0:67:Kick.wav
64,192,196859,1,0,0:0:0:67:Snare.wav
192,192,196859,1,0,0:0:0:66:Hi-Hat close.wav
320,192,197173,128,0,197487:0:0:0:67:Kick.wav
448,192,197173,1,0,0:0:0:67:Crash medium.wav
64,192,197487,1,0,0:0:0:67:Snare.wav
448,192,197487,1,0,0:0:0:65:bass 4-3 160.wav
192,192,197801,1,0,0:0:0:67:Kick.wav
448,192,197958,1,0,0:0:0:57:Snare.wav
320,192,198037,1,0,0:0:0:58:Snare.wav
192,192,198115,1,0,0:0:0:67:Snare.wav
64,192,198272,1,0,0:0:0:57:Snare.wav
192,192,198351,1,0,0:0:0:57:Snare.wav
320,192,198429,1,0,0:0:0:67:Kick.wav
448,192,198429,128,0,198743:0:0:0:67:Crash medium.wav
192,192,198743,128,0,198900:0:0:0:67:Snare.wav
320,192,198900,1,0,0:0:0:57:Snare.wav
64,192,199057,1,0,0:0:0:67:Kick.wav
448,192,199057,128,0,199215:0:0:0:67:Crash high.wav
192,192,199215,128,0,199529:0:0:0:67:Kick.wav
64,192,199529,1,0,0:0:0:57:Snare.wav
320,192,199686,128,0,200000:0:0:0:67:Kick.wav
448,192,199686,1,0,0:0:0:66:Hi-Hat open.wav
192,192,200000,128,0,200314:0:0:0:67:Snare.wav
64,192,200314,1,0,0:0:0:67:Snare.wav
448,192,200314,1,0,0:0:0:67:Kick.wav
320,192,200471,1,0,0:0:0:67:Tom3.wav
192,192,200550,1,0,0:0:0:67:Kick.wav
64,192,200628,1,0,0:0:0:67:Snare.wav
448,192,200628,128,0,200942:0:0:0:67:China.wav
64,192,200942,1,0,0:0:0:67:Kick.wav
192,192,200942,128,0,201256:0:0:0:67:Crash medium.wav
320,192,201256,1,0,0:0:0:67:Snare.wav
448,192,201256,1,0,0:0:0:67:Ride.wav
64,192,201571,1,0,0:0:0:67:Kick.wav
64,192,201728,1,0,0:0:0:67:Kick.wav
192,192,201885,1,0,0:0:0:67:Snare.wav
448,192,201885,1,0,0:0:0:67:Ride.wav
64,192,202199,128,0,202513:0:0:0:67:Kick.wav
320,192,202513,128,0,202827:0:0:0:67:Snare.wav
448,192,202513,1,0,0:0:0:67:Ride.wav
192,192,202827,1,0,0:0:0:67:Kick.wav
192,192,202984,1,0,0:0:0:67:Kick.wav
64,192,203141,1,0,0:0:0:67:Snare.wav
448,192,203141,128,0,203455:0:0:0:67:Ride.wav
192,192,203455,128,0,203769:0:0:0:67:Kick.wav
64,192,203769,1,0,0:0:0:67:Snare.wav
320,192,203769,1,0,0:0:0:67:Ride.wav
448,192,204084,1,0,0:0:0:67:Kick.wav
448,192,204241,1,0,0:0:0:67:Kick.wav
192,192,204398,1,0,0:0:0:67:Snare.wav
320,192,204398,1,0,0:0:0:67:Ride.wav
64,192,204712,128,0,205026:0:0:0:67:Kick.wav
192,192,205026,1,0,0:0:0:67:Snare.wav
448,192,205026,128,0,205340:0:0:0:67:Ride.wav
320,192,205340,1,0,0:0:0:67:Kick.wav
320,192,205497,1,0,0:0:0:67:Kick.wav
192,192,205654,128,0,205968:0:0:0:67:Snare.wav
448,192,205654,1,0,0:0:0:67:Ride.wav
64,192,205968,1,0,0:0:0:67:Kick.wav
448,192,205968,1,0,0:0:0:67:Ride.wav
64,192,206126,1,0,0:0:0:67:Kick.wav
192,192,206283,128,0,206597:0:0:0:67:Snare.wav
320,192,206283,1,0,0:0:0:67:Crash medium.wav
448,192,206597,1,0,0:0:0:67:Kick.wav
448,192,206754,1,0,0:0:0:67:Kick.wav
64,192,206911,1,0,0:0:0:67:Snare.wav
320,192,206911,128,0,207225:0:0:0:67:Crash high.wav
192,192,207225,1,0,0:0:0:67:Kick.wav
192,192,207382,1,0,0:0:0:67:Kick.wav
64,192,207539,1,0,0:0:0:67:Snare.wav
448,192,207539,128,0,207853:0:0:0:67:Crash medium.wav
320,192,207853,1,0,0:0:0:67:Kick.wav
320,192,208010,1,0,0:0:0:67:Kick.wav
64,192,208167,128,0,208482:0:0:0:67:Snare.wav
448,192,208167,1,0,0:0:0:67:Crash high.wav
192,192,208482,1,0,0:0:0:67:Kick.wav
320,192,208482,1,0,0:0:0:67:Crash medium.wav
448,192,208639,1,0,0:0:0:67:Kick.wav
64,192,208796,1,0,0:0:0:67:Snare.wav
192,192,208796,1,0,0:0:0:67:Ride.wav
320,192,208953,1,0,0:0:0:65:bass 2-8 160.wav
64,192,209110,1,0,0:0:0:67:Kick.wav
320,192,209267,1,0,0:0:0:67:Kick.wav
448,192,209267,1,0,0:0:0:67:Tom1.wav
64,192,209424,1,0,0:0:0:67:Snare.wav
192,192,209424,1,0,0:0:0:65:bass 2-8 160.wav
320,192,209581,1,0,0:0:0:67:Kick.wav
448,192,209581,128,0,209895:0:0:0:67:Crash high.wav
64,192,209895,1,0,0:0:0:67:Kick.wav
192,192,210052,1,0,0:0:0:67:Snare.wav
448,192,210052,1,0,0:0:0:67:Ride.wav
320,192,210209,1,0,0:0:0:65:bass 2-11 320.wav
192,192,210366,1,0,0:0:0:67:Kick.wav
192,192,210523,1,0,0:0:0:67:Kick.wav
320,192,210680,1,0,0:0:0:67:Snare.wav
448,192,210680,1,0,0:0:0:67:Ride.wav
64,192,210838,1,0,0:0:0:67:Snare.wav
192,192,210916,1,0,0:0:0:57:Snare.wav
320,192,210995,1,0,0:0:0:67:Kick.wav
320,192,211152,1,0,0:0:0:67:Kick.wav
64,192,211309,1,0,0:0:0:67:Snare.wav
448,192,211309,128,0,211623:0:0:0:67:Crash high.wav
192,192,211623,1,0,0:0:0:67:Kick.wav
192,192,211780,1,0,0:0:0:67:Kick.wav
64,192,211937,128,0,212251:0:0:0:67:Snare.wav
320,192,211937,1,0,0:0:0:67:Crash medium.wav
448,192,212251,1,0,0:0:0:67:Kick.wav
448,192,212408,1,0,0:0:0:67:Kick.wav
192,192,212565,128,0,212879:0:0:0:67:Snare.wav
320,192,212565,1,0,0:0:0:67:Crash high.wav
64,192,212879,1,0,0:0:0:67:Kick.wav
64,192,213037,1,0,0:0:0:67:Kick.wav
320,192,213194,128,0,213508:0:0:0:67:Snare.wav
448,192,213194,1,0,0:0:0:67:Crash medium.wav
64,192,213508,1,0,0:0:0:67:Snare.wav
192,192,213508,1,0,0:0:0:67:Crash high.wav
448,192,213665,1,0,0:0:0:67:Kick.wav
192,192,213822,1,0,0:0:0:67:Snare.wav
320,192,213822,1,0,0:0:0:66:Hi-Hat open.wav
64,192,213979,1,0,0:0:0:67:Kick.wav
320,192,214136,1,0,0:0:0:67:Snare.wav
448,192,214136,1,0,0:0:0:67:Tom3.wav
64,192,214293,1,0,0:0:0:67:Snare.wav
192,192,214293,1,0,0:0:0:67:Tom3.wav
320,192,214450,1,0,0:0:0:67:Kick.wav
64,192,214607,1,0,0:0:0:67:Snare.wav
448,192,214607,128,0,214921:0:0:0:67:Crash medium.wav
192,192,214921,1,0,0:0:0:67:Kick.wav
64,192,215078,1,0,0:0:0:67:Snare.wav
320,192,215078,1,0,0:0:0:65:bass 3-6 160.wav
448,192,215235,1,0,0:0:0:67:Kick.wav
64,192,215393,1,0,0:0:0:67:Snare.wav
192,192,215393,1,0,0:0:0:67:Tom3.wav
64,192,215550,1,0,0:0:0:67:Snare.wav
192,192,215550,1,0,0:0:0:67:Tom3.wav
320,192,215707,1,0,0:0:0:67:Snare.wav
448,192,215707,1,0,0:0:0:67:Tom3.wav
320,192,215864,1,0,0:0:0:67:Snare.wav
448,192,215864,1,0,0:0:0:67:Tom3.wav
64,192,216021,128,0,216335:0:0:0:78:clean 5 7 6 7 5 Arpeggio down Dmaj7 320.wav
320,192,216649,128,0,216963:0:0:0:78:clean 4 5 4 6 4 Arpeggio down C#m7 320.wav
448,192,217277,128,0,217591:0:0:0:78:clean 2 3 2 4 2 Arpeggio down Bm7 640.wav
64,192,217591,128,0,218220:0:0:0:65:bass 3-2 320.wav
192,192,217906,128,0,218220:0:0:0:57:Snare.wav
320,192,218220,1,0,0:0:0:67:Snare.wav
448,192,218377,1,0,0:0:0:57:Snare.wav
320,192,218455,1,0,0:0:0:57:Snare.wav
64,192,218534,1,0,0:0:0:67:Kick.wav
192,192,218534,1,0,0:0:0:67:Crash high.wav
320,192,218691,1,0,0:0:0:78:15 80.wav
192,192,218769,1,0,0:0:0:78:12 80.wav
64,192,218848,1,0,0:0:0:67:Snare.wav
448,192,218848,1,0,0:0:0:67:Ride.wav
320,192,219005,128,0,219162:0:0:0:65:bass 4-0 160.wav
192,192,219162,1,0,0:0:0:67:Kick.wav
64,192,219319,1,0,0:0:0:67:Kick.wav
320,192,219476,1,0,0:0:0:67:Snare.wav
448,192,219476,1,0,0:0:0:67:Ride.wav
192,192,219633,128,0,219790:0:0:0:67:Kick.wav
448,192,219948,1,0,0:0:0:67:Kick.wav
64,192,220105,1,0,0:0:0:67:Snare.wav
320,192,220105,1,0,0:0:0:67:Ride.wav
448,192,220262,1,0,0:0:0:65:bass 4-0 160.wav
192,192,220419,128,0,220576:0:0:0:67:Kick.wav
320,192,220576,1,0,0:0:0:67:Kick.wav
64,192,220733,1,0,0:0:0:67:Snare.wav
448,192,220733,128,0,220890:0:0:0:67:Ride.wav
192,192,220890,1,0,0:0:0:65:bass 4-0 160.wav
320,192,221047,1,0,0:0:0:67:Kick.wav
64,192,221204,1,0,0:0:0:65:bass 3-6 160.wav
192,192,221283,1,0,0:0:0:78:x x 14 80.wav
320,192,221361,1,0,0:0:0:67:Snare.wav
448,192,221361,1,0,0:0:0:67:Ride.wav
64,192,221518,128,0,221675:0:0:0:65:bass 3-6 160.wav
448,192,221675,1,0,0:0:0:67:Kick.wav
192,192,221832,1,0,0:0:0:67:Kick.wav
64,192,221989,1,0,0:0:0:67:Snare.wav
320,192,221989,128,0,222304:0:0:0:67:Ride.wav
448,192,222146,1,0,0:0:0:67:Kick.wav
192,192,222461,1,0,0:0:0:67:Kick.wav
64,192,222618,1,0,0:0:0:67:Snare.wav
320,192,222618,128,0,222775:0:0:0:67:Ride.wav
448,192,222775,1,0,0:0:0:65:bass 3-6 160.wav
64,192,222932,128,0,223089:0:0:0:67:Kick.wav
192,192,223089,1,0,0:0:0:67:Kick.wav
320,192,223246,128,0,223560:0:0:0:67:Snare.wav
448,192,223246,1,0,0:0:0:67:Ride.wav
64,192,223560,1,0,0:0:0:67:Kick.wav
192,192,223560,1,0,0:0:0:67:Crash medium.wav
448,192,223717,1,0,0:0:0:65:bass 3-4 160.wav
320,192,223796,1,0,0:0:0:78:12 80.wav
64,192,223874,1,0,0:0:0:67:Snare.wav
192,192,223874,1,0,0:0:0:67:Ride.wav
320,192,224031,128,0,224188:0:0:0:65:bass 3-4 160.wav
448,192,224188,1,0,0:0:0:67:Kick.wav
192,192,224345,1,0,0:0:0:67:Kick.wav
64,192,224502,1,0,0:0:0:67:Snare.wav
448,192,224502,1,0,0:0:0:67:Ride.wav
192,192,224660,128,0,224817:0:0:0:67:Kick.wav
320,192,224974,1,0,0:0:0:67:Kick.wav
64,192,225131,1,0,0:0:0:67:Snare.wav
448,192,225131,1,0,0:0:0:67:Ride.wav
320,192,225288,1,0,0:0:0:65:bass 3-9 160.wav
192,192,225445,128,0,225602:0:0:0:67:Kick.wav
64,192,225602,1,0,0:0:0:67:Kick.wav
320,192,225759,128,0,225916:0:0:0:67:Snare.wav
448,192,225759,1,0,0:0:0:67:Ride.wav
192,192,225916,1,0,0:0:0:65:bass 3-10 160.wav
64,192,226073,1,0,0:0:0:67:Kick.wav
448,192,226073,1,0,0:0:0:67:Ride.wav
192,192,226230,1,0,0:0:0:67:Kick.wav
320,192,226309,1,0,0:0:0:78:x x 12 80.wav
64,192,226387,1,0,0:0:0:67:Snare.wav
448,192,226387,1,0,0:0:0:67:Crash medium.wav
192,192,226544,128,0,226701:0:0:0:65:bass 4-9 160.wav
448,192,226859,1,0,0:0:0:67:Kick.wav
64,192,227016,1,0,0:0:0:67:Snare.wav
320,192,227016,1,0,0:0:0:67:Ride.wav
192,192,227173,1,0,0:0:0:65:bass 3-11 160.wav
320,192,227251,1,0,0:0:0:78:x x x 12 80.wav
448,192,227330,1,0,0:0:0:67:Kick.wav
320,192,227487,1,0,0:0:0:67:Snare.wav
192,192,227565,1,0,0:0:0:57:Snare.wav
64,192,227644,1,0,0:0:0:67:Kick.wav
192,192,227801,1,0,0:0:0:67:Snare.wav
320,192,227879,1,0,0:0:0:57:Snare.wav
448,192,227958,128,0,228272:0:0:0:67:Kick.wav
64,192,228272,1,0,0:0:0:67:Snare.wav
192,192,228272,1,0,0:0:0:67:Kick.wav
448,192,228429,1,0,0:0:0:57:Snare.wav
320,192,228508,1,0,0:0:0:58:Snare.wav
64,192,228586,128,0,228743:0:0:0:67:Kick.wav
192,192,228586,1,0,0:0:0:67:Crash high.wav
320,192,228743,128,0,228900:0:0:0:78:x x 14 160.wav
448,192,228900,128,0,229057:0:0:0:67:Snare.wav
64,192,229057,128,0,229215:0:0:0:65:bass 4-0 160.wav
320,192,229215,128,0,229372:0:0:0:67:Kick.wav
448,192,229372,128,0,229529:0:0:0:67:Kick.wav
64,192,229529,128,0,229686:0:0:0:67:Snare.wav
320,192,229686,128,0,229843:0:0:0:67:Kick.wav
448,192,229843,128,0,230000:0:0:0:67:Ride.wav
64,192,230000,128,0,230157:0:0:0:67:Kick.wav
320,192,230157,128,0,230314:0:0:0:67:Snare.wav
448,192,230314,128,0,230471:0:0:0:65:bass 3-7 320.wav
64,192,230471,128,0,230628:0:0:0:67:Kick.wav
320,192,230628,128,0,230785:0:0:0:67:Kick.wav
448,192,230785,128,0,230942:0:0:0:67:Snare.wav
192,192,230942,128,0,231099:0:0:0:65:bass 3-7 160.wav
64,192,231099,1,0,0:0:0:67:Kick.wav
320,192,231099,128,0,231256:0:0:0:67:Crash medium.wav
448,192,231256,128,0,231413:0:0:0:65:bass 3-6 160.wav
192,192,231413,128,0,231571:0:0:0:67:Snare.wav
320,192,231571,128,0,231728:0:0:0:65:bass 3-6 160.wav
448,192,231728,128,0,231885:0:0:0:67:Kick.wav
192,192,231885,128,0,232042:0:0:0:67:Kick.wav
320,192,232042,128,0,232199:0:0:0:67:Snare.wav
448,192,232199,128,0,232356:0:0:0:65:bass 3-6 160.wav
192,192,232356,128,0,232513:0:0:0:67:Kick.wav
320,192,232513,128,0,232670:0:0:0:67:Kick.wav
448,192,232670,128,0,232827:0:0:0:67:Snare.wav
64,192,232827,1,0,0:0:0:67:Snare.wav
192,192,232906,1,0,0:0:0:57:Snare.wav
320,192,232984,1,0,0:0:0:67:Snare.wav
448,192,232984,1,0,0:0:0:67:Tom1.wav
192,192,233141,1,0,0:0:0:67:Kick.wav
64,192,233298,1,0,0:0:0:67:Snare.wav
448,192,233298,1,0,0:0:0:67:Tom3.wav
320,192,233455,1,0,0:0:0:67:Kick.wav
64,192,233612,128,0,233927:0:0:0:67:Snare.wav
192,192,233612,1,0,0:0:0:67:Kick.wav
320,192,233927,1,0,0:0:0:67:Snare.wav
448,192,233927,1,0,0:0:0:66:Hi-Hat open.wav
192,192,234084,1,0,0:0:0:67:Kick.wav
64,192,234241,1,0,0:0:0:67:Snare.wav
448,192,234241,1,0,0:0:0:66:Hi-Hat open.wav
320,192,234398,1,0,0:0:0:67:Kick.wav
192,192,234555,1,0,0:0:0:67:Snare.wav
448,192,234555,1,0,0:0:0:66:Hi-Hat open.wav
64,192,234712,1,0,0:0:0:67:Kick.wav
320,192,234869,1,0,0:0:0:67:Snare.wav
448,192,234869,128,0,235183:0:0:0:67:Crash high.wav
64,192,235183,1,0,0:0:0:67:Snare.wav
192,192,235183,1,0,0:0:0:66:Hi-Hat open.wav
320,192,235340,1,0,0:0:0:67:Kick.wav
64,192,235497,1,0,0:0:0:67:Snare.wav
448,192,235497,1,0,0:0:0:66:Hi-Hat open.wav
192,192,235654,1,0,0:0:0:67:Kick.wav
64,192,235811,1,0,0:0:0:67:Snare.wav
320,192,235811,1,0,0:0:0:66:Hi-Hat open.wav
448,192,235968,1,0,0:0:0:67:Kick.wav
64,192,236126,1,0,0:0:0:67:Snare.wav
192,192,236126,128,0,236440:0:0:0:67:Crash high.wav
320,192,236440,1,0,0:0:0:67:Snare.wav
448,192,236440,1,0,0:0:0:67:Kick.wav
320,192,236597,1,0,0:0:0:67:Snare.wav
448,192,236597,1,0,0:0:0:57:Tom3.wav
64,192,236754,1,0,0:0:0:67:Snare.wav
192,192,236754,1,0,0:0:0:67:Kick.wav
64,192,236911,1,0,0:0:0:67:Snare.wav
192,192,236911,1,0,0:0:0:67:Tom3.wav
320,192,237068,1,0,0:0:0:67:Snare.wav
448,192,237068,1,0,0:0:0:67:Kick.wav
320,192,237225,1,0,0:0:0:67:Snare.wav
448,192,237225,1,0,0:0:0:77:Tom3.wav
64,192,237382,1,0,0:0:0:67:Snare.wav
192,192,237382,1,0,0:0:0:77:Tom3.wav
320,192,237539,1,0,0:0:0:67:Kick.wav
64,192,237696,128,0,238010:0:0:0:67:Snare.wav
448,192,237696,1,0,0:0:0:67:Crash medium.wav
320,192,238010,1,0,0:0:0:67:Snare.wav
192,192,238115,1,0,0:0:0:67:Snare.wav
64,192,238220,1,0,0:0:0:67:Snare.wav
448,192,238324,1,0,0:0:0:67:Tom1.wav
320,192,238429,1,0,0:0:0:67:Tom2.wav
192,192,238534,1,0,0:0:0:67:Tom3.wav
64,192,238639,1,0,0:0:0:67:Kick.wav
448,192,238639,1,0,0:0:0:67:Crash medium.wav
320,192,238796,1,0,0:0:0:73:Arp. x 0 160.wav
448,192,238953,1,0,0:0:0:66:Hi-Hat close.wav
64,192,239110,1,0,0:0:0:67:Kick.wav
192,192,239267,1,0,0:0:0:67:Snare.wav
448,192,239267,1,0,0:0:0:66:Hi-Hat open.wav
64,192,239581,1,0,0:0:0:66:Hi-Hat open.wav
320,192,239738,1,0,0:0:0:67:Kick.wav
448,192,239895,1,0,0:0:0:66:Hi-Hat open.wav
320,192,240052,1,0,0:0:0:67:Kick.wav
64,192,240209,1,0,0:0:0:66:Hi-Hat open.wav
320,192,240366,1,0,0:0:0:67:Kick.wav
64,192,240523,1,0,0:0:0:67:Snare.wav
192,192,240523,1,0,0:0:0:66:Hi-Hat open.wav
192,192,240838,1,0,0:0:0:66:Hi-Hat open.wav
320,192,240995,1,0,0:0:0:57:Snare.wav
448,192,240995,1,0,0:0:0:73:Arp. x 0 160.wav
64,192,241152,1,0,0:0:0:67:Kick.wav
320,192,241309,1,0,0:0:0:57:Snare.wav
448,192,241309,1,0,0:0:0:73:Arp. x 0 160.wav
192,192,241466,1,0,0:0:0:66:Hi-Hat close.wav
64,192,241623,1,0,0:0:0:67:Kick.wav
320,192,241780,1,0,0:0:0:67:Snare.wav
448,192,241780,1,0,0:0:0:66:Hi-Hat open.wav
64,192,242094,1,0,0:0:0:66:Hi-Hat open.wav
448,192,242251,1,0,0:0:0:67:Kick.wav
192,192,242408,1,0,0:0:0:66:Hi-Hat open.wav
448,192,242565,1,0,0:0:0:67:Kick.wav
64,192,242722,1,0,0:0:0:66:Hi-Hat open.wav
448,192,242879,1,0,0:0:0:67:Kick.wav
64,192,243037,1,0,0:0:0:67:Snare.wav
320,192,243037,1,0,0:0:0:65:bass 4-12 160.wav
192,192,243194,1,0,0:0:0:67:Kick.wav
320,192,243351,1,0,0:0:0:67:Snare.wav
448,192,243351,1,0,0:0:0:67:Tom3.wav
64,192,243508,128,0,250733:0:0:0:67:Kick.wav
192,192,243508,128,0,250733:0:0:0:67:Crash high.wav
