osu file format v14

[General]
AudioFilename: audio.ogg
AudioLeadIn: 0
PreviewTime: 54092
Countdown: 0
SampleSet: Normal
StackLeniency: 0.7
Mode: 1
LetterboxInBreaks: 0
WidescreenStoryboard: 1

[Editor]
Bookmarks: 15804,25752,35701,45649,79224
DistanceSpacing: 1.5
BeatDivisor: 4
GridSize: 32
TimelineZoom: 1.3

[Metadata]
Title:Guitar to Kodoku to Aoi Hoshi (TV Size)
TitleUnicode:ギターと孤独と蒼い惑星 (TV Size)
Artist:kessoku band
ArtistUnicode:結束バンド
Creator:[-E S I A-]
Version:Ron's Muzukashii!
Source:ぼっち・ざ・ろっく!
Tags:Bocchi the rock! Botchi za rokku! guitar loneliness and blue planet wakusei 2022 insert song ep5 episode 5 japanese anime rock j-rock jrock cloverworks hitoribocchi bocchi-chan bocchichan ZAQ otoha 音羽 Akkin 後藤ひとり hitori gotou gotoh 山田リョウ yamada ryou 伊地知虹夏 nijika ijichi 喜多郁代 kita ikuyo 長谷川育美 ikumi hasegawa 水野朔 mizuno saku 青山吉能 aoyama yoshino 鈴代紗弓 suzushiro sayumi e_s_i_a [-e_s_i_a-] esia [-esia-] ron [r] faputa Reed_405 yui funami yui_funami joltzzz
BeatmapID:4183273
BeatmapSetID:2010461

[Difficulty]
HPDrainRate:6
CircleSize:2
OverallDifficulty:5
ApproachRate:10
SliderMultiplier:1.4
SliderTickRate:1

[Events]
//Background and Video events
Video,-400,"output.mp4"
0,0,"moo.jpg",0,60
//Break Periods
//Storyboard Layer 0 (Background)
//Storyboard Layer 1 (Fail)
//Storyboard Layer 2 (Pass)
//Storyboard Layer 3 (Foreground)
//Storyboard Layer 4 (Overlay)
//Storyboard Sound Samples

[TimingPoints]
393,310.880829015544,4,1,0,80,1,0
393,-100,4,1,0,80,0,0
1558,-100,4,1,0,90,0,0
11740,-100,4,1,0,70,0,0
13916,-100,4,1,0,70,0,0
23942,-100,4,1,0,80,0,0
33812,-100,4,1,0,70,0,0
43760,-100,4,1,0,80,0,0
54952,-100,4,1,0,90,0,0
55108,-100,4,1,0,90,0,1
77491,-100,4,1,0,90,0,0
89848,-100,4,1,0,80,0,0
94745,-100,4,1,0,75,0,0
95988,-100,4,1,0,70,0,0
96299,-100,4,1,0,60,0,0
96610,-100,4,1,0,40,0,0

[HitObjects]
245,258,393,5,0,0:0:0:0:
299,331,703,1,0,0:0:0:0:
245,258,1014,1,0,0:0:0:0:
277,300,1325,1,0,0:0:0:0:
245,258,1636,1,12,0:0:0:0:
277,300,1947,1,0,0:0:0:0:
140,261,2102,1,0,0:0:0:0:
172,304,2413,1,8,0:0:0:0:
277,300,2569,1,8,0:0:0:0:
174,322,2724,1,8,0:0:0:0:
381,321,3035,1,8,0:0:0:0:
276,326,3190,1,0,0:0:0:0:
171,309,3346,1,8,0:0:0:0:
361,226,3812,1,8,0:0:0:0:
221,300,3890,1,8,0:0:0:0:
221,300,3968,1,8,0:0:0:0:
221,300,4123,1,0,0:0:0:0:
221,300,4434,1,8,0:0:0:0:
329,249,4745,1,0,0:0:0:0:
224,248,4900,1,0,0:0:0:0:
119,259,5211,1,8,0:0:0:0:
119,259,5522,1,0,0:0:0:0:
119,259,5677,1,8,0:0:0:0:
210,205,5833,1,0,0:0:0:0:
120,268,6144,1,8,0:0:0:0:
120,268,6222,1,8,0:0:0:0:
157,247,6299,1,8,0:0:0:0:
277,300,6455,1,8,0:0:0:0:
120,268,6610,1,4,0:0:0:0:
113,154,6921,1,8,0:0:0:0:
113,154,7232,1,0,0:0:0:0:
104,245,7387,1,8,0:0:0:0:
104,245,7543,1,8,0:0:0:0:
104,245,7698,1,8,0:0:0:0:
104,245,8009,1,8,0:0:0:0:
104,245,8165,1,0,0:0:0:0:
104,245,8320,1,8,0:0:0:0:
104,245,8786,1,8,0:0:0:0:
70,218,8864,1,8,0:0:0:0:
198,292,8942,1,8,0:0:0:0:
304,307,9097,1,4,0:0:0:0:
256,192,9408,1,8,0:0:0:0:
210,218,9719,1,8,0:0:0:0:
360,195,9874,1,0,0:0:0:0:
318,276,10030,1,8,0:0:0:0:
226,237,10341,1,8,0:0:0:0:
256,87,10496,1,0,0:0:0:0:
292,185,10652,1,8,0:0:0:0:
203,241,10807,1,0,0:0:0:0:
252,225,10962,1,8,0:0:0:0:
357,216,11273,1,8,0:0:0:0:
252,225,11429,1,8,0:0:0:0:
203,241,11584,1,0,0:0:0:0:
252,225,14071,1,0,0:0:0:0:
461,239,14382,1,8,0:0:0:0:
352,257,14538,1,0,0:0:0:0:
362,210,14848,1,0,0:0:0:0:
466,195,15004,1,8,0:0:0:0:
362,210,15159,1,8,0:0:0:0:
355,226,15315,1,0,0:0:0:0:
145,246,15626,1,0,0:0:0:0:
351,207,15937,1,8,0:0:0:0:
145,247,16247,1,0,0:0:0:0:
271,295,16558,1,8,0:0:0:0:
307,176,17025,1,8,0:0:0:0:
180,264,17180,1,0,0:0:0:0:
256,192,17646,1,0,0:0:0:0:
344,249,17802,1,8,0:0:0:0:
276,181,18268,1,8,0:0:0:0:
313,280,18424,1,8,0:0:0:0:
351,237,18890,1,0,0:0:0:0:
184,268,19045,1,0,0:0:0:0:
374,180,19356,1,8,0:0:0:0:
152,374,19667,1,0,0:0:0:0:
256,192,19823,1,0,0:0:0:0:
356,222,19978,1,8,0:0:0:0:
247,264,20289,1,0,0:0:0:0:
256,192,20600,1,8,0:0:0:0:
360,195,20755,1,8,0:0:0:0:
234,295,20911,1,0,0:0:0:0:
304,217,21066,1,0,0:0:0:0:
304,217,21222,1,8,0:0:0:0:
456,253,21532,1,0,0:0:0:0:
249,212,21843,1,8,0:0:0:0:
267,267,22154,1,8,0:0:0:0:
256,192,22310,1,0,0:0:0:0:
256,192,22465,1,8,0:0:0:0:
459,242,22776,1,8,0:0:0:0:
259,270,23242,1,0,0:0:0:0:
256,192,23398,1,0,0:0:0:0:
273,295,23553,1,12,0:0:0:0:
350,237,24019,1,4,0:0:0:0:
51,240,24330,1,8,0:0:0:0:
153,215,24486,1,0,0:0:0:0:
153,215,24641,1,0,0:0:0:0:
159,320,24797,1,8,0:0:0:0:
157,268,24952,1,8,0:0:0:0:
157,268,25108,1,0,0:0:0:0:
52,279,25263,1,8,0:0:0:0:
159,320,25574,1,8,0:0:0:0:
159,320,25729,1,8,0:0:0:0:
159,320,25885,1,0,0:0:0:0:
159,320,26040,1,0,0:0:0:0:
159,320,26196,1,8,0:0:0:0:
159,320,26506,1,8,0:0:0:0:
349,232,26662,1,0,0:0:0:0:
245,249,26973,1,0,0:0:0:0:
250,269,27128,1,8,0:0:0:0:
216,212,27595,1,8,0:0:0:0:
148,292,27750,1,8,0:0:0:0:
145,290,28061,1,0,0:0:0:0:
227,225,28216,1,8,0:0:0:0:
147,294,28372,1,8,0:0:0:0:
227,226,28527,1,0,0:0:0:0:
154,302,28683,1,8,0:0:0:0:
227,227,28838,1,8,0:0:0:0:
105,251,28994,1,0,0:0:0:0:
304,314,29304,1,8,0:0:0:0:
203,282,29615,1,0,0:0:0:0:
203,282,29771,1,0,0:0:0:0:
203,282,29926,1,8,0:0:0:0:
198,314,30237,1,8,0:0:0:0:
100,276,30392,1,0,0:0:0:0:
4,231,30548,1,8,0:0:0:0:
213,237,30859,1,8,0:0:0:0:
108,235,31014,1,8,0:0:0:0:
108,235,31170,1,0,0:0:0:0:
108,235,31325,1,0,0:0:0:0:
108,235,31481,1,8,0:0:0:0:
108,235,31791,1,0,0:0:0:0:
108,235,32102,1,8,0:0:0:0:
108,235,32413,1,8,0:0:0:0:
108,235,32569,1,0,0:0:0:0:
108,235,32724,1,8,0:0:0:0:
108,235,33035,1,8,0:0:0:0:
9,199,33190,1,0,0:0:0:0:
108,235,33346,1,0,0:0:0:0:
108,235,33501,1,12,0:0:0:0:
108,235,33657,1,12,0:0:0:0:
299,147,33968,1,0,0:0:0:0:
362,210,34589,1,8,0:0:0:0:
362,210,35211,1,0,0:0:0:0:
362,210,35833,1,8,0:0:0:0:
215,212,36455,1,0,0:0:0:0:
168,183,37076,1,0,0:0:0:0:
299,147,37698,1,8,0:0:0:0:
299,147,38320,1,0,0:0:0:0:
299,147,38942,1,8,0:0:0:0:
362,210,39563,1,0,0:0:0:0:
252,193,40185,1,8,0:0:0:0:
362,210,40807,1,0,0:0:0:0:
256,192,41429,1,0,0:0:0:0:
256,192,42051,1,8,0:0:0:0:
256,192,42672,1,8,0:0:0:0:
256,192,42983,1,8,0:0:0:0:
256,192,43294,1,0,0:0:0:0:
262,212,43605,1,0,0:0:0:0:
262,212,43916,1,12,0:0:0:0:
262,212,44227,1,0,0:0:0:0:
215,212,44382,1,0,0:0:0:0:
262,212,44538,1,8,0:0:0:0:
169,259,45004,1,8,0:0:0:0:
265,217,45159,1,0,0:0:0:0:
59,174,45470,1,0,0:0:0:0:
262,212,45626,1,0,0:0:0:0:
253,252,45781,1,8,0:0:0:0:
152,213,46247,1,8,0:0:0:0:
243,264,46403,1,8,0:0:0:0:
303,222,46714,1,0,0:0:0:0:
303,222,47025,1,0,0:0:0:0:
303,222,47180,1,8,0:0:0:0:
92,222,47336,1,0,0:0:0:0:
192,250,47646,1,8,0:0:0:0:
192,250,47957,1,0,0:0:0:0:
192,250,48113,1,8,0:0:0:0:
192,250,48268,1,0,0:0:0:0:
192,250,48424,1,8,0:0:0:0:
107,311,48579,1,0,0:0:0:0:
104,308,48890,1,8,0:0:0:0:
290,337,49512,1,0,0:0:0:0:
286,338,49823,1,8,0:0:0:0:
284,338,50133,1,0,0:0:0:0:
180,316,50289,1,8,0:0:0:0:
281,339,50444,1,8,0:0:0:0:
220,256,50755,1,0,0:0:0:0:
225,242,51066,1,8,0:0:0:0:
154,231,51377,1,0,0:0:0:0:
225,242,51532,1,8,0:0:0:0:
225,242,51610,1,8,0:0:0:0:
225,242,51688,1,8,0:0:0:0:
225,242,51843,1,0,0:0:0:0:
225,242,51999,1,8,0:0:0:0:
225,242,52076,1,8,0:0:0:0:
147,171,52154,1,8,0:0:0:0:
225,242,52310,1,0,0:0:0:0:
125,273,52620,1,8,0:0:0:0:
225,242,52776,1,0,0:0:0:0:
225,242,52854,1,0,0:0:0:0:
225,242,52931,1,0,0:0:0:0:
225,242,53087,1,8,0:0:0:0:
131,193,53242,1,0,0:0:0:0:
225,242,53320,1,0,0:0:0:0:
57,115,53398,1,0,0:0:0:0:
225,242,53553,1,8,0:0:0:0:
225,242,53709,1,8,0:0:0:0:
246,191,54175,1,0,0:0:0:0:
246,191,54486,1,0,0:0:0:0:
246,191,54797,1,0,0:0:0:0:
55,280,55108,1,12,0:0:0:0:
250,210,55418,1,0,0:0:0:0:
150,238,55729,1,8,0:0:0:0:
150,238,55885,1,0,0:0:0:0:
150,238,56040,1,8,0:0:0:0:
150,238,56351,1,0,0:0:0:0:
150,238,56662,1,8,0:0:0:0:
150,238,56817,1,0,0:0:0:0:
45,212,56895,1,0,0:0:0:0:
45,212,56973,1,0,0:0:0:0:
150,238,57128,1,0,0:0:0:0:
180,246,57284,1,8,0:0:0:0:
180,246,57439,1,0,0:0:0:0:
180,246,57595,1,8,0:0:0:0:
54,255,57905,1,0,0:0:0:0:
184,247,58216,1,8,0:0:0:0:
150,238,58372,1,8,0:0:0:0:
180,246,58527,1,8,0:0:0:0:
176,243,58838,1,0,0:0:0:0:
145,289,59304,1,8,0:0:0:0:
145,289,59460,1,0,0:0:0:0:
203,271,59615,1,8,0:0:0:0:
203,271,59693,1,8,0:0:0:0:
203,271,59771,1,8,0:0:0:0:
203,271,59926,1,8,0:0:0:0:
104,308,60082,1,4,0:0:0:0:
146,212,60392,1,8,0:0:0:0:
146,212,60703,1,0,0:0:0:0:
146,212,60859,1,0,0:0:0:0:
67,281,61014,1,8,0:0:0:0:
168,252,61170,1,8,0:0:0:0:
168,252,61325,1,0,0:0:0:0:
168,252,61636,1,8,0:0:0:0:
168,252,61947,1,0,0:0:0:0:
168,252,62102,1,0,0:0:0:0:
168,252,62258,1,8,0:0:0:0:
168,252,62569,1,0,0:0:0:0:
159,265,62724,1,8,0:0:0:0:
159,265,62802,1,8,0:0:0:0:
63,228,62880,1,8,0:0:0:0:
159,265,63035,1,0,0:0:0:0:
159,265,63190,1,8,0:0:0:0:
159,265,63268,1,8,0:0:0:0:
159,265,63346,1,8,0:0:0:0:
159,265,63501,1,0,0:0:0:0:
159,265,63812,1,8,0:0:0:0:
159,265,64434,1,8,0:0:0:0:
159,265,64589,1,0,0:0:0:0:
159,265,64745,1,0,0:0:0:0:
160,224,64823,1,0,0:0:0:0:
142,161,64900,1,0,0:0:0:0:
256,192,65056,1,12,0:0:0:0:
256,192,65367,1,0,0:0:0:0:
256,192,65677,1,8,0:0:0:0:
256,192,65833,1,0,0:0:0:0:
288,224,65988,1,8,0:0:0:0:
74,298,66299,1,0,0:0:0:0:
256,224,66610,1,8,0:0:0:0:
288,256,66766,1,8,0:0:0:0:
288,256,66921,1,0,0:0:0:0:
288,256,66999,1,0,0:0:0:0:
288,256,67076,1,0,0:0:0:0:
320,288,67232,1,8,0:0:0:0:
288,256,67543,1,8,0:0:0:0:
288,256,67698,1,0,0:0:0:0:
288,256,67854,1,8,0:0:0:0:
288,256,68009,1,0,0:0:0:0:
288,256,68320,1,0,0:0:0:0:
224,224,68475,1,8,0:0:0:0:
256,256,68631,1,8,0:0:0:0:
256,192,68786,1,0,0:0:0:0:
256,256,68942,1,0,0:0:0:0:
256,192,69097,1,8,0:0:0:0:
256,192,69408,1,0,0:0:0:0:
256,192,69563,1,0,0:0:0:0:
288,224,69719,1,8,0:0:0:0:
256,192,69797,1,8,0:0:0:0:
256,192,69874,1,8,0:0:0:0:
320,256,70030,1,4,0:0:0:0:
256,192,70341,1,8,0:0:0:0:
256,192,70652,1,8,0:0:0:0:
256,192,70807,1,0,0:0:0:0:
256,192,70962,1,8,0:0:0:0:
256,192,71118,1,8,0:0:0:0:
256,192,71273,1,0,0:0:0:0:
256,192,71584,1,8,0:0:0:0:
256,192,71895,1,0,0:0:0:0:
256,192,72206,1,8,0:0:0:0:
256,192,72361,1,8,0:0:0:0:
256,192,72517,1,4,0:0:0:0:
256,192,72828,1,8,0:0:0:0:
256,192,73139,1,8,0:0:0:0:
256,192,73294,1,0,0:0:0:0:
256,192,73449,1,8,0:0:0:0:
256,192,73605,1,8,0:0:0:0:
256,192,73760,1,0,0:0:0:0:
256,192,74071,1,8,0:0:0:0:
256,192,74382,1,0,0:0:0:0:
256,192,74693,1,8,0:0:0:0:
352,192,74848,1,8,0:0:0:0:
256,192,75004,1,4,0:0:0:0:
256,192,75315,1,8,0:0:0:0:
320,288,75470,1,8,0:0:0:0:
256,192,75626,1,8,0:0:0:0:
256,192,75781,1,8,0:0:0:0:
256,192,75937,1,8,0:0:0:0:
256,192,76092,1,8,0:0:0:0:
352,256,76247,1,0,0:0:0:0:
256,192,76403,1,0,0:0:0:0:
352,224,76869,1,0,0:0:0:0:
448,256,77025,1,0,0:0:0:0:
245,258,77491,1,12,0:0:0:0:
120,268,77802,1,0,0:0:0:0:
140,261,77957,1,0,0:0:0:0:
172,304,78268,1,8,0:0:0:0:
277,300,78424,1,8,0:0:0:0:
174,322,78579,1,8,0:0:0:0:
381,321,78890,1,8,0:0:0:0:
276,326,79045,1,0,0:0:0:0:
171,309,79201,1,8,0:0:0:0:
361,226,79667,1,8,0:0:0:0:
221,300,79745,1,8,0:0:0:0:
221,300,79823,1,8,0:0:0:0:
221,300,79978,1,0,0:0:0:0:
221,300,80289,1,8,0:0:0:0:
329,249,80600,1,0,0:0:0:0:
224,248,80755,1,0,0:0:0:0:
119,259,81066,1,8,0:0:0:0:
119,259,81377,1,0,0:0:0:0:
119,259,81532,1,8,0:0:0:0:
210,205,81688,1,0,0:0:0:0:
120,268,81999,1,8,0:0:0:0:
120,268,82076,1,8,0:0:0:0:
157,247,82154,1,8,0:0:0:0:
113,154,82310,1,8,0:0:0:0:
120,268,82465,1,4,0:0:0:0:
113,154,82776,1,8,0:0:0:0:
104,245,83087,1,0,0:0:0:0:
104,245,83242,1,0,0:0:0:0:
104,245,83553,1,8,0:0:0:0:
104,245,83864,1,0,0:0:0:0:
104,245,84019,1,8,0:0:0:0:
104,245,84330,1,8,0:0:0:0:
121,259,84486,1,0,0:0:0:0:
104,245,84641,1,8,0:0:0:0:
70,218,84719,1,8,0:0:0:0:
198,292,84797,1,8,0:0:0:0:
168,252,84952,1,4,0:0:0:0:
63,228,85263,1,8,0:0:0:0:
159,265,85574,1,8,0:0:0:0:
159,265,85729,1,0,0:0:0:0:
159,265,85885,1,8,0:0:0:0:
159,265,86196,1,8,0:0:0:0:
64,224,86351,1,0,0:0:0:0:
159,265,86506,1,8,0:0:0:0:
159,265,86662,1,0,0:0:0:0:
159,265,86817,1,8,0:0:0:0:
159,265,87128,1,8,0:0:0:0:
256,192,87284,1,8,0:0:0:0:
159,265,87439,1,0,0:0:0:0:
352,256,89460,1,8,0:0:0:0:
256,224,89615,1,8,0:0:0:0:
352,256,89771,1,4,0:0:0:0:
256,192,89926,8,0,98165,0:0:0:0:
