osu file format v14

[General]
AudioFilename: audio.ogg
AudioLeadIn: 0
PreviewTime: 54092
Countdown: 0
SampleSet: Normal
StackLeniency: 0.7
Mode: 1
LetterboxInBreaks: 0
WidescreenStoryboard: 1

[Editor]
Bookmarks: 15804
DistanceSpacing: 1.5
BeatDivisor: 2
GridSize: 32
TimelineZoom: 1.3

[Metadata]
Title:Guitar to Kodoku to Aoi Hoshi (TV Size)
TitleUnicode:ギターと孤独と蒼い惑星 (TV Size)
Artist:kessoku band
ArtistUnicode:結束バンド
Creator:[-E S I A-]
Version:Reed's Futsuu!
Source:ぼっち・ざ・ろっく!
Tags:Bocchi the rock! Botchi za rokku! guitar loneliness and blue planet wakusei 2022 insert song ep5 episode 5 japanese anime rock j-rock jrock cloverworks hitoribocchi bocchi-chan bocchichan ZAQ otoha 音羽 Akkin 後藤ひとり hitori gotou gotoh 山田リョウ yamada ryou 伊地知虹夏 nijika ijichi 喜多郁代 kita ikuyo 長谷川育美 ikumi hasegawa 水野朔 mizuno saku 青山吉能 aoyama yoshino 鈴代紗弓 suzushiro sayumi e_s_i_a [-e_s_i_a-] esia [-esia-] ron [r] faputa Reed_405 yui funami yui_funami joltzzz
BeatmapID:4183272
BeatmapSetID:2010461

[Difficulty]
HPDrainRate:7
CircleSize:2
OverallDifficulty:4
ApproachRate:10
SliderMultiplier:1.4
SliderTickRate:1

[Events]
//Background and Video events
0,0,"bocchi_warabimochi-kinako.jpg",0,95
Video,-400,"output.mp4"
//Break Periods
//Storyboard Layer 0 (Background)
//Storyboard Layer 1 (Fail)
//Storyboard Layer 2 (Pass)
//Storyboard Layer 3 (Foreground)
//Storyboard Layer 4 (Overlay)
//Storyboard Sound Samples

[TimingPoints]
393,310.880829015544,4,1,0,80,1,0
393,-100,4,1,0,80,0,0
1558,-100,4,1,0,90,0,0
11740,-100,4,1,0,70,0,0
13916,-100,4,1,0,70,0,0
23942,-100,4,1,0,80,0,0
33812,-100,4,1,0,70,0,0
43760,-100,4,1,0,80,0,0
54952,-100,4,1,0,90,0,0
55108,-100,4,1,0,90,0,1
77491,-100,4,1,0,90,0,0
89848,-100,4,1,0,80,0,0
94745,-100,4,1,0,75,0,0
95988,-100,4,1,0,70,0,0
96299,-100,4,1,0,60,0,0
96610,-100,4,1,0,40,0,0

[HitObjects]
256,192,1636,5,4,0:0:0:0:
256,192,1947,1,8,0:0:0:0:
256,192,2102,1,0,0:0:0:0:
256,192,2413,1,0,0:0:0:0:
256,192,2569,1,0,0:0:0:0:
256,192,2724,1,8,0:0:0:0:
256,192,3035,1,8,0:0:0:0:
256,192,3346,1,0,0:0:0:0:
256,192,3812,1,8,0:0:0:0:
256,192,3968,1,8,0:0:0:0:
256,192,4123,1,0,0:0:0:0:
256,192,4434,1,8,0:0:0:0:
256,192,4589,1,0,0:0:0:0:
256,192,4900,1,8,0:0:0:0:
256,192,5211,1,0,0:0:0:0:
256,192,5522,1,8,0:0:0:0:
256,192,5833,1,0,0:0:0:0:
256,192,6144,1,8,0:0:0:0:
256,192,6299,1,8,0:0:0:0:
256,192,6610,1,4,0:0:0:0:
256,192,6921,1,8,0:0:0:0:
256,192,7076,1,0,0:0:0:0:
256,192,7387,1,0,0:0:0:0:
256,192,7543,1,0,0:0:0:0:
256,192,7698,1,8,0:0:0:0:
256,192,8009,1,8,0:0:0:0:
256,192,8320,1,0,0:0:0:0:
256,192,8786,1,8,0:0:0:0:
256,192,8942,1,8,0:0:0:0:
256,192,9097,1,0,0:0:0:0:
256,192,9408,1,8,0:0:0:0:
256,192,9719,1,0,0:0:0:0:
256,192,10030,1,8,0:0:0:0:
256,192,10185,1,8,0:0:0:0:
256,192,10496,1,0,0:0:0:0:
256,192,10807,1,8,0:0:0:0:
256,192,11118,1,0,0:0:0:0:
256,192,11429,1,8,0:0:0:0:
256,192,11584,1,8,0:0:0:0:
256,192,14071,1,0,0:0:0:0:
256,192,14382,1,8,0:0:0:0:
256,192,14538,1,0,0:0:0:0:
256,192,14848,1,8,0:0:0:0:
256,192,15004,1,8,0:0:0:0:
256,192,15315,1,0,0:0:0:0:
256,192,15626,1,0,0:0:0:0:
256,192,15937,1,8,0:0:0:0:
256,192,16247,1,0,0:0:0:0:
256,192,16558,1,8,0:0:0:0:
256,192,17180,1,0,0:0:0:0:
256,192,17802,1,8,0:0:0:0:
256,192,18424,1,8,0:0:0:0:
256,192,19045,1,0,0:0:0:0:
256,192,19978,1,0,0:0:0:0:
256,192,20289,1,8,0:0:0:0:
256,192,20600,1,8,0:0:0:0:
256,192,20911,1,0,0:0:0:0:
256,192,21222,1,0,0:0:0:0:
256,192,21532,1,8,0:0:0:0:
256,192,22154,1,8,0:0:0:0:
256,192,22465,1,8,0:0:0:0:
256,192,22776,1,0,0:0:0:0:
256,192,23242,1,8,0:0:0:0:
256,192,23398,1,0,0:0:0:0:
256,192,23553,1,12,0:0:0:0:
47,297,24019,1,4,0:0:0:0:
256,192,24330,1,8,0:0:0:0:
407,80,24641,1,0,0:0:0:0:
256,192,24797,1,0,0:0:0:0:
256,192,24952,1,8,0:0:0:0:
148,380,25263,1,8,0:0:0:0:
113,99,25574,1,0,0:0:0:0:
285,221,25885,1,8,0:0:0:0:
256,192,26040,1,0,0:0:0:0:
256,192,26196,1,0,0:0:0:0:
219,207,26506,1,8,0:0:0:0:
256,192,26973,1,8,0:0:0:0:
291,245,27128,1,0,0:0:0:0:
256,192,27439,1,0,0:0:0:0:
256,192,27595,1,0,0:0:0:0:
258,204,27750,1,8,0:0:0:0:
256,192,28216,1,8,0:0:0:0:
291,245,28372,1,0,0:0:0:0:
256,192,28683,1,0,0:0:0:0:
256,192,28838,1,8,0:0:0:0:
291,245,28994,1,0,0:0:0:0:
325,205,29926,1,8,0:0:0:0:
222,280,30237,1,0,0:0:0:0:
256,192,30548,1,8,0:0:0:0:
325,205,30859,1,8,0:0:0:0:
136,281,31170,1,0,0:0:0:0:
256,192,31325,1,0,0:0:0:0:
256,192,31481,1,8,0:0:0:0:
256,192,31791,1,0,0:0:0:0:
369,205,32102,1,8,0:0:0:0:
256,192,32413,1,8,0:0:0:0:
256,192,32569,1,8,0:0:0:0:
266,229,32724,1,0,0:0:0:0:
262,195,33035,1,8,0:0:0:0:
256,192,33346,1,0,0:0:0:0:
256,192,33501,1,8,0:0:0:0:
256,192,33657,1,8,0:0:0:0:
260,150,33968,1,4,0:0:0:0:
260,218,34589,1,8,0:0:0:0:
256,192,35211,1,0,0:0:0:0:
256,192,35833,1,8,0:0:0:0:
354,198,36455,1,0,0:0:0:0:
256,192,36766,1,0,0:0:0:0:
256,192,37076,1,8,0:0:0:0:
256,192,37698,1,0,0:0:0:0:
256,192,38320,1,0,0:0:0:0:
347,191,38942,1,8,0:0:0:0:
256,192,39563,1,0,0:0:0:0:
253,216,40185,1,0,0:0:0:0:
256,192,40807,1,8,0:0:0:0:
326,230,41429,1,8,0:0:0:0:
256,192,41740,1,0,0:0:0:0:
326,230,42051,1,8,0:0:0:0:
331,184,42672,1,0,0:0:0:0:
256,192,42983,1,0,0:0:0:0:
256,192,43294,1,8,0:0:0:0:
211,141,43916,1,4,0:0:0:0:
256,192,44227,1,8,0:0:0:0:
256,192,44382,1,0,0:0:0:0:
256,192,44538,1,0,0:0:0:0:
321,189,45159,1,0,0:0:0:0:
256,192,45470,1,8,0:0:0:0:
256,192,45626,1,0,0:0:0:0:
256,192,45781,1,0,0:0:0:0:
285,250,46403,1,8,0:0:0:0:
256,192,46714,1,8,0:0:0:0:
256,192,46869,1,8,0:0:0:0:
285,250,47025,1,0,0:0:0:0:
256,192,47336,1,0,0:0:0:0:
285,250,47646,1,8,0:0:0:0:
256,192,47957,1,8,0:0:0:0:
256,192,48268,1,0,0:0:0:0:
252,180,48579,1,0,0:0:0:0:
256,192,48890,1,8,0:0:0:0:
257,260,49823,1,8,0:0:0:0:
237,204,50133,1,0,0:0:0:0:
256,192,50289,1,8,0:0:0:0:
256,192,50444,1,0,0:0:0:0:
256,224,51066,1,0,0:0:0:0:
242,269,51377,1,0,0:0:0:0:
256,224,51532,1,8,0:0:0:0:
309,253,51843,1,8,0:0:0:0:
256,224,51999,1,0,0:0:0:0:
256,192,52310,1,8,0:0:0:0:
242,269,52620,1,0,0:0:0:0:
224,192,52776,1,8,0:0:0:0:
256,192,52931,1,0,0:0:0:0:
242,269,53242,1,8,0:0:0:0:
256,224,53553,1,8,0:0:0:0:
256,192,53709,1,8,0:0:0:0:
374,185,55108,5,12,0:0:0:0:
256,192,55418,1,8,0:0:0:0:
256,192,55729,1,0,0:0:0:0:
256,192,55885,1,0,0:0:0:0:
276,246,56040,1,8,0:0:0:0:
177,274,56351,1,0,0:0:0:0:
381,224,56662,1,8,0:0:0:0:
177,274,56973,1,8,0:0:0:0:
245,194,57128,1,0,0:0:0:0:
245,194,57284,1,8,0:0:0:0:
286,231,57595,1,0,0:0:0:0:
256,192,57905,1,8,0:0:0:0:
216,225,58216,1,8,0:0:0:0:
256,192,58372,1,8,0:0:0:0:
256,192,58527,1,0,0:0:0:0:
286,231,58838,1,8,0:0:0:0:
256,192,59460,1,8,0:0:0:0:
256,192,59615,1,0,0:0:0:0:
374,193,59771,1,0,0:0:0:0:
195,204,60082,1,4,0:0:0:0:
256,192,60392,1,8,0:0:0:0:
283,199,60703,1,0,0:0:0:0:
256,192,60859,1,0,0:0:0:0:
256,192,61014,1,8,0:0:0:0:
252,198,61325,1,0,0:0:0:0:
253,197,61791,1,8,0:0:0:0:
252,198,61947,1,0,0:0:0:0:
252,198,62102,1,0,0:0:0:0:
252,198,62258,1,8,0:0:0:0:
252,198,62569,1,0,0:0:0:0:
252,198,62724,1,8,0:0:0:0:
288,192,62880,1,8,0:0:0:0:
288,192,63190,1,8,0:0:0:0:
256,192,63501,1,0,0:0:0:0:
252,198,63812,1,8,0:0:0:0:
288,192,64434,1,8,0:0:0:0:
288,192,64745,1,0,0:0:0:0:
256,288,65056,1,12,0:0:0:0:
256,192,65367,1,8,0:0:0:0:
256,288,65677,1,0,0:0:0:0:
256,192,65833,1,0,0:0:0:0:
256,192,65988,1,8,0:0:0:0:
282,221,66299,1,8,0:0:0:0:
282,221,66610,1,8,0:0:0:0:
258,199,66921,1,8,0:0:0:0:
257,198,67076,1,0,0:0:0:0:
257,198,67232,1,8,0:0:0:0:
58,267,67543,1,0,0:0:0:0:
256,192,67854,1,8,0:0:0:0:
451,253,68009,1,0,0:0:0:0:
256,192,68320,1,8,0:0:0:0:
256,192,68631,1,0,0:0:0:0:
284,255,68786,1,8,0:0:0:0:
256,192,69408,1,8,0:0:0:0:
371,169,69719,1,8,0:0:0:0:
256,192,69874,1,8,0:0:0:0:
284,255,70030,1,4,0:0:0:0:
256,192,70341,1,8,0:0:0:0:
256,192,70496,1,0,0:0:0:0:
434,171,70652,1,8,0:0:0:0:
256,224,70962,1,8,0:0:0:0:
14,171,71273,1,0,0:0:0:0:
258,199,71584,1,8,0:0:0:0:
476,171,71895,1,0,0:0:0:0:
270,215,72206,1,8,0:0:0:0:
256,192,72361,1,0,0:0:0:0:
438,88,72517,1,12,0:0:0:0:
444,287,73139,1,0,0:0:0:0:
256,192,73449,1,8,0:0:0:0:
256,192,73605,1,0,0:0:0:0:
254,239,73760,1,8,0:0:0:0:
256,192,74071,1,0,0:0:0:0:
331,196,74382,1,8,0:0:0:0:
256,224,74693,1,8,0:0:0:0:
289,229,75004,1,4,0:0:0:0:
256,192,75315,1,0,0:0:0:0:
256,192,75470,1,8,0:0:0:0:
256,192,75626,1,8,0:0:0:0:
256,192,75937,1,8,0:0:0:0:
256,192,76092,1,8,0:0:0:0:
294,139,76247,1,0,0:0:0:0:
372,165,76869,1,8,0:0:0:0:
276,226,77491,1,4,0:0:0:0:
256,192,77802,1,8,0:0:0:0:
256,192,77957,1,0,0:0:0:0:
256,192,78268,1,0,0:0:0:0:
256,192,78424,1,0,0:0:0:0:
366,169,78579,1,8,0:0:0:0:
256,192,78890,1,8,0:0:0:0:
77,301,79201,1,0,0:0:0:0:
256,192,79667,1,8,0:0:0:0:
256,192,79823,1,8,0:0:0:0:
256,224,79978,1,0,0:0:0:0:
256,224,80289,1,8,0:0:0:0:
192,194,80444,1,0,0:0:0:0:
224,224,80755,1,8,0:0:0:0:
256,224,81066,1,0,0:0:0:0:
256,224,81377,1,8,0:0:0:0:
256,224,81688,1,0,0:0:0:0:
256,224,81999,1,8,0:0:0:0:
256,224,82154,1,8,0:0:0:0:
256,224,82465,1,4,0:0:0:0:
256,224,82776,1,8,0:0:0:0:
256,192,83087,1,0,0:0:0:0:
256,192,83553,1,8,0:0:0:0:
256,192,84019,1,8,0:0:0:0:
378,200,84330,1,0,0:0:0:0:
256,192,84641,1,8,0:0:0:0:
256,192,84797,1,8,0:0:0:0:
258,202,84952,1,4,0:0:0:0:
467,220,85263,1,8,0:0:0:0:
258,202,85574,1,8,0:0:0:0:
256,192,85885,1,0,0:0:0:0:
256,192,86040,1,0,0:0:0:0:
256,192,86196,1,8,0:0:0:0:
256,192,86506,1,8,0:0:0:0:
233,234,86817,1,0,0:0:0:0:
256,192,87128,1,8,0:0:0:0:
256,192,87284,1,8,0:0:0:0:
258,202,87439,1,8,0:0:0:0:
328,252,89460,1,8,0:0:0:0:
256,192,89615,1,8,0:0:0:0:
289,174,89771,1,4,0:0:0:0:
256,192,89926,12,0,98165,0:0:0:0:
