osu file format v14

[General]
AudioFilename: audio.ogg
AudioLeadIn: 0
PreviewTime: 54092
Countdown: 0
SampleSet: Normal
StackLeniency: 0.7
Mode: 1
LetterboxInBreaks: 0
WidescreenStoryboard: 1

[Editor]
Bookmarks: 3369,56841,66789,79224,91659
DistanceSpacing: 1.5
BeatDivisor: 4
GridSize: 32
TimelineZoom: 1.2

[Metadata]
Title:Guitar to Kodoku to Aoi Hoshi (TV Size)
TitleUnicode:ギターと孤独と蒼い惑星 (TV Size)
Artist:kessoku band
ArtistUnicode:結束バンド
Creator:[-E S I A-]
Version:Fapu's Inner Bocchi!
Source:ぼっち・ざ・ろっく!
Tags:Bocchi the rock! Botchi za rokku! guitar loneliness and blue planet wakusei 2022 insert song ep5 episode 5 japanese anime rock j-rock jrock cloverworks hitoribocchi bocchi-chan bocchichan ZAQ otoha 音羽 Akkin 後藤ひとり hitori gotou gotoh 山田リョウ yamada ryou 伊地知虹夏 nijika ijichi 喜多郁代 kita ikuyo 長谷川育美 ikumi hasegawa 水野朔 mizuno saku 青山吉能 aoyama yoshino 鈴代紗弓 suzushiro sayumi e_s_i_a [-e_s_i_a-] esia [-esia-] ron [r] faputa Reed_405 yui funami yui_funami joltzzz
BeatmapID:4183270
BeatmapSetID:2010461

[Difficulty]
HPDrainRate:6
CircleSize:2
OverallDifficulty:6
ApproachRate:10
SliderMultiplier:1.4
SliderTickRate:1

[Events]
//Background and Video events
Video,-400,"output.mp4"
0,0,"inn.jpg",0,60
//Break Periods
//Storyboard Layer 0 (Background)
//Storyboard Layer 1 (Fail)
//Storyboard Layer 2 (Pass)
//Storyboard Layer 3 (Foreground)
//Storyboard Layer 4 (Overlay)
//Storyboard Sound Samples

[TimingPoints]
393,310.880829015544,4,1,0,80,1,0
393,-100,4,1,0,80,0,0
693,-98.7654320987654,4,1,0,80,0,0
1004,-97.5609756097561,4,1,0,80,0,0
1315,-96.3855421686747,4,1,0,80,0,0
1548,-96.3855421686747,4,1,0,90,0,0
1626,-95.2380952380952,4,1,0,90,0,0
9087,-95.2380952380952,4,1,0,90,0,0
9398,-94.6745562130178,4,1,0,90,0,0
9553,-94.3952802359882,4,1,0,90,0,0
9631,-94.2562147835218,4,1,0,90,0,0
9709,-94.1176470588235,4,1,0,90,0,0
9864,-93.841642228739,4,1,0,90,0,0
9942,-93.7042020712377,4,1,0,90,0,0
10020,-93.5672514619883,4,1,0,90,0,0
10175,-93.2944606413994,4,1,0,90,0,0
10253,-93.1586174515901,4,1,0,90,0,0
10331,-93.0232558139535,4,1,0,90,0,0
10486,-92.7536231884058,4,1,0,90,0,0
10564,-92.6193492934996,4,1,0,90,0,0
10642,-92.485549132948,4,1,0,90,0,0
10797,-92.2190201729107,4,1,0,90,0,0
10875,-92.0862885358096,4,1,0,90,0,0
10952,-91.9540229885058,4,1,0,90,0,0
11030,-91.8221368480399,4,1,0,90,0,0
11108,-91.6905444126075,4,1,0,90,0,0
11263,-91.4285714285714,4,1,0,90,0,0
11341,-91.2981038296816,4,1,0,90,0,0
11419,-91.1680911680912,4,1,0,90,0,0
11574,-90.9090909090909,4,1,0,90,0,0
11730,-90.9090909090909,4,1,0,70,0,0
13906,-111.111111111111,4,1,0,70,0,0
23465,-90.9090909090909,4,1,0,70,0,0
23932,-90.9090909090909,4,1,0,80,0,0
24165,-100,4,1,0,80,0,0
34113,-111.111111111111,4,1,0,70,0,0
43750,-105.263157894737,4,1,0,80,0,0
43906,-105.263157894737,4,1,0,80,0,0
44217,-104.80345683722,4,1,0,80,0,0
44372,-104.575163398693,4,1,0,80,0,0
44528,-104.347862381865,4,1,0,80,0,0
44838,-103.896103896104,4,1,0,80,0,0
44994,-103.671742089587,4,1,0,80,0,0
45072,-103.559870550162,4,1,0,80,0,0
45149,-103.448240190262,4,1,0,80,0,0
45460,-103.004327211786,4,1,0,80,0,0
45616,-102.783690695095,4,1,0,80,0,0
45693,-102.673831931151,4,1,0,80,0,0
45771,-102.564102564103,4,1,0,80,0,0
45927,-102.345450693544,4,1,0,80,0,0
46004,-102.345450693544,4,1,0,80,0,0
46082,-102.127624807617,4,1,0,80,0,0
46237,-101.910828025478,4,1,0,80,0,0
46315,-101.802722612014,4,1,0,80,0,0
46393,-101.694949727102,4,1,0,80,0,0
46548,-101.479881106171,4,1,0,80,0,0
46626,-101.372790326603,4,1,0,80,0,0
46704,-101.26582278481,4,1,0,80,0,0
46859,-101.05266561774,4,1,0,80,0,0
47015,-100.840302238554,4,1,0,80,0,0
47326,-100.418443654709,4,1,0,80,0,0
47481,-100.208734794577,4,1,0,80,0,0
47559,-100.104308689655,4,1,0,80,0,0
47636,-100,4,1,0,80,0,0
47792,-99.7921329869881,4,1,0,80,0,0
47870,-99.7921329869881,4,1,0,80,0,0
47947,-99.5850291833928,4,1,0,80,0,0
48103,-99.3788819875776,4,1,0,80,0,0
48180,-99.2760788331487,4,1,0,80,0,0
48258,-99.173586503665,4,1,0,80,0,0
48414,-98.9690395153684,4,1,0,80,0,0
48569,-98.7654320987654,4,1,0,80,0,0
48724,-98.5626607187386,4,1,0,80,0,0
48880,-98.3606234883202,4,1,0,80,0,0
49191,-97.959215660152,4,1,0,80,0,0
49346,-97.759642277917,4,1,0,80,0,0
49502,-97.5609756097561,4,1,0,80,0,0
49657,-97.363114762877,4,1,0,80,0,0
49813,-97.1659604320776,4,1,0,80,0,0
49968,-96.969696969697,4,1,0,80,0,0
50046,-96.8718153390707,4,1,0,80,0,0
50123,-96.774224765879,4,1,0,80,0,0
50279,-96.5794457691925,4,1,0,80,0,0
50434,-96.3855421686747,4,1,0,80,0,0
50745,-95.9999692800098,4,1,0,80,0,0
50901,-95.8083832335329,4,1,0,80,0,0
50978,-95.7128308792564,4,1,0,80,0,0
51056,-95.6175603561945,4,1,0,80,0,0
51212,-95.4274050330322,4,1,0,80,0,0
51367,-95.2380952380952,4,1,0,80,0,0
51522,-94.368378288856,4,1,0,80,0,0
51600,-93.9394053259885,4,1,0,80,0,0
51678,-93.5143147037233,4,1,0,80,0,0
51756,-93.0930539548722,4,1,0,80,0,0
51833,-92.6756574411139,4,1,0,80,0,0
51911,-92.2619020160148,4,1,0,80,0,0
51989,-91.8518246364964,4,1,0,80,0,0
52066,-91.4454600986879,4,1,0,80,0,0
52144,-91.0425924560287,4,1,0,80,0,0
52222,-90.643258951475,4,1,0,80,0,0
52300,-90.2474132835168,4,1,0,80,0,0
52455,-89.4660843021019,4,1,0,80,0,0
52610,-88.6981681167339,4,1,0,80,0,0
52766,-87.9432449474407,4,1,0,80,0,0
52844,-87.5706585751378,4,1,0,80,0,0
52921,-87.2011398933007,4,1,0,80,0,0
52999,-86.8347265965216,4,1,0,80,0,0
53077,-86.471379702746,4,1,0,80,0,0
53155,-86.1111350308708,4,1,0,80,0,0
53232,-85.7538059682934,4,1,0,80,0,0
53388,-85.0480436398522,4,1,0,80,0,0
53465,-84.6994651228778,4,1,0,80,0,0
53543,-84.35373231524,4,1,0,80,0,0
53621,-84.0108105110966,4,1,0,80,0,0
53699,-83.6707355745377,4,1,0,80,0,0
53776,-83.3333333333333,4,1,0,80,0,0
54009,-111.111111111111,4,1,0,70,0,0
54942,-86.9565217391304,4,1,0,90,0,0
55108,-86.9565217391304,4,1,0,90,0,1
62714,-80,4,1,0,90,0,1
62792,-81.5986813653091,4,1,0,90,0,1
62870,-83.2625601571997,4,1,0,90,0,1
62947,-84.9956354741184,4,1,0,90,0,1
63025,-86.8024662316706,4,1,0,90,0,1
63180,-80,4,1,0,90,0,1
63258,-81.5986813653091,4,1,0,90,0,1
63336,-83.2625601571997,4,1,0,90,0,1
63414,-84.9956354741184,4,1,0,90,0,1
63491,-86.8024662316706,4,1,0,90,0,1
63647,-80,4,1,0,90,0,1
63724,-81.0811029948927,4,1,0,90,0,1
63802,-82.1917583036279,4,1,0,90,0,1
63880,-83.3333333333333,4,1,0,90,0,1
63958,-84.5070660583285,4,1,0,90,0,1
64035,-85.7142612244968,4,1,0,90,0,1
64113,-86.9565217391304,4,1,0,90,0,1
64191,-86.6447513208992,4,1,0,90,0,1
64269,-86.3352085340627,4,1,0,90,0,1
64346,-86.0278695886319,4,1,0,90,0,1
64424,-85.72271103217,4,1,0,90,0,1
64502,-85.4197097438263,4,1,0,90,0,1
64579,-85.1188429284968,4,1,0,90,0,1
64657,-84.8200881111075,4,1,0,90,0,1
64735,-84.523494573169,4,1,0,90,0,1
64813,-84.2288970815529,4,1,0,90,0,1
64890,-83.9363460326227,4,1,0,90,0,1
65046,-83.3572985566684,4,1,0,90,0,1
65211,-86.9565217391304,4,1,0,90,0,1
77491,-95.2380952380952,4,1,0,90,0,0
84942,-95.2380952380952,4,1,0,90,0,0
85253,-98.7654320987654,4,1,0,90,0,0
85408,-98.159509202454,4,1,0,90,0,0
85486,-97.8593272171254,4,1,0,90,0,0
85564,-97.5609756097561,4,1,0,90,0,0
85642,-97.5609756097561,4,1,0,90,0,0
85719,-96.969696969697,4,1,0,90,0,0
85797,-96.6767371601208,4,1,0,90,0,0
85875,-96.3855421686747,4,1,0,90,0,0
86030,-95.8083832335329,4,1,0,90,0,0
86108,-95.5223880597015,4,1,0,90,0,0
86186,-95.2380952380952,4,1,0,90,0,0
86263,-94.7867298578199,4,1,0,90,0,0
86341,-94.6745562130178,4,1,0,90,0,0
86419,-94.3952802359882,4,1,0,90,0,0
86496,-94.1176470588235,4,1,0,90,0,0
86652,-93.5672514619883,4,1,0,90,0,0
86730,-93.2944606413994,4,1,0,90,0,0
86807,-93.0232558139535,4,1,0,90,0,0
86885,-93.0232558139535,4,1,0,90,0,0
86963,-92.485549132948,4,1,0,90,0,0
87041,-92.2190201729107,4,1,0,90,0,0
87118,-91.9540229885058,4,1,0,90,0,0
87196,-91.6905444126075,4,1,0,90,0,0
87274,-91.4285714285714,4,1,0,90,0,0
87351,-91.1680911680912,4,1,0,90,0,0
87429,-90.9090909090909,4,1,0,90,0,0
87585,-111.111111111111,4,1,0,90,0,0
89372,-105.263157894737,4,1,0,90,0,0
89528,-95.2380952380952,4,1,0,90,0,0
89683,-86.9565217391304,4,1,0,90,0,0
89848,-80,4,1,0,80,0,0
91014,-66.6666666666667,4,1,0,80,0,0
92258,-57.1428571428571,4,1,0,80,0,0
93501,-50,4,1,0,80,0,0
94745,-44.4444444444445,4,1,0,75,0,0
95988,-40,4,1,0,70,0,0
96299,-40,4,1,0,60,0,0
96610,-40,4,1,0,40,0,0
97387,-80,4,1,0,40,0,0

[HitObjects]
256,192,393,5,0,0:0:0:0:
256,192,703,1,0,0:0:0:0:
256,192,1014,1,0,0:0:0:0:
256,192,1325,1,0,0:0:0:0:
256,192,1636,1,12,0:0:0:0:
256,192,1947,1,8,0:0:0:0:
256,192,2102,1,0,0:0:0:0:
256,192,2180,1,8,0:0:0:0:
256,192,2336,1,0,0:0:0:0:
256,192,2413,1,8,0:0:0:0:
256,192,2491,1,0,0:0:0:0:
256,192,2569,1,0,0:0:0:0:
256,192,2724,1,8,0:0:0:0:
256,192,2880,1,0,0:0:0:0:
256,192,3035,1,0,0:0:0:0:
256,192,3190,1,8,0:0:0:0:
256,192,3346,1,0,0:0:0:0:
256,192,3424,1,8,0:0:0:0:
256,192,3501,1,0,0:0:0:0:
256,192,3579,1,0,0:0:0:0:
256,192,3657,1,0,0:0:0:0:
256,192,3812,1,8,0:0:0:0:
215,154,3890,1,8,0:0:0:0:
256,192,3968,1,8,0:0:0:0:
256,192,4045,1,8,0:0:0:0:
256,192,4123,1,0,0:0:0:0:
256,192,4279,1,0,0:0:0:0:
256,192,4434,1,8,0:0:0:0:
256,192,4589,1,0,0:0:0:0:
256,192,4667,1,8,0:0:0:0:
256,192,4823,1,0,0:0:0:0:
256,192,4900,1,8,0:0:0:0:
256,192,4978,1,0,0:0:0:0:
256,192,5056,1,0,0:0:0:0:
256,192,5211,1,8,0:0:0:0:
256,192,5367,1,0,0:0:0:0:
256,192,5522,1,8,0:0:0:0:
256,192,5600,1,0,0:0:0:0:
256,192,5677,1,8,0:0:0:0:
256,192,5833,1,0,0:0:0:0:
256,192,5911,1,0,0:0:0:0:
256,192,5988,1,8,0:0:0:0:
256,192,6066,1,0,0:0:0:0:
256,192,6144,1,8,0:0:0:0:
256,192,6222,1,8,0:0:0:0:
256,192,6299,1,8,0:0:0:0:
256,192,6377,1,8,0:0:0:0:
256,192,6455,1,0,0:0:0:0:
256,192,6610,1,12,0:0:0:0:
256,192,6766,1,0,0:0:0:0:
256,192,6921,1,8,0:0:0:0:
256,192,7076,1,0,0:0:0:0:
256,192,7154,1,8,0:0:0:0:
256,192,7310,1,0,0:0:0:0:
256,192,7387,1,8,0:0:0:0:
256,192,7465,1,0,0:0:0:0:
256,192,7543,1,0,0:0:0:0:
256,192,7698,1,8,0:0:0:0:
256,192,7854,1,0,0:0:0:0:
256,192,8009,1,0,0:0:0:0:
256,192,8165,1,8,0:0:0:0:
256,192,8320,1,0,0:0:0:0:
256,192,8398,1,0,0:0:0:0:
256,192,8475,1,8,0:0:0:0:
256,192,8553,1,0,0:0:0:0:
256,192,8631,1,8,0:0:0:0:
256,192,8786,1,0,0:0:0:0:
256,192,8864,1,0,0:0:0:0:
256,192,8942,1,0,0:0:0:0:
256,192,9097,1,12,0:0:0:0:
256,192,9408,1,8,0:0:0:0:
256,192,9563,1,0,0:0:0:0:
256,192,9641,1,0,0:0:0:0:
256,192,9719,1,8,0:0:0:0:
256,192,9874,1,8,0:0:0:0:
256,192,9952,1,0,0:0:0:0:
256,192,10030,1,8,0:0:0:0:
256,192,10185,1,0,0:0:0:0:
256,192,10263,1,0,0:0:0:0:
256,192,10341,1,8,0:0:0:0:
256,192,10496,1,8,0:0:0:0:
256,192,10574,1,0,0:0:0:0:
256,192,10652,1,8,0:0:0:0:
256,192,10807,1,0,0:0:0:0:
256,192,10885,1,0,0:0:0:0:
256,192,10962,1,8,0:0:0:0:
256,192,11040,1,8,0:0:0:0:
256,192,11118,1,0,0:0:0:0:
256,192,11273,1,8,0:0:0:0:
256,192,11351,1,0,0:0:0:0:
256,192,11429,1,8,0:0:0:0:
256,192,11584,1,0,0:0:0:0:
256,192,14071,1,8,0:0:0:0:
256,192,14382,1,0,0:0:0:0:
256,192,14538,1,0,0:0:0:0:
256,192,14693,1,8,0:0:0:0:
256,192,14848,1,0,0:0:0:0:
256,192,15004,1,0,0:0:0:0:
256,192,15159,1,0,0:0:0:0:
256,192,15315,1,8,0:0:0:0:
256,192,15626,1,0,0:0:0:0:
256,192,15937,1,8,0:0:0:0:
256,192,16247,1,0,0:0:0:0:
256,192,16403,1,0,0:0:0:0:
256,192,16558,1,8,0:0:0:0:
256,192,16869,1,0,0:0:0:0:
256,192,17025,1,0,0:0:0:0:
256,192,17180,1,8,0:0:0:0:
256,192,17491,1,0,0:0:0:0:
256,192,17646,1,8,0:0:0:0:
256,192,17802,1,8,0:0:0:0:
256,192,18113,1,0,0:0:0:0:
256,192,18268,1,0,0:0:0:0:
256,192,18424,1,8,0:0:0:0:
256,192,18579,1,0,0:0:0:0:
256,192,18657,1,0,0:0:0:0:
256,192,18734,1,0,0:0:0:0:
256,192,18890,1,0,0:0:0:0:
256,192,19045,1,8,0:0:0:0:
256,192,19356,1,8,0:0:0:0:
256,192,19667,1,0,0:0:0:0:
256,192,19823,1,0,0:0:0:0:
256,192,19978,1,8,0:0:0:0:
256,192,20289,1,0,0:0:0:0:
256,192,20444,1,0,0:0:0:0:
256,192,20600,1,8,0:0:0:0:
256,192,20755,1,8,0:0:0:0:
256,192,20911,1,0,0:0:0:0:
256,192,21066,1,0,0:0:0:0:
256,192,21222,1,8,0:0:0:0:
256,192,21532,1,0,0:0:0:0:
256,192,21843,1,8,0:0:0:0:
256,192,21999,1,8,0:0:0:0:
256,192,22154,1,0,0:0:0:0:
256,192,22310,1,0,0:0:0:0:
256,192,22465,1,8,0:0:0:0:
256,192,22620,1,0,0:0:0:0:
256,192,22776,1,0,0:0:0:0:
256,192,22931,1,0,0:0:0:0:
256,192,23087,1,8,0:0:0:0:
256,192,23398,1,0,0:0:0:0:
256,192,23553,1,12,0:0:0:0:
256,192,23864,1,8,0:0:0:0:
256,192,24019,1,4,0:0:0:0:
256,192,24253,1,0,0:0:0:0:
256,192,24330,1,8,0:0:0:0:
256,192,24486,1,0,0:0:0:0:
256,192,24563,1,0,0:0:0:0:
256,192,24641,1,8,0:0:0:0:
256,192,24797,1,0,0:0:0:0:
256,192,24952,1,8,0:0:0:0:
256,192,25108,1,0,0:0:0:0:
256,192,25263,1,8,0:0:0:0:
256,192,25418,1,8,0:0:0:0:
256,192,25574,1,0,0:0:0:0:
256,192,25729,1,8,0:0:0:0:
256,192,25807,1,8,0:0:0:0:
256,192,25885,1,0,0:0:0:0:
256,192,26040,1,8,0:0:0:0:
256,192,26118,1,8,0:0:0:0:
256,192,26196,1,8,0:0:0:0:
256,192,26351,1,0,0:0:0:0:
256,192,26506,1,8,0:0:0:0:
256,192,26740,1,0,0:0:0:0:
256,192,26817,1,8,0:0:0:0:
256,192,26973,1,0,0:0:0:0:
256,192,27128,1,8,0:0:0:0:
256,192,27206,1,8,0:0:0:0:
256,192,27284,1,0,0:0:0:0:
256,192,27439,1,8,0:0:0:0:
256,192,27595,1,0,0:0:0:0:
256,192,27672,1,0,0:0:0:0:
256,192,27750,1,8,0:0:0:0:
256,192,27905,1,8,0:0:0:0:
256,192,28061,1,0,0:0:0:0:
256,192,28216,1,8,0:0:0:0:
256,192,28294,1,0,0:0:0:0:
256,192,28372,1,8,0:0:0:0:
256,192,28527,1,8,0:0:0:0:
256,192,28683,1,0,0:0:0:0:
256,192,28838,1,8,0:0:0:0:
256,192,28994,1,0,0:0:0:0:
256,192,29304,1,8,0:0:0:0:
256,192,29460,1,8,0:0:0:0:
256,192,29538,1,8,0:0:0:0:
256,192,29615,1,0,0:0:0:0:
256,192,29771,1,8,0:0:0:0:
256,192,29926,1,0,0:0:0:0:
256,192,30082,1,0,0:0:0:0:
256,192,30237,1,8,0:0:0:0:
256,192,30392,1,0,0:0:0:0:
256,192,30548,1,8,0:0:0:0:
256,192,30781,1,8,0:0:0:0:
256,192,30859,1,0,0:0:0:0:
256,192,31014,1,0,0:0:0:0:
256,192,31170,1,8,0:0:0:0:
256,192,31325,1,0,0:0:0:0:
256,192,31403,1,0,0:0:0:0:
256,192,31481,1,8,0:0:0:0:
256,192,31636,1,0,0:0:0:0:
256,192,31791,1,8,0:0:0:0:
256,192,31947,1,0,0:0:0:0:
256,192,32025,1,0,0:0:0:0:
256,192,32102,1,0,0:0:0:0:
256,192,32258,1,0,0:0:0:0:
256,192,32413,1,8,0:0:0:0:
256,192,32569,1,8,0:0:0:0:
256,192,32724,1,0,0:0:0:0:
256,192,33035,1,8,0:0:0:0:
256,192,33190,1,8,0:0:0:0:
256,192,33346,1,0,0:0:0:0:
256,192,33501,1,8,0:0:0:0:
256,192,33579,1,8,0:0:0:0:
256,192,33657,1,8,0:0:0:0:
256,192,33812,1,0,0:0:0:0:
256,192,33968,1,12,0:0:0:0:
256,192,34434,1,0,0:0:0:0:
256,192,34589,1,0,0:0:0:0:
256,192,35056,1,0,0:0:0:0:
256,192,35211,1,8,0:0:0:0:
256,192,35677,1,0,0:0:0:0:
256,192,35833,1,0,0:0:0:0:
256,192,36299,1,0,0:0:0:0:
256,192,36455,1,8,0:0:0:0:
256,192,36766,1,0,0:0:0:0:
256,192,37076,1,8,0:0:0:0:
256,192,37387,1,8,0:0:0:0:
256,192,37698,1,8,0:0:0:0:
256,192,38165,1,0,0:0:0:0:
256,192,38320,1,0,0:0:0:0:
256,192,38786,1,0,0:0:0:0:
256,192,38942,1,8,0:0:0:0:
256,192,39408,1,0,0:0:0:0:
256,192,39563,1,0,0:0:0:0:
256,192,40030,1,0,0:0:0:0:
256,192,40185,1,8,0:0:0:0:
256,192,40652,1,0,0:0:0:0:
256,192,40807,1,0,0:0:0:0:
256,192,41273,1,0,0:0:0:0:
256,192,41429,1,8,0:0:0:0:
256,192,41740,1,0,0:0:0:0:
256,192,42051,1,8,0:0:0:0:
256,192,42361,1,0,0:0:0:0:
256,192,42672,1,8,0:0:0:0:
256,192,42983,1,8,0:0:0:0:
256,192,43294,1,0,0:0:0:0:
256,192,43605,1,0,0:0:0:0:
256,192,43916,1,12,0:0:0:0:
256,192,44227,1,0,0:0:0:0:
256,192,44382,1,0,0:0:0:0:
256,192,44538,1,8,0:0:0:0:
256,192,44848,1,0,0:0:0:0:
256,192,45004,1,0,0:0:0:0:
256,192,45159,1,8,0:0:0:0:
256,192,45470,1,0,0:0:0:0:
256,192,45626,1,0,0:0:0:0:
256,192,45781,1,8,0:0:0:0:
256,192,45937,1,0,0:0:0:0:
256,192,46014,1,0,0:0:0:0:
256,192,46092,1,0,0:0:0:0:
256,192,46247,1,0,0:0:0:0:
256,192,46403,1,8,0:0:0:0:
256,192,46558,1,0,0:0:0:0:
256,192,46714,1,0,0:0:0:0:
256,192,46869,1,0,0:0:0:0:
256,192,47025,1,8,0:0:0:0:
256,192,47336,1,0,0:0:0:0:
256,192,47491,1,0,0:0:0:0:
256,192,47646,1,8,0:0:0:0:
256,192,47802,1,0,0:0:0:0:
256,192,47880,1,0,0:0:0:0:
256,192,47957,1,0,0:0:0:0:
256,192,48113,1,0,0:0:0:0:
256,192,48268,1,8,0:0:0:0:
256,192,48424,1,0,0:0:0:0:
256,192,48579,1,8,0:0:0:0:
256,192,48734,1,8,0:0:0:0:
256,192,48890,1,0,0:0:0:0:
256,192,49201,1,0,0:0:0:0:
256,192,49356,1,0,0:0:0:0:
256,192,49512,1,8,0:0:0:0:
256,192,49667,1,8,0:0:0:0:
256,192,49823,1,0,0:0:0:0:
256,192,49978,1,0,0:0:0:0:
256,192,50133,1,8,0:0:0:0:
256,192,50289,1,0,0:0:0:0:
256,192,50444,1,8,0:0:0:0:
256,192,50755,1,0,0:0:0:0:
256,192,50911,1,0,0:0:0:0:
256,192,50988,1,0,0:0:0:0:
256,192,51066,1,8,0:0:0:0:
256,192,51222,1,8,0:0:0:0:
256,192,51377,1,0,0:0:0:0:
256,192,51532,1,8,0:0:0:0:
256,192,51610,1,8,0:0:0:0:
256,192,51688,1,8,0:0:0:0:
256,192,51766,1,8,0:0:0:0:
256,192,51843,1,0,0:0:0:0:
256,192,51921,1,0,0:0:0:0:
256,192,51999,1,8,0:0:0:0:
256,192,52076,1,8,0:0:0:0:
256,192,52154,1,0,0:0:0:0:
256,192,52232,1,0,0:0:0:0:
256,192,52310,1,8,0:0:0:0:
256,192,52465,1,8,0:0:0:0:
256,192,52620,1,0,0:0:0:0:
256,192,52776,1,8,0:0:0:0:
256,192,52854,1,8,0:0:0:0:
256,192,52931,1,0,0:0:0:0:
256,192,53009,1,0,0:0:0:0:
256,192,53087,1,8,0:0:0:0:
256,192,53165,1,8,0:0:0:0:
256,192,53242,1,0,0:0:0:0:
256,192,53398,1,0,0:0:0:0:
256,192,53475,1,0,0:0:0:0:
256,192,53553,1,8,0:0:0:0:
256,192,53631,1,8,0:0:0:0:
256,192,53709,1,8,0:0:0:0:
256,192,53786,1,8,0:0:0:0:
256,192,54175,1,0,0:0:0:0:
256,192,54486,1,0,0:0:0:0:
256,192,54797,1,0,0:0:0:0:
256,192,55108,1,12,0:0:0:0:
256,192,55341,1,0,0:0:0:0:
256,192,55418,1,8,0:0:0:0:
256,192,55574,1,0,0:0:0:0:
256,192,55652,1,0,0:0:0:0:
256,192,55729,1,8,0:0:0:0:
256,192,55807,1,8,0:0:0:0:
256,192,55885,1,0,0:0:0:0:
256,192,56040,1,8,0:0:0:0:
256,192,56196,1,0,0:0:0:0:
256,192,56273,1,0,0:0:0:0:
256,192,56351,1,0,0:0:0:0:
256,192,56506,1,0,0:0:0:0:
256,192,56662,1,8,0:0:0:0:
256,192,56817,1,0,0:0:0:0:
256,192,56895,1,8,0:0:0:0:
256,192,56973,1,0,0:0:0:0:
256,192,57128,1,0,0:0:0:0:
256,192,57284,1,8,0:0:0:0:
256,192,57439,1,8,0:0:0:0:
256,192,57517,1,8,0:0:0:0:
256,192,57595,1,0,0:0:0:0:
256,192,57750,1,0,0:0:0:0:
256,192,57905,1,8,0:0:0:0:
256,192,57983,1,8,0:0:0:0:
256,192,58061,1,0,0:0:0:0:
256,192,58139,1,0,0:0:0:0:
256,192,58216,1,8,0:0:0:0:
256,192,58372,1,0,0:0:0:0:
256,192,58527,1,8,0:0:0:0:
256,192,58683,1,8,0:0:0:0:
256,192,58838,1,0,0:0:0:0:
256,192,58994,1,0,0:0:0:0:
256,192,59149,1,8,0:0:0:0:
256,192,59227,1,8,0:0:0:0:
256,192,59304,1,0,0:0:0:0:
256,192,59460,1,8,0:0:0:0:
256,192,59615,1,0,0:0:0:0:
256,192,59693,1,0,0:0:0:0:
256,192,59771,1,8,0:0:0:0:
256,192,59848,1,0,0:0:0:0:
256,192,59926,1,8,0:0:0:0:
256,192,60082,1,4,0:0:0:0:
256,192,60237,1,8,0:0:0:0:
256,192,60392,1,8,0:0:0:0:
256,192,60548,1,0,0:0:0:0:
256,192,60626,1,0,0:0:0:0:
256,192,60703,1,0,0:0:0:0:
256,192,60859,1,0,0:0:0:0:
256,192,61014,1,8,0:0:0:0:
256,192,61170,1,0,0:0:0:0:
256,192,61247,1,8,0:0:0:0:
256,192,61325,1,0,0:0:0:0:
256,192,61481,1,0,0:0:0:0:
256,192,61636,1,8,0:0:0:0:
256,192,61791,1,0,0:0:0:0:
256,192,61869,1,0,0:0:0:0:
256,192,61947,1,8,0:0:0:0:
256,192,62025,1,8,0:0:0:0:
256,192,62102,1,0,0:0:0:0:
256,192,62258,1,8,0:0:0:0:
256,192,62336,1,0,0:0:0:0:
256,192,62413,1,8,0:0:0:0:
256,192,62569,1,0,0:0:0:0:
256,192,62724,1,8,0:0:0:0:
256,192,62802,1,8,0:0:0:0:
256,192,62880,1,8,0:0:0:0:
256,192,62957,1,8,0:0:0:0:
256,192,63035,1,0,0:0:0:0:
256,192,63190,1,8,0:0:0:0:
256,192,63268,1,8,0:0:0:0:
256,192,63346,1,8,0:0:0:0:
256,192,63424,1,8,0:0:0:0:
256,192,63501,1,0,0:0:0:0:
256,192,63657,1,8,0:0:0:0:
256,192,63734,1,8,0:0:0:0:
256,192,63812,1,0,0:0:0:0:
256,192,63890,1,0,0:0:0:0:
256,192,63968,1,8,0:0:0:0:
256,192,64045,1,8,0:0:0:0:
256,192,64123,1,0,0:0:0:0:
256,192,64201,1,0,0:0:0:0:
256,192,64279,1,0,0:0:0:0:
256,192,64356,1,0,0:0:0:0:
256,192,64434,1,8,0:0:0:0:
256,192,64512,1,8,0:0:0:0:
256,192,64589,1,8,0:0:0:0:
256,192,64667,1,8,0:0:0:0:
256,192,64745,1,0,0:0:0:0:
256,192,64823,1,0,0:0:0:0:
256,192,64900,1,0,0:0:0:0:
256,192,65056,1,12,0:0:0:0:
256,192,65289,1,0,0:0:0:0:
256,192,65367,1,8,0:0:0:0:
256,192,65522,1,0,0:0:0:0:
256,192,65600,1,0,0:0:0:0:
256,192,65677,1,8,0:0:0:0:
256,192,65833,1,0,0:0:0:0:
256,192,65988,1,8,0:0:0:0:
256,192,66144,1,0,0:0:0:0:
256,192,66222,1,0,0:0:0:0:
256,192,66299,1,8,0:0:0:0:
256,192,66377,1,8,0:0:0:0:
256,192,66455,1,0,0:0:0:0:
256,192,66610,1,8,0:0:0:0:
256,192,66766,1,0,0:0:0:0:
256,192,66843,1,0,0:0:0:0:
256,192,66921,1,8,0:0:0:0:
256,192,67076,1,0,0:0:0:0:
256,192,67232,1,8,0:0:0:0:
256,192,67310,1,0,0:0:0:0:
256,192,67387,1,8,0:0:0:0:
256,192,67465,1,8,0:0:0:0:
256,192,67543,1,0,0:0:0:0:
256,192,67698,1,0,0:0:0:0:
256,192,67854,1,8,0:0:0:0:
256,192,67931,1,8,0:0:0:0:
256,192,68009,1,0,0:0:0:0:
256,192,68165,1,8,0:0:0:0:
256,192,68320,1,0,0:0:0:0:
256,192,68398,1,0,0:0:0:0:
256,192,68475,1,8,0:0:0:0:
256,192,68631,1,0,0:0:0:0:
256,192,68786,1,8,0:0:0:0:
256,192,68942,1,0,0:0:0:0:
256,192,69097,1,8,0:0:0:0:
256,192,69175,1,8,0:0:0:0:
256,192,69253,1,0,0:0:0:0:
256,192,69408,1,8,0:0:0:0:
256,192,69486,1,8,0:0:0:0:
256,192,69563,1,0,0:0:0:0:
256,192,69641,1,0,0:0:0:0:
256,192,69719,1,8,0:0:0:0:
256,192,69797,1,0,0:0:0:0:
256,192,69874,1,8,0:0:0:0:
256,192,70030,1,4,0:0:0:0:
256,192,70263,1,0,0:0:0:0:
256,192,70341,1,8,0:0:0:0:
256,192,70496,1,0,0:0:0:0:
256,192,70574,1,0,0:0:0:0:
256,192,70652,1,8,0:0:0:0:
256,192,70807,1,8,0:0:0:0:
256,192,70962,1,0,0:0:0:0:
256,192,71118,1,8,0:0:0:0:
256,192,71196,1,0,0:0:0:0:
256,192,71273,1,8,0:0:0:0:
256,192,71429,1,0,0:0:0:0:
256,192,71584,1,8,0:0:0:0:
256,192,71740,1,0,0:0:0:0:
256,192,71817,1,0,0:0:0:0:
256,192,71895,1,8,0:0:0:0:
256,192,71973,1,8,0:0:0:0:
256,192,72051,1,0,0:0:0:0:
256,192,72206,1,8,0:0:0:0:
256,192,72284,1,0,0:0:0:0:
256,192,72361,1,8,0:0:0:0:
256,192,72517,1,4,0:0:0:0:
256,192,72750,1,0,0:0:0:0:
256,192,72828,1,8,0:0:0:0:
256,192,72983,1,0,0:0:0:0:
256,192,73061,1,0,0:0:0:0:
256,192,73139,1,8,0:0:0:0:
256,192,73294,1,0,0:0:0:0:
256,192,73449,1,8,0:0:0:0:
256,192,73605,1,0,0:0:0:0:
256,192,73683,1,0,0:0:0:0:
256,192,73760,1,8,0:0:0:0:
256,192,73838,1,8,0:0:0:0:
256,192,73916,1,0,0:0:0:0:
256,192,74071,1,8,0:0:0:0:
256,192,74227,1,8,0:0:0:0:
256,192,74382,1,0,0:0:0:0:
256,192,74538,1,0,0:0:0:0:
256,192,74615,1,0,0:0:0:0:
256,192,74693,1,8,0:0:0:0:
256,192,74848,1,0,0:0:0:0:
256,192,75004,1,12,0:0:0:0:
256,192,75315,1,8,0:0:0:0:
256,192,75470,1,8,0:0:0:0:
256,192,75548,1,8,0:0:0:0:
256,192,75626,1,0,0:0:0:0:
256,192,75703,1,0,0:0:0:0:
256,192,75781,1,8,0:0:0:0:
256,192,75859,1,8,0:0:0:0:
256,192,75937,1,0,0:0:0:0:
256,192,76014,1,0,0:0:0:0:
256,192,76092,1,0,0:0:0:0:
256,192,76170,1,0,0:0:0:0:
256,192,76247,1,8,0:0:0:0:
256,192,76403,1,8,0:0:0:0:
256,192,76869,1,8,0:0:0:0:
256,192,77025,1,8,0:0:0:0:
256,192,77491,1,12,0:0:0:0:
256,192,77802,1,8,0:0:0:0:
256,192,77957,1,0,0:0:0:0:
256,192,78035,1,8,0:0:0:0:
256,192,78190,1,0,0:0:0:0:
256,192,78268,1,8,0:0:0:0:
256,192,78346,1,0,0:0:0:0:
256,192,78424,1,0,0:0:0:0:
256,192,78579,1,8,0:0:0:0:
256,192,78734,1,0,0:0:0:0:
256,192,78890,1,0,0:0:0:0:
256,192,79045,1,8,0:0:0:0:
256,192,79201,1,0,0:0:0:0:
256,192,79279,1,8,0:0:0:0:
256,192,79356,1,0,0:0:0:0:
256,192,79434,1,0,0:0:0:0:
256,192,79512,1,0,0:0:0:0:
256,192,79667,1,8,0:0:0:0:
256,192,79745,1,8,0:0:0:0:
256,192,79823,1,8,0:0:0:0:
256,192,79900,1,8,0:0:0:0:
256,192,79978,1,0,0:0:0:0:
256,192,80133,1,0,0:0:0:0:
256,192,80289,1,8,0:0:0:0:
256,192,80444,1,0,0:0:0:0:
256,192,80522,1,8,0:0:0:0:
256,192,80677,1,0,0:0:0:0:
256,192,80755,1,8,0:0:0:0:
256,192,80833,1,0,0:0:0:0:
256,192,80911,1,0,0:0:0:0:
256,192,81066,1,8,0:0:0:0:
256,192,81222,1,0,0:0:0:0:
256,192,81377,1,8,0:0:0:0:
256,192,81455,1,0,0:0:0:0:
256,192,81532,1,8,0:0:0:0:
256,192,81688,1,0,0:0:0:0:
256,192,81766,1,0,0:0:0:0:
256,192,81843,1,8,0:0:0:0:
256,192,81921,1,0,0:0:0:0:
256,192,81999,1,8,0:0:0:0:
256,192,82076,1,8,0:0:0:0:
256,192,82154,1,8,0:0:0:0:
256,192,82232,1,8,0:0:0:0:
256,192,82310,1,0,0:0:0:0:
256,192,82465,1,12,0:0:0:0:
256,192,82620,1,0,0:0:0:0:
256,192,82776,1,8,0:0:0:0:
256,192,82931,1,0,0:0:0:0:
256,192,83009,1,8,0:0:0:0:
256,192,83165,1,0,0:0:0:0:
256,192,83242,1,8,0:0:0:0:
256,192,83320,1,0,0:0:0:0:
256,192,83398,1,0,0:0:0:0:
256,192,83553,1,8,0:0:0:0:
256,192,83709,1,0,0:0:0:0:
256,192,83864,1,0,0:0:0:0:
256,192,84019,1,8,0:0:0:0:
256,192,84175,1,0,0:0:0:0:
256,192,84253,1,0,0:0:0:0:
256,192,84330,1,8,0:0:0:0:
256,192,84408,1,0,0:0:0:0:
256,192,84486,1,8,0:0:0:0:
256,192,84641,1,0,0:0:0:0:
256,192,84719,1,0,0:0:0:0:
256,192,84797,1,0,0:0:0:0:
256,192,84952,1,12,0:0:0:0:
256,192,85263,1,8,0:0:0:0:
256,192,85418,1,0,0:0:0:0:
256,192,85496,1,0,0:0:0:0:
256,192,85574,1,8,0:0:0:0:
256,192,85652,1,0,0:0:0:0:
256,192,85729,1,8,0:0:0:0:
256,192,85807,1,0,0:0:0:0:
256,192,85885,1,8,0:0:0:0:
256,192,86040,1,0,0:0:0:0:
256,192,86118,1,0,0:0:0:0:
256,192,86196,1,8,0:0:0:0:
256,192,86273,1,0,0:0:0:0:
256,192,86351,1,8,0:0:0:0:
256,192,86429,1,0,0:0:0:0:
256,192,86506,1,8,0:0:0:0:
256,192,86662,1,0,0:0:0:0:
256,192,86740,1,0,0:0:0:0:
256,192,86817,1,8,0:0:0:0:
256,192,86895,1,8,0:0:0:0:
256,192,86973,1,0,0:0:0:0:
256,192,87051,1,0,0:0:0:0:
256,192,87128,1,8,0:0:0:0:
256,192,87206,1,0,0:0:0:0:
256,192,87284,1,8,0:0:0:0:
256,192,87361,1,8,0:0:0:0:
256,192,87439,1,0,0:0:0:0:
256,192,89460,1,8,0:0:0:0:
256,192,89615,1,8,0:0:0:0:
256,192,89771,1,4,0:0:0:0:
256,192,89926,12,0,98165,0:0:0:0:
