osu file format v14

[General]
AudioFilename: audio.ogg
AudioLeadIn: 0
PreviewTime: 183255
Countdown: 0
SampleSet: Soft
StackLeniency: 0.7
Mode: 3
LetterboxInBreaks: 0
SpecialStyle: 0
WidescreenStoryboard: 1

[Editor]
Bookmarks: 15069,21442,25017,34965,44913,89680,99628,109577,119525,163048,172996
DistanceSpacing: 2
BeatDivisor: 4
GridSize: 4
TimelineZoom: 2.2

[Metadata]
Title:Guitar to Kodoku to Aoi Hoshi
TitleUnicode:ギターと孤独と蒼い惑星
Artist:kessoku band
ArtistUnicode:結束バンド
Creator:Syadow-
Version:Notice Me // Ayase's HARD
Source:ぼっち・ざ・ろっく!
Tags:Guitar Loneliness and Blue Planet wakusei bocchi the rock insert song jrock j-rock japanese 音羽 otoha 長谷川 育美 Ikumi Hasegawa akkin ZAQ track 5 five suzumeayase yuiazu- onii_ue mirsaaa SVWC-70613 Clover Works CloverWorks
BeatmapID:3951924
BeatmapSetID:1894825

[Difficulty]
HPDrainRate:7.5
CircleSize:4
OverallDifficulty:8
ApproachRate:5
SliderMultiplier:1.4
SliderTickRate:1

[Events]
//Background and Video events
0,0,"Fk-mUHRaMAIbrnA.jpeg",0,0
//Break Periods
//Storyboard Layer 0 (Background)
//Storyboard Layer 1 (Fail)
//Storyboard Layer 2 (Pass)
//Storyboard Layer 3 (Foreground)
//Storyboard Layer 4 (Overlay)
//Storyboard Sound Samples
Sample,198644,0,"Tom1.wav",40

[TimingPoints]
2634,310.880829015544,4,2,1,50,1,0
56105,-100,4,2,1,50,0,1
77245,-100,4,2,1,50,0,0
130716,-100,4,2,1,50,0,1
151856,-100,4,2,1,50,0,0
185431,-100,4,2,1,50,0,1
206571,-100,4,2,1,50,0,0

[HitObjects]
64,192,1390,5,0,0:0:0:30:Hat Open2.wav
192,192,1390,1,0,0:0:0:0:
64,192,1701,1,0,0:0:0:30:Hat Open2.wav
192,192,1701,1,0,0:0:0:0:
64,192,2012,1,0,0:0:0:30:Hat Open2.wav
192,192,2012,1,0,0:0:0:0:
64,192,2323,1,0,0:0:0:30:Hat Open2.wav
192,192,2323,1,0,0:0:0:0:
320,192,2634,1,2,0:0:0:0:
448,192,2634,128,4,2789:0:0:0:0:
192,192,2789,128,2,2944:0:0:0:0:
64,192,2944,1,8,0:0:0:0:
448,192,2944,1,0,0:0:0:30:Hat Open.wav
320,192,3100,1,0,0:0:0:0:
192,192,3178,1,8,0:0:0:0:
64,192,3255,1,2,0:0:0:0:
320,192,3255,1,0,0:0:0:30:Hat Open.wav
192,192,3411,128,2,3566:0:0:0:0:
448,192,3411,1,0,0:0:0:0:
320,192,3566,128,0,3722:0:0:0:30:Hat Open.wav
64,192,3722,128,8,3877:0:0:0:0:
192,192,3722,1,0,0:0:0:0:
448,192,3877,1,0,0:0:0:30:Hat Open.wav
64,192,4032,1,2,0:0:0:0:
320,192,4032,128,0,4188:0:0:0:0:
192,192,4188,1,8,0:0:0:0:
448,192,4188,1,0,0:0:0:30:Hat Open.wav
320,192,4343,1,0,0:0:0:0:
192,192,4421,1,8,0:0:0:0:
64,192,4499,1,2,0:0:0:0:
320,192,4499,1,0,0:0:0:30:Hat Open.wav
192,192,4654,1,2,0:0:0:0:
448,192,4654,1,0,0:0:0:0:
64,192,4810,1,8,0:0:0:0:
448,192,4810,1,0,0:0:0:0:
192,192,4887,1,8,0:0:0:0:
320,192,4965,1,8,0:0:0:0:
448,192,5043,1,8,0:0:0:0:
64,192,5121,128,2,5276:0:0:0:0:
192,192,5121,1,0,0:0:0:30:Hat Open.wav
320,192,5276,128,2,5431:0:0:0:0:
64,192,5431,1,8,0:0:0:0:
448,192,5431,1,0,0:0:0:30:Hat Open.wav
192,192,5587,1,0,0:0:0:0:
320,192,5665,1,8,0:0:0:0:
192,192,5742,1,2,0:0:0:0:
448,192,5742,1,0,0:0:0:30:Hat Open.wav
64,192,5898,1,2,0:0:0:0:
320,192,5898,128,0,6053:0:0:0:0:
192,192,6053,1,0,0:0:0:30:Hat Open.wav
320,192,6209,1,8,0:0:0:0:
448,192,6209,128,0,6364:0:0:0:0:
64,192,6364,1,0,0:0:0:30:Hat Open.wav
192,192,6520,128,2,6675:0:0:0:0:
448,192,6520,1,0,0:0:0:0:
64,192,6675,1,8,0:0:0:0:
320,192,6675,1,0,0:0:0:30:Hat Open.wav
192,192,6830,1,0,0:0:0:0:
320,192,6986,1,2,0:0:0:0:
448,192,6986,1,0,0:0:0:30:Hat Open.wav
64,192,7141,1,8,0:0:0:0:
192,192,7141,1,0,0:0:0:0:
320,192,7219,1,8,0:0:0:0:
64,192,7297,1,2,0:0:0:0:
448,192,7297,1,0,0:0:0:0:
192,192,7374,1,8,0:0:0:0:
320,192,7452,1,8,0:0:0:0:
448,192,7530,1,8,0:0:0:0:
64,192,7608,128,2,7763:0:0:0:0:
192,192,7608,1,4,0:0:0:0:
320,192,7763,128,2,7918:0:0:0:0:
64,192,7918,1,8,0:0:0:0:
448,192,7918,1,0,0:0:0:30:Hat Open.wav
192,192,8074,1,0,0:0:0:0:
320,192,8152,1,8,0:0:0:0:
192,192,8229,1,2,0:0:0:0:
448,192,8229,1,0,0:0:0:30:Hat Open.wav
64,192,8385,1,2,0:0:0:0:
320,192,8385,128,0,8540:0:0:0:0:
192,192,8540,128,0,8696:0:0:0:30:Hat Open.wav
320,192,8696,1,8,0:0:0:0:
448,192,8696,128,0,8851:0:0:0:0:
64,192,8851,1,0,0:0:0:30:Hat Open.wav
192,192,9007,128,2,9162:0:0:0:0:
448,192,9007,1,0,0:0:0:0:
64,192,9162,1,8,0:0:0:0:
320,192,9162,1,0,0:0:0:30:Hat Open.wav
192,192,9317,1,0,0:0:0:0:
320,192,9473,1,2,0:0:0:0:
448,192,9473,1,0,0:0:0:30:Hat Open.wav
64,192,9628,1,2,0:0:0:0:
192,192,9628,1,0,0:0:0:0:
64,192,9784,1,8,0:0:0:0:
448,192,9784,1,0,0:0:0:0:
320,192,9861,1,8,0:0:0:0:
192,192,9939,1,8,0:0:0:0:
64,192,10017,1,8,0:0:0:0:
320,192,10095,1,2,0:0:0:0:
448,192,10095,1,4,0:0:0:0:
448,192,10250,1,0,0:0:0:0:
64,192,10406,1,8,0:0:0:0:
192,192,10406,1,0,0:0:0:30:Hat Open.wav
320,192,10561,1,2,0:0:0:0:
448,192,10561,1,0,0:0:0:0:
64,192,10716,1,8,0:0:0:0:
448,192,10716,1,0,0:0:0:30:Hat Open.wav
192,192,10872,1,2,0:0:0:0:
320,192,10872,1,0,0:0:0:0:
320,192,11027,1,8,0:0:0:0:
448,192,11027,1,0,0:0:0:30:Hat Open.wav
64,192,11183,1,2,0:0:0:0:
192,192,11183,1,0,0:0:0:0:
64,192,11338,1,8,0:0:0:0:
448,192,11338,1,0,0:0:0:30:Hat Open.wav
192,192,11494,1,2,0:0:0:0:
320,192,11494,1,0,0:0:0:0:
64,192,11649,1,8,0:0:0:0:
192,192,11649,1,0,0:0:0:30:Hat Open.wav
320,192,11804,1,2,0:0:0:0:
448,192,11804,1,0,0:0:0:0:
64,192,11960,1,8,0:0:0:0:
448,192,11960,1,0,0:0:0:30:Hat Open.wav
192,192,12115,1,2,0:0:0:0:
320,192,12115,1,0,0:0:0:0:
320,192,12271,1,8,0:0:0:0:
448,192,12271,1,0,0:0:0:30:Hat Open.wav
64,192,12426,1,8,0:0:0:0:
192,192,12426,1,0,0:0:0:30:Hat Open.wav
320,192,12582,128,0,12815:0:0:0:30:Hat Open.wav
64,192,12815,1,0,0:0:0:0:
192,192,12893,1,0,0:0:0:0:
448,192,13126,1,0,0:0:0:0:
320,192,13203,128,0,13359:0:0:0:0:
192,192,13359,128,0,13514:0:0:0:0:
64,192,13514,1,0,0:0:0:0:
320,192,13670,128,0,13825:0:0:0:0:
448,192,13825,1,0,0:0:0:0:
192,192,13981,128,0,14136:0:0:0:0:
320,192,14136,128,0,14292:0:0:0:0:
64,192,14292,128,0,14525:0:0:0:0:
192,192,14525,1,0,0:0:0:0:
448,192,14602,1,0,0:0:0:0:
448,192,14758,128,0,14991:0:0:0:0:
64,192,15069,1,2,0:0:0:0:
192,192,15069,1,0,0:0:0:0:
320,192,15224,1,0,0:0:0:40:Tom2.wav
64,192,15380,1,2,0:0:0:0:
448,192,15380,1,0,0:0:0:0:
192,192,15535,1,0,0:0:0:40:Tom2.wav
320,192,15690,1,2,0:0:0:0:
448,192,15690,1,0,0:0:0:0:
192,192,15846,1,0,0:0:0:40:Tom2.wav
64,192,16001,1,2,0:0:0:0:
448,192,16001,1,0,0:0:0:0:
320,192,16157,1,0,0:0:0:40:Tom2.wav
64,192,16312,1,2,0:0:0:0:
192,192,16312,1,0,0:0:0:0:
320,192,16468,1,0,0:0:0:40:Tom2.wav
192,192,16623,1,2,0:0:0:0:
448,192,16623,1,0,0:0:0:0:
64,192,16779,1,0,0:0:0:40:Tom2.wav
320,192,16934,1,2,0:0:0:0:
448,192,16934,1,0,0:0:0:0:
192,192,17089,1,0,0:0:0:40:Tom2.wav
64,192,17245,1,2,0:0:0:0:
320,192,17245,1,0,0:0:0:0:
448,192,17400,1,0,0:0:0:40:Tom2.wav
64,192,17556,1,2,0:0:0:0:
192,192,17556,1,0,0:0:0:0:
448,192,17711,1,0,0:0:0:40:Tom2.wav
192,192,17867,1,2,0:0:0:0:
320,192,17867,1,0,0:0:0:0:
64,192,18022,1,0,0:0:0:40:Tom2.wav
320,192,18178,1,2,0:0:0:0:
448,192,18178,1,0,0:0:0:0:
64,192,18333,1,0,0:0:0:40:Tom2.wav
192,192,18488,1,2,0:0:0:0:
320,192,18488,1,0,0:0:0:0:
448,192,18644,1,0,0:0:0:40:Tom2.wav
64,192,18799,1,2,0:0:0:0:
192,192,18799,1,0,0:0:0:0:
448,192,18955,1,0,0:0:0:40:Tom2.wav
64,192,19110,1,2,0:0:0:0:
320,192,19110,1,0,0:0:0:0:
192,192,19266,1,0,0:0:0:40:Tom2.wav
320,192,19421,1,2,0:0:0:0:
448,192,19421,1,0,0:0:0:0:
64,192,19577,1,0,0:0:0:40:Tom2.wav
192,192,19732,1,2,0:0:0:0:
448,192,19732,1,0,0:0:0:0:
320,192,19887,1,0,0:0:0:40:Tom2.wav
64,192,20043,1,2,0:0:0:0:
192,192,20043,1,0,0:0:0:0:
320,192,20198,1,0,0:0:0:40:Tom2.wav
64,192,20354,1,2,0:0:0:0:
448,192,20354,1,0,0:0:0:0:
192,192,20509,1,0,0:0:0:40:Tom2.wav
320,192,20665,1,2,0:0:0:0:
448,192,20665,1,0,0:0:0:0:
192,192,20820,1,0,0:0:0:40:Tom2.wav
64,192,20975,1,2,0:0:0:0:
448,192,20975,1,0,0:0:0:0:
320,192,21131,1,0,0:0:0:40:Tom2.wav
64,192,21286,1,2,0:0:0:0:
192,192,21286,1,0,0:0:0:0:
320,192,21442,1,0,0:0:0:40:Tom2.wav
192,192,21597,1,2,0:0:0:0:
448,192,21597,1,0,0:0:0:0:
64,192,21753,1,0,0:0:0:40:Tom2.wav
320,192,21908,1,2,0:0:0:0:
448,192,21908,1,0,0:0:0:0:
192,192,22064,1,0,0:0:0:40:Tom2.wav
64,192,22219,1,2,0:0:0:0:
320,192,22219,1,0,0:0:0:0:
448,192,22374,1,0,0:0:0:40:Tom2.wav
64,192,22530,1,2,0:0:0:0:
192,192,22530,1,0,0:0:0:0:
448,192,22685,1,0,0:0:0:40:Tom2.wav
192,192,22841,1,2,0:0:0:0:
320,192,22841,1,0,0:0:0:0:
64,192,22996,1,0,0:0:0:40:Tom2.wav
320,192,23152,1,2,0:0:0:0:
448,192,23152,1,0,0:0:0:0:
64,192,23307,1,0,0:0:0:40:Tom2.wav
192,192,23463,1,2,0:0:0:0:
320,192,23463,1,0,0:0:0:0:
448,192,23618,1,0,0:0:0:40:Tom2.wav
64,192,23773,1,2,0:0:0:0:
192,192,23773,1,0,0:0:0:0:
448,192,23929,1,0,0:0:0:40:Tom2.wav
64,192,24084,1,2,0:0:0:0:
320,192,24084,1,0,0:0:0:0:
192,192,24240,1,0,0:0:0:40:Tom2.wav
320,192,24395,1,2,0:0:0:0:
448,192,24395,1,0,0:0:0:0:
64,192,24551,1,8,0:0:0:0:
448,192,24551,1,0,0:0:0:30:Hat Open.wav
320,192,24861,1,8,0:0:0:0:
192,192,24939,1,8,0:0:0:0:
64,192,25017,1,4,0:0:0:0:
448,192,25017,128,2,25328:0:0:0:0:
320,192,25172,1,0,0:0:0:30:Hat Open.wav
64,192,25328,128,8,25483:0:0:0:0:
192,192,25328,1,0,0:0:0:0:
320,192,25483,128,0,25639:0:0:0:30:Hat Open.wav
192,192,25639,1,2,0:0:0:0:
448,192,25639,128,0,25794:0:0:0:0:
64,192,25794,128,0,25950:0:0:0:30:Hat Open.wav
320,192,25950,128,8,26105:0:0:0:0:
448,192,25950,1,0,0:0:0:0:
192,192,26105,128,0,26260:0:0:0:30:Hat Open.wav
64,192,26260,128,2,26571:0:0:0:0:
448,192,26260,1,0,0:0:0:0:
320,192,26416,1,0,0:0:0:30:Hat Open.wav
192,192,26571,1,8,0:0:0:0:
448,192,26571,128,0,26882:0:0:0:0:
64,192,26727,1,0,0:0:0:30:Hat Open.wav
192,192,26882,128,2,27193:0:0:0:0:
320,192,26882,1,0,0:0:0:0:
448,192,27038,1,0,0:0:0:30:Hat Open.wav
64,192,27193,1,8,0:0:0:0:
320,192,27193,128,0,27504:0:0:0:0:
448,192,27349,1,0,0:0:0:30:Hat Open.wav
64,192,27504,128,2,27815:0:0:0:0:
192,192,27504,1,0,0:0:0:0:
320,192,27659,1,0,0:0:0:30:Hat Open.wav
192,192,27815,1,8,0:0:0:0:
448,192,27815,1,0,0:0:0:0:
320,192,27970,128,0,28126:0:0:0:30:Hat Open.wav
64,192,28126,128,2,28281:0:0:0:0:
448,192,28126,1,0,0:0:0:0:
192,192,28281,1,0,0:0:0:30:Hat Open.wav
64,192,28437,1,8,0:0:0:0:
320,192,28437,1,0,0:0:0:0:
448,192,28592,128,0,28747:0:0:0:30:Hat Open.wav
64,192,28747,1,2,0:0:0:0:
192,192,28747,128,0,28903:0:0:0:0:
320,192,28903,1,0,0:0:0:30:Hat Open.wav
192,192,29058,1,8,0:0:0:0:
448,192,29058,1,0,0:0:0:0:
64,192,29214,128,0,29369:0:0:0:30:Hat Open.wav
320,192,29369,1,2,0:0:0:0:
448,192,29369,128,0,29680:0:0:0:0:
192,192,29525,1,0,0:0:0:30:Hat Open.wav
64,192,29680,1,8,0:0:0:0:
320,192,29680,1,0,0:0:0:0:
192,192,29836,128,0,29991:0:0:0:30:Hat Open.wav
64,192,29991,1,2,0:0:0:0:
448,192,29991,128,0,30302:0:0:0:0:
320,192,30146,1,0,0:0:0:30:Hat Open.wav
64,192,30302,1,8,0:0:0:0:
192,192,30302,1,0,0:0:0:0:
320,192,30457,1,0,0:0:0:30:Hat Open.wav
64,192,30613,1,2,0:0:0:0:
448,192,30613,1,0,0:0:0:0:
192,192,30768,1,0,0:0:0:30:Hat Open.wav
320,192,30924,128,8,31235:0:0:0:0:
448,192,30924,1,0,0:0:0:0:
192,192,31079,1,0,0:0:0:30:Hat Open.wav
64,192,31235,128,2,31545:0:0:0:0:
448,192,31235,1,0,0:0:0:0:
320,192,31390,1,0,0:0:0:30:Hat Open.wav
192,192,31545,1,8,0:0:0:0:
448,192,31545,128,0,31856:0:0:0:0:
64,192,31701,1,0,0:0:0:30:Hat Open.wav
192,192,31856,128,2,32167:0:0:0:0:
320,192,31856,1,0,0:0:0:0:
448,192,32012,1,0,0:0:0:30:Hat Open.wav
64,192,32167,1,8,0:0:0:0:
320,192,32167,128,0,32478:0:0:0:0:
192,192,32323,1,0,0:0:0:30:Hat Open.wav
64,192,32478,128,2,32789:0:0:0:0:
448,192,32478,1,0,0:0:0:0:
192,192,32634,1,0,0:0:0:30:Hat Open.wav
320,192,32789,1,8,0:0:0:0:
448,192,32789,128,0,33100:0:0:0:0:
192,192,32944,1,0,0:0:0:30:Hat Open.wav
64,192,33100,1,2,0:0:0:0:
320,192,33100,128,0,33411:0:0:0:0:
448,192,33255,1,0,0:0:0:30:Hat Open.wav
64,192,33411,1,8,0:0:0:0:
192,192,33411,128,0,33722:0:0:0:0:
320,192,33566,1,0,0:0:0:30:Hat Open.wav
64,192,33722,1,2,0:0:0:0:
448,192,33722,128,0,34032:0:0:0:0:
192,192,33877,1,0,0:0:0:30:Hat Open.wav
64,192,34032,1,8,0:0:0:0:
320,192,34032,1,0,0:0:0:0:
192,192,34188,128,0,34343:0:0:0:30:Hat Open.wav
320,192,34343,1,2,0:0:0:0:
448,192,34343,128,0,34499:0:0:0:0:
64,192,34499,1,8,0:0:0:0:
192,192,34499,1,0,0:0:0:30:Hat Open.wav
320,192,34654,1,4,0:0:0:0:
448,192,34654,1,8,0:0:0:0:
64,192,34965,128,0,35431:0:0:0:0:
320,192,35276,1,0,0:0:0:0:
192,192,35431,128,0,35587:0:0:0:0:
448,192,35587,128,0,35898:0:0:0:0:
64,192,35898,1,0,0:0:0:0:
448,192,36053,128,0,36209:0:0:0:0:
192,192,36209,128,0,36675:0:0:0:0:
448,192,36520,1,0,0:0:0:0:
320,192,36675,128,0,36830:0:0:0:0:
64,192,36830,128,0,37141:0:0:0:0:
320,192,37141,1,0,0:0:0:0:
64,192,37297,128,0,37452:0:0:0:0:
448,192,37452,128,0,37763:0:0:0:0:
192,192,37763,128,0,38074:0:0:0:0:
320,192,38074,128,0,38385:0:0:0:0:
64,192,38385,128,0,38696:0:0:0:0:
448,192,38696,128,0,39162:0:0:0:0:
320,192,39007,1,0,0:0:0:0:
192,192,39162,128,0,39317:0:0:0:0:
64,192,39317,128,0,39628:0:0:0:0:
448,192,39628,1,0,0:0:0:0:
64,192,39784,128,0,39939:0:0:0:0:
320,192,39939,128,0,40406:0:0:0:0:
64,192,40250,1,0,0:0:0:0:
192,192,40406,128,0,40561:0:0:0:0:
448,192,40561,128,0,40872:0:0:0:0:
64,192,40872,1,0,0:0:0:0:
448,192,41027,128,0,41183:0:0:0:0:
192,192,41183,128,0,41649:0:0:0:0:
448,192,41494,1,0,0:0:0:0:
320,192,41649,128,0,41804:0:0:0:0:
64,192,41804,128,0,42115:0:0:0:0:
320,192,42115,1,0,0:0:0:0:
64,192,42271,128,0,42426:0:0:0:0:
448,192,42426,128,0,42737:0:0:0:0:
192,192,42737,128,0,43048:0:0:0:0:
320,192,43048,128,0,43359:0:0:0:0:
64,192,43359,128,0,43670:0:0:0:0:
192,192,43670,128,0,43981:0:0:0:0:
320,192,43981,128,0,44292:0:0:0:0:
448,192,44292,128,0,44602:0:0:0:0:
64,192,44602,1,0,0:0:0:0:
448,192,44758,128,0,44913:0:0:0:0:
64,192,44913,1,4,0:0:0:0:
192,192,44913,128,2,45069:0:0:0:0:
320,192,45069,1,0,0:0:0:0:
64,192,45224,1,2,0:0:0:0:
448,192,45224,1,0,0:0:0:0:
192,192,45380,128,0,45535:0:0:0:40:Tom2.wav
320,192,45535,1,2,0:0:0:0:
448,192,45535,128,0,45690:0:0:0:0:
192,192,45690,1,0,0:0:0:40:Tom2.wav
64,192,45846,1,2,0:0:0:0:
448,192,45846,1,0,0:0:0:0:
320,192,46001,128,0,46157:0:0:0:40:Tom2.wav
64,192,46157,128,2,46312:0:0:0:0:
192,192,46157,1,0,0:0:0:0:
320,192,46312,1,0,0:0:0:40:Tom2.wav
192,192,46468,1,2,0:0:0:0:
448,192,46468,1,0,0:0:0:0:
64,192,46623,128,0,46779:0:0:0:40:Tom2.wav
320,192,46779,128,2,46934:0:0:0:0:
448,192,46779,1,0,0:0:0:0:
192,192,46934,1,0,0:0:0:40:Tom2.wav
64,192,47089,1,2,0:0:0:0:
320,192,47089,1,0,0:0:0:0:
448,192,47245,128,0,47400:0:0:0:40:Tom2.wav
64,192,47400,128,2,47556:0:0:0:0:
192,192,47400,1,0,0:0:0:0:
448,192,47556,1,0,0:0:0:40:Tom2.wav
192,192,47711,128,2,47867:0:0:0:0:
320,192,47711,1,0,0:0:0:0:
64,192,47867,1,0,0:0:0:40:Tom2.wav
320,192,48022,1,2,0:0:0:0:
448,192,48022,128,0,48178:0:0:0:0:
64,192,48178,1,0,0:0:0:40:Tom2.wav
192,192,48333,1,2,0:0:0:0:
320,192,48333,128,0,48488:0:0:0:0:
448,192,48488,1,0,0:0:0:40:Tom2.wav
64,192,48644,128,2,48799:0:0:0:0:
192,192,48644,1,0,0:0:0:0:
448,192,48799,1,0,0:0:0:40:Tom2.wav
64,192,48955,1,2,0:0:0:0:
320,192,48955,128,0,49110:0:0:0:0:
192,192,49110,1,0,0:0:0:40:Tom2.wav
320,192,49266,1,2,0:0:0:0:
448,192,49266,128,0,49421:0:0:0:0:
64,192,49421,1,0,0:0:0:40:Tom2.wav
192,192,49577,128,2,49732:0:0:0:0:
448,192,49577,1,0,0:0:0:0:
320,192,49732,1,0,0:0:0:40:Tom2.wav
64,192,49887,128,2,50043:0:0:0:0:
192,192,49887,1,0,0:0:0:0:
320,192,50043,1,0,0:0:0:40:Tom2.wav
64,192,50198,1,2,0:0:0:0:
448,192,50198,1,0,0:0:0:0:
192,192,50354,1,0,0:0:0:40:Tom2.wav
320,192,50509,1,2,0:0:0:0:
448,192,50509,1,0,0:0:0:0:
192,192,50665,1,0,0:0:0:40:Tom2.wav
64,192,50820,1,2,0:0:0:0:
448,192,50820,128,0,51131:0:0:0:0:
320,192,50975,1,0,0:0:0:40:Tom2.wav
64,192,51131,1,2,0:0:0:0:
192,192,51131,1,0,0:0:0:0:
320,192,51286,128,0,51442:0:0:0:40:Tom2.wav
192,192,51442,128,2,51753:0:0:0:0:
448,192,51442,1,0,0:0:0:0:
64,192,51597,1,0,0:0:0:40:Tom2.wav
320,192,51753,1,2,0:0:0:0:
448,192,51753,1,0,0:0:0:0:
192,192,51908,1,0,0:0:0:40:Tom2.wav
64,192,52064,1,2,0:0:0:0:
320,192,52064,1,0,0:0:0:0:
192,192,52219,1,0,0:0:0:40:Tom2.wav
448,192,52219,1,0,0:0:0:0:
64,192,52374,1,2,0:0:0:0:
192,192,52374,1,0,0:0:0:0:
320,192,52530,1,8,0:0:0:0:
448,192,52530,1,0,0:0:0:0:
64,192,52608,1,8,0:0:0:0:
192,192,52685,1,8,0:0:0:0:
320,192,52763,1,8,0:0:0:0:
64,192,52841,1,8,0:0:0:0:
448,192,52841,1,0,0:0:0:0:
64,192,52996,1,8,0:0:0:0:
192,192,52996,1,0,0:0:0:0:
448,192,53074,1,8,0:0:0:0:
320,192,53152,1,8,0:0:0:0:
192,192,53229,1,8,0:0:0:0:
64,192,53307,1,8,0:0:0:0:
448,192,53307,1,0,0:0:0:40:Tom2.wav
320,192,53463,1,8,0:0:0:0:
192,192,53540,1,8,0:0:0:0:
64,192,53618,1,0,0:0:0:40:Tom1.wav
320,192,53618,1,0,0:0:0:0:
192,192,53773,1,8,0:0:0:0:
320,192,53851,1,8,0:0:0:0:
64,192,53929,1,8,0:0:0:0:
448,192,53929,1,2,0:0:0:0:
192,192,54007,1,8,0:0:0:0:
320,192,54084,1,8,0:0:0:0:
192,192,54240,1,8,0:0:0:0:
448,192,54240,1,2,0:0:0:0:
320,192,54395,1,8,0:0:0:0:
192,192,54473,1,8,0:0:0:0:
64,192,54551,1,8,0:0:0:0:
448,192,54551,1,0,0:0:0:0:
320,192,54628,1,8,0:0:0:0:
64,192,54706,1,8,0:0:0:0:
192,192,54784,1,8,0:0:0:0:
320,192,54861,1,0,0:0:0:0:
64,192,55172,1,2,0:0:0:0:
192,192,55172,1,0,0:0:0:0:
64,192,55483,1,2,0:0:0:0:
192,192,55483,1,0,0:0:0:0:
64,192,55794,1,2,0:0:0:0:
192,192,55794,1,0,0:0:0:0:
320,192,56105,1,2,0:0:0:0:
448,192,56105,128,4,56260:0:0:0:0:
192,192,56260,128,0,56416:0:0:0:0:
64,192,56416,1,8,0:0:0:0:
448,192,56416,128,0,56571:0:0:0:30:Hat Open.wav
320,192,56571,1,0,0:0:0:0:
64,192,56727,128,2,56882:0:0:0:0:
192,192,56727,1,0,0:0:0:30:Hat Open.wav
320,192,56882,128,2,57038:0:0:0:0:
448,192,56882,1,0,0:0:0:0:
64,192,57038,128,8,57193:0:0:0:0:
192,192,57038,1,0,0:0:0:30:Hat Open.wav
320,192,57193,1,0,0:0:0:0:
64,192,57349,128,2,57659:0:0:0:0:
448,192,57349,1,0,0:0:0:30:Hat Open.wav
192,192,57504,1,0,0:0:0:0:
320,192,57659,1,8,0:0:0:0:
448,192,57659,1,0,0:0:0:30:Hat Open.wav
192,192,57815,1,0,0:0:0:0:
320,192,57893,1,8,0:0:0:0:
64,192,57970,1,2,0:0:0:0:
448,192,57970,128,0,58281:0:0:0:30:Hat Open.wav
192,192,58126,1,2,0:0:0:0:
64,192,58281,1,8,0:0:0:0:
320,192,58281,1,0,0:0:0:30:Hat Open.wav
192,192,58437,1,0,0:0:0:0:
64,192,58592,1,2,0:0:0:0:
448,192,58592,128,0,58903:0:0:0:30:Hat Open.wav
320,192,58747,1,0,0:0:0:0:
64,192,58903,1,8,0:0:0:0:
192,192,58903,1,0,0:0:0:30:Hat Open.wav
320,192,59058,1,0,0:0:0:0:
192,192,59136,1,8,0:0:0:0:
64,192,59214,128,2,59525:0:0:0:0:
448,192,59214,1,0,0:0:0:30:Hat Open.wav
320,192,59369,1,2,0:0:0:0:
192,192,59525,1,8,0:0:0:0:
448,192,59525,1,0,0:0:0:30:Hat Open.wav
320,192,59680,1,0,0:0:0:0:
64,192,59836,1,2,0:0:0:0:
448,192,59836,128,0,60146:0:0:0:30:Hat Open.wav
192,192,59991,1,0,0:0:0:0:
64,192,60146,1,8,0:0:0:0:
320,192,60146,1,0,0:0:0:30:Hat Open.wav
192,192,60302,128,0,60457:0:0:0:0:
320,192,60457,1,2,0:0:0:0:
448,192,60457,128,0,60613:0:0:0:30:Hat Open.wav
64,192,60613,1,2,0:0:0:0:
192,192,60613,128,0,60768:0:0:0:0:
320,192,60768,128,8,60924:0:0:0:0:
448,192,60768,1,0,0:0:0:30:Hat Open.wav
64,192,60924,128,2,61079:0:0:0:0:
192,192,60924,1,0,0:0:0:0:
320,192,61079,128,2,61235:0:0:0:0:
448,192,61079,1,4,0:0:0:0:
64,192,61235,128,0,61390:0:0:0:0:
192,192,61390,1,8,0:0:0:0:
320,192,61390,1,0,0:0:0:30:Hat Open.wav
448,192,61545,128,0,61701:0:0:0:0:
64,192,61701,1,2,0:0:0:0:
192,192,61701,128,0,61856:0:0:0:30:Hat Open.wav
320,192,61856,1,2,0:0:0:0:
448,192,61856,128,0,62012:0:0:0:0:
64,192,62012,1,8,0:0:0:0:
192,192,62012,1,0,0:0:0:30:Hat Open.wav
320,192,62167,128,0,62323:0:0:0:0:
64,192,62323,128,2,62478:0:0:0:0:
448,192,62323,1,0,0:0:0:30:Hat Open.wav
192,192,62478,128,0,62633:0:0:0:0:
320,192,62633,1,8,0:0:0:0:
448,192,62633,1,0,0:0:0:30:Hat Open.wav
192,192,62789,128,0,62944:0:0:0:0:
64,192,62944,1,2,0:0:0:0:
448,192,62944,128,0,63100:0:0:0:30:Hat Open.wav
192,192,63100,1,2,0:0:0:0:
320,192,63100,128,0,63255:0:0:0:0:
64,192,63255,128,8,63411:0:0:0:0:
448,192,63255,1,0,0:0:0:30:Hat Open.wav
192,192,63411,1,0,0:0:0:0:
320,192,63566,1,2,0:0:0:0:
448,192,63566,1,0,0:0:0:30:Hat Open.wav
64,192,63722,1,8,0:0:0:0:
192,192,63722,1,0,0:0:0:0:
448,192,63799,1,8,0:0:0:0:
320,192,63877,1,8,0:0:0:0:
192,192,63955,1,8,0:0:0:0:
64,192,64032,1,2,0:0:0:0:
448,192,64032,1,0,0:0:0:30:Hat Open.wav
320,192,64188,1,8,0:0:0:0:
448,192,64188,1,0,0:0:0:0:
64,192,64266,1,8,0:0:0:0:
192,192,64343,1,8,0:0:0:0:
320,192,64421,1,8,0:0:0:0:
64,192,64499,1,2,0:0:0:0:
448,192,64499,1,0,0:0:0:30:Hat Open.wav
192,192,64654,1,8,0:0:0:0:
320,192,64732,1,8,0:0:0:0:
192,192,64810,1,2,0:0:0:0:
448,192,64810,1,0,0:0:0:30:Hat Open.wav
320,192,64965,1,8,0:0:0:0:
192,192,65043,1,8,0:0:0:0:
64,192,65121,1,8,0:0:0:0:
320,192,65121,1,2,0:0:0:0:
448,192,65198,1,8,0:0:0:0:
192,192,65276,1,8,0:0:0:0:
320,192,65354,1,8,0:0:0:0:
64,192,65431,1,0,0:0:0:40:Tom1.wav
192,192,65509,1,8,0:0:0:0:
448,192,65587,1,8,0:0:0:0:
320,192,65665,1,8,0:0:0:0:
192,192,65742,1,8,0:0:0:0:
64,192,65820,1,8,0:0:0:0:
320,192,65898,1,8,0:0:0:0:
448,192,65975,1,8,0:0:0:0:
64,192,66053,128,2,66209:0:0:0:0:
192,192,66053,1,4,0:0:0:0:
320,192,66209,128,0,66364:0:0:0:0:
64,192,66364,128,8,66520:0:0:0:0:
448,192,66364,1,0,0:0:0:30:Hat Open.wav
192,192,66520,1,0,0:0:0:0:
320,192,66675,1,2,0:0:0:0:
448,192,66675,128,0,66830:0:0:0:30:Hat Open.wav
64,192,66830,1,2,0:0:0:0:
192,192,66830,128,0,66986:0:0:0:0:
320,192,66986,1,8,0:0:0:0:
448,192,66986,128,0,67141:0:0:0:30:Hat Open.wav
192,192,67141,1,0,0:0:0:0:
64,192,67297,1,2,0:0:0:0:
448,192,67297,128,0,67608:0:0:0:30:Hat Open.wav
320,192,67452,1,0,0:0:0:0:
64,192,67608,1,8,0:0:0:0:
192,192,67608,1,0,0:0:0:30:Hat Open.wav
320,192,67763,1,0,0:0:0:0:
64,192,67918,128,2,68229:0:0:0:0:
448,192,67918,1,0,0:0:0:30:Hat Open.wav
192,192,68074,1,2,0:0:0:0:
320,192,68229,1,8,0:0:0:0:
448,192,68229,1,0,0:0:0:30:Hat Open.wav
192,192,68385,1,0,0:0:0:0:
64,192,68540,128,2,68851:0:0:0:0:
448,192,68540,1,4,0:0:0:0:
192,192,68696,1,2,0:0:0:0:
320,192,68851,1,8,0:0:0:0:
448,192,68851,1,0,0:0:0:0:
64,192,69007,1,2,0:0:0:0:
192,192,69007,1,4,0:0:0:0:
448,192,69162,128,0,69473:0:0:0:0:
320,192,69317,1,2,0:0:0:0:
64,192,69473,1,8,0:0:0:0:
192,192,69473,1,0,0:0:0:0:
320,192,69628,1,2,0:0:0:0:
448,192,69628,1,4,0:0:0:0:
64,192,69784,128,0,70095:0:0:0:0:
192,192,69939,1,2,0:0:0:0:
320,192,70095,1,8,0:0:0:0:
448,192,70095,1,0,0:0:0:30:Hat Open.wav
192,192,70250,1,0,0:0:0:0:
320,192,70328,1,8,0:0:0:0:
64,192,70406,1,2,0:0:0:0:
448,192,70406,1,0,0:0:0:0:
192,192,70483,1,8,0:0:0:0:
320,192,70561,1,8,0:0:0:0:
448,192,70639,1,8,0:0:0:0:
64,192,70716,1,2,0:0:0:0:
192,192,70716,1,0,0:0:0:0:
448,192,70794,1,8,0:0:0:0:
320,192,70872,1,8,0:0:0:0:
192,192,70950,1,8,0:0:0:0:
64,192,71027,1,2,0:0:0:0:
448,192,71027,128,4,71338:0:0:0:0:
64,192,71338,1,8,0:0:0:0:
192,192,71338,1,0,0:0:0:30:Hat Open.wav
320,192,71494,1,2,0:0:0:0:
448,192,71494,1,0,0:0:0:0:
64,192,71649,1,8,0:0:0:0:
448,192,71649,1,0,0:0:0:30:Hat Open.wav
192,192,71804,1,2,0:0:0:0:
320,192,71804,1,0,0:0:0:0:
320,192,71960,1,8,0:0:0:0:
448,192,71960,1,0,0:0:0:30:Hat Open.wav
64,192,72115,1,2,0:0:0:0:
192,192,72115,1,0,0:0:0:0:
64,192,72271,1,8,0:0:0:0:
448,192,72271,1,0,0:0:0:30:Hat Open.wav
192,192,72426,1,2,0:0:0:0:
320,192,72426,1,0,0:0:0:0:
64,192,72582,1,8,0:0:0:0:
192,192,72582,1,0,0:0:0:30:Hat Open.wav
320,192,72737,1,2,0:0:0:0:
448,192,72737,1,0,0:0:0:0:
64,192,72893,1,8,0:0:0:0:
448,192,72893,1,0,0:0:0:30:Hat Open.wav
192,192,73048,1,2,0:0:0:0:
320,192,73048,1,0,0:0:0:0:
320,192,73203,1,8,0:0:0:0:
448,192,73203,1,0,0:0:0:30:Hat Open.wav
64,192,73359,1,2,0:0:0:0:
192,192,73359,1,0,0:0:0:0:
320,192,73514,1,8,0:0:0:0:
448,192,73514,1,4,0:0:0:0:
64,192,73670,1,2,0:0:0:0:
192,192,73670,1,0,0:0:0:0:
64,192,73825,1,8,0:0:0:0:
448,192,73825,1,0,0:0:0:30:Hat Open.wav
192,192,73981,1,2,0:0:0:0:
320,192,73981,1,0,0:0:0:0:
64,192,74136,1,8,0:0:0:0:
192,192,74136,1,0,0:0:0:30:Hat Open.wav
320,192,74292,1,2,0:0:0:0:
448,192,74292,1,0,0:0:0:0:
64,192,74447,1,8,0:0:0:0:
448,192,74447,1,0,0:0:0:30:Hat Open.wav
192,192,74602,1,2,0:0:0:0:
320,192,74602,1,0,0:0:0:0:
320,192,74758,1,8,0:0:0:0:
448,192,74758,1,0,0:0:0:30:Hat Open.wav
64,192,74913,1,2,0:0:0:0:
192,192,74913,1,0,0:0:0:0:
64,192,75069,1,8,0:0:0:0:
448,192,75069,1,0,0:0:0:30:Hat Open.wav
192,192,75224,1,2,0:0:0:0:
320,192,75224,1,0,0:0:0:0:
64,192,75380,1,8,0:0:0:0:
192,192,75380,1,0,0:0:0:30:Hat Open.wav
320,192,75535,1,2,0:0:0:0:
448,192,75535,1,0,0:0:0:0:
64,192,75690,1,8,0:0:0:0:
192,192,75690,1,0,0:0:0:30:Hat Open.wav
64,192,75846,1,2,0:0:0:0:
448,192,75846,1,0,0:0:0:0:
320,192,76001,1,4,0:0:0:0:
448,192,76001,128,8,76312:0:0:0:0:
64,192,76312,1,8,0:0:0:0:
192,192,76312,1,0,0:0:0:0:
64,192,76468,1,8,0:0:0:0:
192,192,76468,1,0,0:0:0:0:
320,192,76623,1,8,0:0:0:0:
448,192,76623,1,0,0:0:0:0:
320,192,76779,1,8,0:0:0:0:
448,192,76779,1,0,0:0:0:0:
64,192,76934,1,8,0:0:0:0:
192,192,76934,1,0,0:0:0:0:
64,192,77089,1,8,0:0:0:0:
192,192,77089,1,0,0:0:0:0:
320,192,77245,1,8,0:0:0:0:
448,192,77245,1,0,0:0:0:0:
64,192,77400,1,2,0:0:0:0:
192,192,77400,1,0,0:0:0:0:
64,192,77867,1,8,0:0:0:0:
192,192,77867,1,0,0:0:0:0:
320,192,78022,1,2,0:0:0:0:
448,192,78022,1,0,0:0:0:0:
64,192,78488,128,2,78644:0:0:0:0:
192,192,78488,1,4,0:0:0:0:
320,192,78644,128,2,78799:0:0:0:0:
64,192,78799,1,8,0:0:0:0:
448,192,78799,1,0,0:0:0:30:Hat Open.wav
192,192,78955,1,0,0:0:0:0:
320,192,79032,1,8,0:0:0:0:
192,192,79110,1,2,0:0:0:0:
448,192,79110,1,0,0:0:0:30:Hat Open.wav
64,192,79266,1,2,0:0:0:0:
320,192,79266,128,0,79421:0:0:0:0:
192,192,79421,128,0,79577:0:0:0:30:Hat Open.wav
320,192,79577,1,8,0:0:0:0:
448,192,79577,128,0,79732:0:0:0:0:
64,192,79732,1,0,0:0:0:30:Hat Open.wav
192,192,79887,128,2,80043:0:0:0:0:
448,192,79887,1,0,0:0:0:0:
64,192,80043,1,8,0:0:0:0:
320,192,80043,1,0,0:0:0:30:Hat Open.wav
192,192,80198,1,0,0:0:0:0:
320,192,80276,1,0,0:0:0:0:
192,192,80354,1,2,0:0:0:0:
448,192,80354,1,0,0:0:0:30:Hat Open.wav
64,192,80509,1,2,0:0:0:0:
320,192,80509,1,0,0:0:0:0:
64,192,80665,1,8,0:0:0:0:
448,192,80665,1,0,0:0:0:0:
320,192,80742,1,8,0:0:0:0:
192,192,80820,1,8,0:0:0:0:
64,192,80898,1,8,0:0:0:0:
320,192,80975,1,2,0:0:0:0:
448,192,80975,128,0,81131:0:0:0:30:Hat Open.wav
192,192,81131,128,2,81286:0:0:0:0:
64,192,81286,1,8,0:0:0:0:
448,192,81286,1,0,0:0:0:30:Hat Open.wav
320,192,81442,1,0,0:0:0:0:
192,192,81520,1,8,0:0:0:0:
64,192,81597,1,2,0:0:0:0:
320,192,81597,1,0,0:0:0:30:Hat Open.wav
192,192,81753,128,2,81908:0:0:0:0:
448,192,81753,1,0,0:0:0:0:
320,192,81908,1,0,0:0:0:30:Hat Open.wav
64,192,82064,128,8,82219:0:0:0:0:
192,192,82064,1,0,0:0:0:0:
448,192,82219,1,0,0:0:0:30:Hat Open.wav
64,192,82374,1,2,0:0:0:0:
320,192,82374,128,0,82530:0:0:0:0:
192,192,82530,1,8,0:0:0:0:
448,192,82530,1,0,0:0:0:30:Hat Open.wav
320,192,82685,1,0,0:0:0:0:
64,192,82841,1,2,0:0:0:0:
192,192,82841,1,0,0:0:0:30:Hat Open.wav
320,192,82996,1,8,0:0:0:0:
448,192,82996,1,0,0:0:0:0:
192,192,83074,1,8,0:0:0:0:
64,192,83152,1,8,0:0:0:0:
448,192,83152,1,0,0:0:0:0:
320,192,83229,1,8,0:0:0:0:
192,192,83307,1,8,0:0:0:0:
64,192,83385,1,8,0:0:0:0:
320,192,83463,1,4,0:0:0:0:
448,192,83463,128,2,83618:0:0:0:0:
192,192,83618,128,2,83773:0:0:0:0:
64,192,83773,1,8,0:0:0:0:
448,192,83773,1,0,0:0:0:30:Hat Open.wav
320,192,83929,1,0,0:0:0:0:
192,192,84007,1,8,0:0:0:0:
64,192,84084,1,2,0:0:0:0:
320,192,84084,1,0,0:0:0:30:Hat Open.wav
192,192,84240,128,2,84395:0:0:0:0:
448,192,84240,1,0,0:0:0:0:
320,192,84395,128,0,84551:0:0:0:30:Hat Open.wav
64,192,84551,128,8,84706:0:0:0:0:
192,192,84551,1,0,0:0:0:0:
448,192,84706,1,0,0:0:0:30:Hat Open.wav
64,192,84861,1,2,0:0:0:0:
320,192,84861,128,0,85017:0:0:0:0:
192,192,85017,1,8,0:0:0:0:
448,192,85017,1,0,0:0:0:30:Hat Open.wav
320,192,85172,1,0,0:0:0:0:
64,192,85328,1,2,0:0:0:0:
192,192,85328,1,0,0:0:0:30:Hat Open.wav
320,192,85483,1,2,0:0:0:0:
448,192,85483,1,0,0:0:0:0:
64,192,85639,1,8,0:0:0:0:
448,192,85639,1,0,0:0:0:0:
192,192,85716,1,8,0:0:0:0:
320,192,85794,1,8,0:0:0:0:
448,192,85872,1,8,0:0:0:0:
64,192,85950,1,4,0:0:0:0:
192,192,85950,1,2,0:0:0:0:
64,192,86105,1,0,0:0:0:0:
320,192,86260,1,8,0:0:0:0:
448,192,86260,1,0,0:0:0:30:Hat Open.wav
64,192,86416,1,2,0:0:0:0:
192,192,86416,1,0,0:0:0:0:
64,192,86571,1,8,0:0:0:0:
448,192,86571,1,0,0:0:0:30:Hat Open.wav
192,192,86727,1,2,0:0:0:0:
320,192,86727,1,0,0:0:0:0:
64,192,86882,1,8,0:0:0:0:
192,192,86882,1,0,0:0:0:30:Hat Open.wav
320,192,87038,1,2,0:0:0:0:
448,192,87038,1,0,0:0:0:0:
64,192,87193,1,8,0:0:0:0:
448,192,87193,1,0,0:0:0:30:Hat Open.wav
192,192,87349,1,2,0:0:0:0:
320,192,87349,1,0,0:0:0:0:
320,192,87504,1,8,0:0:0:0:
448,192,87504,1,0,0:0:0:30:Hat Open.wav
64,192,87659,1,2,0:0:0:0:
192,192,87659,1,0,0:0:0:0:
64,192,87815,1,8,0:0:0:0:
448,192,87815,1,0,0:0:0:30:Hat Open.wav
192,192,87970,1,2,0:0:0:0:
320,192,87970,1,0,0:0:0:0:
64,192,88126,1,8,0:0:0:0:
192,192,88126,1,0,0:0:0:30:Hat Open.wav
320,192,88281,1,8,0:0:0:0:
448,192,88281,1,0,0:0:0:30:Hat Open.wav
320,192,89680,1,2,0:0:0:0:
448,192,89680,1,0,0:0:0:0:
192,192,89836,1,0,0:0:0:40:Tom2.wav
64,192,89991,1,2,0:0:0:0:
448,192,89991,1,0,0:0:0:0:
320,192,90146,1,0,0:0:0:40:Tom2.wav
64,192,90302,1,2,0:0:0:0:
192,192,90302,1,0,0:0:0:0:
320,192,90457,1,0,0:0:0:40:Tom2.wav
64,192,90613,1,2,0:0:0:0:
448,192,90613,1,0,0:0:0:0:
192,192,90768,1,0,0:0:0:40:Tom2.wav
320,192,90924,1,2,0:0:0:0:
448,192,90924,1,0,0:0:0:0:
192,192,91079,1,0,0:0:0:40:Tom2.wav
64,192,91235,1,2,0:0:0:0:
320,192,91235,1,0,0:0:0:0:
448,192,91390,1,0,0:0:0:40:Tom2.wav
64,192,91545,1,2,0:0:0:0:
192,192,91545,1,0,0:0:0:0:
320,192,91701,1,0,0:0:0:40:Tom2.wav
192,192,91856,1,2,0:0:0:0:
448,192,91856,1,0,0:0:0:0:
64,192,92012,1,0,0:0:0:40:Tom2.wav
320,192,92167,1,2,0:0:0:0:
448,192,92167,1,0,0:0:0:0:
64,192,92323,1,0,0:0:0:40:Tom2.wav
192,192,92478,1,2,0:0:0:0:
320,192,92478,1,0,0:0:0:0:
448,192,92633,1,0,0:0:0:40:Tom2.wav
64,192,92789,1,2,0:0:0:0:
192,192,92789,1,0,0:0:0:0:
448,192,92944,1,0,0:0:0:40:Tom2.wav
192,192,93100,1,2,0:0:0:0:
320,192,93100,1,0,0:0:0:0:
64,192,93255,1,0,0:0:0:40:Tom2.wav
320,192,93411,1,2,0:0:0:0:
448,192,93411,1,0,0:0:0:0:
64,192,93566,1,0,0:0:0:40:Tom2.wav
192,192,93722,1,2,0:0:0:0:
448,192,93722,1,0,0:0:0:0:
320,192,93877,1,0,0:0:0:40:Tom2.wav
64,192,94032,1,2,0:0:0:0:
192,192,94032,1,0,0:0:0:0:
448,192,94188,1,0,0:0:0:40:Tom2.wav
64,192,94343,1,2,0:0:0:0:
320,192,94343,1,0,0:0:0:0:
192,192,94499,1,0,0:0:0:40:Tom2.wav
320,192,94654,1,2,0:0:0:0:
448,192,94654,1,0,0:0:0:0:
192,192,94810,1,0,0:0:0:40:Tom2.wav
64,192,94965,1,2,0:0:0:0:
448,192,94965,1,0,0:0:0:0:
320,192,95121,1,0,0:0:0:40:Tom2.wav
64,192,95276,1,2,0:0:0:0:
192,192,95276,1,0,0:0:0:0:
320,192,95431,1,0,0:0:0:40:Tom2.wav
64,192,95587,1,2,0:0:0:0:
448,192,95587,1,0,0:0:0:0:
192,192,95742,1,0,0:0:0:40:Tom2.wav
320,192,95898,1,2,0:0:0:0:
448,192,95898,1,0,0:0:0:0:
192,192,96053,1,0,0:0:0:40:Tom2.wav
64,192,96209,1,2,0:0:0:0:
320,192,96209,1,0,0:0:0:0:
448,192,96364,1,0,0:0:0:40:Tom2.wav
64,192,96520,1,2,0:0:0:0:
192,192,96520,1,0,0:0:0:0:
320,192,96675,1,0,0:0:0:40:Tom2.wav
192,192,96830,1,2,0:0:0:0:
448,192,96830,1,0,0:0:0:0:
64,192,96986,1,0,0:0:0:40:Tom2.wav
320,192,97141,1,2,0:0:0:0:
448,192,97141,1,0,0:0:0:0:
64,192,97297,1,0,0:0:0:40:Tom2.wav
192,192,97452,1,2,0:0:0:0:
320,192,97452,1,0,0:0:0:0:
448,192,97608,1,0,0:0:0:40:Tom2.wav
64,192,97763,1,2,0:0:0:0:
192,192,97763,1,0,0:0:0:0:
448,192,97918,1,0,0:0:0:40:Tom2.wav
192,192,98074,1,2,0:0:0:0:
320,192,98074,1,0,0:0:0:0:
64,192,98229,1,0,0:0:0:40:Tom2.wav
320,192,98385,1,2,0:0:0:0:
448,192,98385,1,0,0:0:0:0:
64,192,98540,1,0,0:0:0:40:Tom2.wav
192,192,98696,1,2,0:0:0:0:
448,192,98696,1,0,0:0:0:0:
320,192,98851,1,0,0:0:0:40:Tom2.wav
64,192,99007,1,2,0:0:0:0:
192,192,99007,1,0,0:0:0:0:
64,192,99162,1,8,0:0:0:0:
448,192,99162,1,0,0:0:0:30:Hat Open.wav
192,192,99473,1,8,0:0:0:0:
320,192,99551,1,8,0:0:0:0:
64,192,99628,128,4,99939:0:0:0:0:
448,192,99628,1,2,0:0:0:0:
192,192,99784,1,0,0:0:0:30:Hat Open.wav
320,192,99939,1,8,0:0:0:0:
448,192,99939,128,0,100095:0:0:0:0:
192,192,100095,1,0,0:0:0:30:Hat Open.wav
64,192,100250,128,2,100406:0:0:0:0:
320,192,100250,1,0,0:0:0:0:
448,192,100406,1,0,0:0:0:30:Hat Open.wav
64,192,100561,1,8,0:0:0:0:
192,192,100561,128,0,100716:0:0:0:0:
320,192,100716,128,0,100872:0:0:0:30:Hat Open.wav
64,192,100872,1,2,0:0:0:0:
448,192,100872,128,0,101183:0:0:0:0:
192,192,101027,1,0,0:0:0:30:Hat Open.wav
64,192,101183,128,8,101494:0:0:0:0:
320,192,101183,1,0,0:0:0:0:
448,192,101338,1,0,0:0:0:30:Hat Open.wav
192,192,101494,1,2,0:0:0:0:
320,192,101494,128,0,101804:0:0:0:0:
64,192,101649,1,0,0:0:0:30:Hat Open.wav
192,192,101804,128,8,101960:0:0:0:0:
448,192,101804,1,0,0:0:0:0:
64,192,101960,128,0,102115:0:0:0:30:Hat Open.wav
320,192,102115,1,2,0:0:0:0:
448,192,102115,128,0,102426:0:0:0:0:
192,192,102271,1,0,0:0:0:30:Hat Open.wav
64,192,102426,1,8,0:0:0:0:
320,192,102426,1,0,0:0:0:0:
192,192,102582,128,0,102737:0:0:0:30:Hat Open.wav
64,192,102737,1,2,0:0:0:0:
448,192,102737,128,0,102893:0:0:0:0:
320,192,102893,1,0,0:0:0:30:Hat Open.wav
192,192,103048,1,8,0:0:0:0:
448,192,103048,1,0,0:0:0:0:
64,192,103203,128,0,103359:0:0:0:30:Hat Open.wav
320,192,103359,128,2,103514:0:0:0:0:
448,192,103359,1,0,0:0:0:0:
192,192,103514,1,0,0:0:0:30:Hat Open.wav
64,192,103670,1,8,0:0:0:0:
320,192,103670,1,0,0:0:0:0:
448,192,103825,128,0,103981:0:0:0:30:Hat Open.wav
64,192,103981,128,2,104292:0:0:0:0:
192,192,103981,1,0,0:0:0:0:
320,192,104136,1,0,0:0:0:30:Hat Open.wav
192,192,104292,1,8,0:0:0:0:
448,192,104292,1,0,0:0:0:0:
320,192,104447,128,0,104602:0:0:0:30:Hat Open.wav
64,192,104602,128,2,104913:0:0:0:0:
448,192,104602,1,0,0:0:0:0:
192,192,104758,1,0,0:0:0:30:Hat Open.wav
320,192,104913,1,8,0:0:0:0:
448,192,104913,1,0,0:0:0:0:
192,192,105069,1,0,0:0:0:30:Hat Open.wav
64,192,105224,1,2,0:0:0:0:
448,192,105224,1,0,0:0:0:0:
320,192,105380,1,0,0:0:0:30:Hat Open.wav
64,192,105535,1,8,0:0:0:0:
192,192,105535,128,0,105846:0:0:0:0:
320,192,105690,1,0,0:0:0:30:Hat Open.wav
64,192,105846,1,2,0:0:0:0:
448,192,105846,128,0,106157:0:0:0:0:
192,192,106001,1,0,0:0:0:30:Hat Open.wav
64,192,106157,128,8,106468:0:0:0:0:
320,192,106157,1,0,0:0:0:0:
448,192,106312,1,0,0:0:0:30:Hat Open.wav
192,192,106468,1,2,0:0:0:0:
320,192,106468,128,0,106779:0:0:0:0:
64,192,106623,1,0,0:0:0:30:Hat Open.wav
192,192,106779,128,8,107089:0:0:0:0:
448,192,106779,1,0,0:0:0:0:
320,192,106934,1,0,0:0:0:30:Hat Open.wav
64,192,107089,1,2,0:0:0:0:
448,192,107089,128,0,107400:0:0:0:0:
320,192,107245,1,0,0:0:0:30:Hat Open.wav
64,192,107400,128,8,107711:0:0:0:0:
192,192,107400,1,0,0:0:0:0:
320,192,107556,1,0,0:0:0:30:Hat Open.wav
192,192,107711,128,2,108022:0:0:0:0:
448,192,107711,1,0,0:0:0:0:
64,192,107867,1,0,0:0:0:30:Hat Open.wav
320,192,108022,128,8,108333:0:0:0:0:
448,192,108022,1,0,0:0:0:0:
192,192,108178,1,0,0:0:0:30:Hat Open.wav
64,192,108333,128,2,108644:0:0:0:0:
448,192,108333,1,0,0:0:0:0:
320,192,108488,1,0,0:0:0:30:Hat Open.wav
192,192,108644,1,8,0:0:0:0:
448,192,108644,1,0,0:0:0:0:
320,192,108799,128,0,108955:0:0:0:30:Hat Open.wav
64,192,108955,128,2,109110:0:0:0:0:
192,192,108955,1,0,0:0:0:0:
320,192,109110,1,8,0:0:0:0:
448,192,109110,1,0,0:0:0:30:Hat Open.wav
64,192,109266,1,4,0:0:0:0:
192,192,109266,1,8,0:0:0:0:
448,192,109577,128,0,110043:0:0:0:0:
192,192,109887,1,0,0:0:0:0:
320,192,110043,128,0,110198:0:0:0:0:
64,192,110198,128,0,110509:0:0:0:0:
448,192,110509,1,0,0:0:0:0:
64,192,110665,128,0,110820:0:0:0:0:
320,192,110820,128,0,111286:0:0:0:0:
64,192,111131,1,0,0:0:0:0:
192,192,111286,128,0,111442:0:0:0:0:
448,192,111442,128,0,111753:0:0:0:0:
192,192,111753,1,0,0:0:0:0:
64,192,112064,128,0,112374:0:0:0:0:
320,192,112374,128,0,112685:0:0:0:0:
192,192,112685,128,0,112996:0:0:0:0:
448,192,112996,128,0,113307:0:0:0:0:
64,192,113307,128,0,113773:0:0:0:0:
192,192,113618,1,0,0:0:0:0:
320,192,113773,128,0,113929:0:0:0:0:
448,192,113929,128,0,114240:0:0:0:0:
64,192,114240,1,0,0:0:0:0:
448,192,114395,128,0,114551:0:0:0:0:
192,192,114551,128,0,115017:0:0:0:0:
448,192,114861,1,0,0:0:0:0:
320,192,115017,128,0,115172:0:0:0:0:
64,192,115172,128,0,115483:0:0:0:0:
448,192,115483,1,0,0:0:0:0:
64,192,115639,128,0,115794:0:0:0:0:
320,192,115794,128,0,116260:0:0:0:0:
64,192,116105,1,0,0:0:0:0:
192,192,116260,128,0,116416:0:0:0:0:
448,192,116416,128,0,116727:0:0:0:0:
192,192,116727,1,0,0:0:0:0:
448,192,116882,128,0,117038:0:0:0:0:
64,192,117038,128,0,117349:0:0:0:0:
320,192,117349,128,0,117659:0:0:0:0:
192,192,117659,128,0,117970:0:0:0:0:
448,192,117970,128,0,118281:0:0:0:0:
320,192,118281,128,0,118592:0:0:0:0:
192,192,118592,128,0,118903:0:0:0:0:
64,192,118903,128,0,119214:0:0:0:0:
448,192,119214,1,0,0:0:0:0:
64,192,119369,128,0,119525:0:0:0:0:
320,192,119525,128,4,119680:0:0:0:0:
448,192,119525,1,2,0:0:0:0:
192,192,119680,1,0,0:0:0:0:
64,192,119836,1,2,0:0:0:0:
448,192,119836,1,0,0:0:0:0:
320,192,119991,128,0,120146:0:0:0:40:Tom2.wav
64,192,120146,128,2,120302:0:0:0:0:
192,192,120146,1,0,0:0:0:0:
320,192,120302,1,0,0:0:0:40:Tom2.wav
64,192,120457,1,2,0:0:0:0:
448,192,120457,1,0,0:0:0:0:
192,192,120613,128,0,120768:0:0:0:40:Tom2.wav
320,192,120768,1,2,0:0:0:0:
448,192,120768,128,0,120924:0:0:0:0:
192,192,120924,1,0,0:0:0:40:Tom2.wav
64,192,121079,1,2,0:0:0:0:
320,192,121079,1,0,0:0:0:0:
448,192,121235,128,0,121390:0:0:0:40:Tom2.wav
64,192,121390,1,2,0:0:0:0:
192,192,121390,128,0,121545:0:0:0:0:
320,192,121545,1,0,0:0:0:40:Tom2.wav
192,192,121701,1,2,0:0:0:0:
448,192,121701,1,0,0:0:0:0:
64,192,121856,128,0,122012:0:0:0:40:Tom2.wav
320,192,122012,1,2,0:0:0:0:
448,192,122012,128,0,122167:0:0:0:0:
64,192,122167,1,0,0:0:0:40:Tom2.wav
192,192,122323,1,2,0:0:0:0:
320,192,122323,128,0,122478:0:0:0:0:
448,192,122478,1,0,0:0:0:40:Tom2.wav
64,192,122633,128,2,122789:0:0:0:0:
192,192,122633,1,0,0:0:0:0:
448,192,122789,1,0,0:0:0:40:Tom2.wav
192,192,122944,128,2,123100:0:0:0:0:
320,192,122944,1,0,0:0:0:0:
64,192,123100,1,0,0:0:0:40:Tom2.wav
320,192,123255,1,2,0:0:0:0:
448,192,123255,128,0,123411:0:0:0:0:
64,192,123411,1,0,0:0:0:40:Tom2.wav
192,192,123566,128,2,123722:0:0:0:0:
448,192,123566,1,0,0:0:0:0:
320,192,123722,1,0,0:0:0:40:Tom2.wav
64,192,123877,128,2,124032:0:0:0:0:
192,192,123877,1,0,0:0:0:0:
448,192,124032,1,0,0:0:0:40:Tom2.wav
64,192,124188,1,2,0:0:0:0:
320,192,124188,128,0,124343:0:0:0:0:
192,192,124343,1,0,0:0:0:40:Tom2.wav
320,192,124499,1,2,0:0:0:0:
448,192,124499,128,0,124654:0:0:0:0:
192,192,124654,1,0,0:0:0:40:Tom2.wav
64,192,124810,1,2,0:0:0:0:
448,192,124810,1,0,0:0:0:0:
320,192,124965,1,0,0:0:0:40:Tom2.wav
64,192,125121,1,2,0:0:0:0:
192,192,125121,1,0,0:0:0:0:
320,192,125276,1,0,0:0:0:40:Tom2.wav
64,192,125431,128,2,125742:0:0:0:0:
448,192,125431,1,0,0:0:0:0:
192,192,125587,1,0,0:0:0:40:Tom2.wav
320,192,125742,1,2,0:0:0:0:
448,192,125742,1,0,0:0:0:0:
192,192,125898,128,0,126053:0:0:0:40:Tom2.wav
64,192,126053,1,2,0:0:0:0:
320,192,126053,128,0,126364:0:0:0:0:
448,192,126209,1,0,0:0:0:40:Tom2.wav
64,192,126364,1,2,0:0:0:0:
192,192,126364,1,0,0:0:0:0:
320,192,126520,1,0,0:0:0:40:Tom2.wav
192,192,126675,1,2,0:0:0:0:
448,192,126675,1,0,0:0:0:0:
64,192,126830,1,0,0:0:0:40:Tom2.wav
320,192,126830,1,0,0:0:0:0:
320,192,126986,1,2,0:0:0:0:
448,192,126986,1,0,0:0:0:0:
64,192,127141,1,8,0:0:0:0:
192,192,127141,1,0,0:0:0:0:
448,192,127219,1,8,0:0:0:0:
320,192,127297,1,8,0:0:0:0:
192,192,127374,1,8,0:0:0:0:
64,192,127452,1,8,0:0:0:0:
448,192,127452,1,0,0:0:0:0:
320,192,127608,1,8,0:0:0:0:
448,192,127608,1,0,0:0:0:0:
64,192,127685,1,8,0:0:0:0:
192,192,127763,1,8,0:0:0:0:
320,192,127841,1,8,0:0:0:0:
64,192,127918,1,8,0:0:0:0:
448,192,127918,1,0,0:0:0:40:Tom2.wav
192,192,128074,1,8,0:0:0:0:
320,192,128152,1,8,0:0:0:0:
192,192,128229,1,2,0:0:0:0:
448,192,128229,1,0,0:0:0:30:Hat Open.wav
320,192,128385,1,8,0:0:0:0:
192,192,128463,1,8,0:0:0:0:
64,192,128540,1,8,0:0:0:0:
448,192,128540,1,2,0:0:0:0:
320,192,128618,1,8,0:0:0:0:
192,192,128696,1,0,0:0:0:40:Tom1.wav
64,192,128851,1,8,0:0:0:0:
320,192,128851,1,2,0:0:0:0:
192,192,129007,1,8,0:0:0:0:
320,192,129084,1,8,0:0:0:0:
64,192,129162,1,8,0:0:0:0:
448,192,129162,1,0,0:0:0:0:
192,192,129240,1,8,0:0:0:0:
448,192,129317,1,8,0:0:0:0:
320,192,129395,1,8,0:0:0:0:
192,192,129473,1,0,0:0:0:0:
320,192,129784,1,2,0:0:0:0:
448,192,129784,1,0,0:0:0:0:
320,192,130095,1,2,0:0:0:0:
448,192,130095,1,0,0:0:0:0:
320,192,130406,1,2,0:0:0:0:
448,192,130406,1,0,0:0:0:0:
64,192,130716,128,2,130872:0:0:0:0:
192,192,130716,1,4,0:0:0:0:
320,192,130872,128,0,131027:0:0:0:0:
64,192,131027,128,8,131183:0:0:0:0:
448,192,131027,1,0,0:0:0:30:Hat Open.wav
192,192,131183,1,0,0:0:0:0:
320,192,131338,1,2,0:0:0:0:
448,192,131338,128,0,131494:0:0:0:30:Hat Open.wav
64,192,131494,1,2,0:0:0:0:
192,192,131494,128,0,131649:0:0:0:0:
320,192,131649,1,8,0:0:0:0:
448,192,131649,128,0,131804:0:0:0:30:Hat Open.wav
192,192,131804,1,0,0:0:0:0:
64,192,131960,1,2,0:0:0:0:
448,192,131960,128,0,132271:0:0:0:30:Hat Open.wav
320,192,132115,1,0,0:0:0:0:
64,192,132271,1,8,0:0:0:0:
192,192,132271,1,0,0:0:0:30:Hat Open.wav
320,192,132426,1,0,0:0:0:0:
192,192,132504,1,8,0:0:0:0:
64,192,132582,128,2,132893:0:0:0:0:
448,192,132582,1,0,0:0:0:30:Hat Open.wav
320,192,132737,1,2,0:0:0:0:
192,192,132893,1,8,0:0:0:0:
448,192,132893,1,0,0:0:0:30:Hat Open.wav
320,192,133048,1,0,0:0:0:0:
64,192,133203,128,2,133514:0:0:0:0:
448,192,133203,1,0,0:0:0:30:Hat Open.wav
192,192,133359,1,0,0:0:0:0:
320,192,133514,1,8,0:0:0:0:
448,192,133514,1,0,0:0:0:30:Hat Open.wav
192,192,133670,1,0,0:0:0:0:
64,192,133825,1,2,0:0:0:0:
448,192,133825,128,0,134136:0:0:0:30:Hat Open.wav
192,192,133981,1,2,0:0:0:0:
64,192,134136,1,8,0:0:0:0:
320,192,134136,1,0,0:0:0:30:Hat Open.wav
192,192,134292,1,0,0:0:0:0:
64,192,134447,128,2,134758:0:0:0:0:
448,192,134447,1,0,0:0:0:30:Hat Open.wav
320,192,134602,1,0,0:0:0:0:
192,192,134758,1,8,0:0:0:0:
448,192,134758,1,0,0:0:0:30:Hat Open.wav
320,192,134913,128,0,135069:0:0:0:0:
64,192,135069,128,2,135224:0:0:0:0:
192,192,135069,1,0,0:0:0:30:Hat Open.wav
320,192,135224,128,2,135380:0:0:0:0:
448,192,135224,1,0,0:0:0:0:
64,192,135380,1,8,0:0:0:0:
192,192,135380,128,0,135535:0:0:0:30:Hat Open.wav
320,192,135535,1,2,0:0:0:0:
448,192,135535,128,0,135690:0:0:0:0:
64,192,135690,1,2,0:0:0:0:
192,192,135690,128,4,135846:0:0:0:0:
448,192,135846,128,0,136001:0:0:0:0:
192,192,136001,1,8,0:0:0:0:
320,192,136001,1,0,0:0:0:30:Hat Open.wav
64,192,136157,128,0,136312:0:0:0:0:
320,192,136312,128,2,136468:0:0:0:0:
448,192,136312,1,0,0:0:0:30:Hat Open.wav
64,192,136468,128,2,136623:0:0:0:0:
192,192,136468,1,0,0:0:0:0:
320,192,136623,1,8,0:0:0:0:
448,192,136623,1,0,0:0:0:30:Hat Open.wav
192,192,136779,128,0,136934:0:0:0:0:
64,192,136934,1,2,0:0:0:0:
448,192,136934,128,0,137089:0:0:0:30:Hat Open.wav
320,192,137089,128,2,137245:0:0:0:0:
64,192,137245,1,8,0:0:0:0:
192,192,137245,1,0,0:0:0:30:Hat Open.wav
320,192,137400,128,0,137556:0:0:0:0:
64,192,137556,128,2,137711:0:0:0:0:
448,192,137556,1,0,0:0:0:30:Hat Open.wav
192,192,137711,128,2,137867:0:0:0:0:
320,192,137711,1,0,0:0:0:0:
64,192,137867,1,8,0:0:0:0:
448,192,137867,128,0,138022:0:0:0:30:Hat Open.wav
320,192,138022,1,0,0:0:0:0:
64,192,138178,1,2,0:0:0:0:
192,192,138178,1,0,0:0:0:30:Hat Open.wav
320,192,138333,1,8,0:0:0:0:
448,192,138333,1,0,0:0:0:0:
64,192,138411,1,8,0:0:0:0:
192,192,138488,1,8,0:0:0:0:
320,192,138566,1,8,0:0:0:0:
64,192,138644,1,2,0:0:0:0:
448,192,138644,1,0,0:0:0:30:Hat Open.wav
64,192,138799,1,8,0:0:0:0:
192,192,138799,1,0,0:0:0:0:
448,192,138877,1,8,0:0:0:0:
320,192,138955,1,8,0:0:0:0:
192,192,139032,1,8,0:0:0:0:
64,192,139110,1,2,0:0:0:0:
448,192,139110,1,0,0:0:0:30:Hat Open.wav
320,192,139266,1,8,0:0:0:0:
192,192,139343,1,8,0:0:0:0:
64,192,139421,1,2,0:0:0:0:
320,192,139421,1,0,0:0:0:30:Hat Open.wav
192,192,139577,1,8,0:0:0:0:
320,192,139654,1,8,0:0:0:0:
192,192,139732,1,8,0:0:0:0:
448,192,139732,1,2,0:0:0:0:
64,192,139810,1,8,0:0:0:0:
320,192,139887,1,8,0:0:0:0:
192,192,139965,1,8,0:0:0:0:
448,192,140043,1,0,0:0:0:40:Tom1.wav
320,192,140121,1,8,0:0:0:0:
64,192,140198,1,8,0:0:0:0:
192,192,140276,1,8,0:0:0:0:
320,192,140354,1,8,0:0:0:0:
448,192,140431,1,8,0:0:0:0:
192,192,140509,1,8,0:0:0:0:
64,192,140587,1,8,0:0:0:0:
320,192,140665,1,2,0:0:0:0:
448,192,140665,128,4,140820:0:0:0:0:
192,192,140820,128,0,140975:0:0:0:0:
64,192,140975,1,8,0:0:0:0:
448,192,140975,128,0,141131:0:0:0:30:Hat Open.wav
320,192,141131,1,0,0:0:0:0:
64,192,141286,128,2,141442:0:0:0:0:
192,192,141286,1,0,0:0:0:30:Hat Open.wav
320,192,141442,128,2,141597:0:0:0:0:
448,192,141442,1,0,0:0:0:0:
64,192,141597,128,8,141753:0:0:0:0:
192,192,141597,1,0,0:0:0:30:Hat Open.wav
320,192,141753,1,0,0:0:0:0:
64,192,141908,128,2,142219:0:0:0:0:
448,192,141908,1,0,0:0:0:30:Hat Open.wav
192,192,142064,1,0,0:0:0:0:
320,192,142219,1,8,0:0:0:0:
448,192,142219,1,0,0:0:0:30:Hat Open.wav
192,192,142374,1,0,0:0:0:0:
64,192,142530,1,2,0:0:0:0:
448,192,142530,128,0,142841:0:0:0:30:Hat Open.wav
320,192,142685,1,2,0:0:0:0:
64,192,142841,1,8,0:0:0:0:
192,192,142841,1,0,0:0:0:30:Hat Open.wav
320,192,142996,1,0,0:0:0:0:
64,192,143152,1,2,0:0:0:0:
448,192,143152,128,4,143463:0:0:0:0:
320,192,143307,1,2,0:0:0:0:
64,192,143463,1,8,0:0:0:0:
192,192,143463,1,0,0:0:0:0:
320,192,143618,1,2,0:0:0:0:
448,192,143618,1,4,0:0:0:0:
64,192,143773,128,0,144084:0:0:0:0:
192,192,143929,1,2,0:0:0:0:
320,192,144084,1,8,0:0:0:0:
448,192,144084,1,0,0:0:0:0:
64,192,144240,1,2,0:0:0:0:
192,192,144240,1,4,0:0:0:0:
448,192,144395,128,0,144706:0:0:0:0:
320,192,144551,1,2,0:0:0:0:
64,192,144706,1,8,0:0:0:0:
192,192,144706,1,0,0:0:0:30:Hat Open.wav
320,192,144861,1,0,0:0:0:0:
192,192,144939,1,8,0:0:0:0:
64,192,145017,1,2,0:0:0:0:
448,192,145017,1,0,0:0:0:0:
320,192,145095,1,8,0:0:0:0:
192,192,145172,1,8,0:0:0:0:
64,192,145250,1,8,0:0:0:0:
320,192,145328,1,8,0:0:0:0:
448,192,145328,1,2,0:0:0:0:
64,192,145406,1,8,0:0:0:0:
192,192,145483,1,8,0:0:0:0:
320,192,145561,1,8,0:0:0:0:
64,192,145639,128,2,145950:0:0:0:0:
448,192,145639,1,4,0:0:0:0:
320,192,145950,1,8,0:0:0:0:
448,192,145950,1,0,0:0:0:30:Hat Open.wav
64,192,146105,1,2,0:0:0:0:
192,192,146105,1,0,0:0:0:0:
64,192,146260,1,8,0:0:0:0:
448,192,146260,1,0,0:0:0:30:Hat Open.wav
192,192,146416,1,2,0:0:0:0:
320,192,146416,1,0,0:0:0:0:
64,192,146571,1,8,0:0:0:0:
192,192,146571,1,0,0:0:0:30:Hat Open.wav
320,192,146727,1,2,0:0:0:0:
448,192,146727,1,0,0:0:0:0:
64,192,146882,1,8,0:0:0:0:
448,192,146882,1,0,0:0:0:30:Hat Open.wav
192,192,147038,1,2,0:0:0:0:
320,192,147038,1,0,0:0:0:0:
320,192,147193,1,8,0:0:0:0:
448,192,147193,1,0,0:0:0:30:Hat Open.wav
64,192,147349,1,2,0:0:0:0:
192,192,147349,1,0,0:0:0:0:
64,192,147504,1,8,0:0:0:0:
448,192,147504,1,0,0:0:0:30:Hat Open.wav
192,192,147659,1,2,0:0:0:0:
320,192,147659,1,0,0:0:0:0:
64,192,147815,1,8,0:0:0:0:
192,192,147815,1,0,0:0:0:30:Hat Open.wav
320,192,147970,1,2,0:0:0:0:
448,192,147970,1,0,0:0:0:0:
64,192,148126,1,8,0:0:0:0:
192,192,148126,1,4,0:0:0:0:
320,192,148281,1,2,0:0:0:0:
448,192,148281,1,0,0:0:0:0:
64,192,148437,1,8,0:0:0:0:
448,192,148437,1,0,0:0:0:30:Hat Open.wav
192,192,148592,1,2,0:0:0:0:
320,192,148592,1,0,0:0:0:0:
320,192,148747,1,8,0:0:0:0:
448,192,148747,1,0,0:0:0:30:Hat Open.wav
64,192,148903,1,2,0:0:0:0:
192,192,148903,1,0,0:0:0:0:
64,192,149058,1,8,0:0:0:0:
448,192,149058,1,0,0:0:0:30:Hat Open.wav
192,192,149214,1,2,0:0:0:0:
320,192,149214,1,0,0:0:0:0:
64,192,149369,1,8,0:0:0:0:
192,192,149369,1,0,0:0:0:30:Hat Open.wav
320,192,149525,1,2,0:0:0:0:
448,192,149525,1,0,0:0:0:0:
64,192,149680,1,8,0:0:0:0:
448,192,149680,1,0,0:0:0:30:Hat Open.wav
192,192,149836,1,2,0:0:0:0:
320,192,149836,1,0,0:0:0:0:
320,192,149991,1,8,0:0:0:0:
448,192,149991,1,0,0:0:0:30:Hat Open.wav
64,192,150146,1,2,0:0:0:0:
192,192,150146,1,0,0:0:0:0:
320,192,150302,1,8,0:0:0:0:
448,192,150302,1,0,0:0:0:30:Hat Open.wav
64,192,150457,1,2,0:0:0:0:
448,192,150457,1,0,0:0:0:0:
64,192,150613,128,4,150924:0:0:0:0:
192,192,150613,1,8,0:0:0:0:
320,192,150924,1,8,0:0:0:0:
448,192,150924,1,0,0:0:0:0:
320,192,151079,1,8,0:0:0:0:
448,192,151079,1,0,0:0:0:0:
64,192,151235,1,8,0:0:0:0:
192,192,151235,1,0,0:0:0:0:
64,192,151390,1,8,0:0:0:0:
192,192,151390,1,0,0:0:0:0:
320,192,151545,1,8,0:0:0:0:
448,192,151545,1,0,0:0:0:0:
320,192,151701,1,8,0:0:0:0:
448,192,151701,1,0,0:0:0:0:
64,192,151856,1,8,0:0:0:0:
192,192,151856,1,0,0:0:0:0:
320,192,152012,1,2,0:0:0:0:
448,192,152012,1,0,0:0:0:0:
320,192,152478,1,8,0:0:0:0:
448,192,152478,1,0,0:0:0:0:
64,192,152634,1,2,0:0:0:0:
192,192,152634,1,0,0:0:0:0:
320,192,153100,1,4,0:0:0:0:
448,192,153100,1,2,0:0:0:0:
64,192,153255,1,2,0:0:0:0:
192,192,153255,1,0,0:0:0:0:
64,192,153411,1,8,0:0:0:0:
448,192,153411,1,0,0:0:0:30:Hat Open.wav
320,192,153566,1,0,0:0:0:0:
192,192,153644,1,8,0:0:0:0:
64,192,153722,1,2,0:0:0:0:
320,192,153722,1,0,0:0:0:30:Hat Open.wav
192,192,153877,1,2,0:0:0:0:
448,192,153877,1,0,0:0:0:0:
320,192,154032,1,0,0:0:0:30:Hat Open.wav
64,192,154188,1,8,0:0:0:0:
192,192,154188,1,0,0:0:0:0:
448,192,154343,1,0,0:0:0:30:Hat Open.wav
64,192,154499,1,2,0:0:0:0:
320,192,154499,1,0,0:0:0:0:
192,192,154654,1,8,0:0:0:0:
448,192,154654,1,0,0:0:0:30:Hat Open.wav
320,192,154810,1,0,0:0:0:0:
64,192,154965,1,2,0:0:0:0:
192,192,154965,1,0,0:0:0:30:Hat Open.wav
320,192,155121,1,2,0:0:0:0:
448,192,155121,1,0,0:0:0:0:
64,192,155276,1,8,0:0:0:0:
448,192,155276,1,0,0:0:0:0:
192,192,155354,1,8,0:0:0:0:
320,192,155431,1,8,0:0:0:0:
448,192,155509,1,8,0:0:0:0:
64,192,155587,1,2,0:0:0:0:
192,192,155587,1,0,0:0:0:30:Hat Open.wav
320,192,155742,1,2,0:0:0:0:
448,192,155742,1,0,0:0:0:0:
64,192,155898,1,8,0:0:0:0:
448,192,155898,1,0,0:0:0:30:Hat Open.wav
192,192,156053,1,0,0:0:0:0:
320,192,156131,1,8,0:0:0:0:
192,192,156209,1,2,0:0:0:0:
448,192,156209,1,0,0:0:0:30:Hat Open.wav
64,192,156364,1,2,0:0:0:0:
320,192,156364,1,0,0:0:0:0:
192,192,156520,1,0,0:0:0:30:Hat Open.wav
320,192,156675,1,8,0:0:0:0:
448,192,156675,1,0,0:0:0:0:
64,192,156830,1,0,0:0:0:30:Hat Open.wav
192,192,156986,1,2,0:0:0:0:
448,192,156986,1,0,0:0:0:0:
64,192,157141,1,8,0:0:0:0:
320,192,157141,1,0,0:0:0:30:Hat Open.wav
192,192,157297,1,0,0:0:0:0:
320,192,157452,1,2,0:0:0:0:
448,192,157452,1,0,0:0:0:30:Hat Open.wav
64,192,157608,1,8,0:0:0:0:
192,192,157608,1,0,0:0:0:0:
320,192,157685,1,8,0:0:0:0:
64,192,157763,1,8,0:0:0:0:
448,192,157763,1,0,0:0:0:0:
192,192,157841,1,8,0:0:0:0:
320,192,157918,1,8,0:0:0:0:
448,192,157996,1,8,0:0:0:0:
64,192,158074,1,2,0:0:0:0:
192,192,158074,1,4,0:0:0:0:
320,192,158229,1,2,0:0:0:0:
448,192,158229,1,0,0:0:0:0:
64,192,158385,1,8,0:0:0:0:
448,192,158385,1,0,0:0:0:30:Hat Open.wav
192,192,158540,1,0,0:0:0:0:
320,192,158618,1,8,0:0:0:0:
192,192,158696,1,2,0:0:0:0:
448,192,158696,1,0,0:0:0:30:Hat Open.wav
64,192,158851,1,2,0:0:0:0:
320,192,158851,1,0,0:0:0:0:
192,192,159007,1,0,0:0:0:30:Hat Open.wav
320,192,159162,1,8,0:0:0:0:
448,192,159162,1,0,0:0:0:0:
64,192,159317,1,0,0:0:0:30:Hat Open.wav
192,192,159473,1,2,0:0:0:0:
448,192,159473,1,0,0:0:0:0:
64,192,159628,1,8,0:0:0:0:
320,192,159628,1,0,0:0:0:30:Hat Open.wav
192,192,159784,1,0,0:0:0:0:
320,192,159939,1,2,0:0:0:0:
448,192,159939,1,0,0:0:0:30:Hat Open.wav
64,192,160095,1,2,0:0:0:0:
192,192,160095,1,0,0:0:0:0:
64,192,160250,1,8,0:0:0:0:
448,192,160250,1,0,0:0:0:0:
320,192,160328,1,8,0:0:0:0:
192,192,160406,1,8,0:0:0:0:
64,192,160483,1,8,0:0:0:0:
320,192,160561,1,2,0:0:0:0:
448,192,160561,1,4,0:0:0:0:
448,192,160716,1,0,0:0:0:0:
64,192,160872,1,8,0:0:0:0:
192,192,160872,1,0,0:0:0:30:Hat Open.wav
320,192,161027,1,2,0:0:0:0:
448,192,161027,1,0,0:0:0:0:
64,192,161183,1,8,0:0:0:0:
448,192,161183,1,0,0:0:0:30:Hat Open.wav
192,192,161338,1,2,0:0:0:0:
320,192,161338,1,0,0:0:0:0:
320,192,161494,1,8,0:0:0:0:
448,192,161494,1,0,0:0:0:30:Hat Open.wav
64,192,161649,1,2,0:0:0:0:
192,192,161649,1,0,0:0:0:0:
64,192,161804,1,8,0:0:0:0:
448,192,161804,1,0,0:0:0:30:Hat Open.wav
192,192,161960,1,2,0:0:0:0:
320,192,161960,1,0,0:0:0:0:
64,192,162115,1,8,0:0:0:0:
192,192,162115,1,0,0:0:0:30:Hat Open.wav
320,192,162271,1,2,0:0:0:0:
448,192,162271,1,0,0:0:0:0:
64,192,162426,1,8,0:0:0:0:
448,192,162426,1,0,0:0:0:30:Hat Open.wav
192,192,162582,1,2,0:0:0:0:
320,192,162582,1,0,0:0:0:0:
320,192,162737,1,8,0:0:0:0:
448,192,162737,1,0,0:0:0:30:Hat Open.wav
64,192,162893,1,8,0:0:0:0:
192,192,162893,1,4,0:0:0:0:
448,192,163048,128,0,163670:0:0:0:0:
192,192,163981,128,0,164292:0:0:0:0:
320,192,164292,128,0,164602:0:0:0:0:
64,192,164602,128,0,164913:0:0:0:0:
448,192,164913,128,0,165224:0:0:0:0:
320,192,165224,128,0,165535:0:0:0:0:
192,192,165535,128,0,166001:0:0:0:0:
448,192,166001,128,0,166157:0:0:0:0:
64,192,166157,128,0,166623:0:0:0:0:
192,192,166623,128,0,166779:0:0:0:0:
448,192,166779,128,0,167089:0:0:0:0:
192,192,167400,128,0,167711:0:0:0:0:
320,192,167711,128,0,167867:0:0:0:0:
64,192,167867,128,0,168022:0:0:0:0:
448,192,168022,128,0,168644:0:0:0:0:
192,192,168955,128,0,169266:0:0:0:0:
320,192,169266,128,0,169577:0:0:0:0:
64,192,169577,128,0,169887:0:0:0:0:
448,192,169887,128,0,170198:0:0:0:0:
192,192,170198,128,0,170509:0:0:0:0:
320,192,170509,128,0,171442:0:0:0:0:
64,192,171442,128,0,171753:0:0:0:0:
448,192,171753,128,0,172374:0:0:0:0:
320,192,172685,128,0,172996:0:0:0:0:
64,192,172996,128,2,173618:0:0:0:0:
192,192,172996,1,4,0:0:0:0:
448,192,173307,1,0,0:0:0:0:
192,192,173463,1,2,0:0:0:0:
320,192,173618,1,8,0:0:0:0:
448,192,173618,1,0,0:0:0:0:
64,192,173773,1,2,0:0:0:0:
192,192,173773,1,0,0:0:0:0:
448,192,173929,128,0,174240:0:0:0:0:
64,192,174240,128,2,174551:0:0:0:0:
320,192,174240,1,0,0:0:0:0:
192,192,174551,128,0,174861:0:0:0:0:
320,192,174706,1,2,0:0:0:0:
64,192,174861,1,8,0:0:0:0:
448,192,174861,128,0,175172:0:0:0:0:
320,192,175017,1,2,0:0:0:0:
192,192,175172,128,0,175483:0:0:0:0:
64,192,175483,128,2,175794:0:0:0:0:
448,192,175483,1,0,0:0:0:0:
320,192,175794,1,0,0:0:0:0:
64,192,175950,1,2,0:0:0:0:
192,192,175950,1,0,0:0:0:0:
320,192,176105,128,8,176416:0:0:0:0:
448,192,176105,1,0,0:0:0:0:
64,192,176260,1,2,0:0:0:0:
192,192,176260,1,0,0:0:0:0:
448,192,176416,1,0,0:0:0:0:
192,192,176571,1,8,0:0:0:0:
64,192,176727,128,2,177038:0:0:0:0:
320,192,176727,1,0,0:0:0:0:
192,192,177038,1,0,0:0:0:0:
320,192,177193,1,2,0:0:0:0:
448,192,177193,1,0,0:0:0:0:
64,192,177349,1,8,0:0:0:0:
192,192,177349,128,0,177659:0:0:0:0:
320,192,177504,1,2,0:0:0:0:
448,192,177504,1,0,0:0:0:0:
64,192,177659,1,0,0:0:0:0:
448,192,177970,128,2,178437:0:0:0:0:
320,192,178281,1,0,0:0:0:0:
64,192,178437,1,2,0:0:0:0:
192,192,178437,1,0,0:0:0:0:
320,192,178592,1,8,0:0:0:0:
448,192,178592,1,0,0:0:0:0:
64,192,178747,1,2,0:0:0:0:
192,192,178747,1,0,0:0:0:0:
320,192,178903,128,0,179214:0:0:0:0:
64,192,179214,128,2,179525:0:0:0:0:
448,192,179214,1,0,0:0:0:0:
192,192,179525,128,0,179836:0:0:0:0:
320,192,179680,1,2,0:0:0:0:
64,192,179836,1,8,0:0:0:0:
448,192,179836,128,0,180146:0:0:0:0:
320,192,179991,1,2,0:0:0:0:
192,192,180146,128,0,180457:0:0:0:0:
64,192,180457,128,2,182789:0:0:0:0:
448,192,180457,1,0,0:0:0:0:
320,192,180924,1,2,0:0:0:0:
192,192,181079,1,8,0:0:0:0:
448,192,181079,1,0,0:0:0:0:
320,192,181235,1,2,0:0:0:0:
192,192,181701,1,2,0:0:0:0:
448,192,181701,1,0,0:0:0:0:
192,192,182167,1,2,0:0:0:0:
320,192,182323,1,8,0:0:0:0:
448,192,182323,1,0,0:0:0:0:
192,192,182478,1,2,0:0:0:0:
192,192,182789,1,8,0:0:0:0:
448,192,182789,1,0,0:0:0:0:
64,192,185431,1,2,0:0:0:0:
448,192,185431,128,4,185587:0:0:0:0:
192,192,185587,128,0,185742:0:0:0:0:
320,192,185742,1,8,0:0:0:0:
448,192,185742,128,0,185898:0:0:0:30:Hat Open.wav
192,192,185898,1,0,0:0:0:0:
64,192,186053,128,2,186209:0:0:0:0:
448,192,186053,1,0,0:0:0:30:Hat Open.wav
192,192,186209,1,2,0:0:0:0:
320,192,186209,128,0,186364:0:0:0:0:
64,192,186364,128,8,186520:0:0:0:0:
448,192,186364,1,0,0:0:0:30:Hat Open.wav
320,192,186520,1,0,0:0:0:0:
64,192,186675,128,2,186986:0:0:0:0:
192,192,186675,1,0,0:0:0:30:Hat Open.wav
192,192,186830,1,0,0:0:0:0:
320,192,186986,1,8,0:0:0:0:
448,192,186986,1,0,0:0:0:30:Hat Open.wav
192,192,187141,1,0,0:0:0:0:
320,192,187219,1,8,0:0:0:0:
64,192,187297,1,2,0:0:0:0:
448,192,187297,128,0,187608:0:0:0:30:Hat Open.wav
64,192,187452,1,2,0:0:0:0:
192,192,187608,1,8,0:0:0:0:
320,192,187608,1,0,0:0:0:30:Hat Open.wav
64,192,187763,1,0,0:0:0:0:
320,192,187918,1,2,0:0:0:0:
448,192,187918,128,0,188229:0:0:0:30:Hat Open.wav
320,192,188074,1,0,0:0:0:0:
64,192,188229,1,8,0:0:0:0:
192,192,188229,1,0,0:0:0:30:Hat Open.wav
320,192,188385,1,0,0:0:0:0:
64,192,188540,128,2,188851:0:0:0:0:
448,192,188540,1,0,0:0:0:30:Hat Open.wav
448,192,188696,1,2,0:0:0:0:
192,192,188851,1,8,0:0:0:0:
320,192,188851,1,0,0:0:0:30:Hat Open.wav
320,192,189007,1,0,0:0:0:0:
64,192,189162,1,2,0:0:0:0:
448,192,189162,128,0,189473:0:0:0:30:Hat Open.wav
64,192,189317,1,0,0:0:0:0:
192,192,189473,1,8,0:0:0:0:
320,192,189473,1,0,0:0:0:30:Hat Open.wav
192,192,189628,128,0,189784:0:0:0:0:
320,192,189784,1,2,0:0:0:0:
448,192,189784,128,0,189939:0:0:0:30:Hat Open.wav
64,192,189939,1,2,0:0:0:0:
192,192,189939,128,0,190095:0:0:0:0:
320,192,190095,128,8,190250:0:0:0:0:
448,192,190095,1,0,0:0:0:30:Hat Open.wav
64,192,190250,128,0,190406:0:0:0:0:
192,192,190250,1,0,0:0:0:0:
320,192,190406,128,2,190561:0:0:0:0:
448,192,190406,1,0,0:0:0:30:Hat Open.wav
64,192,190561,128,0,190716:0:0:0:0:
192,192,190716,1,8,0:0:0:0:
320,192,190716,1,0,0:0:0:30:Hat Open.wav
448,192,190872,128,0,191027:0:0:0:0:
64,192,191027,1,2,0:0:0:0:
192,192,191027,128,0,191183:0:0:0:30:Hat Open.wav
320,192,191183,1,2,0:0:0:0:
448,192,191183,128,0,191338:0:0:0:0:
64,192,191338,1,8,0:0:0:0:
192,192,191338,1,0,0:0:0:30:Hat Open.wav
320,192,191494,128,0,191649:0:0:0:0:
64,192,191649,128,2,191804:0:0:0:0:
448,192,191649,1,4,0:0:0:0:
192,192,191804,128,0,191960:0:0:0:0:
320,192,191960,1,8,0:0:0:0:
448,192,191960,1,0,0:0:0:30:Hat Open.wav
192,192,192115,128,0,192271:0:0:0:0:
64,192,192271,1,2,0:0:0:0:
448,192,192271,128,0,192426:0:0:0:30:Hat Open.wav
192,192,192426,1,2,0:0:0:0:
320,192,192426,128,0,192582:0:0:0:0:
64,192,192582,128,8,192737:0:0:0:0:
448,192,192582,1,0,0:0:0:30:Hat Open.wav
192,192,192737,1,0,0:0:0:0:
320,192,192893,1,2,0:0:0:0:
448,192,192893,1,0,0:0:0:30:Hat Open.wav
64,192,193048,1,8,0:0:0:0:
192,192,193048,1,0,0:0:0:0:
448,192,193126,1,8,0:0:0:0:
320,192,193203,1,8,0:0:0:0:
192,192,193281,1,8,0:0:0:0:
64,192,193359,1,2,0:0:0:0:
448,192,193359,1,0,0:0:0:30:Hat Open.wav
320,192,193514,1,8,0:0:0:0:
448,192,193514,1,0,0:0:0:0:
64,192,193592,1,8,0:0:0:0:
192,192,193670,1,8,0:0:0:0:
320,192,193747,1,8,0:0:0:0:
64,192,193825,1,2,0:0:0:0:
448,192,193825,1,0,0:0:0:30:Hat Open.wav
192,192,193981,1,8,0:0:0:0:
320,192,194058,1,8,0:0:0:0:
192,192,194136,1,2,0:0:0:0:
448,192,194136,1,0,0:0:0:30:Hat Open.wav
320,192,194292,1,8,0:0:0:0:
192,192,194369,1,8,0:0:0:0:
64,192,194447,1,8,0:0:0:0:
320,192,194447,1,2,0:0:0:0:
448,192,194525,1,8,0:0:0:0:
192,192,194602,1,8,0:0:0:0:
320,192,194680,1,8,0:0:0:0:
64,192,194758,1,10,0:0:0:0:
192,192,194836,1,8,0:0:0:0:
448,192,194913,1,8,0:0:0:0:
320,192,194991,1,8,0:0:0:0:
192,192,195069,1,10,0:0:0:0:
64,192,195146,1,8,0:0:0:0:
320,192,195224,1,8,0:0:0:0:
448,192,195302,1,8,0:0:0:0:
64,192,195380,128,2,195535:0:0:0:0:
192,192,195380,1,4,0:0:0:0:
320,192,195535,128,0,195690:0:0:0:0:
64,192,195690,128,8,195846:0:0:0:0:
448,192,195690,1,0,0:0:0:30:Hat Open.wav
192,192,195846,1,0,0:0:0:0:
320,192,196001,1,2,0:0:0:0:
448,192,196001,128,0,196157:0:0:0:30:Hat Open.wav
64,192,196157,1,2,0:0:0:0:
192,192,196157,128,0,196312:0:0:0:0:
320,192,196312,1,8,0:0:0:0:
448,192,196312,128,0,196468:0:0:0:30:Hat Open.wav
192,192,196468,1,0,0:0:0:0:
64,192,196623,1,2,0:0:0:0:
448,192,196623,128,0,196934:0:0:0:30:Hat Open.wav
64,192,196779,1,0,0:0:0:0:
192,192,196934,1,8,0:0:0:0:
320,192,196934,1,0,0:0:0:30:Hat Open.wav
448,192,197089,1,0,0:0:0:0:
64,192,197245,128,2,197556:0:0:0:0:
192,192,197245,1,0,0:0:0:30:Hat Open.wav
192,192,197400,1,2,0:0:0:0:
320,192,197556,1,8,0:0:0:0:
448,192,197556,1,0,0:0:0:30:Hat Open.wav
320,192,197711,1,0,0:0:0:0:
64,192,197867,128,2,198178:0:0:0:0:
448,192,197867,1,4,0:0:0:0:
192,192,198022,1,2,0:0:0:0:
320,192,198178,1,8,0:0:0:0:
448,192,198178,1,0,0:0:0:0:
64,192,198333,1,2,0:0:0:0:
192,192,198333,1,4,0:0:0:0:
448,192,198488,128,0,198799:0:0:0:0:
320,192,198644,1,2,0:0:0:0:
64,192,198799,1,8,0:0:0:0:
192,192,198799,1,0,0:0:0:0:
320,192,198955,1,2,0:0:0:0:
448,192,198955,1,4,0:0:0:0:
64,192,199110,128,0,199421:0:0:0:0:
192,192,199266,1,2,0:0:0:0:
320,192,199421,1,8,0:0:0:0:
448,192,199421,1,0,0:0:0:30:Hat Open.wav
64,192,199577,1,2,0:0:0:0:
192,192,199577,1,0,0:0:0:0:
64,192,199732,1,8,0:0:0:0:
448,192,199732,1,0,0:0:0:30:Hat Open.wav
320,192,199887,1,0,0:0:0:0:
64,192,200043,1,8,0:0:0:0:
192,192,200043,1,0,0:0:0:0:
448,192,200121,1,8,0:0:0:0:
320,192,200198,1,8,0:0:0:0:
192,192,200276,1,8,0:0:0:0:
64,192,200354,1,2,0:0:0:0:
448,192,200354,128,4,200665:0:0:0:0:
64,192,200665,1,8,0:0:0:0:
192,192,200665,1,0,0:0:0:30:Hat Open.wav
320,192,200820,1,2,0:0:0:0:
448,192,200820,1,0,0:0:0:0:
64,192,200975,1,8,0:0:0:0:
448,192,200975,1,0,0:0:0:30:Hat Open.wav
192,192,201131,1,2,0:0:0:0:
320,192,201131,1,0,0:0:0:0:
320,192,201286,1,8,0:0:0:0:
448,192,201286,1,0,0:0:0:30:Hat Open.wav
64,192,201442,1,2,0:0:0:0:
192,192,201442,1,0,0:0:0:0:
64,192,201597,1,8,0:0:0:0:
448,192,201597,1,0,0:0:0:30:Hat Open.wav
192,192,201753,1,2,0:0:0:0:
320,192,201753,1,0,0:0:0:0:
64,192,201908,1,8,0:0:0:0:
192,192,201908,1,0,0:0:0:30:Hat Open.wav
320,192,202064,1,2,0:0:0:0:
448,192,202064,1,0,0:0:0:0:
64,192,202219,1,8,0:0:0:0:
448,192,202219,1,0,0:0:0:30:Hat Open.wav
192,192,202374,1,2,0:0:0:0:
320,192,202374,1,0,0:0:0:0:
320,192,202530,1,8,0:0:0:0:
448,192,202530,1,0,0:0:0:30:Hat Open.wav
64,192,202685,1,2,0:0:0:0:
192,192,202685,1,0,0:0:0:0:
320,192,202841,1,8,0:0:0:0:
448,192,202841,1,4,0:0:0:0:
64,192,202996,1,2,0:0:0:0:
192,192,202996,1,0,0:0:0:0:
64,192,203152,1,8,0:0:0:0:
448,192,203152,1,0,0:0:0:30:Hat Open.wav
192,192,203307,1,2,0:0:0:0:
320,192,203307,1,0,0:0:0:0:
64,192,203463,1,8,0:0:0:0:
192,192,203463,1,0,0:0:0:30:Hat Open.wav
320,192,203618,1,2,0:0:0:0:
448,192,203618,1,0,0:0:0:0:
64,192,203773,1,8,0:0:0:0:
448,192,203773,1,0,0:0:0:30:Hat Open.wav
192,192,203929,1,2,0:0:0:0:
320,192,203929,1,0,0:0:0:0:
320,192,204084,1,8,0:0:0:0:
448,192,204084,1,0,0:0:0:30:Hat Open.wav
64,192,204240,1,2,0:0:0:0:
192,192,204240,1,0,0:0:0:0:
64,192,204395,1,8,0:0:0:0:
448,192,204395,1,0,0:0:0:30:Hat Open.wav
192,192,204551,1,2,0:0:0:0:
320,192,204551,1,0,0:0:0:0:
64,192,204706,1,8,0:0:0:0:
192,192,204706,1,0,0:0:0:30:Hat Open.wav
320,192,204861,1,2,0:0:0:0:
448,192,204861,1,0,0:0:0:0:
64,192,205017,1,8,0:0:0:0:
192,192,205017,1,0,0:0:0:30:Hat Open.wav
64,192,205172,1,2,0:0:0:0:
448,192,205172,1,0,0:0:0:0:
320,192,205328,1,4,0:0:0:0:
448,192,205328,128,8,205639:0:0:0:0:
64,192,205639,1,8,0:0:0:0:
192,192,205639,1,0,0:0:0:0:
64,192,205794,1,8,0:0:0:0:
192,192,205794,1,0,0:0:0:0:
320,192,205950,1,8,0:0:0:0:
448,192,205950,1,0,0:0:0:0:
320,192,206105,1,8,0:0:0:0:
448,192,206105,1,0,0:0:0:0:
64,192,206260,1,8,0:0:0:0:
192,192,206260,1,0,0:0:0:0:
64,192,206416,1,8,0:0:0:0:
192,192,206416,1,0,0:0:0:0:
320,192,206571,1,8,0:0:0:0:
448,192,206571,1,0,0:0:0:0:
64,192,206727,1,2,0:0:0:0:
192,192,206727,1,0,0:0:0:0:
64,192,207193,1,8,0:0:0:0:
192,192,207193,1,0,0:0:0:0:
320,192,207349,1,2,0:0:0:0:
448,192,207349,1,0,0:0:0:0:
64,192,207815,128,2,207970:0:0:0:0:
192,192,207815,1,4,0:0:0:0:
320,192,207970,128,2,208126:0:0:0:0:
64,192,208126,1,8,0:0:0:0:
448,192,208126,1,0,0:0:0:30:Hat Open.wav
192,192,208281,1,0,0:0:0:0:
320,192,208359,1,8,0:0:0:0:
192,192,208437,1,2,0:0:0:0:
448,192,208437,1,0,0:0:0:30:Hat Open.wav
64,192,208592,1,2,0:0:0:0:
320,192,208592,128,0,208747:0:0:0:0:
192,192,208747,128,0,208903:0:0:0:30:Hat Open.wav
320,192,208903,1,8,0:0:0:0:
448,192,208903,128,0,209058:0:0:0:0:
64,192,209058,1,0,0:0:0:30:Hat Open.wav
192,192,209214,128,2,209369:0:0:0:0:
448,192,209214,1,0,0:0:0:0:
64,192,209369,1,8,0:0:0:0:
320,192,209369,1,0,0:0:0:30:Hat Open.wav
192,192,209525,1,2,0:0:0:0:
320,192,209602,1,8,0:0:0:0:
192,192,209680,1,2,0:0:0:0:
448,192,209680,1,0,0:0:0:30:Hat Open.wav
64,192,209836,1,2,0:0:0:0:
320,192,209836,1,0,0:0:0:0:
64,192,209991,1,8,0:0:0:0:
448,192,209991,1,0,0:0:0:0:
320,192,210069,1,8,0:0:0:0:
192,192,210146,1,8,0:0:0:0:
64,192,210224,1,8,0:0:0:0:
320,192,210302,1,2,0:0:0:0:
448,192,210302,128,0,210457:0:0:0:30:Hat Open.wav
192,192,210457,128,2,210613:0:0:0:0:
64,192,210613,1,8,0:0:0:0:
448,192,210613,1,0,0:0:0:30:Hat Open.wav
320,192,210768,1,0,0:0:0:0:
192,192,210846,1,8,0:0:0:0:
64,192,210924,1,2,0:0:0:0:
320,192,210924,1,0,0:0:0:30:Hat Open.wav
192,192,211079,128,2,211235:0:0:0:0:
448,192,211079,1,0,0:0:0:0:
320,192,211235,1,0,0:0:0:30:Hat Open.wav
64,192,211390,128,8,211545:0:0:0:0:
192,192,211390,1,0,0:0:0:0:
448,192,211545,1,0,0:0:0:30:Hat Open.wav
64,192,211701,1,2,0:0:0:0:
320,192,211701,128,0,211856:0:0:0:0:
192,192,211856,1,8,0:0:0:0:
448,192,211856,1,0,0:0:0:30:Hat Open.wav
320,192,212012,1,0,0:0:0:0:
64,192,212167,1,2,0:0:0:0:
192,192,212167,1,0,0:0:0:30:Hat Open.wav
320,192,212323,1,8,0:0:0:0:
448,192,212323,1,0,0:0:0:0:
192,192,212400,1,8,0:0:0:0:
64,192,212478,1,8,0:0:0:0:
448,192,212478,1,0,0:0:0:0:
320,192,212556,1,8,0:0:0:0:
192,192,212634,1,8,0:0:0:0:
64,192,212711,1,8,0:0:0:0:
320,192,212789,1,4,0:0:0:0:
448,192,212789,128,2,212944:0:0:0:0:
192,192,212944,128,2,213100:0:0:0:0:
64,192,213100,1,8,0:0:0:0:
448,192,213100,1,0,0:0:0:30:Hat Open.wav
320,192,213255,1,0,0:0:0:0:
192,192,213333,1,8,0:0:0:0:
64,192,213411,128,2,213566:0:0:0:0:
320,192,213411,1,0,0:0:0:30:Hat Open.wav
192,192,213566,128,2,213722:0:0:0:0:
448,192,213566,1,0,0:0:0:0:
320,192,213722,1,0,0:0:0:30:Hat Open.wav
64,192,213877,128,8,214032:0:0:0:0:
192,192,213877,1,0,0:0:0:0:
448,192,214032,128,0,214188:0:0:0:30:Hat Open.wav
64,192,214188,1,2,0:0:0:0:
320,192,214188,1,0,0:0:0:0:
192,192,214343,128,8,214499:0:0:0:0:
448,192,214343,1,0,0:0:0:30:Hat Open.wav
320,192,214499,128,0,214654:0:0:0:0:
64,192,214654,1,2,0:0:0:0:
192,192,214654,1,0,0:0:0:30:Hat Open.wav
320,192,214810,1,2,0:0:0:0:
448,192,214810,1,0,0:0:0:0:
64,192,214965,1,8,0:0:0:0:
448,192,214965,1,0,0:0:0:0:
192,192,215121,1,2,0:0:0:0:
320,192,215121,1,0,0:0:0:0:
64,192,215276,1,8,0:0:0:0:
192,192,215276,1,4,0:0:0:0:
64,192,215431,1,2,0:0:0:0:
448,192,215431,1,0,0:0:0:0:
320,192,215587,1,8,0:0:0:0:
448,192,215587,1,0,0:0:0:30:Hat Open.wav
64,192,215742,1,2,0:0:0:0:
192,192,215742,1,0,0:0:0:0:
64,192,215898,1,8,0:0:0:0:
448,192,215898,1,0,0:0:0:30:Hat Open.wav
192,192,216053,1,2,0:0:0:0:
320,192,216053,1,0,0:0:0:0:
64,192,216209,1,8,0:0:0:0:
192,192,216209,1,0,0:0:0:30:Hat Open.wav
320,192,216364,1,2,0:0:0:0:
448,192,216364,1,0,0:0:0:0:
64,192,216520,1,8,0:0:0:0:
448,192,216520,1,0,0:0:0:30:Hat Open.wav
192,192,216675,1,2,0:0:0:0:
320,192,216675,1,0,0:0:0:0:
320,192,216830,1,8,0:0:0:0:
448,192,216830,1,0,0:0:0:30:Hat Open.wav
64,192,216986,1,2,0:0:0:0:
192,192,216986,1,0,0:0:0:0:
64,192,217141,1,8,0:0:0:0:
448,192,217141,1,0,0:0:0:30:Hat Open.wav
192,192,217297,1,2,0:0:0:0:
320,192,217297,1,0,0:0:0:0:
64,192,217452,1,8,0:0:0:0:
192,192,217452,1,0,0:0:0:30:Hat Open.wav
320,192,217608,1,8,0:0:0:0:
448,192,217608,1,4,0:0:0:0:
192,192,217763,128,0,217996:0:0:0:0:
448,192,217996,1,0,0:0:0:0:
320,192,218074,1,0,0:0:0:0:
64,192,218307,1,0,0:0:0:0:
192,192,218385,128,0,218540:0:0:0:0:
320,192,218540,128,0,218696:0:0:0:0:
448,192,218851,128,0,219007:0:0:0:0:
192,192,219162,128,0,219317:0:0:0:0:
320,192,219473,128,0,219628:0:0:0:0:
64,192,219784,1,8,0:0:0:0:
192,192,219784,1,0,0:0:0:0:
320,192,219939,1,8,0:0:0:0:
448,192,219939,1,0,0:0:0:0:
64,192,220095,128,2,226468:0:0:0:0:
448,192,220095,1,4,0:0:0:0:
