osu file format v14

[General]
AudioFilename: audio.ogg
AudioLeadIn: 0
PreviewTime: 183255
Countdown: 0
SampleSet: Soft
StackLeniency: 0.7
Mode: 3
LetterboxInBreaks: 0
SpecialStyle: 0
WidescreenStoryboard: 1

[Editor]
Bookmarks: 15069,25017,34965,44913,89680,99628,109577,119525,163048,172996
DistanceSpacing: 2
BeatDivisor: 4
GridSize: 4
TimelineZoom: 1.8

[Metadata]
Title:Guitar to Kodoku to Aoi Hoshi
TitleUnicode:ギターと孤独と蒼い惑星
Artist:kessoku band
ArtistUnicode:結束バンド
Creator:Syadow-
Version:Look at Me // Yui's NORMAL
Source:ぼっち・ざ・ろっく!
Tags:Guitar Loneliness and Blue Planet wakusei bocchi the rock insert song jrock j-rock japanese 音羽 otoha 長谷川 育美 Ikumi Hasegawa akkin ZAQ track 5 five suzumeayase yuiazu- onii_ue mirsaaa SVWC-70613 Clover Works CloverWorks
BeatmapID:3933079
BeatmapSetID:1894825

[Difficulty]
HPDrainRate:7
CircleSize:4
OverallDifficulty:7.5
ApproachRate:5
SliderMultiplier:1.4
SliderTickRate:1

[Events]
//Background and Video events
0,0,"Fk-mUHRaMAIbrnA.jpeg",0,0
//Break Periods
//Storyboard Layer 0 (Background)
//Storyboard Layer 1 (Fail)
//Storyboard Layer 2 (Pass)
//Storyboard Layer 3 (Foreground)
//Storyboard Layer 4 (Overlay)
//Storyboard Sound Samples
Sample,3255,0,"Hat Open.wav",30
Sample,4499,0,"Hat Open.wav",30
Sample,5742,0,"Hat Open.wav",30
Sample,6986,0,"Hat Open.wav",30
Sample,8229,0,"Hat Open.wav",30
Sample,9473,0,"Hat Open.wav",30
Sample,12426,0,"Hat Open.wav",30
Sample,34499,0,"Hat Open.wav",30
Sample,53307,0,"Tom2.wav",40
Sample,56727,0,"Hat Open.wav",30
Sample,57349,0,"Hat Open.wav",30
Sample,57970,0,"Hat Open.wav",30
Sample,58592,0,"Hat Open.wav",30
Sample,59214,0,"Hat Open.wav",30
Sample,59836,0,"Hat Open.wav",30
Sample,60457,0,"Hat Open.wav",30
Sample,61701,0,"Hat Open.wav",30
Sample,62944,0,"Hat Open.wav",30
Sample,63566,0,"Hat Open.wav",30
Sample,64032,0,"Hat Open.wav",30
Sample,64499,0,"Hat Open.wav",30
Sample,64810,0,"Hat Open.wav",30
Sample,66675,0,"Hat Open.wav",30
Sample,67297,0,"Hat Open.wav",30
Sample,67918,0,"Hat Open.wav",30
Sample,79110,0,"Hat Open.wav",30
Sample,80354,0,"Hat Open.wav",30
Sample,81597,0,"Hat Open.wav",30
Sample,82841,0,"Hat Open.wav",30
Sample,84084,0,"Hat Open.wav",30
Sample,85328,0,"Hat Open.wav",30
Sample,109110,0,"Hat Open.wav",30
Sample,127918,0,"Tom2.wav",40
Sample,128229,0,"Hat Open.wav",30
Sample,131338,0,"Hat Open.wav",30
Sample,131960,0,"Hat Open.wav",30
Sample,132582,0,"Hat Open.wav",30
Sample,133203,0,"Hat Open.wav",30
Sample,133825,0,"Hat Open.wav",30
Sample,134447,0,"Hat Open.wav",30
Sample,135069,0,"Hat Open.wav",30
Sample,136312,0,"Hat Open.wav",30
Sample,136934,0,"Hat Open.wav",30
Sample,137556,0,"Hat Open.wav",30
Sample,138178,0,"Hat Open.wav",30
Sample,138644,0,"Hat Open.wav",30
Sample,139110,0,"Hat Open.wav",30
Sample,139421,0,"Hat Open.wav",30
Sample,141286,0,"Hat Open.wav",30
Sample,141908,0,"Hat Open.wav",30
Sample,142530,0,"Hat Open.wav",30
Sample,153722,0,"Hat Open.wav",30
Sample,154965,0,"Hat Open.wav",30
Sample,156209,0,"Hat Open.wav",30
Sample,157452,0,"Hat Open.wav",30
Sample,158696,0,"Hat Open.wav",30
Sample,159939,0,"Hat Open.wav",30
Sample,186053,0,"Hat Open.wav",30
Sample,186675,0,"Hat Open.wav",30
Sample,187297,0,"Hat Open.wav",30
Sample,187918,0,"Hat Open.wav",30
Sample,188540,0,"Hat Open.wav",30
Sample,189162,0,"Hat Open.wav",30
Sample,189784,0,"Hat Open.wav",30
Sample,190406,0,"Hat Open.wav",30
Sample,191027,0,"Hat Open.wav",30
Sample,192271,0,"Hat Open.wav",30
Sample,192893,0,"Hat Open.wav",30
Sample,193359,0,"Hat Open.wav",30
Sample,193825,0,"Hat Open.wav",30
Sample,194136,0,"Hat Open.wav",30
Sample,196001,0,"Hat Open.wav",30
Sample,196623,0,"Hat Open.wav",30
Sample,197245,0,"Hat Open.wav",30
Sample,198644,0,"Tom1.wav",40
Sample,208437,0,"Hat Open.wav",30
Sample,209680,0,"Hat Open.wav",30
Sample,210924,0,"Hat Open.wav",30
Sample,212167,0,"Hat Open.wav",30
Sample,213411,0,"Hat Open.wav",30
Sample,214654,0,"Hat Open.wav",30

[TimingPoints]
2634,310.880829015544,4,2,1,50,1,0
56105,-100,4,2,1,50,0,1
77245,-100,4,2,1,50,0,0
130716,-100,4,2,1,50,0,1
151856,-100,4,2,1,50,0,0
185431,-100,4,2,1,50,0,1
206571,-100,4,2,1,50,0,0

[HitObjects]
192,192,1390,5,0,0:0:0:30:Hat Open2.wav
192,192,1701,1,0,0:0:0:30:Hat Open2.wav
320,192,2012,1,0,0:0:0:30:Hat Open2.wav
320,192,2323,1,0,0:0:0:30:Hat Open2.wav
64,192,2634,1,2,0:0:0:0:
192,192,2634,1,4,0:0:0:0:
448,192,2789,1,2,0:0:0:0:
64,192,2944,1,8,0:0:0:0:
320,192,2944,1,0,0:0:0:30:Hat Open.wav
192,192,3100,1,0,0:0:0:0:
448,192,3255,1,2,0:0:0:0:
320,192,3411,1,2,0:0:0:0:
64,192,3722,1,8,0:0:0:0:
448,192,3722,1,0,0:0:0:0:
192,192,4032,1,2,0:0:0:0:
320,192,4188,1,8,0:0:0:0:
448,192,4188,1,0,0:0:0:30:Hat Open.wav
64,192,4343,1,0,0:0:0:0:
192,192,4499,1,2,0:0:0:0:
448,192,4654,1,2,0:0:0:0:
320,192,4810,128,8,4965:0:0:0:0:
192,192,4965,128,8,5121:0:0:0:0:
64,192,5121,1,2,0:0:0:0:
448,192,5121,1,0,0:0:0:30:Hat Open.wav
320,192,5276,1,2,0:0:0:0:
64,192,5431,1,8,0:0:0:0:
192,192,5431,1,0,0:0:0:30:Hat Open.wav
448,192,5587,1,0,0:0:0:0:
320,192,5742,1,2,0:0:0:0:
64,192,5898,1,2,0:0:0:0:
192,192,6209,1,8,0:0:0:0:
448,192,6209,1,0,0:0:0:0:
320,192,6520,1,2,0:0:0:0:
64,192,6675,1,8,0:0:0:0:
192,192,6675,1,0,0:0:0:30:Hat Open.wav
448,192,6986,1,2,0:0:0:0:
192,192,7141,128,8,7297:0:0:0:0:
320,192,7297,128,2,7452:0:0:0:0:
64,192,7452,128,8,7608:0:0:0:0:
320,192,7608,1,2,0:0:0:0:
448,192,7608,1,4,0:0:0:0:
192,192,7763,1,2,0:0:0:0:
64,192,7918,1,8,0:0:0:0:
448,192,7918,1,0,0:0:0:30:Hat Open.wav
320,192,8074,1,0,0:0:0:0:
192,192,8229,1,2,0:0:0:0:
448,192,8385,1,2,0:0:0:0:
64,192,8696,1,8,0:0:0:0:
320,192,8696,1,0,0:0:0:0:
192,192,9007,1,2,0:0:0:0:
320,192,9162,1,8,0:0:0:0:
448,192,9162,1,0,0:0:0:30:Hat Open.wav
64,192,9473,1,2,0:0:0:0:
320,192,9628,1,2,0:0:0:0:
192,192,9784,128,8,9939:0:0:0:0:
448,192,9939,128,8,10095:0:0:0:0:
64,192,10095,1,2,0:0:0:0:
320,192,10095,1,4,0:0:0:0:
192,192,10406,1,8,0:0:0:0:
448,192,10406,1,0,0:0:0:30:Hat Open.wav
320,192,10561,1,2,0:0:0:0:
64,192,10716,1,8,0:0:0:0:
192,192,10716,1,0,0:0:0:30:Hat Open.wav
448,192,10872,1,2,0:0:0:0:
64,192,11027,1,8,0:0:0:0:
320,192,11027,1,0,0:0:0:30:Hat Open.wav
192,192,11183,1,2,0:0:0:0:
320,192,11338,1,8,0:0:0:0:
448,192,11338,1,0,0:0:0:30:Hat Open.wav
64,192,11494,1,2,0:0:0:0:
192,192,11649,1,8,0:0:0:0:
448,192,11649,1,0,0:0:0:30:Hat Open.wav
320,192,11804,1,2,0:0:0:0:
64,192,11960,1,8,0:0:0:0:
192,192,11960,1,0,0:0:0:30:Hat Open.wav
448,192,12115,1,2,0:0:0:0:
64,192,12271,1,8,0:0:0:0:
320,192,12271,1,0,0:0:0:30:Hat Open.wav
320,192,12426,1,8,0:0:0:0:
192,192,12582,128,0,12893:0:0:0:30:Hat Open.wav
448,192,12893,128,0,13203:0:0:0:0:
64,192,13203,128,0,13359:0:0:0:0:
320,192,13359,128,0,13514:0:0:0:0:
192,192,13670,128,0,13825:0:0:0:0:
448,192,13981,128,0,14136:0:0:0:0:
320,192,14136,128,0,14292:0:0:0:0:
64,192,14292,128,0,14447:0:0:0:0:
320,192,14602,128,0,14758:0:0:0:0:
192,192,14758,128,0,15069:0:0:0:0:
64,192,15069,1,2,0:0:0:0:
448,192,15069,1,0,0:0:0:0:
320,192,15380,1,2,0:0:0:0:
192,192,15535,1,0,0:0:0:40:Tom2.wav
448,192,15690,1,2,0:0:0:0:
64,192,15846,1,0,0:0:0:40:Tom2.wav
320,192,16001,1,2,0:0:0:0:
192,192,16157,1,0,0:0:0:40:Tom2.wav
448,192,16312,1,2,0:0:0:0:
64,192,16623,1,2,0:0:0:0:
192,192,16779,1,0,0:0:0:40:Tom2.wav
448,192,16934,1,2,0:0:0:0:
320,192,17089,1,0,0:0:0:40:Tom2.wav
64,192,17245,1,2,0:0:0:0:
448,192,17400,1,0,0:0:0:40:Tom2.wav
192,192,17556,1,2,0:0:0:0:
320,192,17867,1,2,0:0:0:0:
64,192,18022,1,0,0:0:0:40:Tom2.wav
448,192,18178,1,2,0:0:0:0:
192,192,18333,1,0,0:0:0:40:Tom2.wav
320,192,18488,1,2,0:0:0:0:
64,192,18644,1,0,0:0:0:40:Tom2.wav
448,192,18799,1,2,0:0:0:0:
192,192,19110,1,2,0:0:0:0:
320,192,19266,1,0,0:0:0:40:Tom2.wav
64,192,19421,1,2,0:0:0:0:
448,192,19577,1,0,0:0:0:40:Tom2.wav
320,192,19732,1,2,0:0:0:0:
64,192,19887,1,0,0:0:0:40:Tom2.wav
192,192,20043,1,2,0:0:0:0:
448,192,20354,1,2,0:0:0:0:
320,192,20509,1,0,0:0:0:40:Tom2.wav
64,192,20665,1,2,0:0:0:0:
448,192,20820,1,0,0:0:0:40:Tom2.wav
192,192,20975,1,2,0:0:0:0:
320,192,21131,1,0,0:0:0:40:Tom2.wav
64,192,21286,1,2,0:0:0:0:
448,192,21597,1,2,0:0:0:0:
192,192,21753,1,0,0:0:0:40:Tom2.wav
320,192,21908,1,2,0:0:0:0:
64,192,22064,1,0,0:0:0:40:Tom2.wav
192,192,22219,1,2,0:0:0:0:
448,192,22374,1,0,0:0:0:40:Tom2.wav
320,192,22530,1,2,0:0:0:0:
64,192,22841,1,2,0:0:0:0:
448,192,22996,1,0,0:0:0:40:Tom2.wav
192,192,23152,1,2,0:0:0:0:
320,192,23307,1,0,0:0:0:40:Tom2.wav
64,192,23463,1,2,0:0:0:0:
320,192,23618,1,0,0:0:0:40:Tom2.wav
192,192,23773,1,2,0:0:0:0:
448,192,23929,1,0,0:0:0:40:Tom2.wav
64,192,24084,1,2,0:0:0:0:
320,192,24240,1,0,0:0:0:40:Tom2.wav
192,192,24395,1,2,0:0:0:0:
64,192,24551,1,8,0:0:0:0:
448,192,24551,1,0,0:0:0:30:Hat Open.wav
320,192,24861,1,8,0:0:0:0:
64,192,25017,1,4,0:0:0:0:
192,192,25017,1,2,0:0:0:0:
320,192,25328,1,8,0:0:0:0:
448,192,25328,1,0,0:0:0:0:
192,192,25483,1,0,0:0:0:30:Hat Open.wav
448,192,25639,1,2,0:0:0:0:
64,192,25794,1,0,0:0:0:30:Hat Open.wav
192,192,25950,1,8,0:0:0:0:
320,192,25950,1,0,0:0:0:0:
448,192,26105,1,0,0:0:0:30:Hat Open.wav
64,192,26260,128,2,26571:0:0:0:0:
192,192,26571,1,8,0:0:0:0:
448,192,26571,128,0,26882:0:0:0:0:
320,192,26882,128,2,27193:0:0:0:0:
64,192,27193,1,8,0:0:0:0:
192,192,27193,128,0,27504:0:0:0:0:
448,192,27504,128,2,27815:0:0:0:0:
64,192,27815,1,8,0:0:0:0:
320,192,27815,1,0,0:0:0:0:
192,192,27970,1,0,0:0:0:30:Hat Open.wav
320,192,28126,128,2,28437:0:0:0:0:
64,192,28437,1,8,0:0:0:0:
192,192,28437,1,0,0:0:0:0:
448,192,28592,1,0,0:0:0:30:Hat Open.wav
192,192,28747,128,2,29058:0:0:0:0:
320,192,29058,1,8,0:0:0:0:
448,192,29058,1,0,0:0:0:0:
64,192,29214,1,0,0:0:0:30:Hat Open.wav
448,192,29369,128,2,29680:0:0:0:0:
64,192,29680,1,8,0:0:0:0:
192,192,29680,1,0,0:0:0:0:
320,192,29836,1,0,0:0:0:30:Hat Open.wav
64,192,29991,128,2,30302:0:0:0:0:
320,192,30302,1,8,0:0:0:0:
448,192,30302,1,0,0:0:0:0:
192,192,30613,1,2,0:0:0:0:
64,192,30924,1,8,0:0:0:0:
448,192,30924,128,0,31235:0:0:0:0:
320,192,31235,128,2,31545:0:0:0:0:
64,192,31545,1,8,0:0:0:0:
192,192,31545,128,0,31856:0:0:0:0:
448,192,31856,128,2,32167:0:0:0:0:
64,192,32167,128,8,32478:0:0:0:0:
320,192,32167,1,0,0:0:0:0:
192,192,32478,128,2,32789:0:0:0:0:
320,192,32789,128,8,33100:0:0:0:0:
448,192,32789,1,0,0:0:0:0:
64,192,33100,128,2,33411:0:0:0:0:
192,192,33411,1,8,0:0:0:0:
448,192,33411,128,0,33722:0:0:0:0:
320,192,33722,128,2,34032:0:0:0:0:
64,192,34032,1,8,0:0:0:0:
192,192,34032,1,0,0:0:0:0:
448,192,34188,1,0,0:0:0:30:Hat Open.wav
192,192,34343,128,2,34654:0:0:0:0:
320,192,34499,1,8,0:0:0:0:
64,192,34654,1,4,0:0:0:0:
448,192,34654,1,8,0:0:0:0:
320,192,34965,1,0,0:0:0:0:
192,192,35276,1,0,0:0:0:0:
448,192,35587,1,0,0:0:0:0:
192,192,35898,1,0,0:0:0:0:
320,192,36209,1,0,0:0:0:0:
64,192,36520,1,0,0:0:0:0:
448,192,36830,1,0,0:0:0:0:
192,192,37141,1,0,0:0:0:0:
320,192,37452,1,0,0:0:0:0:
64,192,37763,1,0,0:0:0:0:
448,192,38074,1,0,0:0:0:0:
320,192,38385,1,0,0:0:0:0:
64,192,38696,1,0,0:0:0:0:
192,192,39007,1,0,0:0:0:0:
448,192,39317,1,0,0:0:0:0:
320,192,39628,1,0,0:0:0:0:
64,192,39939,1,0,0:0:0:0:
448,192,40250,1,0,0:0:0:0:
192,192,40561,1,0,0:0:0:0:
320,192,40872,1,0,0:0:0:0:
64,192,41183,1,0,0:0:0:0:
448,192,41494,1,0,0:0:0:0:
320,192,41804,1,0,0:0:0:0:
64,192,42115,1,0,0:0:0:0:
192,192,42426,1,0,0:0:0:0:
448,192,42737,1,0,0:0:0:0:
192,192,43048,1,0,0:0:0:0:
320,192,43359,1,0,0:0:0:0:
64,192,43670,128,0,43981:0:0:0:0:
192,192,43981,128,0,44292:0:0:0:0:
448,192,44292,128,0,44602:0:0:0:0:
320,192,44602,128,0,44913:0:0:0:0:
64,192,44913,1,4,0:0:0:0:
192,192,44913,1,2,0:0:0:0:
448,192,45224,1,2,0:0:0:0:
192,192,45380,1,0,0:0:0:40:Tom2.wav
320,192,45535,1,2,0:0:0:0:
64,192,45690,1,0,0:0:0:40:Tom2.wav
448,192,45846,1,2,0:0:0:0:
192,192,46001,1,0,0:0:0:40:Tom2.wav
320,192,46157,1,2,0:0:0:0:
64,192,46468,1,2,0:0:0:0:
320,192,46623,1,0,0:0:0:40:Tom2.wav
192,192,46779,1,2,0:0:0:0:
448,192,46934,1,0,0:0:0:40:Tom2.wav
64,192,47089,1,2,0:0:0:0:
320,192,47245,1,0,0:0:0:40:Tom2.wav
192,192,47400,1,2,0:0:0:0:
448,192,47556,1,0,0:0:0:40:Tom2.wav
320,192,47711,1,2,0:0:0:0:
64,192,47867,1,0,0:0:0:40:Tom2.wav
192,192,48022,1,2,0:0:0:0:
448,192,48178,1,0,0:0:0:40:Tom2.wav
64,192,48333,1,2,0:0:0:0:
320,192,48488,1,0,0:0:0:40:Tom2.wav
192,192,48644,1,2,0:0:0:0:
448,192,48799,1,0,0:0:0:40:Tom2.wav
320,192,48955,1,2,0:0:0:0:
64,192,49110,1,0,0:0:0:40:Tom2.wav
192,192,49266,1,2,0:0:0:0:
448,192,49421,1,0,0:0:0:40:Tom2.wav
64,192,49577,1,2,0:0:0:0:
320,192,49732,1,0,0:0:0:40:Tom2.wav
192,192,49887,1,2,0:0:0:0:
448,192,50198,1,2,0:0:0:0:
192,192,50354,1,0,0:0:0:40:Tom2.wav
320,192,50509,1,2,0:0:0:0:
64,192,50665,1,0,0:0:0:40:Tom2.wav
448,192,50820,1,2,0:0:0:0:
192,192,50975,1,0,0:0:0:40:Tom2.wav
320,192,51131,1,2,0:0:0:0:
64,192,51286,1,0,0:0:0:40:Tom2.wav
192,192,51442,1,2,0:0:0:0:
448,192,51597,1,0,0:0:0:40:Tom2.wav
320,192,51753,1,2,0:0:0:0:
64,192,51908,1,0,0:0:0:40:Tom2.wav
448,192,52064,1,2,0:0:0:0:
192,192,52219,1,0,0:0:0:40:Tom2.wav
320,192,52374,1,2,0:0:0:0:
64,192,52530,128,8,52685:0:0:0:0:
448,192,52685,128,8,52841:0:0:0:0:
192,192,52841,1,8,0:0:0:0:
320,192,52996,128,8,53152:0:0:0:0:
64,192,53152,128,8,53307:0:0:0:0:
448,192,53307,1,8,0:0:0:0:
192,192,53463,128,8,53618:0:0:0:0:
320,192,53618,1,0,0:0:0:40:Tom1.wav
448,192,53773,128,8,53929:0:0:0:0:
64,192,53929,128,10,54084:0:0:0:0:
192,192,54084,1,8,0:0:0:0:
448,192,54240,1,10,0:0:0:0:
320,192,54395,128,8,54551:0:0:0:0:
192,192,54551,128,8,54706:0:0:0:0:
448,192,54706,128,8,54861:0:0:0:0:
64,192,54861,1,0,0:0:0:0:
320,192,55172,1,2,0:0:0:0:
192,192,55483,1,2,0:0:0:0:
448,192,55794,1,2,0:0:0:0:
64,192,56105,1,2,0:0:0:0:
320,192,56105,1,4,0:0:0:0:
192,192,56260,1,0,0:0:0:0:
320,192,56416,1,8,0:0:0:0:
448,192,56416,1,0,0:0:0:30:Hat Open.wav
192,192,56727,1,2,0:0:0:0:
320,192,56882,1,2,0:0:0:0:
64,192,57038,1,8,0:0:0:0:
448,192,57038,1,0,0:0:0:30:Hat Open.wav
320,192,57349,128,2,57659:0:0:0:0:
64,192,57659,1,8,0:0:0:0:
192,192,57659,128,0,57970:0:0:0:30:Hat Open.wav
448,192,57970,128,2,58281:0:0:0:0:
320,192,58126,1,2,0:0:0:0:
64,192,58281,128,8,58592:0:0:0:0:
192,192,58281,1,0,0:0:0:30:Hat Open.wav
320,192,58592,128,2,58903:0:0:0:0:
192,192,58903,128,8,59214:0:0:0:0:
448,192,58903,1,0,0:0:0:30:Hat Open.wav
64,192,59214,128,2,59525:0:0:0:0:
320,192,59369,1,2,0:0:0:0:
192,192,59525,1,8,0:0:0:0:
448,192,59525,128,0,59836:0:0:0:30:Hat Open.wav
320,192,59836,128,2,60146:0:0:0:0:
64,192,60146,1,8,0:0:0:0:
192,192,60146,1,0,0:0:0:30:Hat Open.wav
448,192,60302,1,0,0:0:0:0:
192,192,60457,1,2,0:0:0:0:
320,192,60613,1,2,0:0:0:0:
64,192,60768,1,8,0:0:0:0:
448,192,60768,1,0,0:0:0:30:Hat Open.wav
192,192,60924,1,2,0:0:0:0:
320,192,61079,1,2,0:0:0:0:
448,192,61079,1,4,0:0:0:0:
64,192,61390,1,8,0:0:0:0:
192,192,61390,1,0,0:0:0:30:Hat Open.wav
320,192,61701,1,2,0:0:0:0:
192,192,61856,1,2,0:0:0:0:
64,192,62012,1,8,0:0:0:0:
448,192,62012,1,0,0:0:0:30:Hat Open.wav
192,192,62323,1,2,0:0:0:0:
320,192,62323,1,0,0:0:0:30:Hat Open.wav
64,192,62633,1,8,0:0:0:0:
448,192,62633,1,0,0:0:0:30:Hat Open.wav
192,192,62944,1,2,0:0:0:0:
320,192,63100,1,2,0:0:0:0:
64,192,63255,1,8,0:0:0:0:
448,192,63255,1,0,0:0:0:30:Hat Open.wav
320,192,63566,1,2,0:0:0:0:
192,192,63722,128,8,63877:0:0:0:0:
448,192,63877,128,8,64032:0:0:0:0:
64,192,64032,1,2,0:0:0:0:
320,192,64188,128,8,64343:0:0:0:0:
192,192,64343,128,8,64499:0:0:0:0:
448,192,64499,1,2,0:0:0:0:
64,192,64654,128,8,64810:0:0:0:0:
320,192,64810,1,2,0:0:0:0:
192,192,64965,128,8,65121:0:0:0:0:
448,192,65121,128,10,65276:0:0:0:0:
64,192,65276,128,8,65431:0:0:0:0:
320,192,65431,128,0,65587:0:0:0:40:Tom1.wav
192,192,65587,128,8,65742:0:0:0:0:
448,192,65742,128,8,65898:0:0:0:0:
320,192,65898,128,8,66053:0:0:0:0:
64,192,66053,1,2,0:0:0:0:
192,192,66053,1,4,0:0:0:0:
448,192,66209,1,0,0:0:0:0:
64,192,66364,1,8,0:0:0:0:
320,192,66364,1,0,0:0:0:30:Hat Open.wav
192,192,66675,1,2,0:0:0:0:
320,192,66830,1,2,0:0:0:0:
64,192,66986,1,8,0:0:0:0:
448,192,66986,1,0,0:0:0:30:Hat Open.wav
192,192,67297,128,2,67608:0:0:0:0:
320,192,67608,128,8,67918:0:0:0:0:
448,192,67608,1,0,0:0:0:30:Hat Open.wav
64,192,67918,128,2,68229:0:0:0:0:
192,192,68074,1,2,0:0:0:0:
320,192,68229,1,8,0:0:0:0:
448,192,68229,128,0,68540:0:0:0:30:Hat Open.wav
64,192,68540,1,2,0:0:0:0:
192,192,68540,1,4,0:0:0:0:
320,192,68696,1,2,0:0:0:0:
64,192,68851,1,8,0:0:0:0:
448,192,68851,1,0,0:0:0:0:
192,192,69007,1,2,0:0:0:0:
320,192,69007,1,4,0:0:0:0:
64,192,69317,1,2,0:0:0:0:
320,192,69473,1,8,0:0:0:0:
448,192,69473,1,0,0:0:0:0:
64,192,69628,1,2,0:0:0:0:
192,192,69628,1,4,0:0:0:0:
320,192,69939,1,2,0:0:0:0:
64,192,70095,1,8,0:0:0:0:
448,192,70095,1,0,0:0:0:30:Hat Open.wav
192,192,70406,128,2,70561:0:0:0:0:
320,192,70561,128,8,70716:0:0:0:0:
64,192,70716,128,2,70872:0:0:0:0:
448,192,70872,128,8,71027:0:0:0:0:
64,192,71027,1,2,0:0:0:0:
320,192,71027,1,4,0:0:0:0:
192,192,71338,1,8,0:0:0:0:
448,192,71338,1,0,0:0:0:30:Hat Open.wav
192,192,71649,1,8,0:0:0:0:
320,192,71649,1,0,0:0:0:30:Hat Open.wav
64,192,71960,1,8,0:0:0:0:
320,192,71960,1,0,0:0:0:30:Hat Open.wav
64,192,72271,1,8,0:0:0:0:
448,192,72271,1,0,0:0:0:30:Hat Open.wav
192,192,72582,1,8,0:0:0:0:
448,192,72582,1,0,0:0:0:30:Hat Open.wav
192,192,72893,1,8,0:0:0:0:
320,192,72893,1,0,0:0:0:30:Hat Open.wav
64,192,73203,1,8,0:0:0:0:
320,192,73203,1,0,0:0:0:30:Hat Open.wav
64,192,73514,1,8,0:0:0:0:
448,192,73514,1,4,0:0:0:0:
192,192,73670,1,2,0:0:0:0:
320,192,73825,1,8,0:0:0:0:
448,192,73825,1,0,0:0:0:30:Hat Open.wav
192,192,73981,1,2,0:0:0:0:
64,192,74136,1,8,0:0:0:0:
320,192,74136,1,0,0:0:0:30:Hat Open.wav
448,192,74292,1,2,0:0:0:0:
64,192,74447,1,8,0:0:0:0:
192,192,74447,1,0,0:0:0:30:Hat Open.wav
320,192,74602,1,2,0:0:0:0:
192,192,74758,1,8,0:0:0:0:
448,192,74758,1,0,0:0:0:30:Hat Open.wav
64,192,74913,1,2,0:0:0:0:
320,192,75069,1,8,0:0:0:0:
448,192,75069,1,0,0:0:0:30:Hat Open.wav
192,192,75224,1,2,0:0:0:0:
64,192,75380,1,8,0:0:0:0:
320,192,75380,1,0,0:0:0:30:Hat Open.wav
448,192,75535,1,2,0:0:0:0:
64,192,75690,1,8,0:0:0:0:
192,192,75690,1,0,0:0:0:30:Hat Open.wav
320,192,75846,1,2,0:0:0:0:
192,192,76001,1,4,0:0:0:0:
448,192,76001,1,8,0:0:0:0:
64,192,76312,1,8,0:0:0:0:
192,192,76468,1,8,0:0:0:0:
320,192,76623,1,8,0:0:0:0:
448,192,76623,1,0,0:0:0:0:
320,192,76779,1,8,0:0:0:0:
64,192,76934,1,8,0:0:0:0:
192,192,76934,1,0,0:0:0:0:
192,192,77089,1,8,0:0:0:0:
320,192,77245,1,8,0:0:0:0:
448,192,77245,1,0,0:0:0:0:
64,192,77400,1,2,0:0:0:0:
64,192,77867,1,8,0:0:0:0:
192,192,77867,1,0,0:0:0:0:
448,192,78022,1,2,0:0:0:0:
64,192,78488,1,2,0:0:0:0:
320,192,78488,1,4,0:0:0:0:
192,192,78644,1,2,0:0:0:0:
320,192,78799,1,8,0:0:0:0:
448,192,78799,1,0,0:0:0:30:Hat Open.wav
64,192,78955,1,0,0:0:0:0:
448,192,79110,1,2,0:0:0:0:
192,192,79266,1,2,0:0:0:0:
64,192,79577,1,8,0:0:0:0:
320,192,79577,1,0,0:0:0:0:
448,192,79887,1,2,0:0:0:0:
64,192,80043,1,8,0:0:0:0:
192,192,80043,1,0,0:0:0:30:Hat Open.wav
320,192,80354,1,2,0:0:0:0:
192,192,80509,1,2,0:0:0:0:
448,192,80665,128,8,80820:0:0:0:0:
64,192,80820,128,8,80975:0:0:0:0:
192,192,80975,1,2,0:0:0:0:
448,192,80975,1,0,0:0:0:30:Hat Open.wav
320,192,81131,1,2,0:0:0:0:
64,192,81286,1,8,0:0:0:0:
192,192,81286,1,0,0:0:0:30:Hat Open.wav
448,192,81442,1,0,0:0:0:0:
320,192,81597,1,2,0:0:0:0:
64,192,81753,1,2,0:0:0:0:
192,192,82064,1,8,0:0:0:0:
448,192,82064,1,0,0:0:0:0:
320,192,82374,1,2,0:0:0:0:
64,192,82530,1,8,0:0:0:0:
192,192,82530,1,0,0:0:0:30:Hat Open.wav
448,192,82841,1,2,0:0:0:0:
192,192,82996,128,8,83152:0:0:0:0:
320,192,83152,128,8,83307:0:0:0:0:
64,192,83307,128,8,83463:0:0:0:0:
320,192,83463,1,4,0:0:0:0:
448,192,83463,1,2,0:0:0:0:
192,192,83618,1,2,0:0:0:0:
64,192,83773,1,8,0:0:0:0:
448,192,83773,1,0,0:0:0:30:Hat Open.wav
320,192,83929,1,0,0:0:0:0:
192,192,84084,1,2,0:0:0:0:
448,192,84240,1,2,0:0:0:0:
64,192,84551,1,8,0:0:0:0:
320,192,84551,1,0,0:0:0:0:
192,192,84861,1,2,0:0:0:0:
320,192,85017,1,8,0:0:0:0:
448,192,85017,1,0,0:0:0:30:Hat Open.wav
64,192,85328,1,2,0:0:0:0:
192,192,85483,1,2,0:0:0:0:
448,192,85639,128,8,85794:0:0:0:0:
320,192,85794,128,8,85950:0:0:0:0:
64,192,85950,1,4,0:0:0:0:
192,192,85950,1,2,0:0:0:0:
320,192,86260,1,8,0:0:0:0:
448,192,86260,1,0,0:0:0:30:Hat Open.wav
192,192,86416,1,2,0:0:0:0:
64,192,86571,1,8,0:0:0:0:
448,192,86571,1,0,0:0:0:30:Hat Open.wav
320,192,86727,1,2,0:0:0:0:
64,192,86882,1,8,0:0:0:0:
192,192,86882,1,0,0:0:0:30:Hat Open.wav
320,192,87038,1,2,0:0:0:0:
192,192,87193,1,8,0:0:0:0:
448,192,87193,1,0,0:0:0:30:Hat Open.wav
64,192,87349,1,2,0:0:0:0:
320,192,87504,1,8,0:0:0:0:
448,192,87504,1,0,0:0:0:30:Hat Open.wav
192,192,87659,1,2,0:0:0:0:
64,192,87815,1,8,0:0:0:0:
320,192,87815,1,0,0:0:0:30:Hat Open.wav
448,192,87970,1,2,0:0:0:0:
64,192,88126,1,8,0:0:0:0:
192,192,88126,1,0,0:0:0:30:Hat Open.wav
320,192,88281,128,8,88592:0:0:0:0:
448,192,88281,1,0,0:0:0:30:Hat Open.wav
64,192,89680,1,2,0:0:0:0:
448,192,89680,1,0,0:0:0:0:
192,192,89991,1,2,0:0:0:0:
320,192,90146,1,0,0:0:0:40:Tom2.wav
64,192,90302,1,2,0:0:0:0:
448,192,90457,1,0,0:0:0:40:Tom2.wav
320,192,90613,1,2,0:0:0:0:
64,192,90768,1,0,0:0:0:40:Tom2.wav
192,192,90924,1,2,0:0:0:0:
448,192,91235,1,2,0:0:0:0:
64,192,91390,1,0,0:0:0:40:Tom2.wav
320,192,91545,1,2,0:0:0:0:
192,192,91701,1,0,0:0:0:40:Tom2.wav
448,192,91856,1,2,0:0:0:0:
64,192,92012,1,0,0:0:0:40:Tom2.wav
320,192,92167,1,2,0:0:0:0:
192,192,92478,1,2,0:0:0:0:
448,192,92633,1,0,0:0:0:40:Tom2.wav
64,192,92789,1,2,0:0:0:0:
320,192,92944,1,0,0:0:0:40:Tom2.wav
192,192,93100,1,2,0:0:0:0:
448,192,93255,1,0,0:0:0:40:Tom2.wav
64,192,93411,1,2,0:0:0:0:
320,192,93722,1,2,0:0:0:0:
192,192,93877,1,0,0:0:0:40:Tom2.wav
448,192,94032,1,2,0:0:0:0:
64,192,94188,1,0,0:0:0:40:Tom2.wav
192,192,94343,1,2,0:0:0:0:
448,192,94499,1,0,0:0:0:40:Tom2.wav
320,192,94654,1,2,0:0:0:0:
64,192,94965,1,2,0:0:0:0:
448,192,95121,1,0,0:0:0:40:Tom2.wav
192,192,95276,1,2,0:0:0:0:
320,192,95431,1,0,0:0:0:40:Tom2.wav
64,192,95587,1,2,0:0:0:0:
448,192,95742,1,0,0:0:0:40:Tom2.wav
320,192,95898,1,2,0:0:0:0:
192,192,96209,1,2,0:0:0:0:
448,192,96364,1,0,0:0:0:40:Tom2.wav
64,192,96520,1,2,0:0:0:0:
320,192,96675,1,0,0:0:0:40:Tom2.wav
192,192,96830,1,2,0:0:0:0:
448,192,96986,1,0,0:0:0:40:Tom2.wav
64,192,97141,1,2,0:0:0:0:
320,192,97452,1,2,0:0:0:0:
192,192,97608,1,0,0:0:0:40:Tom2.wav
448,192,97763,1,2,0:0:0:0:
64,192,97918,1,0,0:0:0:40:Tom2.wav
192,192,98074,1,2,0:0:0:0:
448,192,98229,1,0,0:0:0:40:Tom2.wav
320,192,98385,1,2,0:0:0:0:
64,192,98696,1,2,0:0:0:0:
192,192,98851,1,0,0:0:0:40:Tom2.wav
320,192,99007,1,2,0:0:0:0:
64,192,99162,1,8,0:0:0:0:
448,192,99162,1,0,0:0:0:30:Hat Open.wav
320,192,99473,1,8,0:0:0:0:
64,192,99628,1,4,0:0:0:0:
192,192,99628,1,2,0:0:0:0:
320,192,99939,1,8,0:0:0:0:
448,192,99939,1,0,0:0:0:0:
192,192,100250,1,2,0:0:0:0:
64,192,100561,1,8,0:0:0:0:
448,192,100561,1,0,0:0:0:0:
320,192,100716,1,0,0:0:0:30:Hat Open.wav
192,192,100872,128,2,101183:0:0:0:0:
320,192,101183,1,8,0:0:0:0:
448,192,101183,128,0,101494:0:0:0:0:
64,192,101494,128,2,101804:0:0:0:0:
448,192,101804,1,8,0:0:0:0:
320,192,101804,1,0,0:0:0:0:
192,192,101960,1,0,0:0:0:30:Hat Open.wav
320,192,102115,128,2,102426:0:0:0:0:
64,192,102426,1,8,0:0:0:0:
192,192,102426,1,0,0:0:0:0:
448,192,102582,1,0,0:0:0:30:Hat Open.wav
192,192,102737,128,2,103048:0:0:0:0:
64,192,103048,1,8,0:0:0:0:
320,192,103048,1,0,0:0:0:0:
448,192,103203,1,0,0:0:0:30:Hat Open.wav
64,192,103359,128,2,103670:0:0:0:0:
320,192,103670,1,8,0:0:0:0:
448,192,103670,1,0,0:0:0:0:
192,192,103825,1,0,0:0:0:30:Hat Open.wav
448,192,103981,128,2,104292:0:0:0:0:
64,192,104292,1,8,0:0:0:0:
320,192,104292,1,0,0:0:0:0:
192,192,104447,1,0,0:0:0:30:Hat Open.wav
320,192,104602,128,2,104913:0:0:0:0:
64,192,104913,1,8,0:0:0:0:
192,192,104913,1,0,0:0:0:0:
448,192,105224,1,2,0:0:0:0:
192,192,105535,128,8,105846:0:0:0:0:
320,192,105535,1,0,0:0:0:0:
448,192,105846,128,2,106157:0:0:0:0:
64,192,106157,128,8,106468:0:0:0:0:
192,192,106157,1,0,0:0:0:0:
320,192,106468,128,2,106779:0:0:0:0:
192,192,106779,128,8,107089:0:0:0:0:
448,192,106779,1,0,0:0:0:0:
64,192,107089,128,2,107400:0:0:0:0:
320,192,107400,1,8,0:0:0:0:
448,192,107400,128,0,107711:0:0:0:0:
192,192,107711,128,2,108022:0:0:0:0:
64,192,108022,1,8,0:0:0:0:
320,192,108022,128,0,108333:0:0:0:0:
448,192,108333,128,2,108644:0:0:0:0:
64,192,108644,1,8,0:0:0:0:
192,192,108644,1,0,0:0:0:0:
320,192,108799,1,0,0:0:0:30:Hat Open.wav
64,192,108955,128,2,109266:0:0:0:0:
192,192,109110,1,8,0:0:0:0:
320,192,109266,1,4,0:0:0:0:
448,192,109266,1,8,0:0:0:0:
192,192,109577,1,0,0:0:0:0:
448,192,109887,1,0,0:0:0:0:
64,192,110198,1,0,0:0:0:0:
320,192,110509,1,0,0:0:0:0:
192,192,110820,1,0,0:0:0:0:
448,192,111131,1,0,0:0:0:0:
64,192,111442,1,0,0:0:0:0:
320,192,111753,1,0,0:0:0:0:
192,192,112064,1,0,0:0:0:0:
448,192,112374,1,0,0:0:0:0:
320,192,112685,1,0,0:0:0:0:
64,192,112996,1,0,0:0:0:0:
192,192,113307,1,0,0:0:0:0:
448,192,113618,1,0,0:0:0:0:
64,192,113929,1,0,0:0:0:0:
320,192,114240,1,0,0:0:0:0:
192,192,114395,1,0,0:0:0:0:
448,192,114551,128,0,115172:0:0:0:0:
320,192,114861,1,0,0:0:0:0:
64,192,115172,128,0,115483:0:0:0:0:
192,192,115483,128,0,115794:0:0:0:0:
320,192,115794,128,0,116105:0:0:0:0:
64,192,116105,128,0,116416:0:0:0:0:
448,192,116416,128,0,116727:0:0:0:0:
320,192,116727,128,0,117038:0:0:0:0:
192,192,117038,128,0,117349:0:0:0:0:
448,192,117349,128,0,117659:0:0:0:0:
64,192,117659,128,0,117970:0:0:0:0:
320,192,117970,128,0,118281:0:0:0:0:
192,192,118281,128,0,118592:0:0:0:0:
448,192,118592,128,0,118903:0:0:0:0:
64,192,118903,128,0,119214:0:0:0:0:
320,192,119214,128,0,119525:0:0:0:0:
192,192,119525,1,4,0:0:0:0:
448,192,119525,1,2,0:0:0:0:
64,192,119836,1,2,0:0:0:0:
320,192,119991,1,0,0:0:0:40:Tom2.wav
192,192,120146,1,2,0:0:0:0:
448,192,120302,1,0,0:0:0:40:Tom2.wav
320,192,120457,1,2,0:0:0:0:
64,192,120613,1,0,0:0:0:40:Tom2.wav
192,192,120768,1,2,0:0:0:0:
448,192,121079,1,2,0:0:0:0:
64,192,121235,1,0,0:0:0:40:Tom2.wav
320,192,121390,1,2,0:0:0:0:
192,192,121545,1,0,0:0:0:40:Tom2.wav
448,192,121701,1,2,0:0:0:0:
64,192,121856,1,0,0:0:0:40:Tom2.wav
192,192,122012,1,2,0:0:0:0:
448,192,122167,1,0,0:0:0:40:Tom2.wav
320,192,122323,1,2,0:0:0:0:
64,192,122478,1,0,0:0:0:40:Tom2.wav
448,192,122633,1,2,0:0:0:0:
192,192,122789,1,0,0:0:0:40:Tom2.wav
320,192,122944,1,2,0:0:0:0:
64,192,123100,1,0,0:0:0:40:Tom2.wav
192,192,123255,1,2,0:0:0:0:
448,192,123411,1,0,0:0:0:40:Tom2.wav
320,192,123566,1,2,0:0:0:0:
64,192,123722,1,0,0:0:0:40:Tom2.wav
448,192,123877,1,2,0:0:0:0:
192,192,124032,1,0,0:0:0:40:Tom2.wav
320,192,124188,1,2,0:0:0:0:
64,192,124343,1,0,0:0:0:40:Tom2.wav
448,192,124499,1,2,0:0:0:0:
192,192,124810,1,2,0:0:0:0:
320,192,124965,1,0,0:0:0:40:Tom2.wav
64,192,125121,1,2,0:0:0:0:
448,192,125276,1,0,0:0:0:40:Tom2.wav
192,192,125431,1,2,0:0:0:0:
320,192,125587,1,0,0:0:0:40:Tom2.wav
64,192,125742,1,2,0:0:0:0:
448,192,125898,1,0,0:0:0:40:Tom2.wav
320,192,126053,1,2,0:0:0:0:
64,192,126209,1,0,0:0:0:40:Tom2.wav
192,192,126364,1,2,0:0:0:0:
448,192,126520,1,0,0:0:0:40:Tom2.wav
64,192,126675,1,2,0:0:0:0:
320,192,126830,1,0,0:0:0:40:Tom2.wav
192,192,126986,1,2,0:0:0:0:
448,192,127141,128,8,127297:0:0:0:0:
64,192,127297,128,8,127452:0:0:0:0:
320,192,127452,1,8,0:0:0:0:
192,192,127608,128,8,127763:0:0:0:0:
448,192,127763,128,8,127918:0:0:0:0:
64,192,127918,1,8,0:0:0:0:
320,192,128074,128,8,128229:0:0:0:0:
192,192,128229,1,2,0:0:0:0:
64,192,128385,128,8,128540:0:0:0:0:
448,192,128540,128,10,128696:0:0:0:0:
192,192,128696,1,0,0:0:0:40:Tom1.wav
320,192,128851,1,10,0:0:0:0:
64,192,129007,128,8,129162:0:0:0:0:
320,192,129162,128,8,129317:0:0:0:0:
192,192,129317,128,8,129473:0:0:0:0:
448,192,129473,128,0,130716:0:0:0:0:
320,192,129784,1,2,0:0:0:0:
64,192,130095,1,2,0:0:0:0:
320,192,130406,1,2,0:0:0:0:
64,192,130716,1,2,0:0:0:0:
192,192,130716,1,4,0:0:0:0:
320,192,130872,1,0,0:0:0:0:
64,192,131027,1,8,0:0:0:0:
448,192,131027,1,0,0:0:0:30:Hat Open.wav
192,192,131338,1,2,0:0:0:0:
320,192,131494,1,2,0:0:0:0:
64,192,131649,1,8,0:0:0:0:
448,192,131649,1,0,0:0:0:30:Hat Open.wav
192,192,131960,128,2,132271:0:0:0:0:
320,192,132271,1,8,0:0:0:0:
448,192,132271,128,0,132582:0:0:0:30:Hat Open.wav
64,192,132582,128,2,132893:0:0:0:0:
192,192,132737,1,2,0:0:0:0:
320,192,132893,128,8,133203:0:0:0:0:
448,192,132893,1,0,0:0:0:30:Hat Open.wav
192,192,133203,128,2,133514:0:0:0:0:
64,192,133514,1,8,0:0:0:0:
448,192,133514,128,0,133825:0:0:0:30:Hat Open.wav
320,192,133825,128,2,134136:0:0:0:0:
192,192,133981,1,2,0:0:0:0:
64,192,134136,128,8,134447:0:0:0:0:
448,192,134136,1,0,0:0:0:30:Hat Open.wav
192,192,134447,128,2,134758:0:0:0:0:
320,192,134758,1,8,0:0:0:0:
448,192,134758,1,0,0:0:0:30:Hat Open.wav
64,192,134913,1,0,0:0:0:0:
320,192,135069,1,2,0:0:0:0:
192,192,135224,1,2,0:0:0:0:
64,192,135380,1,8,0:0:0:0:
448,192,135380,1,0,0:0:0:30:Hat Open.wav
320,192,135535,1,2,0:0:0:0:
64,192,135690,1,2,0:0:0:0:
192,192,135690,1,4,0:0:0:0:
320,192,136001,1,8,0:0:0:0:
448,192,136001,1,0,0:0:0:30:Hat Open.wav
192,192,136312,1,2,0:0:0:0:
448,192,136468,1,2,0:0:0:0:
64,192,136623,1,8,0:0:0:0:
320,192,136623,1,0,0:0:0:30:Hat Open.wav
192,192,136934,1,2,0:0:0:0:
320,192,137089,1,2,0:0:0:0:
64,192,137245,1,8,0:0:0:0:
448,192,137245,1,0,0:0:0:30:Hat Open.wav
320,192,137556,1,2,0:0:0:0:
192,192,137711,1,2,0:0:0:0:
64,192,137867,1,8,0:0:0:0:
448,192,137867,1,0,0:0:0:30:Hat Open.wav
320,192,138178,1,2,0:0:0:0:
192,192,138333,128,8,138488:0:0:0:0:
448,192,138488,128,8,138644:0:0:0:0:
64,192,138644,1,2,0:0:0:0:
320,192,138799,128,8,138955:0:0:0:0:
64,192,138955,128,8,139110:0:0:0:0:
448,192,139110,1,2,0:0:0:0:
192,192,139266,128,8,139421:0:0:0:0:
320,192,139421,1,2,0:0:0:0:
448,192,139577,128,8,139732:0:0:0:0:
64,192,139732,128,10,139887:0:0:0:0:
320,192,139887,128,8,140043:0:0:0:0:
192,192,140043,128,0,140198:0:0:0:40:Tom1.wav
448,192,140198,128,8,140354:0:0:0:0:
64,192,140354,128,8,140509:0:0:0:0:
320,192,140509,128,8,140665:0:0:0:0:
192,192,140665,1,2,0:0:0:0:
448,192,140665,1,4,0:0:0:0:
64,192,140820,1,0,0:0:0:0:
320,192,140975,1,8,0:0:0:0:
448,192,140975,1,0,0:0:0:30:Hat Open.wav
192,192,141286,1,2,0:0:0:0:
320,192,141442,1,2,0:0:0:0:
64,192,141597,1,8,0:0:0:0:
448,192,141597,1,0,0:0:0:30:Hat Open.wav
192,192,141908,128,2,142219:0:0:0:0:
320,192,142219,1,8,0:0:0:0:
448,192,142219,128,0,142530:0:0:0:30:Hat Open.wav
64,192,142530,128,2,142841:0:0:0:0:
192,192,142685,1,2,0:0:0:0:
320,192,142841,128,8,143152:0:0:0:0:
448,192,142841,1,0,0:0:0:30:Hat Open.wav
64,192,143152,1,2,0:0:0:0:
192,192,143152,1,4,0:0:0:0:
448,192,143307,1,2,0:0:0:0:
64,192,143463,1,8,0:0:0:0:
320,192,143463,1,0,0:0:0:0:
192,192,143618,1,2,0:0:0:0:
448,192,143618,1,4,0:0:0:0:
320,192,143929,1,2,0:0:0:0:
64,192,144084,1,8,0:0:0:0:
192,192,144084,1,0,0:0:0:0:
320,192,144240,1,2,0:0:0:0:
448,192,144240,1,4,0:0:0:0:
192,192,144551,1,2,0:0:0:0:
64,192,144706,1,8,0:0:0:0:
448,192,144706,1,0,0:0:0:30:Hat Open.wav
320,192,145017,128,2,145172:0:0:0:0:
192,192,145172,128,8,145328:0:0:0:0:
448,192,145328,128,10,145483:0:0:0:0:
64,192,145483,128,8,145639:0:0:0:0:
192,192,145639,1,2,0:0:0:0:
448,192,145639,1,4,0:0:0:0:
64,192,145950,1,8,0:0:0:0:
320,192,145950,1,0,0:0:0:30:Hat Open.wav
192,192,146260,1,8,0:0:0:0:
320,192,146260,1,0,0:0:0:30:Hat Open.wav
192,192,146571,1,8,0:0:0:0:
448,192,146571,1,0,0:0:0:30:Hat Open.wav
320,192,146882,1,8,0:0:0:0:
448,192,146882,1,0,0:0:0:30:Hat Open.wav
64,192,147193,1,8,0:0:0:0:
320,192,147193,1,0,0:0:0:30:Hat Open.wav
64,192,147504,1,8,0:0:0:0:
192,192,147504,1,0,0:0:0:30:Hat Open.wav
192,192,147815,1,8,0:0:0:0:
448,192,147815,1,0,0:0:0:30:Hat Open.wav
320,192,148126,1,8,0:0:0:0:
448,192,148126,1,4,0:0:0:0:
192,192,148281,1,2,0:0:0:0:
64,192,148437,1,8,0:0:0:0:
320,192,148437,1,0,0:0:0:30:Hat Open.wav
448,192,148592,1,2,0:0:0:0:
64,192,148747,1,8,0:0:0:0:
192,192,148747,1,0,0:0:0:30:Hat Open.wav
320,192,148903,1,2,0:0:0:0:
192,192,149058,1,8,0:0:0:0:
448,192,149058,1,0,0:0:0:30:Hat Open.wav
64,192,149214,1,2,0:0:0:0:
320,192,149369,1,8,0:0:0:0:
448,192,149369,1,0,0:0:0:30:Hat Open.wav
192,192,149525,1,2,0:0:0:0:
64,192,149680,1,8,0:0:0:0:
448,192,149680,1,0,0:0:0:30:Hat Open.wav
320,192,149836,1,2,0:0:0:0:
64,192,149991,1,8,0:0:0:0:
192,192,149991,1,0,0:0:0:30:Hat Open.wav
320,192,150146,1,2,0:0:0:0:
64,192,150302,1,8,0:0:0:0:
448,192,150302,1,0,0:0:0:30:Hat Open.wav
192,192,150457,1,2,0:0:0:0:
320,192,150613,1,4,0:0:0:0:
448,192,150613,1,8,0:0:0:0:
192,192,150924,1,8,0:0:0:0:
320,192,151079,1,8,0:0:0:0:
64,192,151235,1,8,0:0:0:0:
448,192,151235,1,0,0:0:0:0:
64,192,151390,1,8,0:0:0:0:
192,192,151545,1,8,0:0:0:0:
320,192,151545,1,0,0:0:0:0:
320,192,151701,1,8,0:0:0:0:
64,192,151856,1,8,0:0:0:0:
448,192,151856,1,0,0:0:0:0:
192,192,152012,1,2,0:0:0:0:
64,192,152478,1,8,0:0:0:0:
448,192,152478,1,0,0:0:0:0:
320,192,152634,1,2,0:0:0:0:
64,192,153100,1,4,0:0:0:0:
192,192,153100,1,2,0:0:0:0:
320,192,153255,1,2,0:0:0:0:
192,192,153411,1,8,0:0:0:0:
448,192,153411,1,0,0:0:0:30:Hat Open.wav
64,192,153566,1,0,0:0:0:0:
320,192,153722,1,2,0:0:0:0:
192,192,153877,1,2,0:0:0:0:
448,192,154032,1,0,0:0:0:30:Hat Open.wav
64,192,154188,1,8,0:0:0:0:
320,192,154188,1,0,0:0:0:0:
192,192,154499,1,2,0:0:0:0:
320,192,154654,1,8,0:0:0:0:
448,192,154654,1,0,0:0:0:30:Hat Open.wav
64,192,154810,1,0,0:0:0:0:
448,192,154965,1,2,0:0:0:0:
192,192,155121,1,2,0:0:0:0:
320,192,155276,128,8,155431:0:0:0:0:
192,192,155431,128,8,155587:0:0:0:0:
64,192,155587,1,2,0:0:0:0:
448,192,155587,1,0,0:0:0:30:Hat Open.wav
320,192,155742,1,2,0:0:0:0:
64,192,155898,1,8,0:0:0:0:
192,192,155898,1,0,0:0:0:30:Hat Open.wav
448,192,156053,1,0,0:0:0:0:
320,192,156209,1,2,0:0:0:0:
64,192,156364,1,2,0:0:0:0:
192,192,156520,1,0,0:0:0:30:Hat Open.wav
320,192,156675,1,8,0:0:0:0:
448,192,156675,1,0,0:0:0:0:
64,192,156986,1,2,0:0:0:0:
192,192,157141,1,8,0:0:0:0:
448,192,157141,1,0,0:0:0:30:Hat Open.wav
320,192,157297,1,0,0:0:0:0:
64,192,157452,1,2,0:0:0:0:
448,192,157608,128,8,157763:0:0:0:0:
192,192,157763,128,8,157918:0:0:0:0:
320,192,157918,128,8,158074:0:0:0:0:
64,192,158074,1,2,0:0:0:0:
448,192,158074,1,4,0:0:0:0:
192,192,158229,1,2,0:0:0:0:
320,192,158385,1,8,0:0:0:0:
448,192,158385,1,0,0:0:0:30:Hat Open.wav
64,192,158540,1,0,0:0:0:0:
192,192,158696,1,2,0:0:0:0:
448,192,158851,1,2,0:0:0:0:
320,192,159007,1,0,0:0:0:30:Hat Open.wav
64,192,159162,1,8,0:0:0:0:
192,192,159162,1,0,0:0:0:0:
320,192,159473,1,2,0:0:0:0:
64,192,159628,1,8,0:0:0:0:
448,192,159628,1,0,0:0:0:30:Hat Open.wav
192,192,159784,1,0,0:0:0:0:
320,192,159939,1,2,0:0:0:0:
64,192,160095,1,2,0:0:0:0:
448,192,160250,128,8,160406:0:0:0:0:
192,192,160406,128,8,160561:0:0:0:0:
320,192,160561,1,2,0:0:0:0:
448,192,160561,1,4,0:0:0:0:
64,192,160872,1,8,0:0:0:0:
192,192,160872,1,0,0:0:0:30:Hat Open.wav
448,192,161027,1,2,0:0:0:0:
64,192,161183,1,8,0:0:0:0:
320,192,161183,1,0,0:0:0:30:Hat Open.wav
192,192,161338,1,2,0:0:0:0:
320,192,161494,1,8,0:0:0:0:
448,192,161494,1,0,0:0:0:30:Hat Open.wav
64,192,161649,1,2,0:0:0:0:
192,192,161804,1,8,0:0:0:0:
448,192,161804,1,0,0:0:0:30:Hat Open.wav
320,192,161960,1,2,0:0:0:0:
64,192,162115,1,8,0:0:0:0:
192,192,162115,1,0,0:0:0:30:Hat Open.wav
448,192,162271,1,2,0:0:0:0:
64,192,162426,1,8,0:0:0:0:
320,192,162426,1,0,0:0:0:30:Hat Open.wav
192,192,162582,1,2,0:0:0:0:
320,192,162737,1,8,0:0:0:0:
448,192,162737,1,0,0:0:0:30:Hat Open.wav
64,192,162893,1,8,0:0:0:0:
192,192,162893,1,4,0:0:0:0:
448,192,163048,128,0,163670:0:0:0:0:
192,192,163981,128,0,164292:0:0:0:0:
320,192,164292,128,0,164602:0:0:0:0:
64,192,164602,128,0,164913:0:0:0:0:
448,192,164913,128,0,165224:0:0:0:0:
320,192,165224,128,0,165535:0:0:0:0:
192,192,165535,128,0,166001:0:0:0:0:
448,192,166001,128,0,166157:0:0:0:0:
64,192,166157,128,0,166623:0:0:0:0:
192,192,166623,128,0,166779:0:0:0:0:
448,192,166779,128,0,167089:0:0:0:0:
192,192,167400,128,0,167711:0:0:0:0:
320,192,167711,128,0,167867:0:0:0:0:
64,192,167867,128,0,168022:0:0:0:0:
448,192,168022,128,0,168644:0:0:0:0:
192,192,168955,128,0,169266:0:0:0:0:
320,192,169266,128,0,169577:0:0:0:0:
64,192,169577,128,0,169887:0:0:0:0:
448,192,169887,128,0,170198:0:0:0:0:
192,192,170198,128,0,170509:0:0:0:0:
320,192,170509,128,0,171442:0:0:0:0:
64,192,171442,128,0,171753:0:0:0:0:
448,192,171753,128,0,172374:0:0:0:0:
192,192,172685,128,0,172996:0:0:0:0:
320,192,172996,128,2,173463:0:0:0:0:
448,192,172996,1,4,0:0:0:0:
64,192,173463,1,2,0:0:0:0:
192,192,173618,1,8,0:0:0:0:
448,192,173618,1,0,0:0:0:0:
320,192,173773,1,2,0:0:0:0:
64,192,173929,128,0,174240:0:0:0:0:
192,192,174240,128,2,174706:0:0:0:0:
448,192,174706,1,2,0:0:0:0:
64,192,174861,1,8,0:0:0:0:
320,192,174861,1,0,0:0:0:0:
192,192,175017,1,2,0:0:0:0:
448,192,175172,128,0,175483:0:0:0:0:
64,192,175483,128,2,175950:0:0:0:0:
448,192,175950,1,2,0:0:0:0:
192,192,176105,1,8,0:0:0:0:
320,192,176105,1,0,0:0:0:0:
64,192,176260,1,2,0:0:0:0:
448,192,176571,1,8,0:0:0:0:
192,192,176727,128,2,177038:0:0:0:0:
320,192,177193,1,2,0:0:0:0:
64,192,177349,1,8,0:0:0:0:
448,192,177349,1,0,0:0:0:0:
192,192,177504,1,2,0:0:0:0:
320,192,177970,128,2,178437:0:0:0:0:
64,192,178437,1,2,0:0:0:0:
192,192,178592,1,8,0:0:0:0:
448,192,178592,1,0,0:0:0:0:
320,192,178747,1,2,0:0:0:0:
64,192,178903,128,0,179214:0:0:0:0:
448,192,179214,128,2,179680:0:0:0:0:
320,192,179680,1,2,0:0:0:0:
64,192,179836,1,8,0:0:0:0:
192,192,179836,1,0,0:0:0:0:
448,192,179991,1,2,0:0:0:0:
320,192,180146,128,0,180457:0:0:0:0:
64,192,180457,128,2,182789:0:0:0:0:
192,192,180457,1,0,0:0:0:0:
320,192,180924,1,2,0:0:0:0:
192,192,181079,1,8,0:0:0:0:
448,192,181235,1,2,0:0:0:0:
192,192,181701,1,2,0:0:0:0:
320,192,182167,1,2,0:0:0:0:
448,192,182323,1,8,0:0:0:0:
192,192,182478,1,2,0:0:0:0:
320,192,182789,1,8,0:0:0:0:
448,192,182789,1,0,0:0:0:0:
64,192,185431,1,2,0:0:0:0:
448,192,185431,1,4,0:0:0:0:
320,192,185587,1,0,0:0:0:0:
64,192,185742,1,8,0:0:0:0:
192,192,185742,1,0,0:0:0:30:Hat Open.wav
320,192,186053,1,2,0:0:0:0:
192,192,186209,1,2,0:0:0:0:
64,192,186364,1,8,0:0:0:0:
448,192,186364,1,0,0:0:0:30:Hat Open.wav
192,192,186675,128,2,186986:0:0:0:0:
320,192,186986,1,8,0:0:0:0:
448,192,186986,128,0,187297:0:0:0:30:Hat Open.wav
64,192,187297,128,2,187608:0:0:0:0:
192,192,187452,1,2,0:0:0:0:
320,192,187608,128,8,187918:0:0:0:0:
448,192,187608,1,0,0:0:0:30:Hat Open.wav
192,192,187918,128,2,188229:0:0:0:0:
64,192,188229,1,8,0:0:0:0:
448,192,188229,128,0,188540:0:0:0:30:Hat Open.wav
320,192,188540,128,2,188851:0:0:0:0:
192,192,188696,1,2,0:0:0:0:
64,192,188851,128,8,189162:0:0:0:0:
448,192,188851,1,0,0:0:0:30:Hat Open.wav
192,192,189162,128,2,189473:0:0:0:0:
320,192,189473,1,8,0:0:0:0:
448,192,189473,1,0,0:0:0:30:Hat Open.wav
64,192,189628,1,0,0:0:0:0:
448,192,189784,1,2,0:0:0:0:
320,192,189939,1,2,0:0:0:0:
64,192,190095,1,8,0:0:0:0:
192,192,190095,1,0,0:0:0:30:Hat Open.wav
320,192,190406,1,2,0:0:0:0:
192,192,190561,1,0,0:0:0:0:
64,192,190716,1,8,0:0:0:0:
448,192,190716,1,0,0:0:0:30:Hat Open.wav
192,192,191027,1,2,0:0:0:0:
320,192,191183,1,2,0:0:0:0:
64,192,191338,1,8,0:0:0:0:
448,192,191338,1,0,0:0:0:30:Hat Open.wav
192,192,191649,1,2,0:0:0:0:
448,192,191649,1,4,0:0:0:0:
320,192,191804,1,0,0:0:0:0:
64,192,191960,1,8,0:0:0:0:
192,192,191960,1,0,0:0:0:30:Hat Open.wav
320,192,192271,1,2,0:0:0:0:
64,192,192426,1,2,0:0:0:0:
192,192,192582,1,8,0:0:0:0:
448,192,192582,1,0,0:0:0:30:Hat Open.wav
320,192,192893,1,2,0:0:0:0:
192,192,193048,128,8,193203:0:0:0:0:
448,192,193203,128,8,193359:0:0:0:0:
64,192,193359,1,2,0:0:0:0:
320,192,193514,128,8,193670:0:0:0:0:
64,192,193670,128,8,193825:0:0:0:0:
448,192,193825,1,2,0:0:0:0:
192,192,193981,128,8,194136:0:0:0:0:
320,192,194136,1,2,0:0:0:0:
448,192,194292,128,8,194447:0:0:0:0:
64,192,194447,128,10,194602:0:0:0:0:
320,192,194602,128,8,194758:0:0:0:0:
192,192,194758,128,10,194913:0:0:0:0:
448,192,194913,128,8,195069:0:0:0:0:
64,192,195069,128,10,195224:0:0:0:0:
320,192,195224,128,8,195380:0:0:0:0:
192,192,195380,1,2,0:0:0:0:
448,192,195380,1,4,0:0:0:0:
64,192,195535,1,0,0:0:0:0:
320,192,195690,1,8,0:0:0:0:
448,192,195690,1,0,0:0:0:30:Hat Open.wav
192,192,196001,1,2,0:0:0:0:
320,192,196157,1,2,0:0:0:0:
64,192,196312,1,8,0:0:0:0:
448,192,196312,1,0,0:0:0:30:Hat Open.wav
320,192,196623,128,2,196934:0:0:0:0:
64,192,196934,1,8,0:0:0:0:
192,192,196934,128,0,197245:0:0:0:30:Hat Open.wav
448,192,197245,128,2,197556:0:0:0:0:
320,192,197400,1,2,0:0:0:0:
64,192,197556,128,8,197867:0:0:0:0:
192,192,197556,1,0,0:0:0:30:Hat Open.wav
320,192,197867,1,6,0:0:0:0:
192,192,198022,1,2,0:0:0:0:
320,192,198178,1,8,0:0:0:0:
448,192,198178,1,0,0:0:0:0:
64,192,198333,1,2,0:0:0:0:
192,192,198333,1,4,0:0:0:0:
448,192,198644,1,2,0:0:0:0:
64,192,198799,1,8,0:0:0:0:
320,192,198799,1,0,0:0:0:0:
192,192,198955,1,2,0:0:0:0:
448,192,198955,1,4,0:0:0:0:
64,192,199266,1,2,0:0:0:0:
320,192,199421,1,8,0:0:0:0:
448,192,199421,1,0,0:0:0:30:Hat Open.wav
192,192,199577,1,2,0:0:0:0:
64,192,199732,1,8,0:0:0:0:
448,192,199732,1,0,0:0:0:30:Hat Open.wav
320,192,199887,1,0,0:0:0:0:
192,192,200043,128,8,200198:0:0:0:0:
320,192,200198,128,8,200354:0:0:0:0:
64,192,200354,1,2,0:0:0:0:
448,192,200354,1,4,0:0:0:0:
192,192,200665,1,8,0:0:0:0:
320,192,200665,1,0,0:0:0:30:Hat Open.wav
192,192,200975,1,8,0:0:0:0:
448,192,200975,1,0,0:0:0:30:Hat Open.wav
64,192,201286,1,8,0:0:0:0:
448,192,201286,1,0,0:0:0:30:Hat Open.wav
64,192,201597,1,8,0:0:0:0:
320,192,201597,1,0,0:0:0:30:Hat Open.wav
192,192,201908,1,8,0:0:0:0:
320,192,201908,1,0,0:0:0:30:Hat Open.wav
192,192,202219,1,8,0:0:0:0:
448,192,202219,1,0,0:0:0:30:Hat Open.wav
64,192,202530,1,8,0:0:0:0:
448,192,202530,1,0,0:0:0:30:Hat Open.wav
64,192,202841,1,8,0:0:0:0:
320,192,202841,1,4,0:0:0:0:
192,192,202996,1,2,0:0:0:0:
320,192,203152,1,8,0:0:0:0:
448,192,203152,1,0,0:0:0:30:Hat Open.wav
64,192,203307,1,2,0:0:0:0:
192,192,203463,1,8,0:0:0:0:
448,192,203463,1,0,0:0:0:30:Hat Open.wav
320,192,203618,1,2,0:0:0:0:
64,192,203773,1,8,0:0:0:0:
192,192,203773,1,0,0:0:0:30:Hat Open.wav
448,192,203929,1,2,0:0:0:0:
64,192,204084,1,8,0:0:0:0:
320,192,204084,1,0,0:0:0:30:Hat Open.wav
192,192,204240,1,2,0:0:0:0:
320,192,204395,1,8,0:0:0:0:
448,192,204395,1,0,0:0:0:30:Hat Open.wav
64,192,204551,1,2,0:0:0:0:
192,192,204706,1,8,0:0:0:0:
448,192,204706,1,0,0:0:0:30:Hat Open.wav
320,192,204861,1,2,0:0:0:0:
64,192,205017,1,8,0:0:0:0:
192,192,205017,1,0,0:0:0:30:Hat Open.wav
320,192,205172,1,2,0:0:0:0:
64,192,205328,1,4,0:0:0:0:
448,192,205328,1,8,0:0:0:0:
192,192,205639,1,8,0:0:0:0:
448,192,205794,1,8,0:0:0:0:
64,192,205950,1,8,0:0:0:0:
320,192,205950,1,0,0:0:0:0:
320,192,206105,1,8,0:0:0:0:
192,192,206260,1,8,0:0:0:0:
448,192,206260,1,0,0:0:0:0:
192,192,206416,1,8,0:0:0:0:
64,192,206571,1,8,0:0:0:0:
320,192,206571,1,0,0:0:0:0:
448,192,206727,1,2,0:0:0:0:
192,192,207193,1,8,0:0:0:0:
448,192,207193,1,0,0:0:0:0:
64,192,207349,1,2,0:0:0:0:
192,192,207815,1,2,0:0:0:0:
320,192,207815,1,4,0:0:0:0:
448,192,207970,1,2,0:0:0:0:
64,192,208126,1,8,0:0:0:0:
320,192,208126,1,0,0:0:0:30:Hat Open.wav
192,192,208281,1,0,0:0:0:0:
448,192,208437,1,2,0:0:0:0:
320,192,208592,1,2,0:0:0:0:
64,192,208903,1,8,0:0:0:0:
192,192,208903,1,0,0:0:0:0:
320,192,209214,1,2,0:0:0:0:
64,192,209369,1,8,0:0:0:0:
448,192,209369,1,0,0:0:0:30:Hat Open.wav
192,192,209680,1,2,0:0:0:0:
320,192,209836,1,2,0:0:0:0:
64,192,209991,128,8,210146:0:0:0:0:
448,192,210146,128,8,210302:0:0:0:0:
64,192,210302,1,2,0:0:0:0:
320,192,210302,1,0,0:0:0:30:Hat Open.wav
192,192,210457,1,2,0:0:0:0:
320,192,210613,1,8,0:0:0:0:
448,192,210613,1,0,0:0:0:30:Hat Open.wav
64,192,210768,1,0,0:0:0:0:
192,192,210924,1,2,0:0:0:0:
448,192,211079,1,2,0:0:0:0:
64,192,211390,1,8,0:0:0:0:
320,192,211390,1,0,0:0:0:0:
192,192,211701,1,2,0:0:0:0:
320,192,211856,1,8,0:0:0:0:
448,192,211856,1,0,0:0:0:30:Hat Open.wav
64,192,212167,1,2,0:0:0:0:
320,192,212323,128,8,212478:0:0:0:0:
192,192,212478,128,8,212634:0:0:0:0:
448,192,212634,128,8,212789:0:0:0:0:
64,192,212789,1,4,0:0:0:0:
192,192,212789,1,2,0:0:0:0:
320,192,212944,1,2,0:0:0:0:
64,192,213100,1,8,0:0:0:0:
448,192,213100,1,0,0:0:0:30:Hat Open.wav
320,192,213411,1,2,0:0:0:0:
192,192,213566,1,2,0:0:0:0:
64,192,213877,1,8,0:0:0:0:
320,192,213877,1,0,0:0:0:0:
192,192,214188,1,2,0:0:0:0:
64,192,214343,1,8,0:0:0:0:
448,192,214343,1,0,0:0:0:30:Hat Open.wav
320,192,214654,1,2,0:0:0:0:
192,192,214810,1,2,0:0:0:0:
320,192,214965,1,8,0:0:0:0:
448,192,214965,1,0,0:0:0:0:
64,192,215121,1,2,0:0:0:0:
192,192,215276,1,8,0:0:0:0:
448,192,215276,1,4,0:0:0:0:
320,192,215431,1,2,0:0:0:0:
64,192,215587,1,8,0:0:0:0:
192,192,215587,1,0,0:0:0:30:Hat Open.wav
448,192,215742,1,2,0:0:0:0:
64,192,215898,1,8,0:0:0:0:
320,192,215898,1,0,0:0:0:30:Hat Open.wav
192,192,216053,1,2,0:0:0:0:
320,192,216209,1,8,0:0:0:0:
448,192,216209,1,0,0:0:0:30:Hat Open.wav
64,192,216364,1,2,0:0:0:0:
192,192,216520,1,8,0:0:0:0:
448,192,216520,1,0,0:0:0:30:Hat Open.wav
320,192,216675,1,2,0:0:0:0:
64,192,216830,1,8,0:0:0:0:
192,192,216830,1,0,0:0:0:30:Hat Open.wav
448,192,216986,1,2,0:0:0:0:
64,192,217141,1,8,0:0:0:0:
320,192,217141,1,0,0:0:0:30:Hat Open.wav
192,192,217297,1,2,0:0:0:0:
320,192,217452,1,8,0:0:0:0:
448,192,217452,1,0,0:0:0:30:Hat Open.wav
64,192,217608,1,8,0:0:0:0:
192,192,217608,1,4,0:0:0:0:
448,192,217763,128,0,218074:0:0:0:0:
64,192,218074,128,0,218385:0:0:0:0:
320,192,218385,128,0,218540:0:0:0:0:
192,192,218540,128,0,218696:0:0:0:0:
448,192,218851,128,0,219007:0:0:0:0:
64,192,219162,128,0,219317:0:0:0:0:
320,192,219473,128,0,219628:0:0:0:0:
64,192,219784,1,8,0:0:0:0:
192,192,219784,1,0,0:0:0:0:
320,192,219939,1,8,0:0:0:0:
448,192,219939,1,0,0:0:0:0:
64,192,220095,1,2,0:0:0:0:
192,192,220095,128,4,226468:0:0:0:0:
