osu file format v14

[General]
AudioFilename: audio.ogg
AudioLeadIn: 0
PreviewTime: 183255
Countdown: 0
SampleSet: Soft
StackLeniency: 0.7
Mode: 3
LetterboxInBreaks: 0
SpecialStyle: 0
WidescreenStoryboard: 1

[Editor]
Bookmarks: 15069,25017,34965,44913,89680,99628,109577,119525,163048,172996
DistanceSpacing: 2
BeatDivisor: 4
GridSize: 4
TimelineZoom: 1.4

[Metadata]
Title:Guitar to Kodoku to Aoi Hoshi
TitleUnicode:ギターと孤独と蒼い惑星
Artist:kessoku band
ArtistUnicode:結束バンド
Creator:Syadow-
Version:Loneliness // EASY
Source:ぼっち・ざ・ろっく!
Tags:Guitar Loneliness and Blue Planet wakusei bocchi the rock insert song jrock j-rock japanese 音羽 otoha 長谷川 育美 Ikumi Hasegawa akkin ZAQ track 5 five suzumeayase yuiazu- onii_ue mirsaaa SVWC-70613 Clover Works CloverWorks
BeatmapID:3908203
BeatmapSetID:1894825

[Difficulty]
HPDrainRate:6.5
CircleSize:4
OverallDifficulty:7
ApproachRate:5
SliderMultiplier:1.4
SliderTickRate:1

[Events]
//Background and Video events
0,0,"bocchi.jpg",0,0
//Break Periods
//Storyboard Layer 0 (Background)
//Storyboard Layer 1 (Fail)
//Storyboard Layer 2 (Pass)
//Storyboard Layer 3 (Foreground)
//Storyboard Layer 4 (Overlay)
//Storyboard Sound Samples
Sample,2944,0,"Hat Open.wav",30
Sample,5121,0,"Hat Open.wav",30
Sample,5431,0,"Hat Open.wav",30
Sample,7918,0,"Hat Open.wav",30
Sample,10406,0,"Hat Open.wav",30
Sample,10716,0,"Hat Open.wav",30
Sample,11027,0,"Hat Open.wav",30
Sample,11338,0,"Hat Open.wav",30
Sample,11649,0,"Hat Open.wav",30
Sample,11960,0,"Hat Open.wav",30
Sample,12271,0,"Hat Open.wav",30
Sample,12426,0,"Hat Open.wav",30
Sample,34499,0,"Hat Open.wav",30
Sample,53307,0,"Tom2.wav",40
Sample,56416,0,"Hat Open.wav",30
Sample,56727,0,"Hat Open.wav",30
Sample,57038,0,"Hat Open.wav",30
Sample,57349,0,"Hat Open.wav",30
Sample,57659,0,"Hat Open.wav",30
Sample,57970,0,"Hat Open.wav",30
Sample,58281,0,"Hat Open.wav",30
Sample,58592,0,"Hat Open.wav",30
Sample,58903,0,"Hat Open.wav",30
Sample,59214,0,"Hat Open.wav",30
Sample,59525,0,"Hat Open.wav",30
Sample,59836,0,"Hat Open.wav",30
Sample,60146,0,"Hat Open.wav",30
Sample,60457,0,"Hat Open.wav",30
Sample,60768,0,"Hat Open.wav",30
Sample,61390,0,"Hat Open.wav",30
Sample,61701,0,"Hat Open.wav",30
Sample,62012,0,"Hat Open.wav",30
Sample,62323,0,"Hat Open.wav",30
Sample,62633,0,"Hat Open.wav",30
Sample,62944,0,"Hat Open.wav",30
Sample,63255,0,"Hat Open.wav",30
Sample,63566,0,"Hat Open.wav",30
Sample,64032,0,"Hat Open.wav",30
Sample,64499,0,"Hat Open.wav",30
Sample,64810,0,"Hat Open.wav",30
Sample,66364,0,"Hat Open.wav",30
Sample,66675,0,"Hat Open.wav",30
Sample,66986,0,"Hat Open.wav",30
Sample,67297,0,"Hat Open.wav",30
Sample,67608,0,"Hat Open.wav",30
Sample,67918,0,"Hat Open.wav",30
Sample,68229,0,"Hat Open.wav",30
Sample,70095,0,"Hat Open.wav",30
Sample,71338,0,"Hat Open.wav",30
Sample,71649,0,"Hat Open.wav",30
Sample,71960,0,"Hat Open.wav",30
Sample,72271,0,"Hat Open.wav",30
Sample,72582,0,"Hat Open.wav",30
Sample,72893,0,"Hat Open.wav",30
Sample,73203,0,"Hat Open.wav",30
Sample,73825,0,"Hat Open.wav",30
Sample,74136,0,"Hat Open.wav",30
Sample,74447,0,"Hat Open.wav",30
Sample,74758,0,"Hat Open.wav",30
Sample,75069,0,"Hat Open.wav",30
Sample,75380,0,"Hat Open.wav",30
Sample,75690,0,"Hat Open.wav",30
Sample,78799,0,"Hat Open.wav",30
Sample,80975,0,"Hat Open.wav",30
Sample,81286,0,"Hat Open.wav",30
Sample,83773,0,"Hat Open.wav",30
Sample,86260,0,"Hat Open.wav",30
Sample,86571,0,"Hat Open.wav",30
Sample,86882,0,"Hat Open.wav",30
Sample,87193,0,"Hat Open.wav",30
Sample,87504,0,"Hat Open.wav",30
Sample,87815,0,"Hat Open.wav",30
Sample,88126,0,"Hat Open.wav",30
Sample,88281,0,"Hat Open.wav",30
Sample,109110,0,"Hat Open.wav",30
Sample,127918,0,"Tom2.wav",40
Sample,131027,0,"Hat Open.wav",30
Sample,131338,0,"Hat Open.wav",30
Sample,131649,0,"Hat Open.wav",30
Sample,131960,0,"Hat Open.wav",30
Sample,132271,0,"Hat Open.wav",30
Sample,132582,0,"Hat Open.wav",30
Sample,132893,0,"Hat Open.wav",30
Sample,133203,0,"Hat Open.wav",30
Sample,133514,0,"Hat Open.wav",30
Sample,133825,0,"Hat Open.wav",30
Sample,134136,0,"Hat Open.wav",30
Sample,134447,0,"Hat Open.wav",30
Sample,134758,0,"Hat Open.wav",30
Sample,135069,0,"Hat Open.wav",30
Sample,135380,0,"Hat Open.wav",30
Sample,136001,0,"Hat Open.wav",30
Sample,136312,0,"Hat Open.wav",30
Sample,136623,0,"Hat Open.wav",30
Sample,136934,0,"Hat Open.wav",30
Sample,137245,0,"Hat Open.wav",30
Sample,137556,0,"Hat Open.wav",30
Sample,137867,0,"Hat Open.wav",30
Sample,138178,0,"Hat Open.wav",30
Sample,138644,0,"Hat Open.wav",30
Sample,139110,0,"Hat Open.wav",30
Sample,139421,0,"Hat Open.wav",30
Sample,140975,0,"Hat Open.wav",30
Sample,141286,0,"Hat Open.wav",30
Sample,141597,0,"Hat Open.wav",30
Sample,141908,0,"Hat Open.wav",30
Sample,142219,0,"Hat Open.wav",30
Sample,142530,0,"Hat Open.wav",30
Sample,142841,0,"Hat Open.wav",30
Sample,144706,0,"Hat Open.wav",30
Sample,145950,0,"Hat Open.wav",30
Sample,146260,0,"Hat Open.wav",30
Sample,146571,0,"Hat Open.wav",30
Sample,146882,0,"Hat Open.wav",30
Sample,147193,0,"Hat Open.wav",30
Sample,147504,0,"Hat Open.wav",30
Sample,147815,0,"Hat Open.wav",30
Sample,148437,0,"Hat Open.wav",30
Sample,148747,0,"Hat Open.wav",30
Sample,149058,0,"Hat Open.wav",30
Sample,149369,0,"Hat Open.wav",30
Sample,149680,0,"Hat Open.wav",30
Sample,149991,0,"Hat Open.wav",30
Sample,150302,0,"Hat Open.wav",30
Sample,153411,0,"Hat Open.wav",30
Sample,153722,0,"Hat Open.wav",30
Sample,154654,0,"Hat Open.wav",30
Sample,155587,0,"Hat Open.wav",30
Sample,155898,0,"Hat Open.wav",30
Sample,156209,0,"Hat Open.wav",30
Sample,157141,0,"Hat Open.wav",30
Sample,158385,0,"Hat Open.wav",30
Sample,158696,0,"Hat Open.wav",30
Sample,159628,0,"Hat Open.wav",30
Sample,160872,0,"Hat Open.wav",30
Sample,161183,0,"Hat Open.wav",30
Sample,161494,0,"Hat Open.wav",30
Sample,161804,0,"Hat Open.wav",30
Sample,162115,0,"Hat Open.wav",30
Sample,162426,0,"Hat Open.wav",30
Sample,185742,0,"Hat Open.wav",30
Sample,186053,0,"Hat Open.wav",30
Sample,186364,0,"Hat Open.wav",30
Sample,186675,0,"Hat Open.wav",30
Sample,186986,0,"Hat Open.wav",30
Sample,187297,0,"Hat Open.wav",30
Sample,187608,0,"Hat Open.wav",30
Sample,187918,0,"Hat Open.wav",30
Sample,188229,0,"Hat Open.wav",30
Sample,188540,0,"Hat Open.wav",30
Sample,188851,0,"Hat Open.wav",30
Sample,189162,0,"Hat Open.wav",30
Sample,189473,0,"Hat Open.wav",30
Sample,189784,0,"Hat Open.wav",30
Sample,190095,0,"Hat Open.wav",30
Sample,190406,0,"Hat Open.wav",30
Sample,190716,0,"Hat Open.wav",30
Sample,191027,0,"Hat Open.wav",30
Sample,191338,0,"Hat Open.wav",30
Sample,191960,0,"Hat Open.wav",30
Sample,192271,0,"Hat Open.wav",30
Sample,192582,0,"Hat Open.wav",30
Sample,192893,0,"Hat Open.wav",30
Sample,193359,0,"Hat Open.wav",30
Sample,193825,0,"Hat Open.wav",30
Sample,194136,0,"Hat Open.wav",30
Sample,195690,0,"Hat Open.wav",30
Sample,196001,0,"Hat Open.wav",30
Sample,196312,0,"Hat Open.wav",30
Sample,196623,0,"Hat Open.wav",30
Sample,196934,0,"Hat Open.wav",30
Sample,197245,0,"Hat Open.wav",30
Sample,197556,0,"Hat Open.wav",30
Sample,198644,0,"Tom1.wav",40
Sample,199421,0,"Hat Open.wav",30
Sample,199732,0,"Hat Open.wav",30
Sample,200665,0,"Hat Open.wav",30
Sample,200975,0,"Hat Open.wav",30
Sample,201286,0,"Hat Open.wav",30
Sample,201597,0,"Hat Open.wav",30
Sample,201908,0,"Hat Open.wav",30
Sample,202219,0,"Hat Open.wav",30
Sample,202530,0,"Hat Open.wav",30
Sample,203152,0,"Hat Open.wav",30
Sample,203463,0,"Hat Open.wav",30
Sample,203773,0,"Hat Open.wav",30
Sample,204084,0,"Hat Open.wav",30
Sample,204395,0,"Hat Open.wav",30
Sample,204706,0,"Hat Open.wav",30
Sample,205017,0,"Hat Open.wav",30
Sample,208126,0,"Hat Open.wav",30
Sample,210302,0,"Hat Open.wav",30
Sample,210613,0,"Hat Open.wav",30
Sample,213100,0,"Hat Open.wav",30
Sample,213411,0,"Hat Open.wav",30
Sample,214343,0,"Hat Open.wav",30
Sample,214654,0,"Hat Open.wav",30
Sample,215587,0,"Hat Open.wav",30
Sample,215898,0,"Hat Open.wav",30
Sample,216209,0,"Hat Open.wav",30
Sample,216520,0,"Hat Open.wav",30
Sample,216830,0,"Hat Open.wav",30
Sample,217141,0,"Hat Open.wav",30
Sample,217452,0,"Hat Open.wav",30

[TimingPoints]
2634,310.880829015544,4,2,1,50,1,0
56105,-100,4,2,1,50,0,1
77245,-100,4,2,1,50,0,0
130716,-100,4,2,1,50,0,1
151856,-100,4,2,1,50,0,0
185431,-100,4,2,1,50,0,1
206571,-100,4,2,1,50,0,0

[HitObjects]
320,192,1390,5,0,0:0:0:30:Hat Open2.wav
320,192,1701,1,0,0:0:0:30:Hat Open2.wav
192,192,2012,1,0,0:0:0:30:Hat Open2.wav
192,192,2323,1,0,0:0:0:30:Hat Open2.wav
320,192,2634,1,2,0:0:0:0:
448,192,2634,1,4,0:0:0:0:
64,192,2944,1,8,0:0:0:0:
448,192,3100,1,0,0:0:0:0:
192,192,3411,1,2,0:0:0:0:
320,192,3722,1,8,0:0:0:0:
448,192,4032,1,2,0:0:0:0:
64,192,4343,1,0,0:0:0:0:
192,192,4654,1,2,0:0:0:0:
320,192,4810,1,8,0:0:0:0:
64,192,5121,1,2,0:0:0:0:
448,192,5431,1,8,0:0:0:0:
192,192,5587,1,0,0:0:0:0:
320,192,5898,1,2,0:0:0:0:
64,192,6209,1,8,0:0:0:0:
192,192,6520,1,2,0:0:0:0:
448,192,6830,1,0,0:0:0:0:
320,192,7141,1,8,0:0:0:0:
192,192,7297,1,2,0:0:0:0:
320,192,7608,1,2,0:0:0:0:
448,192,7608,1,4,0:0:0:0:
64,192,7918,1,8,0:0:0:0:
448,192,8074,1,0,0:0:0:0:
192,192,8385,1,2,0:0:0:0:
64,192,8696,1,8,0:0:0:0:
320,192,9007,1,2,0:0:0:0:
448,192,9317,1,0,0:0:0:0:
192,192,9628,1,2,0:0:0:0:
320,192,9784,1,8,0:0:0:0:
64,192,10095,1,2,0:0:0:0:
192,192,10095,1,4,0:0:0:0:
320,192,10406,1,8,0:0:0:0:
320,192,10716,1,8,0:0:0:0:
192,192,11027,1,8,0:0:0:0:
192,192,11338,1,8,0:0:0:0:
448,192,11649,1,8,0:0:0:0:
448,192,11960,1,8,0:0:0:0:
64,192,12271,1,8,0:0:0:0:
192,192,12426,1,8,0:0:0:0:
320,192,12582,1,0,0:0:0:30:Hat Open.wav
64,192,12893,1,0,0:0:0:0:
320,192,13203,1,0,0:0:0:0:
192,192,13359,1,0,0:0:0:0:
448,192,13670,1,0,0:0:0:0:
64,192,13981,1,0,0:0:0:0:
448,192,14292,1,0,0:0:0:0:
192,192,14602,1,0,0:0:0:0:
320,192,14758,128,0,15069:0:0:0:0:
64,192,15069,1,2,0:0:0:0:
448,192,15069,1,0,0:0:0:0:
192,192,15380,1,2,0:0:0:0:
320,192,15690,1,2,0:0:0:0:
448,192,16001,1,2,0:0:0:0:
192,192,16312,1,2,0:0:0:0:
64,192,16623,1,2,0:0:0:0:
320,192,16934,1,2,0:0:0:0:
192,192,17245,1,2,0:0:0:0:
448,192,17556,1,2,0:0:0:0:
320,192,17867,1,2,0:0:0:0:
192,192,18178,1,2,0:0:0:0:
64,192,18488,1,2,0:0:0:0:
320,192,18799,1,2,0:0:0:0:
448,192,19110,1,2,0:0:0:0:
192,192,19421,1,2,0:0:0:0:
320,192,19732,1,2,0:0:0:0:
64,192,20043,1,2,0:0:0:0:
192,192,20354,1,2,0:0:0:0:
320,192,20665,1,2,0:0:0:0:
448,192,20975,1,2,0:0:0:0:
192,192,21286,1,2,0:0:0:0:
320,192,21597,1,2,0:0:0:0:
64,192,21908,1,2,0:0:0:0:
448,192,22219,1,2,0:0:0:0:
192,192,22530,1,2,0:0:0:0:
320,192,22841,1,2,0:0:0:0:
192,192,23152,1,2,0:0:0:0:
64,192,23463,1,2,0:0:0:0:
448,192,23773,1,2,0:0:0:0:
320,192,24084,1,2,0:0:0:0:
192,192,24240,1,0,0:0:0:40:Tom2.wav
448,192,24395,1,2,0:0:0:0:
64,192,24551,1,8,0:0:0:0:
192,192,24551,1,0,0:0:0:30:Hat Open.wav
320,192,24861,1,8,0:0:0:0:
64,192,25017,1,4,0:0:0:0:
448,192,25017,1,2,0:0:0:0:
192,192,25328,1,8,0:0:0:0:
320,192,25639,1,2,0:0:0:0:
192,192,25950,1,8,0:0:0:0:
448,192,26260,1,2,0:0:0:0:
320,192,26571,1,8,0:0:0:0:
192,192,26882,1,2,0:0:0:0:
64,192,27193,1,8,0:0:0:0:
320,192,27504,1,2,0:0:0:0:
448,192,27815,1,8,0:0:0:0:
64,192,28126,1,2,0:0:0:0:
192,192,28437,1,8,0:0:0:0:
320,192,28747,1,2,0:0:0:0:
192,192,29058,1,8,0:0:0:0:
448,192,29369,1,2,0:0:0:0:
320,192,29680,1,8,0:0:0:0:
192,192,29991,1,2,0:0:0:0:
448,192,30302,1,8,0:0:0:0:
64,192,30613,1,2,0:0:0:0:
192,192,30924,1,8,0:0:0:0:
320,192,31235,1,2,0:0:0:0:
64,192,31545,1,8,0:0:0:0:
448,192,31856,1,2,0:0:0:0:
192,192,32167,1,8,0:0:0:0:
320,192,32478,1,2,0:0:0:0:
448,192,32789,1,8,0:0:0:0:
64,192,33100,1,2,0:0:0:0:
320,192,33411,1,8,0:0:0:0:
192,192,33722,1,2,0:0:0:0:
64,192,34032,1,8,0:0:0:0:
448,192,34343,1,2,0:0:0:0:
320,192,34499,1,8,0:0:0:0:
64,192,34654,1,4,0:0:0:0:
192,192,34654,1,8,0:0:0:0:
448,192,34965,1,0,0:0:0:0:
192,192,36209,1,0,0:0:0:0:
320,192,37452,1,0,0:0:0:0:
64,192,38696,1,0,0:0:0:0:
192,192,39939,1,0,0:0:0:0:
320,192,41183,1,0,0:0:0:0:
448,192,42426,1,0,0:0:0:0:
192,192,43670,128,0,44292:0:0:0:0:
320,192,44292,128,0,44913:0:0:0:0:
64,192,44913,1,4,0:0:0:0:
448,192,44913,1,2,0:0:0:0:
320,192,45224,1,2,0:0:0:0:
192,192,45535,1,2,0:0:0:0:
64,192,45846,1,2,0:0:0:0:
320,192,46157,1,2,0:0:0:0:
448,192,46468,1,2,0:0:0:0:
192,192,46779,1,2,0:0:0:0:
320,192,47089,1,2,0:0:0:0:
64,192,47400,1,2,0:0:0:0:
192,192,47711,1,2,0:0:0:0:
320,192,48022,1,2,0:0:0:0:
448,192,48333,1,2,0:0:0:0:
192,192,48644,1,2,0:0:0:0:
64,192,48955,1,2,0:0:0:0:
320,192,49266,1,2,0:0:0:0:
64,192,49577,1,2,0:0:0:0:
192,192,49732,1,0,0:0:0:40:Tom2.wav
448,192,49887,1,2,0:0:0:0:
320,192,50198,1,2,0:0:0:0:
192,192,50509,1,2,0:0:0:0:
64,192,50820,1,2,0:0:0:0:
448,192,51131,1,2,0:0:0:0:
192,192,51442,1,2,0:0:0:0:
448,192,51753,1,2,0:0:0:0:
64,192,52064,1,2,0:0:0:0:
320,192,52219,1,0,0:0:0:40:Tom2.wav
192,192,52374,1,2,0:0:0:0:
448,192,52530,1,8,0:0:0:0:
320,192,52685,1,8,0:0:0:0:
64,192,52841,1,8,0:0:0:0:
320,192,53152,1,8,0:0:0:0:
192,192,53307,1,8,0:0:0:0:
64,192,53463,1,8,0:0:0:0:
448,192,53773,1,8,0:0:0:0:
192,192,53929,1,10,0:0:0:0:
320,192,54084,1,8,0:0:0:0:
192,192,54395,1,8,0:0:0:0:
320,192,54551,1,8,0:0:0:0:
448,192,54706,1,8,0:0:0:0:
64,192,54861,1,0,0:0:0:0:
64,192,56105,1,2,0:0:0:0:
192,192,56105,1,4,0:0:0:0:
448,192,56416,1,8,0:0:0:0:
64,192,56727,1,2,0:0:0:0:
192,192,57038,1,8,0:0:0:0:
448,192,57349,1,2,0:0:0:0:
320,192,57659,1,8,0:0:0:0:
192,192,57970,1,2,0:0:0:0:
64,192,58281,1,8,0:0:0:0:
448,192,58592,1,2,0:0:0:0:
192,192,58903,1,8,0:0:0:0:
320,192,59214,1,2,0:0:0:0:
64,192,59525,1,8,0:0:0:0:
320,192,59836,1,2,0:0:0:0:
448,192,60146,1,8,0:0:0:0:
192,192,60457,1,2,0:0:0:0:
64,192,60768,1,8,0:0:0:0:
320,192,61079,1,2,0:0:0:0:
448,192,61079,1,4,0:0:0:0:
192,192,61390,1,8,0:0:0:0:
320,192,61701,1,2,0:0:0:0:
448,192,62012,1,8,0:0:0:0:
64,192,62323,1,2,0:0:0:0:
192,192,62633,1,8,0:0:0:0:
448,192,62944,1,2,0:0:0:0:
320,192,63255,1,8,0:0:0:0:
192,192,63566,128,2,63877:0:0:0:0:
448,192,63877,1,8,0:0:0:0:
320,192,64032,1,2,0:0:0:0:
64,192,64188,128,8,64499:0:0:0:0:
448,192,64499,128,2,64810:0:0:0:0:
192,192,64810,128,2,65121:0:0:0:0:
320,192,65121,128,10,65431:0:0:0:0:
64,192,65431,128,0,66053:0:0:0:40:Tom1.wav
192,192,65742,128,8,66053:0:0:0:0:
320,192,66053,1,2,0:0:0:0:
448,192,66053,1,4,0:0:0:0:
64,192,66364,1,8,0:0:0:0:
448,192,66675,1,2,0:0:0:0:
320,192,66986,1,8,0:0:0:0:
64,192,67297,1,2,0:0:0:0:
192,192,67608,1,8,0:0:0:0:
320,192,67918,1,2,0:0:0:0:
448,192,68229,1,8,0:0:0:0:
64,192,68540,1,6,0:0:0:0:
448,192,68851,1,8,0:0:0:0:
64,192,69007,1,2,0:0:0:0:
192,192,69007,1,4,0:0:0:0:
320,192,69317,1,2,0:0:0:0:
192,192,69473,1,8,0:0:0:0:
320,192,69628,1,2,0:0:0:0:
448,192,69628,1,4,0:0:0:0:
64,192,69939,1,2,0:0:0:0:
448,192,70095,1,8,0:0:0:0:
64,192,70406,1,2,0:0:0:0:
192,192,70561,1,8,0:0:0:0:
448,192,70716,1,2,0:0:0:0:
320,192,70872,1,8,0:0:0:0:
64,192,71027,1,2,0:0:0:0:
192,192,71027,1,4,0:0:0:0:
320,192,71338,1,8,0:0:0:0:
320,192,71649,1,8,0:0:0:0:
64,192,71960,1,8,0:0:0:0:
64,192,72271,1,8,0:0:0:0:
448,192,72582,1,8,0:0:0:0:
448,192,72893,1,8,0:0:0:0:
192,192,73203,1,8,0:0:0:0:
192,192,73514,128,12,74136:0:0:0:0:
448,192,73825,1,8,0:0:0:0:
320,192,74136,128,8,74758:0:0:0:0:
64,192,74447,1,8,0:0:0:0:
448,192,74758,128,8,75380:0:0:0:0:
192,192,75069,1,8,0:0:0:0:
64,192,75380,128,8,76001:0:0:0:0:
320,192,75690,1,8,0:0:0:0:
320,192,76001,1,4,0:0:0:0:
448,192,76001,1,8,0:0:0:0:
192,192,76312,1,8,0:0:0:0:
64,192,76623,1,8,0:0:0:0:
192,192,76779,1,8,0:0:0:0:
448,192,76934,1,8,0:0:0:0:
320,192,77089,1,8,0:0:0:0:
192,192,77245,1,8,0:0:0:0:
448,192,77400,1,2,0:0:0:0:
64,192,77867,1,8,0:0:0:0:
320,192,78022,1,2,0:0:0:0:
64,192,78488,1,2,0:0:0:0:
192,192,78488,1,4,0:0:0:0:
448,192,78799,1,8,0:0:0:0:
64,192,78955,1,0,0:0:0:0:
320,192,79266,1,2,0:0:0:0:
192,192,79577,1,8,0:0:0:0:
64,192,79887,1,2,0:0:0:0:
448,192,80198,1,0,0:0:0:0:
320,192,80509,1,2,0:0:0:0:
192,192,80665,1,8,0:0:0:0:
448,192,80975,1,2,0:0:0:0:
64,192,81286,1,8,0:0:0:0:
320,192,81442,1,0,0:0:0:0:
192,192,81753,1,2,0:0:0:0:
448,192,82064,1,8,0:0:0:0:
320,192,82374,1,2,0:0:0:0:
64,192,82685,1,0,0:0:0:0:
192,192,82996,1,8,0:0:0:0:
320,192,83152,1,8,0:0:0:0:
64,192,83463,1,4,0:0:0:0:
192,192,83463,1,2,0:0:0:0:
448,192,83773,1,8,0:0:0:0:
64,192,83929,1,0,0:0:0:0:
320,192,84240,1,2,0:0:0:0:
448,192,84551,1,8,0:0:0:0:
192,192,84861,1,2,0:0:0:0:
64,192,85172,1,0,0:0:0:0:
320,192,85483,1,2,0:0:0:0:
192,192,85639,1,8,0:0:0:0:
320,192,85950,1,4,0:0:0:0:
448,192,85950,1,2,0:0:0:0:
192,192,86260,1,8,0:0:0:0:
192,192,86571,1,8,0:0:0:0:
320,192,86882,1,8,0:0:0:0:
320,192,87193,1,8,0:0:0:0:
64,192,87504,1,8,0:0:0:0:
64,192,87815,1,8,0:0:0:0:
448,192,88126,1,8,0:0:0:0:
320,192,88281,1,8,0:0:0:0:
192,192,88437,1,0,0:0:0:30:Hat Open.wav
64,192,89680,1,2,0:0:0:0:
448,192,89680,1,0,0:0:0:0:
320,192,89991,1,2,0:0:0:0:
192,192,90302,1,2,0:0:0:0:
64,192,90613,1,2,0:0:0:0:
320,192,90924,1,2,0:0:0:0:
448,192,91235,1,2,0:0:0:0:
192,192,91545,1,2,0:0:0:0:
320,192,91856,1,2,0:0:0:0:
64,192,92167,1,2,0:0:0:0:
192,192,92478,1,2,0:0:0:0:
320,192,92789,1,2,0:0:0:0:
448,192,93100,1,2,0:0:0:0:
192,192,93411,1,2,0:0:0:0:
64,192,93722,1,2,0:0:0:0:
320,192,94032,1,2,0:0:0:0:
192,192,94343,1,2,0:0:0:0:
448,192,94654,1,2,0:0:0:0:
320,192,94965,1,2,0:0:0:0:
192,192,95276,1,2,0:0:0:0:
64,192,95587,1,2,0:0:0:0:
320,192,95898,1,2,0:0:0:0:
192,192,96209,1,2,0:0:0:0:
448,192,96520,1,2,0:0:0:0:
64,192,96830,1,2,0:0:0:0:
320,192,97141,1,2,0:0:0:0:
192,192,97452,1,2,0:0:0:0:
320,192,97763,1,2,0:0:0:0:
448,192,98074,1,2,0:0:0:0:
64,192,98385,1,2,0:0:0:0:
192,192,98696,1,2,0:0:0:0:
320,192,98851,1,0,0:0:0:40:Tom2.wav
64,192,99007,1,2,0:0:0:0:
320,192,99162,1,8,0:0:0:0:
448,192,99162,1,0,0:0:0:30:Hat Open.wav
192,192,99473,1,8,0:0:0:0:
64,192,99628,1,4,0:0:0:0:
448,192,99628,1,2,0:0:0:0:
320,192,99939,1,8,0:0:0:0:
192,192,100250,1,2,0:0:0:0:
320,192,100561,1,8,0:0:0:0:
64,192,100872,1,2,0:0:0:0:
192,192,101183,1,8,0:0:0:0:
320,192,101494,1,2,0:0:0:0:
448,192,101804,1,8,0:0:0:0:
192,192,102115,1,2,0:0:0:0:
64,192,102426,1,8,0:0:0:0:
448,192,102737,1,2,0:0:0:0:
320,192,103048,1,8,0:0:0:0:
192,192,103359,1,2,0:0:0:0:
320,192,103670,1,8,0:0:0:0:
64,192,103981,1,2,0:0:0:0:
192,192,104292,1,8,0:0:0:0:
320,192,104602,1,2,0:0:0:0:
64,192,104913,1,8,0:0:0:0:
448,192,105224,1,2,0:0:0:0:
320,192,105535,1,8,0:0:0:0:
192,192,105846,1,2,0:0:0:0:
448,192,106157,1,8,0:0:0:0:
64,192,106468,1,2,0:0:0:0:
320,192,106779,1,8,0:0:0:0:
192,192,107089,1,2,0:0:0:0:
64,192,107400,1,8,0:0:0:0:
448,192,107711,1,2,0:0:0:0:
192,192,108022,1,8,0:0:0:0:
320,192,108333,1,2,0:0:0:0:
448,192,108644,1,8,0:0:0:0:
64,192,108955,1,2,0:0:0:0:
192,192,109110,1,8,0:0:0:0:
320,192,109266,1,4,0:0:0:0:
448,192,109266,1,8,0:0:0:0:
64,192,109577,1,0,0:0:0:0:
320,192,110820,1,0,0:0:0:0:
192,192,112064,1,0,0:0:0:0:
448,192,113307,1,0,0:0:0:0:
320,192,114551,1,0,0:0:0:0:
192,192,115794,1,0,0:0:0:0:
64,192,117038,1,0,0:0:0:0:
320,192,118281,128,0,118903:0:0:0:0:
192,192,118903,128,0,119525:0:0:0:0:
64,192,119525,1,4,0:0:0:0:
448,192,119525,1,2,0:0:0:0:
192,192,119836,1,2,0:0:0:0:
320,192,120146,1,2,0:0:0:0:
448,192,120457,1,2,0:0:0:0:
192,192,120768,1,2,0:0:0:0:
64,192,121079,1,2,0:0:0:0:
320,192,121390,1,2,0:0:0:0:
192,192,121701,1,2,0:0:0:0:
448,192,122012,1,2,0:0:0:0:
320,192,122323,1,2,0:0:0:0:
192,192,122633,1,2,0:0:0:0:
64,192,122944,1,2,0:0:0:0:
320,192,123255,1,2,0:0:0:0:
448,192,123566,1,2,0:0:0:0:
192,192,123877,1,2,0:0:0:0:
320,192,124188,1,2,0:0:0:0:
64,192,124499,1,2,0:0:0:0:
192,192,124810,1,2,0:0:0:0:
320,192,125121,1,2,0:0:0:0:
448,192,125431,1,2,0:0:0:0:
192,192,125587,1,0,0:0:0:40:Tom2.wav
64,192,125742,1,2,0:0:0:0:
320,192,126053,1,2,0:0:0:0:
448,192,126364,1,2,0:0:0:0:
64,192,126675,1,2,0:0:0:0:
320,192,126830,1,0,0:0:0:40:Tom2.wav
192,192,126986,1,2,0:0:0:0:
448,192,127141,1,8,0:0:0:0:
320,192,127297,1,8,0:0:0:0:
64,192,127452,1,8,0:0:0:0:
448,192,127763,1,8,0:0:0:0:
192,192,127918,1,8,0:0:0:0:
64,192,128074,1,8,0:0:0:0:
320,192,128385,1,8,0:0:0:0:
64,192,128540,1,10,0:0:0:0:
448,192,128696,1,0,0:0:0:40:Tom1.wav
192,192,129007,1,8,0:0:0:0:
320,192,129162,1,8,0:0:0:0:
448,192,129317,1,8,0:0:0:0:
64,192,129473,128,0,130716:0:0:0:0:
320,192,130716,1,2,0:0:0:0:
448,192,130716,1,4,0:0:0:0:
64,192,131027,1,8,0:0:0:0:
448,192,131338,1,2,0:0:0:0:
320,192,131649,1,8,0:0:0:0:
64,192,131960,1,2,0:0:0:0:
192,192,132271,1,8,0:0:0:0:
320,192,132582,1,2,0:0:0:0:
448,192,132893,1,8,0:0:0:0:
64,192,133203,1,2,0:0:0:0:
320,192,133514,1,8,0:0:0:0:
192,192,133825,1,2,0:0:0:0:
448,192,134136,1,8,0:0:0:0:
192,192,134447,1,2,0:0:0:0:
64,192,134758,1,8,0:0:0:0:
320,192,135069,1,2,0:0:0:0:
448,192,135380,1,8,0:0:0:0:
64,192,135690,1,2,0:0:0:0:
192,192,135690,1,4,0:0:0:0:
320,192,136001,1,8,0:0:0:0:
192,192,136312,1,2,0:0:0:0:
64,192,136623,1,8,0:0:0:0:
448,192,136934,1,2,0:0:0:0:
320,192,137245,1,8,0:0:0:0:
64,192,137556,1,2,0:0:0:0:
192,192,137867,1,8,0:0:0:0:
320,192,138178,128,2,138488:0:0:0:0:
64,192,138488,1,8,0:0:0:0:
192,192,138644,1,2,0:0:0:0:
448,192,138799,128,8,139110:0:0:0:0:
64,192,139110,128,2,139421:0:0:0:0:
320,192,139421,128,2,139732:0:0:0:0:
192,192,139732,128,10,140043:0:0:0:0:
448,192,140043,128,0,140665:0:0:0:40:Tom1.wav
320,192,140354,128,8,140665:0:0:0:0:
64,192,140665,1,2,0:0:0:0:
192,192,140665,1,4,0:0:0:0:
448,192,140975,1,8,0:0:0:0:
64,192,141286,1,2,0:0:0:0:
192,192,141597,1,8,0:0:0:0:
448,192,141908,1,2,0:0:0:0:
320,192,142219,1,8,0:0:0:0:
192,192,142530,1,2,0:0:0:0:
64,192,142841,1,8,0:0:0:0:
448,192,143152,1,6,0:0:0:0:
64,192,143463,1,8,0:0:0:0:
320,192,143618,1,2,0:0:0:0:
448,192,143618,1,4,0:0:0:0:
192,192,143929,1,2,0:0:0:0:
320,192,144084,1,8,0:0:0:0:
64,192,144240,1,2,0:0:0:0:
192,192,144240,1,4,0:0:0:0:
448,192,144551,1,2,0:0:0:0:
64,192,144706,1,8,0:0:0:0:
448,192,145017,1,2,0:0:0:0:
320,192,145172,1,8,0:0:0:0:
64,192,145328,1,10,0:0:0:0:
192,192,145483,1,8,0:0:0:0:
320,192,145639,1,2,0:0:0:0:
448,192,145639,1,4,0:0:0:0:
192,192,145950,1,8,0:0:0:0:
192,192,146260,1,8,0:0:0:0:
448,192,146571,1,8,0:0:0:0:
448,192,146882,1,8,0:0:0:0:
64,192,147193,1,8,0:0:0:0:
64,192,147504,1,8,0:0:0:0:
320,192,147815,1,8,0:0:0:0:
320,192,148126,128,12,148747:0:0:0:0:
64,192,148437,1,8,0:0:0:0:
192,192,148747,128,8,149369:0:0:0:0:
448,192,149058,1,8,0:0:0:0:
64,192,149369,128,8,149991:0:0:0:0:
320,192,149680,1,8,0:0:0:0:
448,192,149991,128,8,150613:0:0:0:0:
192,192,150302,1,8,0:0:0:0:
64,192,150613,1,4,0:0:0:0:
192,192,150613,1,8,0:0:0:0:
320,192,150924,1,8,0:0:0:0:
448,192,151235,1,8,0:0:0:0:
320,192,151390,1,8,0:0:0:0:
64,192,151545,1,8,0:0:0:0:
192,192,151701,1,8,0:0:0:0:
320,192,151856,1,8,0:0:0:0:
64,192,152012,1,2,0:0:0:0:
448,192,152478,1,8,0:0:0:0:
192,192,152634,1,2,0:0:0:0:
320,192,153100,1,4,0:0:0:0:
448,192,153100,1,2,0:0:0:0:
64,192,153411,1,8,0:0:0:0:
320,192,153566,1,0,0:0:0:0:
192,192,153722,1,2,0:0:0:0:
448,192,154032,1,0,0:0:0:30:Hat Open.wav
64,192,154188,1,8,0:0:0:0:
320,192,154499,1,2,0:0:0:0:
192,192,154654,1,8,0:0:0:0:
320,192,154810,1,0,0:0:0:0:
64,192,155121,1,2,0:0:0:0:
448,192,155276,1,8,0:0:0:0:
192,192,155587,1,2,0:0:0:0:
320,192,155898,1,8,0:0:0:0:
448,192,156209,1,2,0:0:0:0:
64,192,156364,1,2,0:0:0:0:
320,192,156675,1,8,0:0:0:0:
192,192,156986,1,2,0:0:0:0:
448,192,157141,1,8,0:0:0:0:
64,192,157297,1,0,0:0:0:0:
320,192,157608,128,8,158074:0:0:0:0:
192,192,158074,1,6,0:0:0:0:
448,192,158229,1,2,0:0:0:0:
64,192,158385,1,8,0:0:0:0:
192,192,158696,1,2,0:0:0:0:
320,192,158851,1,2,0:0:0:0:
448,192,159162,1,8,0:0:0:0:
192,192,159473,1,2,0:0:0:0:
320,192,159628,1,8,0:0:0:0:
64,192,159784,1,0,0:0:0:0:
448,192,160095,128,2,160561:0:0:0:0:
64,192,160561,1,6,0:0:0:0:
192,192,160716,1,0,0:0:0:0:
448,192,160872,1,8,0:0:0:0:
64,192,161183,1,8,0:0:0:0:
320,192,161338,1,2,0:0:0:0:
448,192,161494,1,8,0:0:0:0:
192,192,161804,1,8,0:0:0:0:
320,192,161960,1,2,0:0:0:0:
64,192,162115,1,8,0:0:0:0:
192,192,162271,1,2,0:0:0:0:
320,192,162426,128,8,162893:0:0:0:0:
64,192,162893,1,12,0:0:0:0:
448,192,163048,1,0,0:0:0:0:
320,192,164292,1,0,0:0:0:0:
192,192,165535,1,0,0:0:0:0:
64,192,166779,1,0,0:0:0:0:
320,192,168022,1,0,0:0:0:0:
192,192,169266,1,0,0:0:0:0:
448,192,170509,1,0,0:0:0:0:
64,192,171753,1,0,0:0:0:0:
320,192,172996,1,2,0:0:0:0:
448,192,172996,1,4,0:0:0:0:
192,192,173618,1,8,0:0:0:0:
320,192,174240,1,2,0:0:0:0:
448,192,174861,1,8,0:0:0:0:
64,192,175483,1,2,0:0:0:0:
320,192,176105,1,8,0:0:0:0:
192,192,176727,1,2,0:0:0:0:
64,192,177349,1,8,0:0:0:0:
448,192,177970,1,2,0:0:0:0:
320,192,178592,1,8,0:0:0:0:
64,192,179214,1,2,0:0:0:0:
192,192,179836,1,8,0:0:0:0:
320,192,180457,1,2,0:0:0:0:
448,192,181079,1,8,0:0:0:0:
64,192,181701,1,2,0:0:0:0:
320,192,182323,1,8,0:0:0:0:
192,192,182789,1,8,0:0:0:0:
64,192,185431,1,2,0:0:0:0:
192,192,185431,1,4,0:0:0:0:
448,192,185742,1,8,0:0:0:0:
64,192,186053,1,2,0:0:0:0:
192,192,186364,1,8,0:0:0:0:
448,192,186675,1,2,0:0:0:0:
320,192,186986,1,8,0:0:0:0:
192,192,187297,1,2,0:0:0:0:
64,192,187608,1,8,0:0:0:0:
448,192,187918,1,2,0:0:0:0:
192,192,188229,1,8,0:0:0:0:
320,192,188540,1,2,0:0:0:0:
64,192,188851,1,8,0:0:0:0:
320,192,189162,1,2,0:0:0:0:
448,192,189473,1,8,0:0:0:0:
192,192,189784,1,2,0:0:0:0:
320,192,190095,1,8,0:0:0:0:
64,192,190406,1,2,0:0:0:0:
448,192,190716,1,8,0:0:0:0:
320,192,191027,1,2,0:0:0:0:
192,192,191338,1,8,0:0:0:0:
64,192,191649,1,2,0:0:0:0:
448,192,191649,1,4,0:0:0:0:
192,192,191960,1,8,0:0:0:0:
448,192,192271,1,2,0:0:0:0:
320,192,192582,1,8,0:0:0:0:
192,192,192893,128,2,193203:0:0:0:0:
448,192,193203,1,8,0:0:0:0:
320,192,193359,1,2,0:0:0:0:
64,192,193514,128,8,193825:0:0:0:0:
448,192,193825,128,2,194136:0:0:0:0:
192,192,194136,128,2,194447:0:0:0:0:
320,192,194447,128,10,194758:0:0:0:0:
64,192,194758,128,10,195380:0:0:0:0:
192,192,195069,128,10,195380:0:0:0:0:
320,192,195380,1,2,0:0:0:0:
448,192,195380,1,4,0:0:0:0:
64,192,195690,1,8,0:0:0:0:
448,192,196001,1,2,0:0:0:0:
320,192,196312,1,8,0:0:0:0:
64,192,196623,1,2,0:0:0:0:
192,192,196934,1,8,0:0:0:0:
320,192,197245,1,2,0:0:0:0:
448,192,197556,1,8,0:0:0:0:
64,192,197867,1,6,0:0:0:0:
192,192,198022,1,2,0:0:0:0:
448,192,198178,1,8,0:0:0:0:
64,192,198333,1,2,0:0:0:0:
192,192,198333,1,4,0:0:0:0:
320,192,198644,1,2,0:0:0:0:
192,192,198799,1,8,0:0:0:0:
320,192,198955,1,2,0:0:0:0:
448,192,198955,1,4,0:0:0:0:
64,192,199266,1,2,0:0:0:0:
448,192,199421,1,8,0:0:0:0:
64,192,199732,1,8,0:0:0:0:
192,192,199887,1,0,0:0:0:0:
448,192,200043,1,8,0:0:0:0:
320,192,200198,1,8,0:0:0:0:
64,192,200354,1,2,0:0:0:0:
192,192,200354,1,4,0:0:0:0:
320,192,200665,1,8,0:0:0:0:
320,192,200975,1,8,0:0:0:0:
64,192,201286,1,8,0:0:0:0:
64,192,201597,1,8,0:0:0:0:
448,192,201908,1,8,0:0:0:0:
448,192,202219,1,8,0:0:0:0:
192,192,202530,1,8,0:0:0:0:
192,192,202841,128,12,203463:0:0:0:0:
448,192,203152,1,8,0:0:0:0:
320,192,203463,128,8,204084:0:0:0:0:
64,192,203773,1,8,0:0:0:0:
448,192,204084,128,8,204706:0:0:0:0:
192,192,204395,1,8,0:0:0:0:
64,192,204706,128,8,205328:0:0:0:0:
320,192,205017,1,8,0:0:0:0:
320,192,205328,1,4,0:0:0:0:
448,192,205328,1,8,0:0:0:0:
192,192,205639,1,8,0:0:0:0:
64,192,205950,1,8,0:0:0:0:
192,192,206105,1,8,0:0:0:0:
448,192,206260,1,8,0:0:0:0:
320,192,206416,1,8,0:0:0:0:
192,192,206571,1,8,0:0:0:0:
448,192,206727,1,2,0:0:0:0:
64,192,207193,1,8,0:0:0:0:
320,192,207349,1,2,0:0:0:0:
64,192,207815,1,2,0:0:0:0:
192,192,207815,1,4,0:0:0:0:
448,192,208126,1,8,0:0:0:0:
64,192,208281,1,0,0:0:0:0:
320,192,208592,1,2,0:0:0:0:
192,192,208903,1,8,0:0:0:0:
64,192,209214,1,2,0:0:0:0:
448,192,209525,1,2,0:0:0:0:
320,192,209836,1,2,0:0:0:0:
192,192,209991,1,8,0:0:0:0:
448,192,210302,1,2,0:0:0:0:
64,192,210613,1,8,0:0:0:0:
320,192,210768,1,0,0:0:0:0:
192,192,211079,1,2,0:0:0:0:
448,192,211390,1,8,0:0:0:0:
320,192,211701,1,2,0:0:0:0:
64,192,212012,1,0,0:0:0:0:
192,192,212323,1,8,0:0:0:0:
448,192,212478,1,8,0:0:0:0:
64,192,212789,1,4,0:0:0:0:
192,192,212789,1,2,0:0:0:0:
320,192,212944,1,2,0:0:0:0:
64,192,213100,1,8,0:0:0:0:
448,192,213411,1,2,0:0:0:0:
192,192,213566,1,2,0:0:0:0:
320,192,213877,1,8,0:0:0:0:
64,192,214032,1,0,0:0:0:30:Hat Open.wav
448,192,214343,1,8,0:0:0:0:
192,192,214654,1,2,0:0:0:0:
320,192,214965,1,8,0:0:0:0:
64,192,215276,1,12,0:0:0:0:
192,192,215431,1,2,0:0:0:0:
320,192,215587,1,8,0:0:0:0:
64,192,215898,1,8,0:0:0:0:
192,192,216053,1,2,0:0:0:0:
448,192,216209,1,8,0:0:0:0:
320,192,216520,1,8,0:0:0:0:
192,192,216675,1,2,0:0:0:0:
64,192,216830,1,8,0:0:0:0:
448,192,217141,1,8,0:0:0:0:
320,192,217297,1,2,0:0:0:0:
64,192,217452,1,8,0:0:0:0:
448,192,217763,1,0,0:0:0:0:
192,192,218074,1,0,0:0:0:0:
320,192,218385,1,0,0:0:0:0:
64,192,218540,1,0,0:0:0:0:
448,192,218851,1,0,0:0:0:0:
64,192,219162,1,0,0:0:0:0:
448,192,219473,1,0,0:0:0:0:
192,192,219784,1,8,0:0:0:0:
320,192,219939,1,8,0:0:0:0:
64,192,220095,128,2,226468:0:0:0:0:
448,192,220095,1,4,0:0:0:0:
