osu file format v14

[General]
AudioFilename: audio.mp3
AudioLeadIn: 0
PreviewTime: 44394
Countdown: 0
SampleSet: Soft
StackLeniency: 0.5
Mode: 0
LetterboxInBreaks: 0
WidescreenStoryboard: 0

[Editor]
Bookmarks: 108314,121780,121951,122121,122292,122462,122632,122803,122973,123144,123314,123485,123655,123826,123996,124167,124337,124507,124678,124848,125019,125189,125360,125530,125701,125871,126042,126212,126382,126553,126723,126894,127064,127235,127405,127576,127746,127917,128087,128257,128428,128598,128769,128939,129110,129280,129451,129621,129792,129962,130132,130303,130473,130644,130814,130985,131155,131326,144962,150417,174962,180417
DistanceSpacing: 1
BeatDivisor: 4
GridSize: 32
TimelineZoom: 2

[Metadata]
Title:Distortion!!
TitleUnicode:Distortion!!
Artist:kessoku band
ArtistUnicode:kessoku band
Creator:-[Kirara]-
Version:slowlife
Source:ぼっち・ざ・ろっく!
Tags:Distortion!! · kessoku band Anime Jpop Ending
BeatmapID:3938788
BeatmapSetID:1909690

[Difficulty]
HPDrainRate:5.2
CircleSize:4.1
OverallDifficulty:8.7
ApproachRate:9.4
SliderMultiplier:1.76
SliderTickRate:1

[Events]
//Background and Video events
0,0,"1294333.jpg",0,0
//Break Periods
2,121780,131155
//Storyboard Layer 0 (Background)
//Storyboard Layer 1 (Fail)
//Storyboard Layer 2 (Pass)
//Storyboard Layer 3 (Foreground)
//Storyboard Layer 4 (Overlay)
//Storyboard Sound Samples

[TimingPoints]
405,-100,4,2,1,70,0,0
417,340.909090909091,4,2,1,100,1,0
1780,-100,4,2,1,70,0,0
1950,-100,4,2,1,5,0,0
2121,-100,4,2,1,70,0,0
2632,-100,4,2,1,5,0,0
2803,-100,4,2,1,70,0,0
2973,-100,4,2,1,70,0,0
5359,-100,4,2,1,5,0,0
5530,-100,4,2,1,70,0,0
6723,-100,4,2,1,5,0,0
6894,-100,4,2,1,70,0,0
7064,-100,4,2,1,5,0,0
7235,-90.9090909090909,4,2,1,70,0,0
8087,-90.9090909090909,4,2,1,5,0,0
8257,-90.9090909090909,4,2,1,70,0,0
8427,-90.9090909090909,4,2,1,5,0,0
8598,-90.9090909090909,4,2,1,70,0,0
8768,-90.9090909090909,4,2,1,5,0,0
8939,-90.9090909090909,4,2,1,70,0,0
9962,-125,4,2,1,50,0,0
10132,-125,4,2,1,5,0,0
10303,-125,4,2,1,50,0,0
10473,-125,4,2,1,5,0,0
10644,-125,4,2,1,50,0,0
10814,-125,4,2,1,5,0,0
10985,-125,4,2,1,50,0,0
11155,-125,4,2,1,5,0,0
11326,-125,4,2,1,50,0,0
11496,-125,4,2,1,5,0,0
11667,-125,4,2,1,50,0,0
11837,-125,4,2,1,5,0,0
12007,-125,4,2,1,50,0,0
12518,-125,4,2,1,5,0,0
12689,-125,4,2,1,50,0,0
12859,-125,4,2,1,5,0,0
13030,-125,4,2,1,50,0,0
16950,-125,4,2,1,5,0,0
17121,-125,4,2,1,50,0,0
17291,-125,4,2,1,5,0,0
17462,-125,4,2,1,50,0,0
18655,-125,4,2,1,5,0,0
18826,-125,4,2,1,50,0,0
21723,-111.111111111111,4,2,1,50,0,0
27007,-125,4,2,1,55,0,0
30587,-125,4,2,1,5,0,0
30757,-125,4,2,1,55,0,0
30927,-125,4,2,1,5,0,0
31098,-125,4,2,1,55,0,0
32973,-76.9230769230769,4,2,1,65,0,0
34507,-90.9090909090909,4,2,1,65,0,0
34677,-90.9090909090909,4,2,1,5,0,0
34848,-90.9090909090909,4,2,1,65,0,0
35359,-90.9090909090909,4,2,1,5,0,0
35530,-90.9090909090909,4,2,1,65,0,0
36723,-90.9090909090909,4,2,1,5,0,0
36894,-90.9090909090909,4,2,1,65,0,0
37064,-90.9090909090909,4,2,1,5,0,0
37235,-90.9090909090909,4,2,1,65,0,0
37405,-90.9090909090909,4,2,1,5,0,0
37576,-90.9090909090909,4,2,1,65,0,0
38087,-90.9090909090909,4,2,1,5,0,0
38257,-90.9090909090909,4,2,1,65,0,0
38428,-83.3333333333333,4,2,1,65,0,0
45417,-83.3333333333333,4,2,1,75,0,1
49507,-83.3333333333333,4,2,1,80,0,1
50871,-83.3333333333333,4,2,1,75,0,1
60161,-111.111111111111,4,2,1,85,0,1
60246,-100,4,2,1,75,0,1
61439,-83.3333333333333,4,2,1,75,0,1
61780,-100,4,2,1,65,0,0
63996,-100,4,2,1,5,0,0
64167,-100,4,2,1,65,0,0
64337,-100,4,2,1,5,0,0
64507,-100,4,2,1,65,0,0
65359,-100,4,2,1,5,0,0
65530,-100,4,2,1,65,0,0
66723,-125,4,2,1,65,0,0
67149,-125,4,2,1,5,0,0
67235,-111.111111111111,4,2,1,60,0,0
74905,-111.111111111111,4,2,1,65,0,0
75417,-111.111111111111,4,2,1,61,0,0
82235,-90.9090909090908,4,2,1,61,0,0
82405,-90.9090909090908,4,2,1,5,0,0
82576,-90.9090909090908,4,2,1,61,0,0
82746,-90.9090909090908,4,2,1,5,0,0
82917,-90.9090909090908,4,2,1,61,0,0
83768,-90.9090909090908,4,2,1,5,0,0
83939,-90.9090909090908,4,2,1,61,0,0
84791,-90.9090909090908,4,2,1,5,0,0
84962,-90.9090909090908,4,2,1,61,0,0
86326,-90.9090909090908,4,2,1,51,0,0
86667,-90.9090909090908,4,2,1,61,0,0
86837,-90.9090909090908,4,2,1,65,0,0
87348,-90.9090909090908,4,2,1,62,0,0
87518,-90.9090909090908,4,2,1,5,0,0
87689,-90.9090909090908,4,2,1,62,0,0
89053,-83.3333333333333,4,2,1,75,0,1
92973,-83.3333333333333,4,2,1,75,0,1
94507,-83.3333333333333,4,2,1,75,0,1
97235,-83.3333333333333,4,2,1,75,0,1
97576,-76.9230769230769,4,2,1,77,0,1
98257,-71.4285714285714,4,2,1,79,0,1
98598,-66.6666666666667,4,2,1,79,0,1
98768,-66.6666666666667,4,2,1,5,0,1
98854,-66.6666666666667,4,2,1,79,0,1
99962,-83.3333333333333,4,2,1,79,0,1
103882,-83.3333333333333,4,2,1,5,0,1
104053,-83.3333333333333,4,2,1,75,0,1
105417,-111.111111111111,4,2,1,70,0,0
105672,-111.111111111111,4,2,1,5,0,0
105757,-111.111111111111,4,2,1,70,0,0
108144,-90.9090909090909,4,2,1,70,0,0
108314,-90.9090909090909,4,2,1,75,0,0
109337,-90.9090909090909,4,2,1,5,0,0
109507,-90.9090909090909,4,2,1,75,0,0
109677,-90.9090909090909,4,2,1,5,0,0
109848,-90.9090909090909,4,2,1,75,0,0
110018,-90.9090909090909,4,2,1,5,0,0
110189,-90.9090909090909,4,2,1,75,0,0
110359,-90.9090909090909,4,2,1,5,0,0
110530,-90.9090909090909,4,2,1,75,0,0
110700,-90.9090909090909,4,2,1,5,0,0
110871,-83.3333333333333,4,2,1,75,0,0
111126,-83.3333333333333,4,2,1,5,0,0
111212,-83.3333333333333,4,2,1,75,0,0
114024,-83.3333333333333,4,2,1,5,0,0
114110,-83.3333333333333,4,2,1,75,0,0
114536,-83.3333333333333,4,2,1,5,0,0
114621,-83.3333333333333,4,2,1,75,0,0
119053,-83.3333333333333,4,2,1,75,0,0
119309,-83.3333333333333,4,2,1,75,0,0
119479,-71.4285714285714,4,2,1,75,0,0
119564,-83.3333333333333,4,2,1,75,0,0
119649,-71.4285714285714,4,2,1,75,0,0
119735,-71.4285714285714,4,2,1,75,0,0
119905,-71.4285714285714,4,2,1,75,0,0
119990,-71.4285714285714,4,2,1,75,0,0
120161,-71.4285714285714,4,2,1,75,0,0
120246,-71.4285714285714,4,2,1,75,0,0
120587,-125,4,2,1,75,0,0
121780,-166.666666666667,4,2,1,75,0,0
123144,-166.666666666667,4,2,1,75,0,0
124507,-166.666666666667,4,2,1,75,0,0
125871,-166.666666666667,4,2,1,75,0,0
127235,-166.666666666667,4,2,1,75,0,0
128598,-166.666666666667,4,2,1,75,0,0
129962,-166.666666666667,4,2,1,75,0,0
131326,-166.666666666667,4,2,1,65,0,0
131837,-125,4,2,1,65,0,0
132689,-83.3333333333333,4,2,1,75,0,0
133371,-100,4,2,1,75,0,0
133542,-100,4,2,1,75,0,0
133712,-125,4,2,1,75,0,0
134053,-125,4,2,1,75,0,0
135246,-125,4,2,1,5,0,0
135417,-125,4,2,1,75,0,0
135587,-125,4,2,1,5,0,0
135757,-125,4,2,1,75,0,0
135927,-125,4,2,1,5,0,0
136098,-100,4,2,1,75,0,0
136269,-100,4,2,1,75,0,0
136439,-125,4,2,1,75,0,0
136780,-83.3333333333333,4,2,1,75,0,0
137035,-83.3333333333333,4,2,1,5,0,0
137121,-83.3333333333333,4,2,1,75,0,0
137376,-83.3333333333333,4,2,1,5,0,0
137462,-83.3333333333333,4,2,1,75,0,0
138144,-83.3333333333333,4,2,1,65,0,0
140871,-166.666666666667,4,2,1,75,0,0
141467,-166.666666666667,4,2,1,5,0,0
141553,-83.3333333333333,4,2,1,75,0,0
142149,-100,4,2,1,5,0,0
142235,-100,4,2,1,55,0,0
142831,-100,4,2,1,5,0,0
142917,-250,4,2,1,55,0,0
143428,-83.3333333333333,4,2,1,35,0,0
143598,-83.3333333333333,4,2,1,55,0,0
143939,-83.3333333333333,4,2,1,25,0,0
144110,-142.857142857143,4,2,1,75,0,0
144877,-100,4,2,1,5,0,0
144962,-142.857142857143,4,2,1,60,0,1
144962,-142.857142857143,4,2,1,60,0,1
145132,-100,4,2,1,75,0,1
145303,-100,4,2,1,75,0,1
145814,-100,4,2,1,75,0,1
145985,-100,4,2,1,75,0,1
147348,-100,4,2,1,65,0,1
147689,-100,4,2,1,60,0,1
148968,-100,4,2,1,75,0,1
149223,-100,4,2,1,75,0,1
149394,-100,4,2,1,75,0,1
149564,-100,4,2,1,75,0,1
149735,-100,4,2,1,75,0,1
149820,-100,4,2,1,65,0,0
150417,-100,4,2,1,70,0,1
151098,-100,4,2,1,70,0,1
151269,-100,4,2,1,70,0,1
151780,-100,4,2,1,70,0,1
151951,-100,4,2,1,70,0,1
152121,-100,4,2,1,70,0,1
152632,-100,4,2,1,60,0,1
152803,-100,4,2,1,60,0,1
152973,-100,4,2,1,60,0,1
153144,-100,4,2,1,60,0,1
153314,-100,4,2,1,60,0,1
153485,-100,4,2,1,60,0,1
153655,-100,4,2,1,60,0,1
153826,-100,4,2,1,65,0,1
153996,-100,4,2,1,65,0,1
154167,-100,4,2,1,65,0,1
154337,-100,4,2,1,65,0,1
154507,-100,4,2,1,55,0,0
155785,-100,4,2,1,5,0,0
155871,-83.3333333333333,4,2,1,75,0,1
161155,-83.3333333333333,4,2,1,75,0,1
165331,-83.3333333333333,4,2,1,5,0,1
165417,-83.3333333333333,4,2,1,75,0,1
172746,-83.3333333333333,4,2,1,5,0,1
172917,-83.3333333333333,4,2,1,75,0,1
174962,-100,4,2,1,85,0,1
176326,-100,4,2,1,85,0,1
177859,-100,4,2,1,5,0,1
178030,-100,4,2,1,85,0,1
178541,-100,4,2,1,5,0,1
178712,-100,4,2,1,85,0,1
178882,-100,4,2,1,5,0,1
179053,-100,4,2,1,85,0,1
179223,-100,4,2,1,5,0,1
179394,-100,4,2,1,85,0,1
179564,-100,4,2,1,5,0,1
179735,-100,4,2,1,85,0,1
179905,-100,4,2,1,5,0,1
180076,-100,4,2,1,85,0,1
180417,-100,4,2,1,75,0,1
181268,-100,4,2,1,5,0,1
181439,-100,4,2,1,75,0,1
181609,-100,4,2,1,5,0,1
181780,-100,4,2,1,75,0,1
181950,-100,4,2,1,5,0,1
182121,-100,4,2,1,75,0,1
182291,-100,4,2,1,5,0,1
182462,-100,4,2,1,75,0,1
182632,-100,4,2,1,5,0,1
182803,-100,4,2,1,75,0,1
183996,-100,4,2,1,5,0,1
184167,-100,4,2,1,75,0,1
184337,-100,4,2,1,5,0,1
184422,-100,4,2,1,75,0,1
184677,-100,4,2,1,5,0,1
184763,-100,4,2,1,75,0,1
185018,-100,4,2,1,5,0,1
185104,-100,4,2,1,70,0,1
185871,-71.4285714285714,4,2,1,65,0,0
186127,-100,4,2,1,5,0,0
186212,-83.3333333333333,4,2,1,65,0,0
187235,-71.4285714285714,4,2,1,65,0,0
189962,-83.3333333333333,4,2,1,65,0,0
190644,-100,4,2,1,65,0,0
191155,-83.3333333333333,4,2,1,65,0,0
196780,-83.3333333333333,4,2,1,65,0,0
197377,-125,4,2,1,5,0,0
197462,-125,4,2,1,20,0,0
197547,-166.666666666667,4,2,1,65,0,0
198059,-125,4,2,1,5,0,0
198144,-125,4,2,1,65,0,0
200615,-250.000000000001,4,2,1,15,0,0
201041,-250.000000000001,4,2,1,5,0,0

[HitObjects]
368,283,1780,6,0,P|306:290|263:275,1,88
176,195,2121,1,0,0:0:0:0:
53,349,2292,1,0,0:0:0:0:
53,349,2462,2,0,B|53:314|53:314|40:290|40:290|40:246,1,88
257,174,2803,1,0,0:0:0:0:
201,343,2973,2,0,B|240:369|287:368|294:329|344:325|382:350,2,176
130,252,3826,5,0,0:0:0:0:
132,136,3996,1,0,0:0:0:0:
266,212,4167,1,0,0:0:0:0:
110,306,4337,1,0,0:0:0:0:
13,226,4507,6,0,B|70:176|70:176|118:197|178:186,1,176
367,116,5019,1,0,0:0:0:0:
367,116,5189,2,0,P|308:122|266:114,1,88
111,175,5530,5,0,0:0:0:0:
247,252,5701,1,0,0:0:0:0:
201,130,5871,1,0,0:0:0:0:
143,278,6042,1,0,0:0:0:0:
301,169,6212,1,0,0:0:0:0:
110,164,6382,1,0,0:0:0:0:
277,290,6553,2,0,P|328:285|381:291,1,88
458,202,6894,2,0,P|443:156|450:110,1,88
120,152,7235,6,0,P|209:179|294:130,1,193.600005908203
396,89,7746,1,0,0:0:0:0:
404,93,7917,2,0,P|405:140|404:195,1,96.8000029541017
370,269,8257,2,0,P|313:242|269:236,1,96.8000029541017
177,292,8598,2,0,P|176:227|157:194,1,96.8000029541017
44,99,8939,5,0,0:0:0:0:
89,83,9024,1,0,0:0:0:0:
137,76,9109,1,0,0:0:0:0:
185,79,9194,1,0,0:0:0:0:
227,97,9280,5,0,0:0:0:0:
353,232,9451,1,0,0:0:0:0:
158,326,9962,6,0,B|160:283|160:283|137:247,1,70.4
28,171,10303,6,0,B|23:210|23:210|40:248,1,70.4
258,243,10644,6,0,B|236:226|236:226|185:228,1,70.4
64,336,10985,6,0,B|99:348|99:348|134:345,1,70.4
384,233,11326,6,0,P|384:193|357:147,1,70.4
206,270,11667,2,0,P|248:282|276:276,1,70.4
366,251,12007,1,0,0:0:0:0:
328,355,12178,1,0,0:0:0:0:
470,320,12348,2,0,P|430:312|394:320,1,70.4
223,161,12689,6,0,P|269:146|310:151,1,70.4
414,200,13030,2,0,P|371:252|304:227,2,140.8
319,105,13882,1,0,0:0:0:0:
319,105,14053,1,0,0:0:0:0:
426,69,14223,1,0,0:0:0:0:
483,177,14394,2,0,P|483:232|480:327,1,140.8
413,370,14905,1,0,0:0:0:0:
400,370,14990,1,0,0:0:0:0:
379,359,15076,1,0,0:0:0:0:
299,293,15246,5,0,0:0:0:0:
231,227,15417,2,0,P|158:231|76:241,1,140.8
35,122,15928,1,0,0:0:0:0:
48,119,16098,2,0,P|121:119|203:142,1,140.8
353,184,16610,1,0,0:0:0:0:
308,115,16780,2,0,L|308:28,1,70.4
438,174,17121,2,0,L|438:269,1,70.4
299,293,17462,2,0,B|260:285|234:265|234:265|204:283|161:293,1,140.8
146,179,18144,6,0,B|222:123|271:205|352:106,1,211.2
475,217,18826,2,0,P|417:256|366:209,1,140.8
426,90,19337,1,0,0:0:0:0:
432,96,19507,2,0,P|447:131|445:177,2,70.4
477,41,20018,5,0,0:0:0:0:
477,41,20103,1,0,0:0:0:0:
477,41,20189,2,0,L|414:48,1,35.2
398,62,20360,2,0,L|395:117,1,35.2
354,182,20530,2,0,L|289:181,1,35.2
275,157,20701,2,0,L|224:152,1,35.2
173,206,20871,6,0,P|133:206|19:230,1,140.8
220,165,21382,1,0,0:0:0:0:
107,340,21553,1,0,0:0:0:0:
107,340,21723,1,0,0:0:0:0:
19,263,21894,2,0,P|58:248|109:248,1,79.1999975830079
224,310,22235,5,0,0:0:0:0:
224,310,22405,1,0,0:0:0:0:
320,188,22576,2,0,P|295:151|293:99,1,79.1999975830079
442,227,22917,1,0,0:0:0:0:
442,227,23087,1,0,0:0:0:0:
240,192,23257,2,0,P|195:178|152:183,1,79.1999975830079
157,338,23598,5,0,0:0:0:0:
157,338,23769,1,0,0:0:0:0:
157,338,23939,2,0,B|204:317|245:323|245:323|273:344|332:328,1,158.399995166016
408,264,24451,1,0,0:0:0:0:
222,152,24621,2,0,P|225:104|249:73,1,79.1999975830079
391,60,24962,5,0,0:0:0:0:
357,216,25132,1,0,0:0:0:0:
180,148,25303,2,0,P|131:146|91:158,1,79.1999975830079
50,283,25644,1,0,0:0:0:0:
50,283,25729,1,0,0:0:0:0:
50,283,25814,2,0,P|30:239|32:204,1,79.1999975830079
37,110,26155,5,0,0:0:0:0:
44,115,26326,2,0,P|109:124|203:99,1,158.399995166016
361,72,26837,1,0,0:0:0:0:
361,72,27007,2,0,P|319:115|319:196,1,140.8
376,314,27519,1,0,0:0:0:0:
376,314,27604,1,0,0:0:0:0:
376,314,27689,6,0,L|293:320,1,70.4
207,239,28030,2,0,L|289:226,1,70.4
462,272,28371,2,0,P|463:186|480:130,1,140.8
365,77,29053,6,0,P|289:81|221:87,1,140.8
120,208,29564,1,0,0:0:0:0:
125,212,29735,2,0,B|170:226|203:256|203:256|256:231,1,140.8
261,225,30246,5,0,0:0:0:0:
325,136,30417,2,0,P|330:98|307:57,1,70.4
196,29,30757,2,0,P|154:23|125:33,1,70.4
117,243,31098,5,0,0:0:0:0:
148,258,31183,1,0,0:0:0:0:
179,274,31268,1,0,0:0:0:0:
211,290,31353,1,0,0:0:0:0:
234,264,31439,1,0,0:0:0:0:
249,238,31524,1,0,0:0:0:0:
262,216,31610,1,0,0:0:0:0:
279,190,31695,1,0,0:0:0:0:
325,178,31780,6,0,B|275:126|275:126|190:123,1,140.8
112,293,32292,1,0,0:0:0:0:
119,301,32462,2,0,B|159:326|169:353|169:353|206:348|254:356,1,140.8
375,197,32973,6,0,B|390:252|390:252|380:285|380:320,1,114.399994763184
153,220,33314,2,0,B|164:192|159:160|159:160|128:127|128:90,1,114.399994763184
350,93,33655,2,0,P|416:92|478:63,1,114.399994763184
469,29,33996,2,0,P|458:98|470:167,1,114.399994763184
462,298,34337,5,0,0:0:0:0:
463,305,34422,1,0,0:0:0:0:
462,313,34507,2,0,B|413:321|413:321|363:311,1,96.8000029541017
287,200,34848,1,0,0:0:0:0:
175,282,35019,1,0,0:0:0:0:
94,109,35189,2,0,P|113:158|128:208,1,96.8000029541017
319,241,35530,5,0,0:0:0:0:
371,154,35701,2,0,P|324:131|269:131,1,96.8000029541017
153,180,36042,2,0,P|146:227|162:277,1,96.8000029541017
356,158,36383,1,0,0:0:0:0:
356,158,36468,1,0,0:0:0:0:
356,158,36553,2,0,B|320:155|298:157|298:157|278:135|256:120,1,96.8000029541017
149,257,36894,2,0,P|93:249|48:265,1,96.8000029541017
271,349,37235,6,0,P|331:358|374:350,1,96.8000029541017
449,197,37576,1,0,0:0:0:0:
320,284,37746,1,0,0:0:0:0:
450,338,37917,2,0,P|474:285|467:236,1,96.8000029541017
325,190,38257,5,0,0:0:0:0:
321,195,38428,2,0,P|274:206|215:189,1,105.599996777344
177,25,38769,2,0,P|200:73|193:130,1,105.599996777344
213,311,39110,1,0,0:0:0:0:
226,303,39195,1,0,0:0:0:0:
244,298,39280,1,0,0:0:0:0:
263,301,39365,1,0,0:0:0:0:
281,313,39451,2,0,P|337:333|390:311,1,105.599996777344
437,127,39792,5,0,0:0:0:0:
434,142,39962,2,0,P|438:199|444:271,1,105.599996777344
270,329,40303,2,0,P|189:316|138:324,1,105.599996777344
33,317,40644,1,0,0:0:0:0:
214,162,40814,1,0,0:0:0:0:
300,336,40985,2,0,P|305:274|328:221,1,105.599996777344
423,46,41326,5,0,0:0:0:0:
387,258,41496,1,0,0:0:0:0:
309,95,41667,1,0,0:0:0:0:
214,269,41837,1,0,0:0:0:0:
169,99,42007,6,0,P|221:88|280:88,1,105.599996777344
379,131,42348,2,0,P|409:180|415:232,1,105.599996777344
325,328,42689,5,0,0:0:0:0:
48,143,42860,2,0,B|91:123|91:123|130:134|163:128,1,105.599996777344
325,328,43201,5,0,0:0:0:0:
307,48,43371,2,0,P|286:110|286:169,1,105.599996777344
325,328,43712,1,0,0:0:0:0:
491,136,43882,2,0,P|432:188|398:201,1,105.599996777344
346,113,44223,5,0,0:0:0:0:
360,146,44308,1,0,0:0:0:0:
375,180,44393,1,0,0:0:0:0:
390,214,44478,1,0,0:0:0:0:
405,248,44563,5,0,0:0:0:0:
229,226,44735,1,0,0:0:0:0:
320,319,44905,1,0,0:0:0:0:
93,260,45076,1,0,0:0:0:0:
180,378,45246,1,0,0:0:0:0:
346,226,45417,6,0,P|347:161|321:116,1,105.599996777344
121,249,45757,2,0,P|181:278|240:271,1,105.599996777344
433,56,46098,2,0,P|377:29|311:29,1,105.599996777344
388,324,46439,2,0,P|433:281|443:224,1,105.599996777344
261,142,46780,2,0,P|192:153|150:189,1,105.599996777344
272,347,47121,2,0,P|289:278|279:231,1,105.599996777344
186,133,47462,1,0,0:0:0:0:
186,133,47547,1,0,0:0:0:0:
186,133,47632,1,0,0:0:0:0:
132,316,47803,5,0,0:0:0:0:
230,174,47973,1,0,0:0:0:0:
319,291,48144,2,0,P|267:277|200:277,1,105.599996777344
97,326,48485,5,0,0:0:0:0:
236,298,48655,1,0,0:0:0:0:
125,221,48826,1,0,0:0:0:0:
190,141,48996,2,0,P|238:142|266:190,1,105.599996777344
274,200,49252,1,0,0:0:0:0:
274,200,49337,5,0,0:0:0:0:
421,269,49507,1,0,0:0:0:0:
257,288,49678,1,0,0:0:0:0:
444,351,49848,1,0,0:0:0:0:
293,185,50019,1,0,0:0:0:0:
332,356,50189,1,0,0:0:0:0:
444,234,50360,1,0,0:0:0:0:
291,226,50530,1,0,0:0:0:0:
437,341,50701,1,0,0:0:0:0:
462,163,50871,6,0,P|407:170|342:162,1,105.599996777344
183,336,51212,2,0,P|196:282|184:227,1,105.599996777344
28,45,51553,2,0,P|90:60|130:87,1,105.599996777344
279,227,51894,2,0,P|309:178|356:157,1,105.599996777344
452,321,52235,6,0,P|387:327|348:310,1,105.599996777344
133,183,52576,2,0,P|185:159|232:159,1,105.599996777344
412,253,52917,1,0,0:0:0:0:
412,253,53002,1,0,0:0:0:0:
412,253,53087,1,0,0:0:0:0:
451,365,53257,1,0,0:0:0:0:
512,231,53428,1,0,0:0:0:0:
438,315,53598,6,0,P|367:326|324:307,1,105.599996777344
211,272,53939,2,0,P|159:259|105:261,1,105.599996777344
91,104,54280,2,0,P|140:87|184:57,1,105.599996777344
266,178,54621,2,0,B|221:180|221:180|165:202,1,105.599996777344
452,296,54962,6,0,B|429:313|395:325|395:325|349:322|305:309|305:309|250:273,1,211.199993554688
239,259,55473,1,0,0:0:0:0:
239,259,55559,1,0,0:0:0:0:
239,259,55644,1,0,0:0:0:0:
158,89,55814,5,0,0:0:0:0:
448,37,55985,1,0,0:0:0:0:
335,196,56326,6,0,B|325:225|337:256|337:256|345:273|341:301,1,105.599996777344
339,333,56667,1,0,0:0:0:0:
211,201,56837,1,0,0:0:0:0:
109,335,57007,2,0,P|168:315|228:331,1,105.599996777344
234,331,57348,5,0,0:0:0:0:
377,352,57519,1,0,0:0:0:0:
451,232,57689,2,0,P|383:202|335:196,1,105.599996777344
162,323,58030,2,0,P|213:284|221:234,1,105.599996777344
229,36,58371,5,0,0:0:0:0:
232,207,58542,1,0,0:0:0:0:
160,80,58712,1,0,0:0:0:0:
323,277,58882,1,0,0:0:0:0:
163,200,59053,2,0,P|97:193|44:197,1,105.599996777344
133,341,59394,1,0,0:0:0:0:
133,341,59479,1,0,0:0:0:0:
133,341,59564,6,0,B|169:324|169:324|203:333|252:323,1,105.599996777344
442,278,59905,2,0,P|378:279|336:269,1,105.599996777344
297,94,60246,5,0,0:0:0:0:
458,238,60417,1,0,0:0:0:0:
245,171,60587,1,0,0:0:0:0:
480,156,60757,1,0,0:0:0:0:
325,280,60928,1,0,0:0:0:0:
349,64,61098,1,0,0:0:0:0:
355,225,61269,1,0,0:0:0:0:
205,143,61439,2,0,P|144:136|96:149,1,105.599996777344
234,317,61780,6,0,P|316:344|402:304,1,176
471,130,62292,1,0,0:0:0:0:
471,130,62462,2,0,P|396:137|289:109,1,176
197,41,62973,1,0,0:0:0:0:
197,41,63059,1,0,0:0:0:0:
197,41,63144,5,0,0:0:0:0:
370,220,63314,1,0,0:0:0:0:
250,136,63485,1,0,0:0:0:0:
260,341,63655,1,0,0:0:0:0:
146,252,63826,2,0,P|91:221|44:208,1,88
125,77,64167,2,0,P|175:62|219:62,1,88
382,187,64507,6,0,P|323:210|218:166,1,176
183,58,65019,2,0,P|91:102|116:160,1,176
250,223,65530,5,0,0:0:0:0:
377,165,65701,2,0,L|378:60,1,88
144,177,66042,2,0,P|192:170|233:178,1,88
357,295,66382,5,0,0:0:0:0:
357,295,66468,1,0,0:0:0:0:
357,295,66553,1,0,0:0:0:0:
195,333,66723,2,0,B|165:342|133:343|103:311|103:311|57:300|25:322,1,176
35,335,67235,6,0,B|73:304|79:259|79:259|56:230|76:168,1,158.399995166016
201,29,67746,2,0,B|226:50|233:71|233:71|227:111,1,79.1999975830079
393,239,68087,2,0,P|356:227|307:240,1,79.1999975830079
205,275,68428,1,0,0:0:0:0:
294,203,68598,1,0,0:0:0:0:
150,200,68769,1,0,0:0:0:0:
359,292,68939,2,0,P|313:274|273:276,1,79.1999975830079
187,330,69280,2,0,P|141:317|103:282,1,79.1999975830079
237,211,69621,2,0,P|281:198|319:209,1,79.1999975830079
435,339,69962,6,0,P|454:286|439:181,1,158.399995166016
185,162,70473,1,0,0:0:0:0:
191,167,70644,2,0,P|235:173|286:163,1,79.1999975830079
435,306,70985,2,0,P|405:317|356:310,1,79.1999975830079
334,187,71326,2,0,P|377:174|416:180,1,79.1999975830079
424,186,71581,5,0,0:0:0:0:
424,186,71667,1,0,0:0:0:0:
418,309,71837,1,0,0:0:0:0:
481,197,72007,1,0,0:0:0:0:
318,272,72178,1,0,0:0:0:0:
379,137,72348,1,0,0:0:0:0:
203,155,72519,5,0,0:0:0:0:
190,150,72604,1,0,0:0:0:0:
182,145,72689,2,0,L|165:47,1,79.1999975830079
272,35,73030,1,0,0:0:0:0:
122,214,73201,1,0,0:0:0:0:
238,84,73371,2,0,P|287:108|378:68,1,158.399995166016
386,56,73882,5,0,0:0:0:0:
479,157,74053,1,0,0:0:0:0:
336,240,74223,1,0,0:0:0:0:
326,73,74394,1,0,0:0:0:0:
429,165,74564,1,0,0:0:0:0:
393,30,74735,1,0,0:0:0:0:
438,189,74905,1,0,0:0:0:0:
438,189,74990,1,0,0:0:0:0:
438,189,75076,2,0,B|386:167|386:167|353:174,1,79.1999975830079
314,175,75331,5,0,0:0:0:0:
304,179,75417,2,0,B|357:152|347:120|347:120|312:81|345:40,1,158.399995166016
453,101,75928,1,0,0:0:0:0:
252,247,76098,1,0,0:0:0:0:
227,216,76183,1,0,0:0:0:0:
195,193,76268,1,0,0:0:0:0:
157,180,76353,1,0,0:0:0:0:
118,179,76439,2,0,L|105:235,1,39.5999987915039
77,336,76610,6,0,L|155:323,1,79.1999975830079
336,269,78144,6,0,P|409:265|495:306,1,158.399995166016
499,310,78655,1,0,0:0:0:0:
499,310,78826,1,0,0:0:0:0:
385,362,78996,1,0,0:0:0:0:
282,253,79167,2,0,P|279:181|256:96,1,158.399995166016
57,212,79678,1,0,0:0:0:0:
63,211,79848,2,0,P|128:205|223:240,2,158.399995166016
149,349,80701,5,0,0:0:0:0:
149,349,80786,1,0,0:0:0:0:
149,349,80871,2,0,P|193:344|233:344,1,79.1999975830079
374,209,81212,2,0,P|322:210|287:201,1,79.1999975830079
94,256,81553,2,0,P|135:235|156:207,1,79.1999975830079
191,37,81894,2,0,P|217:72|224:112,1,79.1999975830079
358,315,82235,6,0,P|320:295|298:245,1,96.8000029541017
345,145,82576,2,0,P|393:131|457:146,1,96.8000029541017
447,271,82917,1,0,0:0:0:0:
248,124,83087,1,0,0:0:0:0:
249,293,83257,1,0,0:0:0:0:
447,205,83427,1,0,0:0:0:0:
321,357,83598,6,0,P|288:321|234:285,1,96.8000029541017
128,296,83939,1,0,0:0:0:0:
128,296,84024,1,0,0:0:0:0:
128,296,84110,1,0,0:0:0:0:
231,123,84280,1,0,0:0:0:0:
76,226,84451,1,0,0:0:0:0:
71,106,84621,2,0,P|126:115|174:97,1,96.8000029541017
404,122,84962,5,0,0:0:0:0:
423,165,85047,1,0,0:0:0:0:
408,209,85132,1,0,0:0:0:0:
367,232,85217,1,0,0:0:0:0:
321,221,85303,1,0,0:0:0:0:
295,182,85388,1,0,0:0:0:0:
250,166,85473,1,0,0:0:0:0:
205,181,85558,1,0,0:0:0:0:
178,221,85644,5,0,0:0:0:0:
181,268,85729,1,0,0:0:0:0:
211,305,85814,1,0,0:0:0:0:
257,316,85899,1,0,0:0:0:0:
300,296,85984,1,0,0:0:0:0:
322,254,86069,1,0,0:0:0:0:
314,207,86155,1,0,0:0:0:0:
283,175,86240,1,0,0:0:0:0:
237,174,86326,5,0,0:0:0:0:
156,249,86667,1,0,0:0:0:0:
156,249,86837,1,0,0:0:0:0:
274,305,87007,1,0,0:0:0:0:
266,184,87178,1,0,0:0:0:0:
144,334,87348,6,0,P|197:326|254:324,1,96.8000029541017
336,290,87689,2,0,P|378:285|408:289,1,48.4000014770508
453,304,87860,1,0,0:0:0:0:
453,304,87945,1,0,0:0:0:0:
464,280,88030,2,0,P|468:249|475:218,1,48.4000014770508
422,165,88201,2,0,P|418:136|416:98,1,48.4000014770508
190,119,88542,5,0,0:0:0:0:
198,151,88627,1,0,0:0:0:0:
210,180,88712,1,0,0:0:0:0:
220,212,88797,1,0,0:0:0:0:
230,241,88882,1,0,0:0:0:0:
241,279,88968,1,0,0:0:0:0:
253,308,89053,6,0,B|328:244|328:244|329:217,1,105.599996777344
406,51,89394,2,0,B|320:35|320:35|295:50,1,105.599996777344
113,274,89735,2,0,P|182:296|236:283,1,105.599996777344
376,187,90076,1,0,0:0:0:0:
376,187,90161,1,0,0:0:0:0:
376,187,90246,1,0,0:0:0:0:
256,328,90417,1,0,0:0:0:0:
419,287,90587,1,0,0:0:0:0:
272,200,90757,2,0,P|212:180|165:189,1,105.599996777344
171,186,91013,5,0,0:0:0:0:
171,186,91098,2,0,P|165:130|131:93,1,105.599996777344
133,94,91354,1,0,0:0:0:0:
133,94,91439,2,0,P|201:93|233:61,1,105.599996777344
237,54,91695,5,0,0:0:0:0:
245,48,91780,2,0,P|304:47|354:66,1,105.599996777344
424,298,92121,2,0,P|354:315|309:293,1,105.599996777344
189,137,92462,1,0,0:0:0:0:
189,137,92547,1,0,0:0:0:0:
189,137,92632,1,0,0:0:0:0:
227,340,92803,1,0,0:0:0:0:
78,197,92973,6,0,P|103:221|129:246,1,52.7999983886719
227,340,93144,1,0,0:0:0:0:
266,130,93314,2,0,P|259:160|253:203,1,52.7999983886719
227,340,93485,1,0,0:0:0:0:
449,158,93655,2,0,P|421:181|399:207,1,52.7999983886719
227,340,93826,1,0,0:0:0:0:
318,163,93996,2,0,P|302:192|291:223,1,52.7999983886719
227,340,94167,1,0,0:0:0:0:
161,285,94337,5,0,0:0:0:0:
151,277,94422,1,0,0:0:0:0:
140,274,94507,2,0,P|78:266|28:274,1,105.599996777344
61,147,94763,1,0,0:0:0:0:
68,142,94848,2,0,P|120:125|173:125,1,105.599996777344
340,182,95189,2,0,P|349:242|341:293,1,105.599996777344
262,343,95530,5,0,0:0:0:0:
262,343,95615,1,0,0:0:0:0:
262,343,95701,1,0,0:0:0:0:
459,187,95871,1,0,0:0:0:0:
442,343,96042,1,0,0:0:0:0:
432,346,96212,2,0,P|375:342|328:318,1,105.599996777344
215,178,96553,5,0,0:0:0:0:
215,178,96638,1,0,0:0:0:0:
215,178,96723,1,0,0:0:0:0:
336,309,96894,1,0,0:0:0:0:
117,205,97064,1,0,0:0:0:0:
210,354,97235,6,0,B|248:325|248:325|248:264,1,105.599996777344
286,132,97576,2,0,P|349:109|399:130,1,114.399994763184
381,280,97917,2,0,P|324:297|267:280,1,114.399994763184
111,106,98257,2,0,B|124:136|124:136|108:246,1,123.199996240234
142,336,98598,6,0,P|194:307|272:299,1,132.000005035401
359,311,98854,1,0,0:0:0:0:
390,322,98939,1,0,0:0:0:0:
411,336,99024,1,0,0:0:0:0:
429,354,99110,1,0,0:0:0:0:
501,199,99280,5,0,0:0:0:0:
352,267,99451,1,0,0:0:0:0:
145,155,99621,1,0,0:0:0:0:
219,297,99962,6,0,P|276:280|341:281,1,105.599996777344
487,146,100218,1,0,0:0:0:0:
480,150,100303,2,0,P|426:156|367:141,1,105.599996777344
225,235,100559,1,0,0:0:0:0:
215,239,100644,2,0,P|175:200|183:150,1,105.599996777344
302,86,100985,6,0,P|366:90|405:127,1,105.599996777344
445,260,101240,1,0,0:0:0:0:
441,268,101326,2,0,P|388:280|334:264,1,105.599996777344
182,124,101667,2,0,P|175:184|149:232,1,105.599996777344
64,276,102007,1,0,0:0:0:0:
235,215,102178,2,0,P|302:207|343:211,1,105.599996777344
456,313,102519,5,0,0:0:0:0:
449,300,102604,1,0,0:0:0:0:
448,287,102689,2,0,P|469:233|497:185,1,105.599996777344
267,65,103030,1,0,0:0:0:0:
270,71,103201,2,0,P|273:129|269:183,1,105.599996777344
186,300,103542,2,0,P|97:300|62:191,1,211.199993554688
340,73,104053,6,0,P|301:115|248:126,1,105.599996777344
298,322,104394,2,0,P|271:269|265:215,1,105.599996777344
359,122,104735,1,0,0:0:0:0:
380,122,104820,1,0,0:0:0:0:
403,132,104905,1,0,0:0:0:0:
463,266,105076,1,0,0:0:0:0:
512,109,105246,1,0,0:0:0:0:
426,190,105417,6,0,P|375:196|309:173,1,118.799996374512
303,168,105757,1,0,0:0:0:0:
303,168,105928,1,0,0:0:0:0:
273,289,106098,2,0,P|350:317|379:259,1,158.399995166016
376,189,106553,5,0,0:0:0:0:
366,182,106667,1,0,0:0:0:0:
306,132,106780,2,0,L|304:62,1,52.7999983886719
224,50,107007,1,0,0:0:0:0:
210,43,107121,2,0,L|209:105,1,52.7999983886719
235,209,107348,5,0,0:0:0:0:
154,186,107462,2,0,L|155:256,1,52.7999983886719
298,316,107689,1,0,0:0:0:0:
384,265,107803,2,0,L|384:201,1,52.7999983886719
383,30,108030,1,0,0:0:0:0:
459,94,108144,2,0,L|464:166,1,48.4000014770508
407,243,108314,5,0,0:0:0:0:
442,125,108485,1,0,0:0:0:0:
253,122,108655,1,0,0:0:0:0:
383,30,108826,1,0,0:0:0:0:
422,184,108996,1,0,0:0:0:0:
412,187,109167,2,0,B|373:198|373:198|299:178,1,96.8000029541017
239,290,109507,6,0,B|239:242|239:242|209:194,1,96.8000029541017
142,48,109848,2,0,P|100:93|60:103,1,96.8000029541017
304,198,110189,2,0,P|340:153|383:136,1,96.8000029541017
388,132,110530,2,0,B|336:121|336:121|287:128,1,96.8000029541017
205,288,110871,6,0,B|248:265|277:290|277:290|316:300|347:281|370:253,1,158.399995166016
367,257,111212,1,0,0:0:0:0:
384,266,111297,1,0,0:0:0:0:
396,264,111382,2,0,P|400:321|403:381,2,105.599996777344
206,305,111894,5,0,0:0:0:0:
372,202,112064,1,0,0:0:0:0:
217,96,112235,1,0,0:0:0:0:
260,240,112405,1,0,0:0:0:0:
426,137,112575,1,0,0:0:0:0:
271,31,112746,1,0,0:0:0:0:
228,330,112917,2,0,P|165:337|107:321,1,105.599996777344
50,109,113257,1,0,0:0:0:0:
50,109,113343,1,0,0:0:0:0:
50,109,113428,1,0,0:0:0:0:
464,212,113598,6,0,B|379:260|354:142|255:131|210:235,1,263.99999194336
235,241,114110,2,0,B|282:296|321:198|321:106|416:122|436:182,1,263.99999194336
443,239,114621,5,0,0:0:0:0:
439,259,114706,1,0,0:0:0:0:
450,284,114792,1,0,0:0:0:0:
433,306,114877,1,0,0:0:0:0:
400,342,114962,1,0,0:0:0:0:
366,326,115047,1,0,0:0:0:0:
334,350,115132,1,0,0:0:0:0:
301,331,115218,1,0,0:0:0:0:
258,349,115303,5,0,0:0:0:0:
227,312,115388,1,0,0:0:0:0:
249,279,115473,1,0,0:0:0:0:
225,254,115559,1,0,0:0:0:0:
245,234,115644,1,0,0:0:0:0:
224,220,115729,1,0,0:0:0:0:
246,209,115814,1,0,0:0:0:0:
230,193,115899,1,0,0:0:0:0:
235,162,115985,1,0,0:0:0:0:
260,128,116070,1,0,0:0:0:0:
311,113,116155,1,0,0:0:0:0:
362,135,116240,1,0,0:0:0:0:
377,173,116326,5,0,0:0:0:0:
375,219,116411,1,0,0:0:0:0:
345,251,116496,1,0,0:0:0:0:
297,248,116581,1,0,0:0:0:0:
265,220,116667,1,0,0:0:0:0:
272,177,116752,1,0,0:0:0:0:
318,158,116837,1,0,0:0:0:0:
371,175,116922,1,0,0:0:0:0:
381,220,117007,6,0,P|424:156|463:140,1,105.599996777344
468,149,117262,1,0,0:0:0:0:
468,149,117348,2,0,P|472:211|455:259,1,105.599996777344
379,300,117604,1,0,0:0:0:0:
379,300,117689,2,0,P|312:297|270:283,1,105.599996777344
55,258,118030,6,0,P|105:231|158:231,1,105.599996777344
304,288,118371,1,0,0:0:0:0:
304,288,118457,1,0,0:0:0:0:
304,288,118542,1,0,0:0:0:0:
375,100,118712,1,0,0:0:0:0:
406,249,118882,1,0,0:0:0:0:
109,135,119053,6,0,B|140:170|160:167|160:167|180:179|197:217,1,105.599996777344
298,283,119309,2,0,B|265:285|244:276|244:276|218:285|185:273,1,105.599996777344
81,177,119564,2,0,P|114:181|146:194,1,52.7999983886719
243,226,119735,2,0,P|303:188|258:155,1,123.199996240234
265,156,119990,2,0,P|252:96|309:74,1,123.199996240234
371,168,120246,2,0,P|442:173|462:115,1,123.199996240234
469,131,120502,5,0,0:0:0:0:
475,119,120587,2,0,P|493:113|517:109,2,35.2
293,91,120843,1,0,0:0:0:0:
295,81,120928,2,0,P|311:65|331:56,4,35.2
302,205,121354,5,0,0:0:0:0:
304,220,121439,1,0,0:0:0:0:
170,190,131837,5,0,0:0:0:0:
170,190,131922,5,0,0:0:0:0:
170,190,132007,6,0,B|213:188|256:200|256:200|276:187|276:187|260:180|250:162,1,140.8
464,84,132689,2,0,P|408:89|355:76,1,105.599996777344
208,52,133030,1,0,0:0:0:0:
208,52,133371,6,0,L|262:83,1,44
334,166,133542,2,0,L|309:218,1,44
271,300,133712,1,0,0:0:0:0:
271,300,134053,6,0,P|329:296|415:316,2,140.8
78,304,134905,1,0,0:0:0:0:
113,133,135076,2,0,P|161:136|198:130,1,70.4
239,322,135417,2,0,P|229:280|212:243,1,70.4
314,101,135757,2,0,P|360:106|396:128,1,70.4
371,272,136098,6,0,P|365:251|346:221,1,44
181,215,136269,2,0,P|168:233|161:255,1,44
150,338,136439,5,0,0:0:0:0:
401,332,136780,6,0,B|443:317|443:317|453:284|453:284|453:188,1,158.399995166016
436,185,137121,2,0,B|385:166|385:166|388:99|378:56,1,158.399995166016
367,48,137462,5,0,0:0:0:0:
148,131,137632,1,0,0:0:0:0:
450,156,137803,2,0,P|402:128|352:132,1,105.599996777344
278,262,138144,2,0,B|264:282|257:318|257:318|228:283,1,105.599996777344
77,120,138485,2,0,B|63:165|63:165|77:228,1,105.599996777344
179,307,138826,1,0,0:0:0:0:
289,214,138996,1,0,0:0:0:0:
229,84,139167,2,0,P|282:71|335:81,1,105.599996777344
372,253,139507,6,0,P|320:278|269:269,1,105.599996777344
173,129,139848,2,0,B|191:95|214:86|214:86|245:86|278:96,1,105.599996777344
287,264,140189,1,0,0:0:0:0:
384,84,140360,1,0,0:0:0:0:
464,272,140530,2,0,P|470:210|457:162,1,105.599996777344
456,155,140785,5,0,0:0:0:0:
448,148,140871,2,0,B|387:125|365:157|365:157|354:152|354:152|326:179|256:142,1,184.799994360352
263,147,141553,2,0,B|229:158|192:108|236:47|302:63|343:96|346:159|311:204|263:239|193:190|172:168|185:119,1,369.599988720703
185,105,142235,6,0,B|256:57|286:119|286:119|311:125|311:125|338:181|404:150|428:107|400:70,1,308
276,56,142917,2,0,L|289:134,1,70.4
305,169,143428,5,0,0:0:0:0:
305,169,143513,1,0,0:0:0:0:
305,169,143598,1,0,0:0:0:0:
330,156,143683,1,0,0:0:0:0:
363,157,143768,1,0,0:0:0:0:
391,176,143854,1,0,0:0:0:0:
407,210,143939,1,0,0:0:0:0:
415,243,144024,1,0,0:0:0:0:
416,275,144110,2,0,B|429:208|387:160|387:160|430:114|430:114|384:95|401:37,1,277.199991540528
225,37,144962,5,0,0:0:0:0:
206,38,145047,1,0,0:0:0:0:
190,46,145132,1,0,0:0:0:0:
178,60,145217,1,0,0:0:0:0:
169,77,145303,2,0,P|167:102|168:142,1,44
256,238,145473,1,0,0:0:0:0:
275,234,145559,1,0,0:0:0:0:
291,215,145644,1,0,0:0:0:0:
301,196,145729,1,0,0:0:0:0:
304,170,145814,2,0,L|304:124,1,44
152,100,145985,5,0,0:0:0:0:
126,92,146070,1,0,0:0:0:0:
100,88,146155,1,0,0:0:0:0:
74,89,146240,1,0,0:0:0:0:
57,93,146326,2,0,P|34:98|12:109,1,44
139,216,146496,2,0,P|163:213|184:206,1,44
177,40,146667,2,0,P|165:66|161:95,1,44
162,244,146837,2,0,P|164:267|173:289,1,44
407,326,147007,5,0,0:0:0:0:
428,327,147092,1,0,0:0:0:0:
448,318,147177,1,0,0:0:0:0:
463,302,147262,1,0,0:0:0:0:
468,281,147348,2,0,L|468:220,1,44
242,161,147519,1,0,0:0:0:0:
220,159,147604,1,0,0:0:0:0:
201,161,147689,6,0,P|197:192|201:215,1,44
387,263,147860,2,0,P|414:261|437:254,1,44
304,100,148030,2,0,P|272:92|239:93,1,44
224,292,148201,2,0,P|251:300|280:301,1,44
425,119,148371,2,0,P|405:108|374:101,1,44
251,179,148542,1,0,0:0:0:0:
251,179,148627,1,0,0:0:0:0:
251,179,148712,2,0,L|312:179,1,44
467,109,148882,2,0,L|424:99,1,44
299,81,149053,5,0,0:0:0:0:
299,81,149138,1,0,0:0:0:0:
299,81,149223,2,0,P|302:103|299:137,1,44
128,310,149394,2,0,P|126:276|128:247,1,44
402,171,149564,2,0,P|426:168|449:171,1,44
330,354,149735,2,0,P|300:353|275:347,1,44
128,310,149905,1,0,0:0:0:0:
99,296,149990,1,0,0:0:0:0:
84,260,150076,1,0,0:0:0:0:
327,89,150417,5,0,0:0:0:0:
327,115,150502,1,0,0:0:0:0:
327,141,150587,1,0,0:0:0:0:
328,168,150672,1,0,0:0:0:0:
362,183,150757,5,0,0:0:0:0:
361,156,150842,1,0,0:0:0:0:
361,130,150927,1,0,0:0:0:0:
360,103,151012,1,0,0:0:0:0:
363,85,151098,6,0,L|413:118,1,44
434,250,151269,2,0,L|379:222,1,44
219,137,151439,5,0,0:0:0:0:
193,129,151524,1,0,0:0:0:0:
168,134,151609,1,0,0:0:0:0:
148,151,151694,1,0,0:0:0:0:
136,173,151780,2,0,L|136:224,1,44
308,201,151951,2,0,L|308:140,1,44
136,73,152121,2,0,P|113:69|77:70,1,44
112,252,152292,5,0,0:0:0:0:
137,257,152377,1,0,0:0:0:0:
163,254,152462,1,0,0:0:0:0:
187,243,152547,1,0,0:0:0:0:
202,232,152632,2,0,P|229:221|251:219,1,44
313,242,152803,2,0,P|336:255|354:271,1,44
403,326,152973,2,0,L|434:370,1,44
472,297,153144,6,0,L|476:227,1,44
488,177,153314,2,0,L|494:111,1,44
269,134,153485,6,0,L|258:198,1,44
266,330,153655,2,0,P|247:331|223:328,1,44
96,222,153826,2,0,P|117:221|146:224,1,44
377,221,153996,2,0,P|369:198|348:166,1,44
50,155,154167,2,0,P|77:155|112:163,1,44
410,279,154337,2,0,P|383:274|342:277,1,44
272,296,154507,5,0,0:0:0:0:
195,158,155189,2,0,B|230:106|271:144|295:183|347:150|369:124|369:72|338:25|275:13|262:48|261:92,1,308
278,217,155871,6,0,P|286:269|329:322,1,105.599996777344
427,297,156212,1,0,0:0:0:0:
240,219,156382,1,0,0:0:0:0:
190,349,156553,2,0,P|266:360|304:334,1,105.599996777344
367,225,156894,5,0,0:0:0:0:
198,79,157064,1,0,0:0:0:0:
147,244,157235,2,0,P|203:230|262:233,1,105.599996777344
397,267,157576,2,0,B|448:296|448:296|413:339,1,105.599996777344
414,346,157831,1,0,0:0:0:0:
414,346,157917,1,0,0:0:0:0:
259,271,158087,5,0,0:0:0:0:
444,203,158257,1,0,0:0:0:0:
322,327,158428,1,0,0:0:0:0:
234,137,158598,2,0,P|289:126|341:132,1,105.599996777344
437,263,158939,1,0,0:0:0:0:
512,206,159110,2,0,P|516:150|491:107,1,105.599996777344
279,50,159451,2,0,P|221:42|165:53,1,105.599996777344
96,268,159792,5,0,0:0:0:0:
242,78,159962,1,0,0:0:0:0:
225,330,160132,5,0,0:0:0:0:
383,106,160303,1,0,0:0:0:0:
333,344,160473,5,0,0:0:0:0:
199,90,160644,1,0,0:0:0:0:
383,187,160814,1,0,0:0:0:0:
154,249,160985,2,0,B|101:262|101:262|38:224,1,105.599996777344
59,123,161241,5,0,0:0:0:0:
59,123,161326,2,0,P|120:132|172:121,1,105.599996777344
418,128,161667,2,0,P|409:186|411:254,1,105.599996777344
212,290,162007,2,0,P|158:263|108:263,1,105.599996777344
41,161,162348,5,0,0:0:0:0:
96,352,162519,1,0,0:0:0:0:
269,158,162689,2,0,P|335:144|380:159,1,105.599996777344
317,339,163030,2,0,P|260:341|212:317,1,105.599996777344
125,157,163371,1,0,0:0:0:0:
125,157,163456,1,0,0:0:0:0:
125,157,163542,2,0,P|180:152|230:170,1,105.599996777344
331,291,163882,5,0,0:0:0:0:
331,291,164053,2,0,P|352:223|384:192,1,105.599996777344
244,52,164394,2,0,P|248:113|282:151,1,105.599996777344
481,274,164735,2,0,P|470:218|429:175,1,105.599996777344
208,306,165076,2,0,P|148:337|53:288,1,158.399995166016
64,230,165417,5,0,0:0:0:0:
65,219,165502,1,0,0:0:0:0:
65,210,165587,2,0,B|66:168|68:132|68:132|51:104,1,105.599996777344
117,51,165928,1,0,0:0:0:0:
247,146,166098,2,0,B|204:136|204:136|119:136,1,105.599996777344
117,327,166439,2,0,P|127:276|113:220,1,105.599996777344
351,75,166780,6,0,P|398:98|466:91,1,105.599996777344
450,96,167036,1,0,0:0:0:0:
450,96,167121,2,0,P|450:157|475:203,1,105.599996777344
475,202,167377,1,0,0:0:0:0:
475,202,167462,2,0,P|416:196|356:209,1,105.599996777344
100,292,167803,6,0,L|210:292,1,105.599996777344
215,291,168059,1,0,0:0:0:0:
215,291,168144,2,0,L|326:291,1,105.599996777344
346,263,168399,1,0,0:0:0:0:
346,263,168485,2,0,L|231:261,1,105.599996777344
112,311,168826,5,0,0:0:0:0:
104,322,168911,1,0,0:0:0:0:
102,338,168996,1,0,0:0:0:0:
203,366,169167,1,0,0:0:0:0:
294,281,169337,1,0,0:0:0:0:
287,271,169507,2,0,P|229:237|182:239,1,105.599996777344
111,284,169848,5,0,0:0:0:0:
103,89,170019,1,0,0:0:0:0:
91,99,170104,1,0,0:0:0:0:
84,110,170189,2,0,L|92:226,2,105.599996777344
127,316,170701,5,0,0:0:0:0:
160,147,170871,1,0,0:0:0:0:
285,321,171042,2,0,P|304:259|297:209,1,105.599996777344
164,87,171382,1,0,0:0:0:0:
178,92,171468,1,0,0:0:0:0:
193,95,171553,2,0,P|245:99|301:79,1,105.599996777344
453,165,171894,2,0,P|383:151|329:163,1,105.599996777344
102,261,172235,6,0,B|144:289|161:319|161:319|209:320|209:320|233:271|233:271|303:288|369:271,1,316.799990332032
428,309,172917,2,0,B|309:290|365:231|240:209,1,211.199993554688
90,216,173428,1,0,0:0:0:0:
90,216,173513,1,0,0:0:0:0:
90,216,173598,2,0,P|144:209|201:213,1,105.599996777344
356,288,173939,2,0,P|314:251|282:197,1,105.599996777344
325,34,174280,6,0,P|330:99|322:159,1,105.599996777344
229,269,174621,1,0,0:0:0:0:
229,269,174706,1,0,0:0:0:0:
229,269,174792,1,0,0:0:0:0:
222,77,174962,5,0,0:0:0:0:
305,303,175132,1,0,0:0:0:0:
355,99,175303,5,0,0:0:0:0:
201,309,175473,1,0,0:0:0:0:
215,63,175644,5,0,0:0:0:0:
321,321,175814,1,0,0:0:0:0:
378,94,175985,5,0,0:0:0:0:
194,333,176155,1,0,0:0:0:0:
416,225,176326,5,0,0:0:0:0:
140,134,176496,1,0,0:0:0:0:
439,116,176667,1,0,0:0:0:0:
158,247,176837,1,0,0:0:0:0:
460,136,177007,5,0,0:0:0:0:
137,106,177178,1,0,0:0:0:0:
386,285,177348,1,0,0:0:0:0:
110,241,177519,1,0,0:0:0:0:
290,59,177689,6,0,P|348:53|389:58,1,88
451,169,178030,1,0,0:0:0:0:
495,37,178201,1,0,0:0:0:0:
334,153,178371,2,0,P|330:204|338:255,1,88
438,351,178712,2,0,P|448:300|435:244,1,88
330,199,179053,6,0,P|284:187|224:188,1,88
181,334,179394,2,0,P|176:280|151:248,1,88
52,114,179735,2,0,P|96:102|142:101,1,88
253,162,180076,1,0,0:0:0:0:
262,174,180161,1,0,0:0:0:0:
267,189,180246,1,0,0:0:0:0:
281,349,180417,5,0,0:0:0:0:
217,236,180587,1,0,0:0:0:0:
340,244,180757,5,0,0:0:0:0:
390,121,180928,1,0,0:0:0:0:
252,237,181098,2,0,B|246:278|246:278|262:328,1,88
467,156,181439,2,0,B|425:142|425:142|378:139,1,88
120,272,181780,6,0,P|168:272|216:257,1,88
370,205,182121,2,0,P|348:243|348:301,1,88
350,297,182462,2,0,B|315:272|315:272|258:267,1,88
185,272,182803,1,0,0:0:0:0:
185,272,182888,1,0,0:0:0:0:
185,272,182973,1,0,0:0:0:0:
350,297,183144,5,0,0:0:0:0:
205,339,183314,1,0,0:0:0:0:
271,212,183485,1,0,0:0:0:0:
333,368,183655,1,0,0:0:0:0:
271,212,183826,2,0,P|311:202|354:222,1,88
416,322,184167,2,0,P|362:326|319:313,1,88
136,263,184422,5,0,0:0:0:0:
131,256,184507,2,0,L|90:161,1,88
105,103,184763,1,0,0:0:0:0:
110,89,184848,2,0,L|183:30,1,88
335,69,185104,5,0,0:0:0:0:
344,98,185189,1,0,0:0:0:0:
353,127,185274,1,0,0:0:0:0:
362,157,185359,1,0,0:0:0:0:
371,186,185444,1,0,0:0:0:0:
375,215,185530,5,0,0:0:0:0:
333,199,185615,1,0,0:0:0:0:
292,184,185700,1,0,0:0:0:0:
250,169,185785,1,0,0:0:0:0:
225,162,185871,2,0,B|211:263|211:263|249:254|286:277|286:202,1,184.799994360352
355,168,186212,5,0,0:0:0:0:
177,33,186382,1,0,0:0:0:0:
245,247,186553,5,0,0:0:0:0:
196,45,186723,1,0,0:0:0:0:
141,273,186894,5,0,0:0:0:0:
171,35,187064,1,0,0:0:0:0:
52,126,187235,2,0,P|125:112|180:114,1,123.199996240234
333,152,187576,2,0,P|404:160|461:144,1,123.199996240234
238,91,187917,2,0,P|237:160|271:210,1,123.199996240234
350,254,188257,1,0,0:0:0:0:
350,254,188343,1,0,0:0:0:0:
350,254,188428,1,0,0:0:0:0:
418,83,188598,5,0,0:0:0:0:
389,324,188769,1,0,0:0:0:0:
285,89,188939,5,0,0:0:0:0:
268,330,189110,1,0,0:0:0:0:
135,109,189280,5,0,0:0:0:0:
149,336,189451,1,0,0:0:0:0:
253,132,189621,5,0,0:0:0:0:
310,342,189792,1,0,0:0:0:0:
424,133,189962,6,0,B|362:121|362:121|305:129,1,105.599996777344
231,225,190303,2,0,P|195:179|209:134,1,105.599996777344
297,82,190559,1,0,0:0:0:0:
306,87,190644,2,0,P|369:92|409:81,2,88
460,183,191155,5,0,0:0:0:0:
460,183,191326,2,0,P|403:176|343:188,1,105.599996777344
298,289,191667,2,0,P|248:306|198:295,1,105.599996777344
91,128,192007,2,0,B|157:88|198:102|190:125|239:134|296:87,1,211.199993554688
419,138,192519,5,0,0:0:0:0:
207,230,192689,1,0,0:0:0:0:
358,55,192860,1,0,0:0:0:0:
286,151,193030,2,0,P|300:221|439:76,1,422.399987109375
392,163,193882,5,0,0:0:0:0:
392,163,193968,1,0,0:0:0:0:
392,163,194053,2,0,P|321:182|210:109,1,211.199993554688
213,30,194564,5,0,0:0:0:0:
314,215,194735,1,0,0:0:0:0:
105,106,194905,5,0,0:0:0:0:
373,139,195076,1,0,0:0:0:0:
81,204,195246,5,0,0:0:0:0:
329,77,195417,1,0,0:0:0:0:
88,252,195757,5,0,0:0:0:0:
96,264,195843,1,0,0:0:0:0:
103,275,195928,1,0,0:0:0:0:
111,287,196013,1,0,0:0:0:0:
122,308,196098,2,0,P|137:253|154:191,1,105.599996777344
236,116,196439,2,0,P|238:172|240:224,1,105.599996777344
300,328,196780,6,0,B|354:321|368:258|306:208|386:159|469:190|505:252|492:322|448:349|389:320,1,369.599988720703
252,279,197462,5,0,0:0:0:0:
244,274,197547,2,0,P|162:262|90:294,1,158.399995166016
256,192,198144,12,0,200530,0:0:0:0:
449,320,200615,6,0,B|456:356|456:356|476:309,1,88
