osu file format v14

[General]
AudioFilename: audio.mp3
AudioLeadIn: 0
PreviewTime: 168821
Countdown: 0
SampleSet: Soft
StackLeniency: 0.7
Mode: 0
LetterboxInBreaks: 0
WidescreenStoryboard: 1

[Editor]
Bookmarks: 31020,52722,75700,85912,96125,106338,121497,121657,126763,136976,142082,147189,157402,162508,166338,168891,179104,189317,199529,205912,215487,219955
DistanceSpacing: 0.4
BeatDivisor: 8
GridSize: 32
TimelineZoom: 1.9

[Metadata]
Title:Chiisana Umi
TitleUnicode:小さな海
Artist:kessoku band
ArtistUnicode:結束バンド
Creator:Saggin
Version:pnky's Insane
Source:ぼっち・ざ・ろっく!
Tags:喜多郁代 kita ikuyo 長谷川育美 hasegawa ikumi 三井律郎 mitsui ritsuo 音羽 otoha bocchi za the rock btr eringiRa pnky japanese rock jrock anime j-rock
BeatmapID:3962710
BeatmapSetID:1913459

[Difficulty]
HPDrainRate:5
CircleSize:4
OverallDifficulty:8
ApproachRate:9
SliderMultiplier:1.6
SliderTickRate:1

[Events]
//Background and Video events
0,0,"124.png",0,0
//Break Periods
//Storyboard Layer 0 (Background)
//Storyboard Layer 1 (Fail)
//Storyboard Layer 2 (Pass)
//Storyboard Layer 3 (Foreground)
//Storyboard Layer 4 (Overlay)
//Storyboard Sound Samples

[TimingPoints]
417,638.297872340426,4,2,1,30,1,0
31055,-71.4285714285714,4,2,1,30,0,0
52757,638.297872340426,4,2,1,35,1,0
52757,-66.6666666666667,4,2,1,35,0,0
53395,-50,4,2,1,35,0,0
54033,-66.6666666666667,4,2,1,35,0,0
55948,-50,4,2,1,35,0,0
56586,-66.6666666666667,4,2,1,35,0,0
57225,-200,4,2,1,30,0,0
57544,-66.6666666666667,4,2,1,30,0,0
58501,-50,4,2,1,30,0,0
59139,-66.6666666666667,4,2,1,30,0,0
61054,-50,4,2,1,30,0,0
61693,-66.6666666666667,4,2,1,30,0,0
62331,-200,4,2,1,30,0,0
62650,-66.6666666666667,4,2,1,30,0,0
63608,-50,4,2,1,30,0,0
64246,-66.6666666666667,4,2,1,30,0,0
66161,-50,4,2,1,30,0,0
66799,-66.6666666666667,4,2,1,30,0,0
67437,-200,4,2,1,30,0,0
67757,-66.6666666666667,4,2,1,30,0,0
68714,-50,4,2,1,30,0,0
69352,-66.6666666666667,4,2,1,30,0,0
71267,-50,4,2,1,30,0,0
71905,-66.6666666666667,4,2,1,30,0,0
72544,-200,4,2,1,30,0,0
73182,-66.6666666666667,4,2,1,30,0,0
75735,319.148936170213,4,2,1,50,1,0
75735,-90.9090909090909,4,2,1,50,0,0
85947,-125,4,2,1,50,0,0
96160,-111.111111111111,4,2,1,50,0,0
121692,-105.263157894737,4,2,1,50,0,0
126798,-95.2380952380954,4,2,1,60,0,0
137011,-95.2380952380954,4,2,1,70,0,0
146187,-95.2380952380954,4,2,1,5,0,0
146266,-95.2380952380954,4,2,1,70,0,0
146586,-95.2380952380954,4,2,1,70,0,0
147224,-111.111111111111,4,2,1,50,0,0
167649,-99.9999999999999,4,2,1,50,0,0
168926,-90.9090909090909,4,2,1,80,0,0
174272,-90.9090909090909,4,2,1,5,0,0
174352,-90.9090909090909,4,2,1,80,0,0
179059,-90.9090909090909,4,2,1,5,0,0
179139,-90.9090909090909,4,2,1,80,0,0
179378,-90.9090909090909,4,2,1,5,0,0
179458,-90.9090909090909,4,2,1,80,0,0
184245,-95.2380952380952,4,2,1,80,0,0
189352,-90.9090909090909,4,2,1,80,0,0
192144,-90.9090909090909,4,2,1,5,0,0
192224,-90.9090909090909,4,2,1,80,0,0
199564,-111.111111111111,4,2,1,80,0,0
202117,-249.999999999999,4,2,1,30,0,0
205947,638.297872340426,4,2,1,30,1,0
205947,-66.6666666666667,4,2,1,30,0,0
206586,-50,4,2,1,30,0,0
207224,-62.5,4,2,1,30,0,0
209139,-50,4,2,1,30,0,0
209777,-62.5,4,2,1,30,0,0
211691,-50,4,2,1,30,0,0
212330,-62.5,4,2,1,30,0,0
214244,-50,4,2,1,30,0,0
215522,-200,4,2,1,30,0,0

[Colours]
Combo1 : 138,228,255
Combo2 : 255,176,216
Combo3 : 255,217,87

[HitObjects]
256,192,9034,12,0,10310,0:0:0:0:
136,34,10629,6,0,B|93:58|93:58|120:168,1,160,2|0,0:0|0:0,0:0:0:0:
229,232,11587,2,0,L|236:187,1,40
299,152,11906,2,0,P|333:183|378:181,1,80
423,137,12385,1,0,0:0:0:0:
403,251,12704,1,0,0:0:0:0:
383,365,12970,5,0,0:0:0:0:
383,365,13182,2,0,B|310:346|307:403|211:379,2,160,2|0|0,0:0|0:0|0:0,0:0:0:0:
289,272,14778,2,0,P|278:226|273:186,2,80
161,279,15736,6,0,P|137:326|37:335,1,160,2|0,0:0|0:0,0:0:0:0:
227,116,17012,2,0,B|306:105|296:187|375:179,1,160,2|0,0:0|0:0,0:0:0:0:
452,51,18129,1,0,0:0:0:0:
452,51,18289,2,0,P|442:93|438:132,1,80,2|0,0:0|0:0,0:0:0:0:
380,258,18768,2,0,P|375:218|366:179,1,80
283,156,19246,1,0,0:0:0:0:
179,262,19565,1,0,0:0:0:0:
179,262,19885,1,0,0:0:0:0:
179,262,20204,2,0,P|138:252|97:247,1,80
233,353,20842,6,0,P|321:332|399:317,1,160,2|0,0:0|0:0,0:0:0:0:
468,199,21799,2,0,P|471:173|476:159,1,40
402,134,22119,2,0,B|369:157|369:157|325:150,1,80
349,77,22597,1,0,0:0:0:0:
237,59,22917,1,0,0:0:0:0:
125,41,23236,5,0,0:0:0:0:
125,41,23395,2,0,P|137:116|148:200,2,160,2|0|0,0:0|0:0|0:0,0:0:0:0:
25,130,24991,2,0,P|17:170|11:219,2,80
147,199,25948,6,0,B|230:174|221:258|314:238,1,160,2|0,0:0|0:0,0:0:0:0:
403,50,27225,2,0,P|341:70|361:157,1,160,2|0,0:0|0:0,0:0:0:0:
480,284,28342,1,0,0:0:0:0:
480,284,28502,2,0,L|464:189,1,80,2|0,0:0|0:0,0:0:0:0:
361,270,28980,2,0,L|374:348,1,80,2|0,0:0|0:0,0:0:0:0:
447,384,29459,1,2,0:0:0:0:
111,267,30097,5,2,0:3:0:0:
246,173,30417,1,8,0:0:0:0:
236,250,30576,1,0,3:0:0:0:
226,327,30736,1,0,3:0:0:0:
138,155,31055,6,0,P|125:92|107:39,1,111.999996582031,0|0,1:0|0:0,0:0:0:0:
236,250,31693,2,0,P|249:187|267:134,1,111.999996582031,8|0,0:0|0:0,0:0:0:0:
350,66,32331,1,0,1:0:0:0:
350,66,32491,1,0,1:0:0:0:
494,168,32970,1,2,0:3:0:0:
494,168,33608,6,0,P|444:214|457:268,1,111.999996582031,0|0,1:0|0:0,0:0:0:0:
356,384,34246,2,0,P|306:338|319:284,1,111.999996582031,8|0,0:0|0:0,0:0:0:0:
156,107,35204,1,0,1:0:0:0:
19,251,35523,1,8,0:0:0:0:
92,277,35682,2,0,P|142:252|206:247,1,111.999996582031,0|0,1:0|0:0,0:0:0:0:
234,138,36161,6,0,P|284:163|348:168,1,111.999996582031,0|0,1:0|0:0,0:0:0:0:
382,338,36799,2,0,P|407:288|412:224,1,111.999996582031,8|0,0:0|0:0,0:0:0:0:
356,75,37438,1,0,1:0:0:0:
356,75,37597,1,0,1:0:0:0:
157,166,38076,1,2,0:3:0:0:
157,166,38714,6,0,B|152:134|152:134|140:109|140:109|130:52,1,111.999996582031,0|0,1:0|0:0,0:0:0:0:
37,219,39353,2,0,B|32:187|32:187|20:162|20:162|10:105,1,111.999996582031,8|0,0:0|0:0,0:0:0:0:
241,313,40310,1,0,1:0:0:0:
102,375,40629,1,8,0:0:0:0:
102,375,40789,2,0,B|107:343|107:343|119:318|119:318|129:261,1,111.999996582031,0|0,1:0|0:0,0:0:0:0:
194,200,41268,6,0,B|239:231|239:231|313:214,1,111.999996582031,0|0,1:0|0:0,0:0:0:0:
440,321,41906,2,0,B|395:352|395:352|321:335,1,111.999996582031,8|0,0:0|0:0,0:0:0:0:
407,208,42544,1,0,1:0:0:0:
407,208,42704,1,0,1:0:0:0:
301,61,43182,1,2,0:3:0:0:
301,61,43821,6,0,B|334:9|334:9|325:68,1,111.999996582031,0|0,1:0|0:0,0:0:0:0:
192,164,44459,2,0,B|159:112|159:112|168:171,1,111.999996582031,8|0,0:0|0:0,0:0:0:0:
309,264,45097,1,0,0:0:0:0:
391,179,45417,1,0,1:0:0:0:
210,258,45736,1,8,0:0:0:0:
210,258,45895,2,0,P|203:305|195:386,1,111.999996582031,0|0,1:0|0:0,0:0:0:0:
112,283,46374,6,0,P|46:236|70:105,1,223.999993164063,0|8,1:0|0:0,0:0:0:0:
125,34,47331,1,0,0:0:0:0:
248,117,47651,1,0,1:0:0:0:
248,117,47810,1,0,1:0:0:0:
428,13,48289,1,2,0:3:0:0:
428,13,48927,6,8,P|413:69|405:128,1,111.999996582031,0|0,1:0|0:0,0:0:0:0:
512,258,49565,2,0,P|456:243|397:235,1,111.999996582031,8|0,0:0|0:0,0:0:0:0:
297,107,50204,1,2,0:0:0:0:
204,292,50523,1,2,0:0:0:0:
111,35,51002,1,0,0:0:0:0:
111,35,51161,1,2,0:0:0:0:
52,155,51480,1,0,0:0:0:0:
52,155,52757,5,4,3:2:0:0:
52,155,53076,2,0,P|34:145|19:132,2,40.000001525879,0|0|0,3:0|3:0|3:0,0:0:0:0:
96,216,53395,2,0,P|96:235|92:255,3,40.000001525879,0|0|0|0,3:0|3:0|3:0|3:0,3:0:0:0:
128,147,53714,2,0,P|145:137|164:130,3,40.000001525879,0|0|0|0,3:0|3:0|3:0|3:0,3:0:0:0:
94,175,54033,5,0,1:0:0:0:
214,188,54352,1,0,1:0:0:0:
334,201,54671,1,2,0:0:0:0:
479,44,55310,5,0,3:0:0:0:
479,44,55629,2,0,P|470:11|464:-7,2,40.000001525879,0|0|0,3:0|3:0|3:0,0:0:0:0:
407,70,55948,2,0,P|398:37|392:19,3,40.000001525879,0|0|0|0,3:0|3:0|3:0|3:0,3:0:0:0:
334,95,56267,2,0,P|325:62|319:44,3,40.000001525879,0|0|0|0,3:0|3:0|3:0|3:0,0:0:0:0:
381,101,56586,5,0,1:0:0:0:
320,193,56905,1,0,1:0:0:0:
430,194,57225,2,0,P|436:168|440:153,1,40,2|0,0:3|0:0,0:0:0:0:
185,76,57863,5,0,3:0:0:0:
185,76,58182,2,0,P|190:50|196:32,2,40.000001525879,0|0|0,3:0|3:0|3:0,0:0:0:0:
136,137,58501,2,0,P|110:145|92:149,3,40.000001525879,0|0|0|0,3:0|3:0|3:0|3:0,3:0:0:0:
213,148,58820,2,0,P|233:165|245:179,3,40.000001525879,0|0|0|0,3:0|3:0|3:0|3:0,0:0:0:0:
181,117,59139,5,0,1:0:0:0:
186,227,59459,1,0,1:0:0:0:
191,337,59778,1,2,0:0:0:0:
418,212,60416,5,0,3:0:0:0:
418,212,60735,2,0,P|438:216|461:221,2,40.000001525879,0|0|0,3:0|3:0|3:0,0:0:0:0:
353,167,61054,2,0,P|346:147|339:125,3,40.000001525879,0|0|0|0,3:0|3:0|3:0|3:0,3:0:0:0:
346,245,61374,2,0,P|332:260|316:277,3,40.000001525879,0|0|0|0,3:0|3:0|3:0|3:0,3:0:0:0:
374,208,61693,5,0,1:0:0:0:
253,187,62012,1,0,1:0:0:0:
132,166,62331,2,0,P|129:139|126:120,1,40,2|0,0:3|0:0,0:0:0:0:
360,64,62969,5,0,3:0:0:0:
360,64,63288,2,0,L|371:17,2,40.000001525879,0|0|0,3:0|3:0|3:0,0:0:0:0:
413,119,63608,2,0,L|460:130,3,40.000001525879,0|0|0|0,3:0|3:0|3:0|3:0,3:0:0:0:
358,172,63927,2,0,L|347:219,3,40.000001525879,0|0|0|0,3:0|3:0|3:0|3:0,3:0:0:0:
305,117,64246,5,0,1:0:0:0:
423,224,64565,1,0,1:0:0:0:
271,272,64884,1,2,0:0:0:0:
30,334,65522,5,0,3:0:0:0:
30,334,65842,2,0,L|42:279,2,40.000001525879,0|0|0,3:0|3:0|3:0,0:0:0:0:
103,353,66161,2,0,L|115:298,3,40.000001525879,0|0|0|0,3:0|3:0|3:0|3:0,3:0:0:0:
176,372,66480,2,0,L|188:317,3,40.000001525879,0|0|0|0,3:0|3:0|3:0|3:0,0:0:0:0:
137,378,66799,5,0,1:0:0:0:
111,242,67118,1,0,1:0:0:0:
85,106,67437,2,0,P|79:133|76:156,1,40,2|0,0:3|0:0,0:0:0:0:
321,56,68076,5,0,3:0:0:0:
321,56,68395,2,0,P|303:41|282:26,2,40.000001525879,0|0|0,3:0|3:0|3:0,0:0:0:0:
291,127,68714,2,0,P|287:150|284:175,3,40.000001525879,0|0|0|0,3:0|3:0|3:0|3:0,3:0:0:0:
368,118,69033,2,0,P|389:109|413:99,3,40.000001525879,0|0|0|0,3:0|3:0|3:0|3:0,0:0:0:0:
325,99,69352,5,0,1:0:0:0:
393,230,69671,1,0,1:0:0:0:
262,298,69991,1,2,0:0:0:0:
30,150,70629,5,0,3:0:0:0:
30,150,70948,2,0,L|40:107,2,40.000001525879,0|0|0,3:0|3:0|3:0,0:0:0:0:
98,190,71267,2,0,L|108:147,3,40.000001525879,0|0|0|0,3:0|3:0|3:0|3:0,3:0:0:0:
166,230,71586,2,0,L|176:187,3,40.000001525879,0|0|0|0,3:0|3:0|3:0|3:0,0:0:0:0:
99,265,71905,5,0,1:0:0:0:
248,217,72225,1,0,1:0:0:0:
397,169,72544,2,0,L|442:178,1,40,2|0,3:0|0:0,0:0:0:0:
306,103,73182,5,0,1:0:0:0:
337,260,73501,1,2,0:3:0:0:
288,96,73820,5,0,1:0:0:0:
252,307,74139,1,2,0:3:0:0:
177,56,74459,5,0,1:0:0:0:
234,311,74778,1,2,0:3:0:0:
152,178,74937,5,0,1:0:0:0:
152,178,75017,1,8,0:0:0:0:
152,178,75097,1,8,0:0:0:0:
124,363,75257,1,4,0:0:0:0:
306,103,75735,6,0,P|388:71|462:69,1,132.00000402832,6|0,1:2|0:0,0:0:0:0:
498,22,76054,2,0,P|511:68|494:116,1,88.000002685547,8|0,0:0|0:0,0:0:0:0:
237,146,76373,2,0,P|224:100|241:52,1,88.000002685547,0|0,1:0|0:0,0:0:0:0:
354,183,76692,1,0,1:0:0:0:
192,266,76852,6,0,B|113:277|111:336|30:340,1,176.000005371094,8|0,0:0|1:0,0:0:0:0:
117,202,77330,2,0,P|99:165|90:116,1,88.000002685547,8|0,0:0|1:0,0:0:0:0:
90,119,77570,1,8,0:0:0:0:
90,119,77649,1,0,1:0:0:0:
314,65,77809,1,8,0:0:0:0:
244,0,77969,2,0,P|231:63|224:143,1,132.00000402832,2|0,1:3|0:0,0:0:0:0:
291,179,78288,6,0,P|358:145|425:143,1,132.00000402832,2|0,1:2|0:0,0:0:0:0:
462,204,78607,2,0,P|452:245|449:291,1,88.000002685547,8|0,0:0|1:0,0:0:0:0:
387,335,78846,1,8,0:0:0:0:
378,325,78926,2,0,P|338:306|288:305,1,88.000002685547
448,290,79245,1,0,1:0:0:0:
225,338,79405,6,0,B|141:351|144:375|47:382,1,176.000005371094,10|2,0:0|0:0,0:0:0:0:
188,250,79883,1,8,0:0:0:0:
28,219,80043,1,0,0:0:0:0:
118,184,80203,1,0,0:0:0:0:
98,285,80362,1,8,0:0:0:0:
19,139,80522,2,0,P|4:86|16:3,1,132.00000402832,2|0,1:3|0:0,0:0:0:0:
88,33,80841,6,0,P|130:24|176:18,1,88.000002685547,2|2,1:2|1:2,0:0:0:0:
305,157,81160,1,8,0:0:0:0:
207,154,81320,2,0,P|249:163|295:169,1,88.000002685547,2|0,0:0|1:0,0:0:0:0:
358,49,81639,2,0,P|400:40|446:34,1,88.000002685547,2|0,0:0|1:0,0:0:0:0:
512,118,81958,6,0,P|465:181|482:284,1,176.000005371094,8|2,0:0|0:0,0:0:0:0:
377,350,82437,2,0,P|335:341|289:335,1,88.000002685547,8|0,0:0|0:0,0:0:0:0:
290,335,82676,1,8,0:0:0:0:
290,335,82756,1,0,1:0:0:0:
152,384,82915,1,8,0:0:0:0:
278,250,83075,2,0,P|212:279|146:285,1,132.00000402832,0|0,1:0|0:0,0:0:0:0:
99,231,83394,6,0,P|84:179|93:137,1,88.000002685547,2|2,1:2|0:0,0:0:0:0:
258,93,83713,1,8,0:0:0:0:
162,31,83873,2,0,P|177:83|168:125,1,88.000002685547,2|0,0:0|1:0,0:0:0:0:
8,103,84192,6,0,P|45:64|86:50,1,88.000002685547,2|0,0:0|1:0,0:0:0:0:
237,177,84511,2,0,P|332:199|423:209,1,176.000005371094,6|0,1:2|0:0,0:0:0:0:
173,252,84990,6,0,P|143:302|159:377,1,132.00000402832,10|0,0:0|0:0,0:0:0:0:
237,358,85309,1,0,1:0:0:0:
80,247,85469,1,8,0:0:0:0:
62,239,85548,1,8,0:0:0:0:
51,234,85628,1,8,0:0:0:0:
51,234,85947,6,0,P|61:171|81:100,2,128,6|2|0,0:2|1:2|1:0,0:0:0:0:
168,51,86905,2,0,P|175:78|189:123,1,64,2|0,1:2|0:0,0:0:0:0:
265,129,87224,2,0,P|314:88|380:90,1,128,2|0,1:2|1:0,0:0:0:0:
447,124,87703,1,2,0:0:0:0:
472,242,87862,2,0,P|423:201|357:203,1,128,0|0,1:0|1:0,0:0:0:0:
294,347,88341,5,2,0:3:0:0:
294,347,88421,1,2,0:3:0:0:
294,347,88500,2,0,P|349:324|387:313,1,96,2|0,1:2|0:0,0:0:0:0:
312,257,88820,2,0,P|282:250|250:241,1,64,0|0,1:0|0:0,0:0:0:0:
192,369,89139,2,0,P|200:338|207:307,1,64,0|0,1:0|0:0,0:0:0:0:
80,250,89458,2,0,P|110:258|141:265,1,64,0|0,1:0|0:0,0:0:0:0:
322,252,89777,5,0,1:0:0:0:
322,252,90096,2,0,P|329:220|337:190,1,64,2|0,1:2|0:0,0:0:0:0:
512,95,90415,1,0,1:0:0:0:
356,67,90575,1,8,0:0:0:0:
440,41,90735,1,0,1:0:0:0:
427,120,90894,2,0,L|420:166,1,32,8|0,0:0|0:0,0:0:0:0:
349,63,91054,6,0,P|264:32|212:31,1,128,0|0,1:2|0:0,0:0:0:0:
75,102,91532,1,2,0:0:0:0:
75,102,91692,2,0,P|62:132|56:165,1,64,0|0,1:0|0:0,0:0:0:0:
232,169,92011,2,0,P|245:199|251:232,1,64,0|0,1:0|0:0,0:0:0:0:
14,295,92330,6,0,P|87:267|147:250,1,128,2|0,1:2|1:0,0:0:0:0:
301,302,92809,1,2,0:0:0:0:
157,348,92969,2,0,P|188:324|212:308,1,64,2|0,1:2|0:0,0:0:0:0:
353,376,93288,1,0,1:0:0:0:
432,321,93447,5,2,0:3:0:0:
432,321,93527,1,2,0:3:0:0:
432,321,93607,2,0,P|441:253|455:188,1,128,2|0,1:2|1:0,0:0:0:0:
323,129,94086,2,0,P|338:158|351:202,1,64,2|0,0:0|1:0,0:0:0:0:
471,68,94405,1,0,0:0:0:0:
471,68,94564,2,0,P|440:86|416:107,1,64,2|0,1:2|0:0,0:0:0:0:
242,152,94883,5,0,1:0:0:0:
343,48,95043,1,8,0:0:0:0:
189,89,95203,2,0,P|139:84|72:74,1,96
38,18,95522,1,8,0:0:0:0:
189,216,95761,1,2,0:3:0:0:
184,231,95841,2,0,P|171:290|169:349,1,96
236,368,96160,6,0,P|275:348|311:343,1,71.9999978027344,4|0,1:2|0:0,0:0:0:0:
411,241,96479,2,0,P|375:233|344:216,1,71.9999978027344,8|0,0:0|0:0,0:0:0:0:
463,315,96798,1,0,1:0:0:0:
417,155,96958,2,0,P|424:119|441:88,1,71.9999978027344,0|0,1:0|0:0,0:0:0:0:
249,3,97277,6,0,P|293:61|304:134,1,143.999995605469,8|0,0:0|1:0,0:0:0:0:
193,65,97756,2,0,P|214:93|220:128,1,71.9999978027344,8|0,0:0|1:0,0:0:0:0:
220,128,97995,1,0,0:0:0:0:
220,128,98075,1,2,1:3:0:0:
115,246,98235,1,0,1:0:0:0:
192,293,98394,2,0,P|232:280|268:272,1,71.9999978027344,8|0,0:0|0:0,0:0:0:0:
62,384,98713,6,0,P|47:317|21:237,1,143.999995605469,0|8,1:0|0:0,0:0:0:0:
84,96,99192,1,2,0:3:0:0:
1,142,99352,1,2,0:3:0:0:
115,246,99511,2,0,P|155:259|191:267,1,71.9999978027344,0|2,1:0|0:3,0:0:0:0:
328,181,99830,6,0,P|359:136|326:53,1,143.999995605469,8|0,0:0|1:0,0:0:0:0:
225,33,100309,2,0,L|240:112,1,71.9999978027344,8|0,0:0|0:0,0:0:0:0:
366,259,100628,1,2,0:3:0:0:
366,259,100788,1,2,1:3:0:0:
460,209,100947,2,0,L|473:138,1,71.9999978027344,8|0,0:0|0:0,0:0:0:0:
276,248,101266,6,0,P|180:214|130:212,1,143.999995605469,2|8,1:2|0:0,0:0:0:0:
44,230,101745,1,0,0:0:0:0:
192,120,101905,1,0,1:0:0:0:
118,72,102064,1,0,1:0:0:0:
166,314,102383,5,8,0:0:0:0:
81,341,102543,1,0,0:0:0:0:
141,209,102703,1,0,1:0:0:0:
252,340,102862,2,0,P|284:351|328:353,1,71.9999978027344,8|2,0:0|0:3,0:0:0:0:
431,214,103181,1,2,1:3:0:0:
431,214,103341,1,0,1:0:0:0:
506,278,103500,2,0,P|456:295|388:298,1,107.999996704102,8|0,0:0|0:0,0:0:0:0:
331,252,103820,6,0,P|318:175|301:101,1,143.999995605469,6|0,1:2|1:0,0:0:0:0:
504,0,104298,2,0,P|488:70|476:141,1,143.999995605469,8|0,0:0|1:0,0:0:0:0:
309,23,104777,6,0,B|239:18|240:81|149:67,1,143.999995605469,12|0,0:0|1:0,0:0:0:0:
73,46,105256,1,0,1:0:0:0:
168,163,105415,2,0,P|194:195|214:231,1,71.9999978027344,8|0,0:0|1:0,0:0:0:0:
209,221,105655,1,0,1:0:0:0:
209,221,105735,1,10,0:0:0:0:
127,362,105894,1,2,1:2:0:0:
39,314,106054,1,2,1:2:0:0:
129,347,106213,1,2,1:2:0:0:
219,380,106373,6,0,B|299:364|285:387|383:376,2,143.999995605469,6|2|8,1:2|1:3|0:0,0:0:0:0:
219,380,107330,2,0,P|201:335|208:302,1,71.9999978027344,2|2,0:0|1:2,0:0:0:0:
360,178,107649,5,2,1:3:0:0:
333,255,107809,1,8,0:0:0:0:
347,93,107969,1,2,0:3:0:0:
424,120,108129,1,0,1:0:0:0:
276,191,108288,6,0,B|205:195|214:245|121:243,1,143.999995605469,10|2,0:0|0:0,0:0:0:0:
143,242,108926,5,2,1:2:0:0:
69,186,109086,2,0,P|58:159|39:120,1,71.9999978027344,8|2,0:0|0:3,0:0:0:0:
58,279,109405,1,0,1:0:0:0:
134,124,109564,2,0,P|145:80|155:52,1,71.9999978027344,10|0,0:0|0:0,0:0:0:0:
259,191,109883,2,0,P|303:202|331:212,1,71.9999978027344,2|0,0:0|0:0,0:0:0:0:
328,210,110123,1,0,0:0:0:0:
328,210,110203,5,0,1:0:0:0:
484,146,110362,1,10,0:0:0:0:
386,133,110522,1,2,0:2:0:0:
426,215,110681,1,0,0:0:0:0:
466,298,110841,2,0,P|396:328|311:353,1,143.999995605469,10|10,0:2|2:2,0:0:0:0:
162,176,111479,6,0,P|95:147|27:125,1,143.999995605469,4|0,0:0|1:0,0:0:0:0:
39,217,111958,1,0,1:0:0:0:
137,74,112117,2,0,P|175:59|213:51,1,71.9999978027344,8|0,0:0|0:0,0:0:0:0:
183,244,112437,2,0,P|168:206|160:168,1,71.9999978027344,2|2,1:2|1:2,0:0:0:0:
161,175,112676,1,0,0:0:0:0:
161,175,112756,5,0,1:0:0:0:
353,198,112915,2,0,P|315:213|277:221,1,71.9999978027344,8|2,0:0|0:3,0:0:0:0:
257,314,113235,1,0,1:0:0:0:
427,314,113394,2,0,P|389:299|351:291,1,71.9999978027344,10|0,0:0|0:0,0:0:0:0:
414,132,113713,2,0,P|438:169|443:200,1,71.9999978027344,2|0,0:2|1:3,0:3:0:0:
442,195,113953,1,0,0:0:0:0:
442,195,114032,5,0,1:0:0:0:
327,110,114192,2,0,P|332:77|340:37,1,71.9999978027344,8|2,0:0|0:3,0:0:0:0:
161,175,114511,1,0,1:0:0:0:
161,175,114671,2,0,P|156:142|148:102,1,71.9999978027344,8|0,0:0|0:0,0:0:0:0:
340,268,114990,2,0,P|345:235|353:195,1,71.9999978027344,2|0,1:2|0:0,0:0:0:0:
199,324,115309,5,2,0:3:0:0:
328,274,115469,1,2,1:2:0:0:
187,329,115628,2,0,P|151:321|116:316,1,71.9999978027344,2|0,0:0|1:0,0:0:0:0:
347,384,115947,2,0,P|390:337|482:331,1,143.999995605469,6|10,1:2|0:0,0:0:0:0:
328,274,116426,1,10,0:0:0:0:
469,185,116586,6,0,P|399:168|354:110,1,143.999995605469,6|2,1:2|0:3,0:0:0:0:
368,30,117064,1,0,1:0:0:0:
232,111,117224,2,2,B|166:118|166:160|83:166,1,143.999995605469,10|2,0:0|0:0,0:0:0:0:
19,83,117703,5,2,1:2:0:0:
19,83,117782,1,0,1:2:0:0:
19,83,117862,1,0,1:0:0:0:
120,0,118022,2,0,P|109:42|103:79,1,71.9999978027344,8|2,0:0|0:3,0:0:0:0:
264,192,118341,1,0,0:0:0:0:
264,192,118500,2,0,P|257:156|248:121,1,71.9999978027344,10|0,0:0|0:0,0:0:0:0:
110,260,118820,2,0,P|160:255|209:309,1,107.999996704102,2|2,0:0|0:3,0:0:0:0:
262,345,119139,5,0,1:2:0:0:
406,291,119298,1,0,1:0:0:0:
319,277,119458,1,2,0:3:0:0:
349,357,119617,1,0,0:0:0:0:
400,208,119777,2,0,P|412:140|428:105,1,107.999996704102,10|0,0:0|0:0,0:0:0:0:
482,47,120096,1,2,0:0:0:0:
335,113,120256,5,0,1:0:0:0:
335,113,120336,1,0,1:0:0:0:
335,113,120415,1,2,0:3:0:0:
372,23,120575,1,8,0:0:0:0:
243,124,120735,2,0,P|206:130|162:133,1,71.9999978027344,2|0,0:0|1:0,0:0:0:0:
7,23,121054,2,0,P|64:16|111:59,1,107.999996704102,8|0,0:0|0:0,0:0:0:0:
89,125,121373,2,0,P|77:170|71:210,1,71.9999978027344,2|0,1:2|0:0,0:0:0:0:
266,327,121692,6,0,P|258:288|248:251,1,75.9999979705811,6|8,1:2|0:0,0:0:0:0:
172,253,121931,1,0,1:0:0:0:
163,261,122011,2,0,P|142:272|121:278,1,37.9999989852906,2|0,1:2|1:0,1:0:0:0:
278,334,122171,2,0,P|299:345|320:351,1,37.9999989852906,0|0,1:0|1:0,0:0:0:0:
403,326,122330,5,2,1:2:0:0:
424,307,122409,1,0,1:0:0:0:
437,282,122489,1,2,1:2:0:0:
438,254,122569,1,0,1:0:0:0:
427,228,122649,2,0,P|414:212|405:198,3,37.9999989852906,2|0|2|0,1:2|1:0|1:2|1:0,1:0:0:0:
440,101,122969,6,0,P|446:78|455:52,1,37.9999989852906,8|0,1:2|1:0,0:0:0:0:
326,140,123128,1,2,1:2:0:0:
318,129,123208,2,0,P|305:108|293:83,1,37.9999989852906,8|0,1:2|1:0,0:0:0:0:
274,230,123367,1,0,1:0:0:0:
261,228,123447,2,0,P|236:222|210:213,1,37.9999989852906,8|0,1:2|1:0,1:0:0:0:
317,319,123607,1,0,1:0:0:0:
306,327,123687,2,0,P|285:340|260:352,1,37.9999989852906,8|0,1:2|1:2,0:0:0:0:
415,331,123846,1,0,1:0:0:0:
413,344,123926,2,0,P|407:368|398:394,3,37.9999989852906,10|0|0|0,1:2|1:0|1:2|1:0,0:0:0:0:
261,344,124245,6,0,P|219:335|176:330,1,75.9999979705811,10|0,0:0|1:0,0:0:0:0:
106,369,124485,1,2,0:0:0:0:
94,375,124564,2,0,P|71:381|49:384,1,37.9999989852906,2|0,1:2|1:0,0:0:0:0:
135,264,124724,2,0,P|129:241|126:219,1,37.9999989852906,10|0,1:2|1:0,0:0:0:0:
278,154,124884,1,2,1:2:0:0:
275,172,124963,1,0,1:2:0:0:
271,191,125043,1,2,1:2:0:0:
267,209,125123,1,0,1:2:0:0:
261,228,125203,2,0,P|242:224|221:216,3,37.9999989852906,2|0|2|0,1:2|1:0|1:2|1:0,0:0:0:0:
76,140,125522,6,0,P|95:136|116:128,3,37.9999989852906,4|0|0|0,1:2|1:0|1:0|1:0,0:0:0:0:
218,41,125841,2,0,P|199:37|178:29,3,37.9999989852906,0|0|0|0,1:0|1:0|1:0|1:0,0:0:0:0:
278,154,126160,5,8,0:0:0:0:
299,144,126239,1,8,0:0:0:0:
323,144,126319,1,8,0:0:0:0:
344,154,126399,1,8,0:0:0:0:
360,172,126479,1,8,0:0:0:0:
375,189,126559,1,8,0:0:0:0:
397,199,126639,1,8,0:0:0:0:
420,199,126719,1,8,0:0:0:0:
442,190,126798,6,0,P|447:148|456:95,1,83.9999974365235,6|2,1:2|0:0,0:0:0:0:
329,256,127117,1,8,0:0:0:0:
329,256,127277,2,0,P|335:297|340:339,1,83.9999974365235,2|0,0:0|1:0,0:0:0:0:
418,384,127596,1,2,1:2:0:0:
253,317,127756,1,10,0:2:0:0:
169,344,127915,6,0,B|92:352|95:374|2:374,1,167.999994873047,2|0,0:2|0:0,0:0:0:0:
108,271,128394,2,0,P|82:223|75:181,1,83.9999974365235,8|0,0:2|0:0,0:0:0:0:
248,91,128713,1,2,1:2:0:0:
104,32,128873,1,2,1:2:0:0:
194,5,129032,2,0,P|178:43|175:150,1,125.999996154785,10|0,0:0|0:0,0:0:0:0:
246,173,129352,6,0,B|275:169|275:169|293:174|293:174|341:169,1,83.9999974365235,2|2,1:2|0:0,0:0:0:0:
388,109,129671,1,8,0:0:0:0:
268,252,129830,2,0,P|254:311|354:346,1,167.999994873047,2|2,0:0|1:2,0:0:0:0:
366,271,130309,1,8,0:0:0:0:
223,350,130469,6,0,B|146:343|147:390|58:381,1,167.999994873047,2|0,0:0|0:0,0:0:0:0:
118,197,130947,1,8,0:2:0:0:
164,263,131107,1,0,0:0:0:0:
0,326,131266,1,2,1:2:0:0:
31,216,131426,1,2,1:2:0:0:
113,94,131586,1,8,0:0:0:0:
60,27,131745,1,2,0:0:0:0:
20,118,131905,6,0,P|69:104|102:97,1,83.9999974365235,6|0,1:2|0:0,0:0:0:0:
207,24,132224,1,8,0:0:0:0:
343,113,132383,1,2,0:0:0:0:
267,161,132543,2,0,P|283:250|225:272,1,167.999994873047,0|8,1:0|0:0,0:0:0:0:
189,199,133022,1,2,0:0:0:0:
285,348,133181,5,2,1:2:0:0:
355,290,133341,1,2,0:0:0:0:
194,351,133500,1,10,0:0:0:0:
110,260,133660,5,2,0:0:0:0:
85,259,133740,1,0,1:0:0:0:
71,273,133820,1,0,1:0:0:0:
181,344,133979,1,2,1:2:0:0:
44,357,134139,2,0,P|109:345|170:337,1,125.999996154785,10|0,0:0|0:0,0:0:0:0:
222,268,134458,5,2,1:2:0:0:
262,157,134617,1,2,0:0:0:0:
169,195,134777,1,8,0:0:0:0:
169,195,134937,1,2,0:0:0:0:
305,230,135096,5,0,1:2:0:0:
204,97,135256,1,2,1:2:0:0:
343,133,135415,1,10,0:0:0:0:
343,133,135575,1,2,0:0:0:0:
427,154,135735,6,0,P|476:146|511:142,1,83.9999974365235,0|2,1:0|1:2,0:0:0:0:
395,233,136054,2,0,P|432:284|407:359,1,125.999996154785,4|0,0:0|0:0,0:0:0:0:
346,378,136373,2,0,P|325:373|302:371,3,41.9999987182618,8|8|8|8,0:0|0:0|0:0|0:0,0:0:0:0:
216,328,136692,1,8,0:0:0:0:
196,333,136772,1,8,0:0:0:0:
186,348,136852,1,8,0:0:0:0:
166,353,136932,1,8,0:0:0:0:
152,366,137011,6,0,P|113:358|60:352,1,83.9999974365235,12|2,1:2|0:0,0:0:0:0:
69,352,137250,1,0,0:0:0:0:
69,352,137330,1,10,0:0:0:0:
0,243,137490,1,2,0:0:0:0:
75,183,137649,2,0,P|114:175|167:169,1,83.9999974365235,0|2,1:0|1:2,0:0:0:0:
10,129,137969,1,8,0:0:0:0:
95,264,138128,1,2,0:0:0:0:
236,196,138288,5,0,1:0:0:0:
266,114,138447,1,2,0:0:0:0:
272,98,138527,1,0,0:0:0:0:
278,82,138607,1,8,0:0:0:0:
157,169,138766,1,2,0:0:0:0:
317,223,138926,2,0,P|361:227|407:235,1,83.9999974365235,2|0,1:2|1:0,0:0:0:0:
469,65,139245,2,0,P|418:116|359:117,1,125.999996154785,10|0,0:0|0:0,0:0:0:0:
278,82,139564,5,0,1:0:0:0:
121,64,139724,1,2,0:0:0:0:
205,21,139883,1,8,0:0:0:0:
194,125,140043,1,2,0:0:0:0:
52,219,140203,5,2,1:2:0:0:
185,203,140363,1,2,1:2:0:0:
114,167,140522,1,10,0:0:0:0:
123,255,140682,1,2,0:0:0:0:
263,319,140841,6,0,P|274:260|282:234,2,83.9999974365235,0|2|8,1:2|0:0|0:0,0:0:0:0:
99,377,141320,1,2,1:2:0:0:
99,377,141399,1,0,1:0:0:0:
99,377,141479,1,0,1:0:0:0:
173,324,141639,1,0,1:0:0:0:
348,350,141798,2,0,B|414:346|405:385|485:382,1,125.999996154785,10|0,0:0|0:0,0:0:0:0:
461,294,142117,6,0,P|472:267|465:231,1,55.9999982910157,6|0,1:2|0:0,0:0:0:0:
458,166,142330,2,0,P|429:169|401:194,1,55.9999982910157,0|8,0:0|0:0,0:0:0:0:
348,233,142543,2,0,P|365:256|400:267,1,55.9999982910157
474,303,142756,6,0,P|481:274|469:240,1,55.9999982910157,2|0,1:2|0:0,0:0:0:0:
459,150,142969,2,0,P|430:157|406:185,1,55.9999982910157,0|8,0:0|0:0,0:0:0:0:
333,239,143181,2,0,P|353:259|389:266,1,55.9999982910157
349,105,143394,6,0,P|331:81|296:70,1,55.9999982910157,6|0,1:2|0:0,1:2:0:0:
236,43,143607,2,0,P|224:69|232:106,1,55.9999982910157,0|8,0:0|0:0,0:0:0:0:
239,172,143820,2,0,P|267:168|295:143,1,55.9999982910157
363,98,144033,6,0,P|342:77|306:70,1,55.9999982910157,2|0,1:2|0:0,0:0:0:0:
223,34,144246,2,0,P|215:62|227:96,1,55.9999982910157,0|8,0:0|0:0,0:0:0:0:
237,188,144458,2,0,P|265:180|289:152,1,55.9999982910157
110,116,144671,6,0,P|149:188|139:273,1,167.999994873047,6|8,1:2|0:0,0:0:0:0:
28,339,145149,1,2,0:0:0:0:
24,356,145229,1,0,0:0:0:0:
36,367,145309,2,0,B|125:353|119:387|210:372,1,167.999994873047,0|10,0:0|0:0,0:0:0:0:
381,298,145788,1,0,0:0:0:0:
330,234,145947,2,0,P|283:264|305:372,1,167.999994873047,2|14,0:2|1:2,0:0:0:0:
392,182,146506,5,8,0:0:0:0:
397,190,146586,1,8,0:0:0:0:
335,111,146745,1,8,0:0:0:0:
414,65,146905,1,8,0:0:0:0:
313,218,147064,1,8,0:0:0:0:
197,177,147224,6,0,P|192:136|179:95,1,71.9999978027344,4|0,1:2|0:0,0:0:0:0:
131,246,147543,2,0,P|169:262|211:271,1,71.9999978027344,2|0,0:3|0:0,0:0:0:0:
105,155,147862,2,0,P|71:179|42:211,1,71.9999978027344,10|0,0:0|0:0,0:0:0:0:
144,193,148181,1,2,0:3:0:0:
272,157,148341,1,0,0:0:0:0:
330,102,148500,5,2,1:3:0:0:
285,234,148660,1,8,0:0:0:0:
376,199,148820,2,0,P|412:203|452:209,1,71.9999978027344,2|0,0:3|0:0,0:0:0:0:
303,312,149139,2,0,B|241:317|247:376|178:378,1,143.999995605469,10|2,0:0|0:3,0:0:0:0:
64,274,149617,5,0,0:0:0:0:
58,283,149697,1,0,0:0:0:0:
54,291,149777,1,2,1:3:0:0:
94,368,149937,1,2,0:0:0:0:
150,263,150096,2,0,P|139:223|131:174,1,71.9999978027344,2|0,0:3|0:0,0:0:0:0:
0,137,150415,2,0,P|68:131|115:73,1,143.999995605469,10|2,0:0|0:3,0:0:0:0:
46,27,150894,1,2,0:0:0:0:
191,106,151054,5,2,2:3:0:0:
133,193,151213,1,8,0:0:0:0:
267,136,151373,2,0,P|307:124|341:117,1,71.9999978027344,2|0,0:3|0:0,0:0:0:0:
426,171,151692,2,0,P|449:218|403:296,1,143.999995605469,8|2,0:0|3:0,0:0:0:0:
186,351,152330,6,0,P|182:312|173:272,1,71.9999978027344,2|0,0:3|0:0,0:0:0:0:
104,371,152649,2,0,P|100:332|91:292,1,71.9999978027344,2|0,0:3|0:0,0:0:0:0:
268,331,152969,2,0,P|264:292|255:252,1,71.9999978027344,10|0,0:0|0:0,0:0:0:0:
190,364,153288,1,2,0:3:0:0:
95,223,153447,1,0,1:0:0:0:
161,157,153607,6,0,P|196:164|232:167,1,71.9999978027344,2|0,1:3|1:0,0:0:0:0:
111,77,153926,1,2,0:3:0:0:
8,213,154086,1,0,0:0:0:0:
61,145,154245,2,0,P|68:85|13:6,1,143.999995605469,10|2,0:0|0:3,0:0:0:0:
26,15,154724,1,0,0:0:0:0:
111,77,154883,6,0,P|143:62|177:51,1,71.9999978027344,2|0,0:3|0:0,0:0:0:0:
239,0,155203,1,2,3:0:0:0:
161,157,155362,1,2,0:0:0:0:
244,121,155522,2,0,P|279:126|314:134,1,71.9999978027344,10|2,0:0|0:0,0:0:0:0:
423,27,155841,2,0,P|390:41|356:52,1,71.9999978027344,2|0,0:3|0:0,0:0:0:0:
473,136,156160,5,0,1:2:0:0:
487,219,156320,1,8,0:0:0:0:
501,302,156479,2,0,P|508:338|513:373,1,71.9999978027344,2|0,1:2|0:0,0:0:0:0:
269,365,156798,5,8,0:0:0:0:
387,384,156958,1,8,0:0:0:0:
416,274,157117,1,2,1:2:0:0:
416,274,157437,6,0,P|345:284|270:291,1,143.999995605469,6|2,1:2|0:3,0:0:0:0:
172,164,157915,1,2,0:0:0:0:
119,261,158075,1,10,0:0:0:0:
119,261,158235,1,2,0:0:0:0:
37,216,158394,2,0,P|44:176|51:140,1,71.9999978027344,2|0,0:3|0:0,0:0:0:0:
135,348,158713,5,2,0:3:0:0:
135,348,158873,1,8,0:0:0:0:
237,260,159032,2,0,L|219:190,1,71.9999978027344,0|0,0:3|1:0,0:0:0:0:
347,370,159352,2,0,P|358:290|372:223,1,143.999995605469,10|2,0:0|0:3,0:0:0:0:
426,157,159830,1,0,0:0:0:0:
309,46,159990,5,2,0:3:0:0:
275,128,160149,1,2,0:0:0:0:
398,70,160309,1,2,0:0:0:0:
398,70,160469,1,2,0:3:0:0:
235,0,160628,5,10,0:0:0:0:
271,113,160788,1,2,0:0:0:0:
307,226,160947,2,0,P|269:218|233:215,1,71.9999978027344,2|2,0:3|1:2,0:0:0:0:
236,215,161187,1,0,1:0:0:0:
236,215,161266,5,2,0:3:0:0:
66,169,161426,2,0,P|136:162|188:114,1,143.999995605469,8|0,0:0|1:0,0:0:0:0:
209,317,161905,2,0,P|156:269|86:262,1,143.999995605469,8|2,0:0|0:3,0:0:0:0:
327,378,162543,6,0,P|332:356|336:341,2,35.9999989013672,8|0|0,0:0|0:0|0:0,0:0:0:0:
406,304,162782,2,0,P|411:282|415:267,2,35.9999989013672,8|0|0,0:0|1:0|0:0,0:0:0:0:
336,220,163022,2,0,P|341:198|345:183,1,35.9999989013672,8|0,0:0|0:0,0:0:0:0:
495,92,163181,5,0,1:0:0:0:
481,109,163260,1,0,1:0:0:0:
462,122,163340,1,0,1:0:0:0:
441,127,163420,1,8,0:0:0:0:
418,124,163500,2,0,P|380:110|338:101,1,71.9999978027344,8|0,0:0|1:0,0:0:0:0:
258,154,163740,5,0,1:0:0:0:
245,161,163820,2,0,P|222:166|197:171,2,35.9999989013672,0|0|0,1:0|1:0|1:0,0:0:0:0:
134,121,164059,2,0,P|111:126|86:131,2,35.9999989013672,0|2|8,1:0|1:2|0:0,0:0:0:0:
71,227,164298,2,0,P|48:232|23:237,1,35.9999989013672,8|0,0:0|1:0,0:0:0:0:
174,266,164458,5,2,1:2:0:0:
160,283,164537,1,0,1:0:0:0:
154,305,164617,1,0,1:0:0:0:
156,327,164697,1,8,0:0:0:0:
167,347,164777,2,0,P|205:353|251:364,1,71.9999978027344,10|0,0:2|1:0,0:0:0:0:
314,302,165016,5,0,1:0:0:0:
327,294,165096,2,0,P|331:276|335:259,2,35.9999989013672,2|0|0,1:2|1:0|1:0,0:0:0:0:
232,203,165336,2,0,P|236:185|240:168,2,35.9999989013672,0|0|0,1:0|1:0|1:0,0:0:0:0:
358,145,165575,2,0,P|362:127|366:110,1,35.9999989013672,0|0,1:0|1:0,0:0:0:0:
239,53,165735,5,2,1:2:0:0:
223,69,165814,1,0,1:0:0:0:
205,82,165894,1,0,1:0:0:0:
186,94,165974,1,0,1:0:0:0:
165,103,166054,1,8,0:0:0:0:
143,109,166133,1,8,0:0:0:0:
121,112,166213,1,8,0:0:0:0:
99,112,166293,1,8,0:0:0:0:
99,112,167490,5,0,1:0:0:0:
34,66,167649,5,8,0:0:0:0:
77,212,167809,1,0,1:0:0:0:
12,166,167969,5,12,1:2:0:0:
168,71,168128,1,0,1:0:0:0:
263,139,168288,6,0,P|255:172|248:221,1,80,8|8,0:2|0:0,0:0:0:0:
262,240,168527,1,8,0:0:0:0:
282,257,168607,1,8,0:0:0:0:
306,268,168687,1,8,0:0:0:0:
332,271,168767,1,8,0:0:0:0:
358,266,168846,1,8,0:0:0:0:
382,253,168926,6,0,P|364:177|355:111,1,132.00000402832,6|0,1:2|0:0,0:0:0:0:
417,71,169245,2,0,P|458:69|500:92,1,88.000002685547,10|0,0:0|0:0,0:0:0:0:
356,14,169564,1,2,1:2:0:0:
445,170,169724,1,2,1:2:0:0:
344,133,169883,1,10,0:2:0:0:
430,63,170043,1,2,0:0:0:0:
264,116,170203,6,0,P|192:101|130:94,1,132.00000402832,2|0,1:2|0:0,0:0:0:0:
74,36,170522,2,0,P|53:77|57:123,1,88.000002685547,10|0,0:0|0:0,0:0:0:0:
55,117,170761,1,0,0:0:0:0:
55,117,170841,1,2,1:2:0:0:
244,197,171000,1,0,1:0:0:0:
167,272,171160,2,0,P|168:228|148:190,1,88.000002685547,8|2,0:0|0:0,0:0:0:0:
91,334,171479,6,0,P|187:311|269:296,1,176.000005371094,2|8,1:2|0:0,0:0:0:0:
377,194,171958,1,2,0:0:0:0:
377,194,172038,1,8,0:0:0:0:
377,194,172117,1,2,1:2:0:0:
257,144,172277,1,0,0:0:0:0:
359,285,172437,2,0,P|369:323|380:377,1,88.000002685547,8|2,0:0|0:0,0:0:0:0:
188,193,172756,6,0,P|185:99|250:61,1,176.000005371094,2|8,1:2|0:0,0:0:0:0:
111,53,173235,1,0,0:0:0:0:
111,53,173314,1,8,0:0:0:0:
111,53,173394,1,2,1:2:0:0:
257,144,173554,1,0,1:0:0:0:
177,203,173713,2,0,B|119:204|110:237|51:237,1,132.00000402832,10|0,0:0|0:0,0:0:0:0:
171,289,174032,6,0,P|248:287|319:362,1,176.000005371094,6|8,1:2|0:0,0:0:0:0:
217,371,174511,2,0,B|197:384|197:384|170:382,2,44.0000013427735,2|0|2,0:0|0:0|1:2,0:0:0:0:
338,267,174830,1,0,1:0:0:0:
338,267,174910,1,0,0:0:0:0:
338,267,174990,2,0,P|323:307|315:358,1,88.000002685547,8|2,0:2|0:0,0:0:0:0:
508,237,175309,6,0,P|439:223|364:145,1,176.000005371094,2|10,1:2|0:2,0:2:0:0:
293,53,175788,1,2,0:0:0:0:
293,53,175867,1,8,0:0:0:0:
293,53,175947,1,2,1:2:0:0:
433,89,176107,1,0,0:0:0:0:
254,146,176266,2,0,P|211:154|169:167,1,88.000002685547,8|2,0:2|0:0,0:0:0:0:
12,69,176586,6,0,P|23:120|100:123,1,132.00000402832,2|0,1:2|0:0,0:0:0:0:
169,167,176905,2,0,P|211:154|254:146,1,88.000002685547,10|0,0:0|1:0,0:0:0:0:
137,246,177144,1,0,1:0:0:0:
137,246,177224,2,0,P|150:287|158:331,1,88.000002685547,2|0,1:2|1:0,0:0:0:0:
21,296,177543,2,0,P|8:255|0:211,1,88.000002685547,10|0,0:0|0:0,0:0:0:0:
158,331,177862,5,2,1:2:0:0:
293,267,178022,1,0,1:0:0:0:
328,343,178181,5,8,0:0:0:0:
219,209,178341,1,2,1:2:0:0:
298,101,178500,5,10,0:0:0:0:
353,207,178660,1,0,1:0:0:0:
353,207,178740,1,0,0:0:0:0:
353,207,178820,1,12,0:0:0:0:
353,207,179139,6,0,P|417:186|488:175,1,132.00000402832,6|0,1:2|0:0,0:0:0:0:
462,97,179458,2,0,P|465:54|437:12,1,88.000002685547,10|0,0:0|0:0,0:0:0:0:
283,140,179777,2,0,P|261:177|264:221,1,88.000002685547,2|0,1:2|0:0,0:0:0:0:
356,297,180096,1,10,0:0:0:0:
198,354,180256,1,2,0:0:0:0:
287,384,180415,5,2,1:2:0:0:
130,282,180575,1,2,0:0:0:0:
80,357,180735,2,0,B|46:385|46:385|-1:376,1,88.000002685547,10|0,0:0|0:0,0:0:0:0:
80,211,181054,2,0,P|57:173|53:35,1,176.000005371094,2|8,1:2|0:0,0:0:0:0:
201,114,181532,5,2,0:0:0:0:
201,114,181612,1,0,1:0:0:0:
201,114,181692,2,0,P|236:193|231:280,1,176.000005371094,6|8,1:2|0:0,0:0:0:0:
130,282,182171,1,2,0:0:0:0:
329,231,182330,1,2,1:2:0:0:
178,353,182490,1,0,0:0:0:0:
311,323,182649,2,0,P|362:323|401:326,1,88.000002685547,8|2,0:0|0:0,0:0:0:0:
287,130,182969,6,0,P|251:181|133:190,1,176.000005371094,6|8,1:2|0:0,0:0:0:0:
21,83,183447,1,0,1:0:0:0:
24,94,183527,1,0,1:0:0:0:
28,106,183607,1,0,1:0:0:0:
140,208,183766,1,0,1:0:0:0:
46,256,183926,1,0,1:0:0:0:
109,127,184086,1,0,1:0:0:0:
204,284,184245,6,0,P|285:288|380:304,1,167.999994873047,6|2,1:2|0:3,0:0:0:0:
470,204,184724,1,2,0:0:0:0:
470,204,184804,1,0,0:0:0:0:
470,204,184883,2,0,P|389:200|294:184,1,167.999994873047,10|2,0:0|0:3,0:0:0:0:
246,94,185362,1,0,0:0:0:0:
141,232,185522,5,2,0:0:0:0:
52,193,185681,2,0,P|31:152|33:111,1,83.9999974365235,8|0,0:0|0:0,0:0:0:0:
152,238,186000,1,2,0:0:0:0:
2,364,186160,2,0,P|67:309|108:309,1,125.999996154785,10|0,0:0|0:0,0:0:0:0:
188,313,186479,2,0,P|235:336|275:334,1,83.9999974365235,2|2,0:3|0:0,0:0:0:0:
395,206,186798,5,2,1:2:0:0:
317,164,186958,2,0,P|275:166|239:187,1,83.9999974365235,8|2,0:0|0:3,0:0:0:0:
405,215,187277,1,2,0:0:0:0:
355,87,187437,2,0,B|317:39|334:-13|334:-13|361:11|354:45,1,167.999994873047,10|2,0:0|0:3,0:0:0:0:
417,224,187915,1,2,0:0:0:0:
292,315,188075,5,2,1:2:0:0:
322,222,188235,1,8,0:0:0:0:
492,288,188394,1,2,0:0:0:0:
462,381,188554,1,2,0:0:0:0:
292,315,188713,2,0,B|252:322|251:333|208:344,1,83.9999974365235,10|8,0:0|0:0,0:0:0:0:
136,319,188953,1,8,0:0:0:0:
127,308,189032,2,0,P|131:280|137:261,3,41.9999987182618,8|8|8|0,0:0|0:0|0:0|0:0,0:0:0:0:
31,176,189352,6,0,P|107:187|174:180,1,132.00000402832,6|0,1:2|0:0,0:0:0:0:
243,207,189671,2,0,P|242:152|215:117,1,88.000002685547,10|0,0:0|1:0,0:0:0:0:
148,37,189990,1,10,0:0:0:0:
297,86,190149,1,0,1:0:0:0:
413,5,190309,5,10,0:0:0:0:
472,114,190469,2,0,P|429:95|387:93,1,88.000002685547,2|8,1:2|0:0,0:0:0:0:
323,269,190788,2,0,B|408:266|399:200|500:207,1,176.000005371094,2|2,1:2|1:2,0:0:0:0:
438,320,191266,2,0,P|445:369|489:369,1,88.000002685547,8|2,0:0|1:2,0:0:0:0:
330,180,191586,2,0,P|292:159|247:148,1,88.000002685547,8|0,0:0|1:0,0:0:0:0:
89,211,191905,6,0,P|99:259|113:344,1,132.00000402832,12|0,0:0|0:0,0:0:0:0:
30,384,192224,2,0,P|25:340|18:296,1,88.000002685547,10|0,0:0|1:0,0:0:0:0:
163,142,192543,2,0,P|173:184|183:227,1,88.000002685547,10|0,0:0|1:0,0:0:0:0:
12,117,192862,5,10,0:0:0:0:
55,34,193022,2,0,P|96:12|142:1,1,88.000002685547,2|8,1:2|0:0,0:0:0:0:
256,163,193341,2,0,P|334:180|430:191,2,176.000005371094,2|2|2,1:2|1:2|1:2,0:0:0:0:
183,227,194139,1,8,0:2:0:0:
296,77,194298,1,0,1:0:0:0:
135,1,194458,6,0,P|151:66|167:144,1,132.00000402832,6|0,1:2|0:0,0:0:0:0:
256,163,194777,1,8,0:0:0:0:
101,255,194937,2,0,P|143:233|188:226,1,88.000002685547,2|8,1:2|0:0,0:0:0:0:
296,77,195256,2,0,P|338:99|383:106,1,88.000002685547,2|8,1:2|0:0,0:0:0:0:
286,264,195575,2,0,P|276:213|261:175,1,88.000002685547,2|8,1:2|0:0,0:0:0:0:
469,245,195894,5,2,1:2:0:0:
360,312,196054,1,10,0:0:0:0:
399,188,196213,1,2,1:2:0:0:
477,345,196373,1,10,0:0:0:0:
477,345,196532,1,2,1:2:0:0:
286,264,196692,2,0,P|236:252|181:248,1,88.000002685547,10|2,0:0|1:2,0:0:0:0:
27,298,197011,5,6,1:2:0:0:
128,205,197171,1,2,1:2:0:0:
94,360,197330,1,10,0:0:0:0:
19,208,197490,2,0,P|9:168|-2:111,1,88.000002685547,2|8,1:2|0:0,0:0:0:0:
147,30,197809,2,0,P|157:70|168:127,1,88.000002685547,2|8,1:2|0:0,0:0:0:0:
285,220,198128,6,0,P|294:177|305:135,1,88.000002685547,2|8,1:2|0:0,0:0:0:0:
452,227,198447,2,0,P|443:270|432:313,1,88.000002685547,2|8,1:2|0:0,0:0:0:0:
333,384,198766,1,0,0:0:0:0:
204,308,198926,6,0,P|197:274|190:248,2,58.6666684570313,8|0|0,3:2|3:0|3:0,0:0:0:0:
105,327,199245,5,8,3:2:0:0:
105,327,199352,2,0,P|112:361|119:387,1,58.6666684570313,0|0,3:0|3:0,0:0:0:0:
8,263,199564,6,0,P|6:186|70:148,1,143.999995605469,6|2,1:2|0:3,0:0:0:0:
161,202,200043,1,2,0:0:0:0:
161,202,200123,1,0,0:0:0:0:
161,202,200203,2,0,B|228:206|230:223|314:231,1,143.999995605469,10|2,0:0|0:3,0:0:0:0:
379,165,200681,5,0,1:0:0:0:
383,151,200761,1,0,0:0:0:0:
388,137,200841,1,0,1:0:0:0:
480,231,201000,2,0,P|492:269|500:305,1,71.9999978027344,8|2,0:0|0:3,0:0:0:0:
393,124,201320,5,0,1:0:0:0:
402,287,201479,2,0,P|403:326|402:363,1,71.9999978027344,8|0,0:0|1:0,0:0:0:0:
291,384,201798,2,0,P|302:350|310:315,1,71.9999978027344,0|0,1:0|1:0,0:0:0:0:
181,170,202117,6,0,B|74:175|36:72|36:72|37:62|37:62|136:115|139:285|73:347,1,512,14|0,0:0|0:0,0:0:0:0:
5,364,204990,5,2,0:3:0:0:
81,338,205149,2,0,L|96:335,2,16,2|2|4,0:3|0:3|0:0,0:0:0:0:
336,30,205947,5,8,0:0:0:0:
336,30,206266,2,0,L|330:80,2,40.000001525879,8|8|8,0:0|0:0|0:0,0:0:0:0:
414,46,206586,2,0,L|408:96,3,40.000001525879,0|0|0|0,3:0|3:0|3:0|3:0,3:0:0:0:
492,62,206905,2,0,L|486:112,3,40.000001525879,0|0|0|0,3:0|3:0|3:0|3:0,3:0:0:0:
512,133,207224,5,0,1:0:0:0:
401,162,207543,1,0,1:0:0:0:
176,81,208500,5,8,0:0:0:0:
176,81,208819,2,0,L|180:129,2,42.6666666666667,8|8|8,0:0|0:0|0:0,0:0:0:0:
98,97,209139,2,0,L|104:147,3,40.000001525879,0|0|0|0,3:0|3:0|3:0|3:0,3:0:0:0:
20,113,209458,2,0,L|26:163,3,40.000001525879,0|0|0|0,3:0|3:0|3:0|3:0,3:0:0:0:
0,184,209777,5,0,0:0:0:0:
111,213,210096,1,0,0:0:0:0:
222,242,210415,1,2,0:3:0:0:
336,132,211054,5,8,0:0:0:0:
336,132,211373,2,0,L|327:189,2,42.6666666666667,8|8|8,0:0|0:0|0:0,0:0:0:0:
414,148,211691,2,0,L|405:208,3,40,0|0|0|0,3:0|3:0|3:0|3:0,3:0:0:0:
492,164,212010,2,0,L|485:209,3,40,0|0|0|0,3:0|3:0|3:0|3:0,3:0:0:0:
512,235,212329,5,0,1:0:0:0:
401,264,212650,1,0,1:0:0:0:
176,183,213607,5,8,0:0:0:0:
176,183,213926,2,0,L|181:239,2,42.6666666666667,8|8|8,0:0|0:0|0:0,0:0:0:0:
98,199,214244,2,0,L|104:249,3,40.000001525879,0|0|0|0,3:0|3:0|3:0|3:0,3:0:0:0:
20,215,214565,2,0,L|26:265,3,40.000001525879,0|0|0|0,3:0|3:0|3:0|3:0,3:0:0:0:
0,286,214884,5,0,1:0:0:0:
111,315,215203,1,0,1:0:0:0:
222,344,215522,2,0,B|250:335|264:304|264:304|315:375|382:352|382:352|346:316|380:270|380:270|447:267|455:342|455:342|461:312|493:294|493:294|501:318|494:338|494:338|506:336|517:336|517:336|516:347|505:355,1,560,2|0,0:3|0:0,0:0:0:0:
