osu file format v14

[General]
AudioFilename: audio.ogg
AudioLeadIn: 0
PreviewTime:43885
Countdown: 0
SampleSet: Soft
StackLeniency: 0.7
Mode: 0
LetterboxInBreaks: 0
WidescreenStoryboard: 1

[Editor]
Bookmarks: 85016
DistanceSpacing: 1.5
BeatDivisor: 4
GridSize: 8
TimelineZoom: 2.699999

[Metadata]
Title:Ano Band (TV Size)
TitleUnicode:あのバンド (TV Size)
Artist:kessoku band
ArtistUnicode:結束バンド
Creator:Mahiru Shiina
Version:Mak's Hard Band
Source:ぼっち・ざ・ろっく!
Tags:bocchi the rock anime japanese jrock j-rock that band gotoh hitori 後藤ひとり yamada ryo 山田リョウ kita ikuyo 喜多郁代 ijichi nijika 伊地知虹夏 hasegawa ikumi 長谷川育美 kusano kayako 草野華余子 higuchi ai ヒグチアイ female vocals vocalists SEApodEErman Floth Monofly Mak Kau Hijau KPMY ItsCactus
BeatmapID:3940701
BeatmapSetID:1905695

[Difficulty]
HPDrainRate:4
CircleSize:3.5
OverallDifficulty:6
ApproachRate:8
SliderMultiplier:1.4
SliderTickRate:1

[Events]
//Background and Video events
Video,384,"anoband.mp4"
0,0,"bocchita.jpg",0,0
//Break Periods
//Storyboard Layer 0 (Background)
//Storyboard Layer 1 (Fail)
//Storyboard Layer 2 (Pass)
//Storyboard Layer 3 (Foreground)
//Storyboard Layer 4 (Overlay)
//Storyboard Sound Samples

[TimingPoints]
385,315.789473684211,4,2,1,60,1,0
385,-200,4,2,1,60,0,0
1648,-100,4,2,1,70,0,0
6700,-100,4,2,2,70,0,0
13806,-100,4,2,2,60,0,0
14279,-111.111111111111,4,2,1,70,0,0
24069,-111.111111111111,4,2,2,70,0,0
24385,-111.111111111111,4,2,1,70,0,0
32278,-111.111111111111,4,2,2,70,0,0
34490,-133.333333333333,4,2,1,60,0,0
39227,-133.333333333333,4,2,2,60,0,0
39542,-100,4,2,1,70,0,0
44595,-83.3333333333333,4,2,1,80,0,0
53121,-83.3333333333333,4,2,2,80,0,0
54700,-83.3333333333333,4,2,1,80,0,0
59753,-83.3333333333333,4,2,2,80,0,0
59910,-83.3333333333333,4,2,1,80,0,0
63858,-83.3333333333333,4,2,2,80,0,0
64806,-90.9090909090909,4,2,1,70,0,0
74911,-83.3333333333333,4,2,1,80,0,0
80437,-83.3333333333333,4,2,2,80,0,0
82490,-83.3333333333333,4,2,1,80,0,0
82963,-83.3333333333333,4,2,2,80,0,0

[Colours]
Combo1 : 212,196,209
Combo2 : 127,109,125
Combo3 : 151,172,185
Combo4 : 98,103,126

[HitObjects]
92,74,385,6,0,P|56:73|14:88,2,70,2|2|2,2:2|2:2|2:2,0:0:0:0:
153,154,1332,1,2,2:2:0:0:
85,223,1648,6,0,P|79:280|109:359,1,140,4|0,3:2|3:3,0:0:0:0:
165,273,2121,2,0,P|200:264|241:275,1,70,8|0,2:2|3:3,0:0:0:0:
348,344,2437,1,0,3:3:0:0:
348,344,2595,2,0,P|316:302|313:280,1,70,8|0,2:2|3:3,0:0:0:0:
407,174,2911,6,0,P|378:197|272:188,1,140,0|0,3:3|3:3,0:0:0:0:
209,74,3385,2,0,L|192:158,1,70,8|0,2:2|3:3,0:0:0:0:
101,185,3700,1,0,3:3:0:0:
101,185,3858,2,0,P|91:140|113:104,1,70,8|0,2:2|0:0,0:0:0:0:
149,26,4174,6,0,L|306:37,1,140,0|0,3:3|3:3,0:0:0:0:
430,39,4648,2,0,P|388:63|373:97,1,70,8|0,2:2|3:3,0:0:0:0:
470,177,4963,1,0,3:3:0:0:
470,177,5121,2,0,P|466:136|444:115,1,70,8|0,2:2|0:0,0:0:0:0:
374,193,5437,6,0,L|388:345,1,140,0|0,3:3|3:3,0:0:0:0:
299,360,5911,2,0,L|292:281,1,70,8|0,2:2|3:3,0:0:0:0:
216,224,6227,1,0,3:3:0:0:
216,224,6385,2,0,P|208:260|177:288,1,70,8|0,2:2|3:3,0:0:0:0:
144,293,6621,1,0,3:3:0:0:
144,293,6700,6,0,L|51:284,1,70,4|0,3:2|0:0,0:0:0:0:
18,220,7016,1,0,3:3:0:0:
18,220,7174,2,0,L|11:148,1,70,8|0,2:2|3:3,0:0:0:0:
63,64,7490,1,0,3:3:0:0:
130,125,7648,2,0,P|171:128|206:112,1,70,8|0,2:2|3:3,0:0:0:0:
316,26,7963,6,0,P|289:58|313:167,1,140,0|0,3:3|3:3,0:0:0:0:
393,175,8437,2,0,P|397:130|380:100,1,70,8|0,2:2|3:3,0:0:0:0:
488,160,8753,1,0,3:3:0:0:
488,160,8911,2,0,P|485:213|508:245,1,70,8|0,2:2|3:0,0:0:0:0:
504,324,9227,6,0,P|466:312|375:347,1,140,0|0,3:3|3:3,0:0:0:0:
285,308,9700,2,0,P|270:263|226:243,1,70,8|0,2:2|3:3,0:0:0:0:
156,269,10016,1,0,3:3:0:0:
148,366,10174,2,0,L|229:360,1,70,8|0,2:2|3:3,0:0:0:0:
161,279,10490,6,0,L|47:286,1,105,12|0,2:2|0:0,0:0:0:0:
31,242,10806,2,0,L|41:187,3,35,8|8|8|8,2:2|2:2|2:2|2:2,0:0:0:0:
110,173,11121,2,0,L|102:136,3,35,8|8|8|8,2:2|2:2|2:2|2:2,0:0:0:0:
31,99,11437,2,0,L|24:64,3,35,8|8|8|8,2:2|2:2|2:2|2:2,0:0:0:0:
165,57,13806,5,0,3:3:0:0:
293,28,13963,1,8,2:2:0:0:
293,28,14279,6,0,L|289:125,1,94.499997116089,4|0,3:2|0:0,0:0:0:0:
290,163,14595,2,0,P|333:150|374:159,1,62.9999980773926,8|2,2:2|2:3,0:0:0:0:
430,245,14911,2,0,L|422:166,1,62.9999980773926,0|2,3:3|2:3,0:0:0:0:
335,251,15227,1,8,2:2:0:0:
372,344,15385,6,0,L|457:330,1,62.9999980773926,2|0,2:3|3:3,0:0:0:0:
261,301,15700,1,2,0:3:0:0:
261,301,15858,2,0,L|110:321,1,125.999996154785,8|0,2:2|3:3,0:0:0:0:
47,273,16332,1,2,2:3:0:0:
127,228,16490,2,0,P|131:190|113:158,1,62.9999980773926,8|2,2:2|2:3,0:0:0:0:
21,81,16806,6,0,P|60:94|143:73,1,125.999996154785,0|8,3:3|2:2,0:0:0:0:
242,31,17279,1,2,2:3:0:0:
242,31,17437,2,0,P|219:81|248:152,1,125.999996154785,0|8,3:3|2:2,0:0:0:0:
333,107,17911,1,2,2:3:0:0:
401,167,18069,6,0,L|395:243,1,62.9999980773926,0|2,3:3|0:3,0:0:0:0:
312,328,18385,2,0,L|298:249,1,62.9999980773926,8|2,2:2|2:3,0:0:0:0:
204,224,18700,2,0,P|166:221|127:233,1,62.9999980773926,0|2,3:3|2:3,0:0:0:0:
131,324,19016,2,0,P|93:327|54:315,1,62.9999980773926,8|2,2:2|2:3,0:0:0:0:
20,227,19332,6,0,P|38:189|28:108,1,125.999996154785,0|8,3:3|2:2,0:0:0:0:
104,28,19806,1,2,2:3:0:0:
104,28,19963,2,0,P|126:61|220:77,1,125.999996154785,0|8,3:3|2:2,0:0:0:0:
292,22,20437,1,2,2:3:0:0:
378,74,20595,6,0,P|417:80|449:107,1,62.9999980773926,0|0,3:3|0:0,0:0:0:0:
389,164,20911,2,0,P|372:206|376:247,1,62.9999980773926,8|2,2:2|2:3,0:0:0:0:
456,266,21227,1,0,3:3:0:0:
456,266,21385,1,2,2:3:0:0:
378,329,21542,1,8,2:2:0:0:
291,283,21700,1,2,2:3:0:0:
198,336,21858,6,0,L|219:206,1,125.999996154785,0|8,3:3|2:2,0:0:0:0:
259,116,22332,1,2,2:3:0:0:
259,116,22490,2,0,P|287:147|376:166,1,125.999996154785,0|8,3:3|2:2,0:0:0:0:
449,115,22963,1,2,2:3:0:0:
363,23,23121,6,0,L|350:88,1,62.9999980773926,0|0,3:3|0:0,0:0:0:0:
259,116,23437,2,0,L|246:51,1,62.9999980773926,8|2,2:2|2:3,0:0:0:0:
154,37,23753,2,0,L|90:43,1,62.9999980773926,0|2,3:3|2:3,0:0:0:0:
8,127,24069,2,0,L|72:133,1,62.9999980773926,12|10,2:2|2:2,0:0:0:0:
111,137,24306,1,8,2:2:0:0:
111,137,24385,6,0,P|135:194|98:270,1,125.999996154785,4|8,3:2|2:2,0:0:0:0:
36,324,24858,1,2,2:3:0:0:
36,324,25016,2,0,P|80:312|158:333,1,125.999996154785,0|8,3:3|2:2,0:0:0:0:
250,360,25490,2,0,P|241:319|251:289,1,62.9999980773926,2|0,2:3|3:3,0:0:0:0:
314,233,25806,5,0,0:0:0:0:
387,308,25963,2,0,L|320:319,1,62.9999980773926,8|2,2:2|2:3,0:0:0:0:
464,369,26279,2,0,L|478:292,1,62.9999980773926,0|2,3:3|2:3,0:0:0:0:
418,229,26595,1,8,2:2:0:0:
418,229,26753,1,2,2:3:0:0:
492,139,26911,6,0,L|362:155,1,125.999996154785,0|8,3:3|2:2,0:0:0:0:
269,97,27385,1,2,2:3:0:0:
269,97,27542,2,0,P|283:141|259:217,1,125.999996154785,0|8,3:3|2:2,0:0:0:0:
165,261,28016,1,2,2:3:0:0:
119,175,28174,6,0,P|164:163|203:170,1,62.9999980773926,0|0,3:3|0:0,0:0:0:0:
109,80,28490,2,0,P|64:92|25:85,1,62.9999980773926,8|2,2:2|2:3,0:0:0:0:
13,171,28806,2,0,L|22:237,1,62.9999980773926,0|2,3:3|2:3,0:0:0:0:
97,320,29121,2,0,L|106:254,1,62.9999980773926,8|2,2:2|2:3,0:0:0:0:
179,163,29437,6,0,P|210:187|303:176,1,125.999996154785,0|8,3:3|2:2,0:0:0:0:
387,110,29911,2,0,P|374:148|390:193,1,62.9999980773926,2|0,2:3|3:3,0:0:0:0:
459,222,30227,2,0,P|469:187|458:144,1,62.9999980773926,2|8,2:3|2:2,0:0:0:0:
313,253,30542,2,0,P|343:263|374:260,1,62.9999980773926,2|0,2:3|3:3,0:0:0:0:
462,313,30858,6,0,L|473:376,1,62.9999980773926,2|8,2:3|2:2,0:0:0:0:
363,322,31174,2,0,L|374:260,1,62.9999980773926,2|0,2:3|3:3,0:0:0:0:
249,352,31490,1,2,2:3:0:0:
249,352,31648,1,8,2:2:0:0:
153,278,31806,1,2,2:3:0:0:
48,349,31963,6,0,P|69:304|35:232,1,125.999996154785,0|12,3:3|2:2,0:0:0:0:
6,154,32437,1,0,3:0:0:0:
6,154,32516,1,8,2:2:0:0:
6,154,32595,2,0,P|43:153|76:135,1,62.9999980773926,8|0,3:2|3:3,0:0:0:0:
125,66,32911,1,0,3:3:0:0:
125,66,33069,1,0,3:3:0:0:
203,117,33227,6,0,L|195:208,1,62.9999980773926,0|0,3:3|3:3,0:0:0:0:
293,97,33542,2,0,L|285:6,1,62.9999980773926,0|0,3:3|3:3,0:0:0:0:
383,139,33858,1,0,3:3:0:0:
383,139,34016,1,0,3:3:0:0:
470,89,34174,1,0,3:3:0:0:
470,89,34332,1,0,3:3:0:0:
475,188,34490,6,0,P|453:232|465:308,1,105.000004005432,6|2,3:2|2:2,0:0:0:0:
398,353,34963,1,0,3:3:0:0:
398,353,35121,2,0,P|365:330|303:330,1,105.000004005432,10|2,2:2|2:2,0:0:0:0:
205,360,35595,1,8,2:2:0:0:
225,269,35753,2,0,P|220:227|193:190,2,78.7500030040742,2|0|0,3:2|3:3|3:3,0:0:0:0:
137,293,36385,2,0,L|24:287,1,105.000004005432,10|2,2:2|2:2,0:0:0:0:
88,208,36858,1,0,0:3:0:0:
35,136,37016,6,0,P|83:120|147:140,1,105.000004005432,2|2,3:2|2:2,0:0:0:0:
227,192,37490,1,0,3:3:0:0:
227,192,37648,2,0,P|213:144|243:96,1,105.000004005432,10|2,2:2|2:2,0:0:0:0:
320,68,38121,1,8,2:2:0:0:
405,96,38279,2,0,P|410:63|394:17,2,78.7500030040742,2|0|0,3:2|3:3|3:3,0:0:0:0:
416,178,38911,2,0,L|481:190,1,52.5000020027161,10|0,2:2|3:3,0:0:0:0:
462,269,39227,2,0,L|448:322,1,52.5000020027161,10|8,3:3|2:2,0:0:0:0:
423,323,39463,1,8,2:2:0:0:
423,323,39542,6,0,B|360:304|359:366|266:332,1,140,4|8,3:2|2:2,0:0:0:0:
191,315,40016,1,0,3:3:0:0:
191,315,40095,1,8,3:3:0:0:
191,315,40174,2,0,P|204:277|196:236,1,70,8|8,3:3|3:3,0:0:0:0:
126,178,40490,1,8,2:2:0:0:
217,119,40648,1,8,3:3:0:0:
217,119,40806,6,0,P|255:132|300:123,1,70,8|0,3:3|3:3,0:0:0:0:
363,45,41121,2,0,L|373:114,1,70,8|0,2:2|3:3,0:0:0:0:
420,196,41437,1,8,3:3:0:0:
510,162,41595,1,8,3:3:0:0:
510,162,41753,2,0,L|498:92,1,70,8|0,2:2|3:3,0:0:0:0:
490,261,42069,5,12,3:2:0:0:
490,261,42148,1,8,2:2:0:0:
490,261,42227,2,0,L|498:307,2,35,8|8|0,2:2|2:2|3:2,0:0:0:0:
402,308,42542,1,8,2:2:0:0:
312,265,42700,2,0,L|304:312,2,35,8|8|8,2:2|2:2|2:2,0:0:0:0:
219,310,43016,1,8,2:2:0:0:
219,310,43174,1,8,2:2:0:0:
43,77,44595,6,0,L|132:90,1,83.9999974365235,4|0,3:2|0:0,0:0:0:0:
230,69,44911,2,0,P|206:101|190:169,1,83.9999974365235,8|2,2:2|2:3,0:0:0:0:
146,246,45227,2,0,P|121:201|76:174,1,83.9999974365235,0|2,3:3|2:3,0:0:0:0:
34,333,45542,2,0,L|124:320,1,83.9999974365235,8|2,2:2|2:3,0:0:0:0:
226,292,45858,6,0,L|309:304,1,83.9999974365235,0|2,3:3|2:3,0:0:0:0:
415,354,46174,2,0,P|397:302|414:243,1,83.9999974365235,8|2,2:2|2:3,0:0:0:0:
413,233,46411,1,0,3:3:0:0:
413,233,46490,1,0,3:3:0:0:
488,175,46648,1,2,2:3:0:0:
421,117,46806,2,0,L|337:104,1,83.9999974365235,8|2,2:2|2:3,0:0:0:0:
244,41,47121,6,0,P|258:112|180:162,1,167.999994873047,0|8,3:3|2:2,0:0:0:0:
104,114,47595,2,0,L|94:212,1,83.9999974365235,2|0,2:3|3:3,0:0:0:0:
97,243,47832,1,8,2:2:0:0:
97,243,47911,1,2,2:3:0:0:
41,318,48069,2,0,P|97:337|135:319,1,83.9999974365235,8|2,2:2|2:3,0:0:0:0:
199,260,48385,6,0,B|268:238|268:312|377:276,1,167.999994873047,0|8,3:3|2:2,0:0:0:0:
423,195,48858,1,2,2:3:0:0:
493,268,49016,2,0,L|497:310,2,41.9999987182618,0|8|2,3:3|2:2|3:3,0:0:0:0:
423,195,49332,2,0,L|413:90,1,83.9999974365235,8|2,2:2|3:3,0:0:0:0:
411,68,49569,1,0,3:3:0:0:
411,68,49648,6,0,L|301:52,1,83.9999974365235,4|0,3:2|0:0,0:0:0:0:
227,24,49963,2,0,P|249:62|246:108,1,83.9999974365235,8|2,2:2|2:3,0:0:0:0:
92,98,50279,2,0,P|162:82|187:103,1,83.9999974365235,0|2,3:3|2:3,0:0:0:0:
161,241,50595,2,0,L|147:157,1,83.9999974365235,8|2,2:2|2:3,0:0:0:0:
54,216,50911,6,0,L|43:326,1,83.9999974365235,0|2,3:3|2:3,0:0:0:0:
133,336,51227,2,0,P|184:344|220:330,1,83.9999974365235,8|2,2:2|2:3,0:0:0:0:
252,317,51463,1,0,3:3:0:0:
252,317,51542,1,0,3:3:0:0:
344,360,51700,1,2,2:3:0:0:
416,297,51858,2,0,P|415:248|380:206,1,83.9999974365235,8|2,2:2|2:3,0:0:0:0:
300,146,52174,6,0,P|353:182|457:164,1,167.999994873047,0|8,3:3|2:2,0:0:0:0:
449,59,52648,2,0,P|397:77|377:118,1,83.9999974365235,2|0,2:3|3:3,0:0:0:0:
301,147,52963,1,2,2:3:0:0:
215,102,53121,2,0,L|201:7,1,83.9999974365235,12|0,2:2|0:0,0:0:0:0:
14,74,53437,6,0,P|58:64|104:84,1,83.9999974365235,0|8,3:3|2:2,0:0:0:0:
124,113,53674,1,8,2:2:0:0:
124,113,53753,1,8,3:2:0:0:
112,198,53911,2,0,L|119:239,2,41.9999987182618,8|8|8,2:2|2:2|3:2,0:0:0:0:
17,258,54227,2,0,L|24:217,2,41.9999987182618,8|8|8,2:2|2:2|3:2,0:0:0:0:
29,352,54542,1,8,2:2:0:0:
29,352,54621,1,8,2:2:0:0:
29,352,54700,6,0,P|87:339|131:352,1,83.9999974365235,4|0,3:2|0:0,0:0:0:0:
224,372,55016,2,0,L|235:280,1,83.9999974365235,8|2,2:2|2:3,0:0:0:0:
348,187,55332,2,0,P|291:205|235:190,1,83.9999974365235,0|2,3:3|2:3,0:0:0:0:
220,96,55648,2,0,P|267:96|299:133,1,83.9999974365235,8|2,2:2|2:3,0:0:0:0:
395,114,55963,6,0,L|383:6,1,83.9999974365235,0|2,3:3|2:3,0:0:0:0:
490,100,56279,2,0,L|475:198,1,83.9999974365235,8|2,2:2|2:3,0:0:0:0:
473,225,56516,1,0,3:3:0:0:
473,225,56595,1,0,3:3:0:0:
487,331,56753,1,2,2:3:0:0:
393,287,56911,2,0,P|357:281|312:316,1,83.9999974365235,8|2,2:2|2:3,0:0:0:0:
202,360,57227,6,0,P|241:312|220:210,1,167.999994873047,0|8,3:3|2:2,0:0:0:0:
129,139,57700,2,0,P|106:172|112:236,1,83.9999974365235,2|0,2:3|3:3,0:0:0:0:
117,250,57937,1,8,2:2:0:0:
117,250,58016,1,2,2:3:0:0:
223,213,58174,2,0,L|323:199,1,83.9999974365235,8|2,2:2|2:3,0:0:0:0:
415,106,58490,6,0,L|396:206,1,83.9999974365235,0|2,3:3|2:3,0:0:0:0:
458,319,58806,2,0,P|421:286|361:283,1,83.9999974365235,8|2,2:2|2:3,0:0:0:0:
281,303,59121,2,0,L|277:354,2,41.9999987182618,0|8|2,3:3|2:2|2:3,0:0:0:0:
223,213,59437,2,0,L|238:104,1,83.9999974365235,8|2,2:2|3:3,0:0:0:0:
241,96,59674,1,0,3:3:0:0:
241,96,59753,6,0,P|192:115|128:103,1,83.9999974365235,4|2,3:2|0:3,0:0:0:0:
56,115,60069,1,8,2:2:0:0:
56,115,60227,2,0,P|74:164|40:275,1,167.999994873047,2|2,2:3|2:3,0:0:0:0:
169,346,60700,1,8,2:2:0:0:
169,346,60858,6,0,P|229:324|331:351,1,167.999994873047,2|2,2:3|0:3,0:0:0:0:
412,286,61332,1,8,2:2:0:0:
322,237,61490,2,0,P|317:189|333:157,1,83.9999974365235,2|0,2:3|3:3,0:0:0:0:
356,134,61727,1,8,2:2:0:0:
356,134,61806,1,2,2:3:0:0:
453,74,61963,1,8,2:2:0:0:
351,37,62121,1,2,2:3:0:0:
351,37,62279,6,0,L|259:32,1,83.9999974365235,0|2,3:0|2:3,0:0:0:0:
185,119,62595,1,8,2:2:0:0:
185,119,62753,2,0,L|174:21,2,83.9999974365235,2|0|2,2:3|3:3|2:3,0:0:0:0:
133,189,63227,1,8,2:2:0:0:
133,189,63385,2,0,P|174:205|215:200,1,83.9999974365235,2|0,2:3|3:3,0:0:0:0:
305,153,63700,5,2,0:3:0:0:
307,257,63858,2,0,P|296:302|314:347,1,83.9999974365235,12|0,2:2|3:0,0:0:0:0:
405,362,64174,1,8,2:2:0:0:
490,301,64332,1,8,2:2:0:0:
490,301,64490,1,8,2:2:0:0:
403,251,64648,1,8,2:2:0:0:
471,193,64806,6,0,L|478:115,2,77.0000023498536,12|0|0,2:2|0:0|3:3,0:0:0:0:
381,149,65279,2,0,L|388:71,2,77.0000023498536,8|0|0,2:2|3:3|3:3,0:0:0:0:
290,123,65753,2,0,P|247:134|195:121,1,77.0000023498536,8|0,2:2|0:0,0:0:0:0:
87,28,66069,6,0,P|129:45|144:87,2,77.0000023498536,0|0|0,3:3|3:3|3:3,0:0:0:0:
74,123,66542,2,0,P|32:140|17:182,2,77.0000023498536,8|0|0,2:2|3:3|3:3,0:0:0:0:
125,200,67016,2,0,L|136:284,1,77.0000023498536,8|0,2:2|3:3,0:0:0:0:
140,307,67253,1,0,3:3:0:0:
140,307,67332,6,0,L|51:297,2,77.0000023498536,0|0|0,3:3|0:0|3:3,0:0:0:0:
213,218,67806,2,0,L|302:208,2,77.0000023498536,8|0|0,2:2|3:3|3:3,0:0:0:0:
274,302,68279,2,0,L|285:385,1,77.0000023498536,8|0,2:2|3:3,0:0:0:0:
388,320,68595,6,0,P|430:325|471:313,2,77.0000023498536,0|0|0,3:3|3:3|3:3,0:0:0:0:
364,206,69069,2,0,P|322:201|281:213,2,77.0000023498536,8|0|0,2:2|3:3|3:3,0:0:0:0:
450,242,69542,2,0,P|459:196|451:152,1,77.0000023498536,8|0,2:2|3:0,0:0:0:0:
451,135,69779,1,0,3:3:0:0:
451,135,69858,6,0,P|427:88|434:46,1,77.0000023498536,4|0,3:2|0:0,0:0:0:0:
350,26,70174,1,0,3:3:0:0:
350,26,70332,2,0,P|306:31|269:18,1,77.0000023498536,8|0,2:2|3:3,0:0:0:0:
191,33,70648,1,0,3:3:0:0:
191,33,70806,2,0,P|202:74|190:124,1,77.0000023498536,8|0,2:2|0:0,0:0:0:0:
117,143,71121,6,0,L|30:135,2,77.0000023498536,0|0|0,3:3|2:2|3:3,0:0:0:0:
176,224,71595,2,0,L|263:232,2,77.0000023498536,8|0|0,2:2|3:3|3:3,0:0:0:0:
79,252,72069,2,0,L|89:358,1,77.0000023498536,8|0,2:2|3:0,0:0:0:0:
90,359,72306,1,0,3:0:0:0:
90,359,72385,6,0,P|134:340|192:354,1,77.0000023498536,0|0,3:3|3:3,0:0:0:0:
253,373,72700,1,0,3:3:0:0:
253,373,72858,2,0,L|265:292,1,77.0000023498536,8|0,2:2|3:3,0:0:0:0:
348,233,73174,1,0,3:3:0:0:
348,233,73332,2,0,L|362:328,1,77.0000023498536,8|0,2:2|0:0,0:0:0:0:
450,225,73648,6,0,L|461:116,2,77.0000023498536,0|0|0,3:3|0:0|3:3,0:0:0:0:
359,147,74121,2,0,L|351:70,2,77.0000023498536,8|0|0,2:2|3:3|3:3,0:0:0:0:
267,178,74595,2,0,P|208:174|189:151,1,77.0000023498536,8|0,2:2|0:0,0:0:0:0:
118,76,74911,6,0,L|107:162,1,83.9999974365235,12|0,2:2|3:3,0:0:0:0:
103,193,75148,1,8,2:2:0:0:
103,193,75227,1,0,3:3:0:0:
25,294,75385,2,0,P|96:275|124:286,1,83.9999974365235,8|0,2:2|3:3,0:0:0:0:
166,355,75700,1,0,3:3:0:0:
166,355,75858,2,0,L|71:358,1,83.9999974365235,8|0,2:2|3:3,0:0:0:0:
246,265,76174,6,0,L|253:359,1,83.9999974365235,8|0,2:2|3:3,0:0:0:0:
352,345,76490,1,0,3:3:0:0:
352,345,76648,2,0,P|391:322|449:325,1,83.9999974365235,8|0,2:2|3:3,0:0:0:0:
411,227,76963,1,0,3:3:0:0:
411,227,77121,2,0,P|372:240|321:229,1,83.9999974365235,8|0,2:2|3:3,0:0:0:0:
241,86,77437,6,0,P|279:125|277:168,1,83.9999974365235,12|0,2:2|3:3,0:0:0:0:
267,183,77674,1,8,2:2:0:0:
267,183,77753,1,0,3:3:0:0:
159,141,77911,2,0,L|60:153,1,83.9999974365235,8|0,2:2|3:3,0:0:0:0:
30,65,78227,1,0,3:3:0:0:
30,65,78385,2,0,L|117:55,1,83.9999974365235,8|0,2:2|3:3,0:0:0:0:
250,23,78700,6,0,L|238:112,1,83.9999974365235,8|0,2:2|3:3,0:0:0:0:
342,154,79016,1,0,3:3:0:0:
342,154,79174,2,0,L|330:65,1,83.9999974365235,8|0,2:2|3:3,0:0:0:0:
409,41,79490,1,0,3:3:0:0:
409,41,79648,2,0,P|456:58|497:48,1,83.9999974365235,8|0,2:2|0:0,0:0:0:0:
501,141,79963,6,0,P|450:161|417:213,1,83.9999974365235,12|0,3:2|3:3,0:0:0:0:
426,215,80200,1,8,2:2:0:0:
426,215,80279,1,0,3:3:0:0:
482,338,80437,2,0,P|434:297|383:294,1,83.9999974365235,12|0,2:2|3:3,0:0:0:0:
381,295,80674,1,8,2:2:0:0:
381,295,80753,1,0,3:3:0:0:
287,354,80911,2,0,L|293:253,1,83.9999974365235,12|0,2:2|3:0,0:0:0:0:
201,240,81227,5,0,3:3:0:0:
120,292,81385,2,0,P|76:299|34:287,1,83.9999974365235,12|0,2:2|3:3,0:0:0:0:
22,259,81621,1,8,2:2:0:0:
22,259,81700,1,0,3:3:0:0:
103,192,81858,2,0,P|114:145|101:110,1,83.9999974365235,12|0,2:2|3:0,0:0:0:0:
18,71,82174,2,0,L|26:30,2,41.9999987182618,8|0|0,2:2|3:3|3:3,0:0:0:0:
102,112,82490,6,0,P|147:124|215:96,1,83.9999974365235,4|0,3:2|0:0,0:0:0:0:
211,98,82727,1,0,3:0:0:0:
211,98,82806,1,0,3:3:0:0:
308,26,82963,2,0,P|302:70|318:114,1,83.9999974365235,12|0,2:2|3:0,0:0:0:0:
337,131,83200,1,8,0:0:0:0:
337,131,83279,1,0,3:2:0:0:
264,218,83437,2,0,P|208:207|162:220,1,83.9999974365235,12|0,2:2|3:0,0:0:0:0:
126,287,83753,1,0,3:3:0:0:
225,378,83911,6,0,L|216:292,1,83.9999974365235,12|0,2:2|3:3,0:0:0:0:
264,218,84227,1,8,2:2:0:0:
339,264,84385,2,0,P|380:271|420:260,1,83.9999974365235,4|8,3:2|2:2,0:0:0:0:
480,193,84700,1,8,2:2:0:0:
480,193,84857,1,8,2:2:0:0:
