osu file format v14

[General]
AudioFilename: audio.mp3
AudioLeadIn: 0
PreviewTime: 155000
Countdown: 0
SampleSet: Normal
StackLeniency: 0.7
Mode: 1
LetterboxInBreaks: 0
WidescreenStoryboard: 1

[Editor]
DistanceSpacing: 0.9
BeatDivisor: 12
GridSize: 32
TimelineZoom: 1.7

[Metadata]
Title:Ano Band
TitleUnicode:あのバンド
Artist:kessoku band
ArtistUnicode:結束バンド
Creator:Joltzzz
Version:Guitarhero
Source:ぼっち・ざ・ろっく!
Tags:gaston_2199 japanese rock jrock j-rock that band bocchi the rock 後藤ひとり Hitori Gotou Gotoh Hitoribocchi Bocchi-chan Bocchichan 青山吉能 Aoyama Yoshino 伊地知虹夏 Ijichi Nijika 鈴代紗弓 Suzushiro Sayumi 山田リョウ Yamada Ryou 水野朔 Mizuno Saku 喜多郁代 Kita Ikuyo 長谷川育美 Hasegawa Ikumi anime animation
BeatmapID:3985590
BeatmapSetID:1929001

[Difficulty]
HPDrainRate:6
CircleSize:2
OverallDifficulty:7
ApproachRate:10
SliderMultiplier:1.4
SliderTickRate:1

[Events]
//Background and Video events
0,0,"bg.jpg",0,0
//Break Periods
//Storyboard Layer 0 (Background)
//Storyboard Layer 1 (Fail)
//Storyboard Layer 2 (Pass)
//Storyboard Layer 3 (Foreground)
//Storyboard Layer 4 (Overlay)
//Storyboard Sound Samples

[TimingPoints]
422,315.789473684211,4,1,0,60,1,0
1685,-100,4,1,0,70,0,0
6737,-83.3333333333333,4,1,0,70,0,0
7053,-100,4,1,0,70,0,0
10527,-83.3333333333333,4,1,0,70,0,0
10843,-95.2380952380952,4,1,0,70,0,0
10922,-94.3396226415094,4,1,0,70,0,0
11000,-93.4579439252336,4,1,0,70,0,0
11079,-92.5925925925926,4,1,0,70,0,0
11158,-91.743119266055,4,1,0,70,0,0
11237,-90.9090909090909,4,1,0,70,0,0
11316,-90.0900900900901,4,1,0,70,0,0
11395,-89.2857142857143,4,1,0,70,0,0
11474,-88.4955752212389,4,1,0,70,0,0
11553,-87.719298245614,4,1,0,70,0,0
11632,-86.9565217391304,4,1,0,70,0,0
11711,-86.2068965517241,4,1,0,70,0,0
11790,-85.4700854700855,4,1,0,70,0,0
12106,-117.647058823529,4,1,0,70,0,0
13685,-117.647058823529,4,1,0,60,0,0
13843,-111.111111111111,4,1,0,60,0,0
14000,-105.263157894737,4,1,0,60,0,0
14316,-100,4,1,0,80,0,0
32316,-83.3333333333333,4,1,0,60,0,0
32553,-93.4579439252336,4,1,0,60,0,0
32632,-94.3396226415094,4,1,0,60,0,0
32790,-95.2380952380952,4,1,0,60,0,0
32869,-96.1538461538461,4,1,0,60,0,0
32948,-97.0873786407767,4,1,0,60,0,0
33106,-98.0392156862745,4,1,0,60,0,0
33185,-99.009900990099,4,1,0,60,0,0
33264,-100,4,1,0,60,0,0
33422,-101.010101010101,4,1,0,60,0,0
33500,-102.040816326531,4,1,0,60,0,0
33579,-103.092783505155,4,1,0,60,0,0
33737,-104.166666666667,4,1,0,60,0,0
33895,-105.263157894737,4,1,0,60,0,0
34053,-106.382978723404,4,1,0,60,0,0
34211,-107.52688172043,4,1,0,60,0,0
34369,-108.695652173913,4,1,0,60,0,0
34527,-109.89010989011,4,1,0,70,0,0
34843,-111.111111111111,4,1,0,70,0,0
38790,-109.89010989011,4,1,0,70,0,0
38869,-108.695652173913,4,1,0,70,0,0
38948,-107.52688172043,4,1,0,70,0,0
39106,-106.382978723404,4,1,0,70,0,0
39264,-105.263157894737,4,1,0,70,0,0
39343,-104.166666666667,4,1,0,70,0,0
39422,-103.092783505155,4,1,0,70,0,0
39500,-102.040816326531,4,1,0,80,0,0
39579,-101.010101010101,4,1,0,80,0,0
39895,-100,4,1,0,80,0,0
42106,-83.3333333333333,4,1,0,80,0,0
42264,-100,4,1,0,80,0,0
42343,-99.009900990099,4,1,0,80,0,0
42422,-98.0392156862745,4,1,0,80,0,0
42579,-97.0873786407767,4,1,0,80,0,0
42658,-96.1538461538461,4,1,0,80,0,0
42737,-95.2380952380952,4,1,0,80,0,0
42816,-94.3396226415094,4,1,0,80,0,0
42895,-93.4579439252336,4,1,0,80,0,0
42974,-92.5925925925926,4,1,0,80,0,0
43053,-91.743119266055,4,1,0,80,0,0
43132,-90.9090909090909,4,1,0,80,0,0
43211,-90.0900900900901,4,1,0,80,0,0
43369,-100,4,1,0,80,0,0
44632,-90.9090909090909,4,1,0,90,0,1
53158,-76.9230769230769,4,1,0,90,0,1
53474,-90.9090909090909,4,1,0,90,0,1
53553,-90.0900900900901,4,1,0,90,0,1
53632,-89.2857142857143,4,1,0,90,0,1
53711,-88.4955752212389,4,1,0,90,0,1
53790,-87.719298245614,4,1,0,90,0,1
53869,-86.9565217391304,4,1,0,90,0,1
53948,-86.2068965517241,4,1,0,90,0,1
54027,-85.4700854700855,4,1,0,90,0,1
54106,-84.7457627118644,4,1,0,90,0,1
54185,-84.0336134453781,4,1,0,90,0,1
54264,-83.3333333333333,4,1,0,90,0,1
54343,-82.6446280991736,4,1,0,90,0,1
54422,-81.9672131147541,4,1,0,90,0,1
54500,-81.3008130081301,4,1,0,90,0,1
54579,-80.6451612903226,4,1,0,90,0,1
54658,-80,4,1,0,90,0,1
54737,-79.3650793650794,4,1,0,90,0,1
55053,-90.9090909090909,4,1,0,90,0,1
63737,-91.743119266055,4,1,0,90,0,1
63816,-92.5925925925926,4,1,0,90,0,1
63895,-93.4579439252336,4,1,0,90,0,1
64053,-94.3396226415094,4,1,0,90,0,1
64132,-95.2380952380952,4,1,0,90,0,1
64211,-96.1538461538461,4,1,0,90,0,1
64369,-97.0873786407767,4,1,0,90,0,1
64527,-98.0392156862745,4,1,0,90,0,1
64685,-99.009900990099,4,1,0,90,0,1
64843,-100,4,1,0,60,0,0
74000,-99.009900990099,4,1,0,60,0,0
74079,-98.0392156862745,4,1,0,60,0,0
74158,-97.0873786407767,4,1,0,60,0,0
74237,-96.1538461538461,4,1,0,60,0,0
74316,-95.2380952380952,4,1,0,60,0,0
74395,-94.3396226415094,4,1,0,60,0,0
74474,-93.4579439252336,4,1,0,60,0,0
74553,-92.5925925925926,4,1,0,60,0,0
74632,-91.743119266055,4,1,0,60,0,0
74711,-90.9090909090909,4,1,0,60,0,0
74790,-90.0900900900901,4,1,0,60,0,0
74869,-89.2857142857143,4,1,0,60,0,0
74948,-88.4955752212389,4,1,0,60,0,0
75264,-100,4,1,0,60,0,0
75579,-105.263157894737,4,1,0,60,0,0
75895,-111.111111111111,4,1,0,60,0,0
82843,-109.89010989011,4,1,0,60,0,0
83000,-108.695652173913,4,1,0,60,0,0
83158,-107.52688172043,4,1,0,60,0,0
83316,-106.382978723404,4,1,0,60,0,0
83474,-105.263157894737,4,1,0,60,0,0
83632,-104.166666666667,4,1,0,60,0,0
83790,-103.092783505155,4,1,0,60,0,0
83948,-102.040816326531,4,1,0,60,0,0
84106,-101.010101010101,4,1,0,60,0,0
84264,-100,4,1,0,60,0,0
85053,-83.3333333333333,4,1,0,80,0,0
85369,-100,4,1,0,80,0,0
92632,-90.9090909090909,4,1,0,80,0,0
92948,-100,4,1,0,80,0,0
93737,-99.009900990099,4,1,0,80,0,0
93816,-98.0392156862745,4,1,0,80,0,0
93895,-97.0873786407767,4,1,0,80,0,0
93974,-96.1538461538461,4,1,0,80,0,0
94053,-95.2380952380952,4,1,0,80,0,0
94132,-94.3396226415094,4,1,0,80,0,0
94211,-93.4579439252336,4,1,0,80,0,0
94290,-92.5925925925926,4,1,0,80,0,0
94369,-91.743119266055,4,1,0,80,0,0
94448,-90.9090909090909,4,1,0,80,0,0
94527,-90.0900900900901,4,1,0,80,0,0
94606,-89.2857142857143,4,1,0,80,0,0
94685,-88.4955752212389,4,1,0,80,0,0
94764,-87.719298245614,4,1,0,80,0,0
94843,-86.9565217391304,4,1,0,80,0,0
94922,-86.2068965517241,4,1,0,80,0,0
95000,-85.4700854700855,4,1,0,80,0,0
95079,-84.7457627118644,4,1,0,80,0,0
95158,-84.0336134453781,4,1,0,90,0,1
95474,-90.9090909090909,4,1,0,90,0,1
103685,-76.9230769230769,4,1,0,90,0,1
104000,-90.9090909090909,4,1,0,90,0,1
104079,-90.0900900900901,4,1,0,90,0,1
104158,-89.2857142857143,4,1,0,90,0,1
104237,-88.4955752212389,4,1,0,90,0,1
104316,-87.719298245614,4,1,0,90,0,1
104395,-86.9565217391304,4,1,0,90,0,1
104474,-86.2068965517241,4,1,0,90,0,1
104553,-85.4700854700855,4,1,0,90,0,1
104632,-84.7457627118644,4,1,0,90,0,1
104711,-84.0336134453781,4,1,0,90,0,1
104790,-83.3333333333333,4,1,0,90,0,1
104869,-82.6446280991736,4,1,0,90,0,1
104948,-81.9672131147541,4,1,0,90,0,1
105027,-81.3008130081301,4,1,0,90,0,1
105106,-80.6451612903226,4,1,0,90,0,1
105185,-80,4,1,0,90,0,1
105264,-79.3650793650794,4,1,0,90,0,1
105579,-90.9090909090909,4,1,0,90,0,1
113948,-90.0900900900901,4,1,0,90,0,1
114027,-89.2857142857143,4,1,0,90,0,1
114106,-88.4955752212389,4,1,0,90,0,1
114264,-87.719298245614,4,1,0,90,0,1
114343,-86.9565217391304,4,1,0,90,0,1
114422,-86.2068965517241,4,1,0,90,0,1
114579,-85.4700854700855,4,1,0,90,0,1
114737,-84.7457627118644,4,1,0,90,0,1
114895,-84.0336134453781,4,1,0,90,0,1
115053,-83.3333333333333,4,1,0,90,0,1
115369,-76.9230769230769,4,1,0,70,0,0
115527,-78.125,4,1,0,70,0,0
115685,-79.3650793650794,4,1,0,70,0,0
115843,-80.6451612903226,4,1,0,70,0,0
116000,-81.9672131147541,4,1,0,70,0,0
116158,-83.3333333333333,4,1,0,70,0,0
116316,-84.7457627118644,4,1,0,70,0,0
116474,-86.2068965517241,4,1,0,70,0,0
116553,-87.719298245614,4,1,0,70,0,0
116632,-89.2857142857143,4,1,0,70,0,0
116790,-90.9090909090909,4,1,0,70,0,0
116948,-92.5925925925926,4,1,0,70,0,0
117106,-94.3396226415094,4,1,0,70,0,0
117264,-96.1538461538461,4,1,0,70,0,0
117422,-98.0392156862745,4,1,0,70,0,0
117579,-100,4,1,0,70,0,0
117737,-102.040816326531,4,1,0,70,0,0
117816,-104.166666666667,4,1,0,70,0,0
117895,-106.382978723404,4,1,0,70,0,0
118053,-108.695652173913,4,1,0,70,0,0
118211,-111.111111111111,4,1,0,70,0,0
122632,-100,4,1,0,70,0,0
122948,-90.9090909090909,4,1,0,70,0,0
123106,-100,4,1,0,70,0,0
124211,-95.2380952380952,4,1,0,70,0,0
124290,-94.3396226415094,4,1,0,70,0,0
124369,-93.4579439252336,4,1,0,70,0,0
124448,-92.5925925925926,4,1,0,70,0,0
124527,-91.743119266055,4,1,0,70,0,0
124606,-90.9090909090909,4,1,0,70,0,0
124685,-90.0900900900901,4,1,0,70,0,0
124764,-89.2857142857143,4,1,0,70,0,0
124843,-88.4955752212389,4,1,0,70,0,0
124922,-87.719298245614,4,1,0,70,0,0
125000,-86.9565217391304,4,1,0,70,0,0
125079,-86.2068965517241,4,1,0,70,0,0
125158,-85.4700854700855,4,1,0,70,0,0
125237,-84.7457627118644,4,1,0,70,0,0
125316,-84.0336134453781,4,1,0,70,0,0
125395,-83.3333333333333,4,1,0,70,0,0
125474,-82.6446280991736,4,1,0,80,0,0
125790,-90.9090909090909,4,1,0,80,0,0
133053,-76.9230769230769,4,1,0,80,0,0
133211,-90.9090909090909,4,1,0,80,0,0
133685,-90.0900900900901,4,1,0,80,0,0
133764,-89.2857142857143,4,1,0,80,0,0
133843,-88.4955752212389,4,1,0,80,0,0
133922,-87.719298245614,4,1,0,80,0,0
134000,-86.9565217391304,4,1,0,80,0,0
134079,-86.2068965517241,4,1,0,80,0,0
134158,-85.4700854700855,4,1,0,80,0,0
134237,-84.7457627118644,4,1,0,80,0,0
134316,-84.0336134453781,4,1,0,80,0,0
134632,-90.9090909090909,4,1,0,80,0,0
135579,-100,4,1,0,80,0,0
145685,-90.9090909090909,4,1,0,80,0,0
153816,-91.743119266055,4,1,0,80,0,0
153895,-92.5925925925926,4,1,0,80,0,0
153974,-93.4579439252336,4,1,0,80,0,0
154053,-94.3396226415094,4,1,0,80,0,0
154132,-95.2380952380952,4,1,0,80,0,0
154211,-96.1538461538461,4,1,0,80,0,0
154290,-97.0873786407767,4,1,0,80,0,0
154369,-98.0392156862745,4,1,0,80,0,0
154448,-99.009900990099,4,1,0,80,0,0
154527,-100,4,1,0,80,0,0
155790,-111.111111111111,4,1,0,60,0,0
160843,-111.111111111111,4,1,0,70,0,0
164632,-105.263157894737,4,1,0,80,0,0
164869,-100,4,1,0,80,0,0
165106,-95.2380952380952,4,1,0,80,0,0
165264,-94.3396226415094,4,1,0,80,0,0
165343,-93.4579439252336,4,1,0,80,0,0
165422,-92.5925925925926,4,1,0,80,0,0
165500,-91.743119266055,4,1,0,80,0,0
165579,-90.9090909090909,4,1,0,80,0,0
165895,-83.3333333333333,4,1,0,90,0,1
166211,-90.9090909090909,4,1,0,90,0,1
174737,-90.0900900900901,4,1,0,90,0,1
174816,-89.2857142857143,4,1,0,90,0,1
174895,-88.4955752212389,4,1,0,90,0,1
174974,-87.719298245614,4,1,0,90,0,1
175053,-86.9565217391304,4,1,0,90,0,1
175132,-86.2068965517241,4,1,0,90,0,1
175211,-85.4700854700855,4,1,0,90,0,1
175290,-84.7457627118644,4,1,0,90,0,1
175369,-84.0336134453781,4,1,0,90,0,1
175448,-83.3333333333333,4,1,0,90,0,1
175527,-82.6446280991736,4,1,0,90,0,1
175606,-81.9672131147541,4,1,0,90,0,1
175685,-81.3008130081301,4,1,0,90,0,1
175764,-80.6451612903226,4,1,0,90,0,1
175843,-80,4,1,0,90,0,1
175922,-79.3650793650794,4,1,0,90,0,1
176000,-78.7401574803149,4,1,0,90,0,1
176316,-90.9090909090909,4,1,0,90,0,1
185000,-91.743119266055,4,1,0,90,0,1
185079,-92.5925925925926,4,1,0,90,0,1
185158,-93.4579439252336,4,1,0,90,0,1
185316,-94.3396226415094,4,1,0,90,0,1
185395,-95.2380952380952,4,1,0,90,0,1
185474,-96.1538461538461,4,1,0,90,0,1
185632,-97.0873786407767,4,1,0,90,0,1
185790,-98.0392156862745,4,1,0,90,0,1
185948,-99.009900990099,4,1,0,90,0,1
186106,-100,4,1,0,80,0,0
196211,-83.3333333333333,4,1,0,80,0,0
196369,-90.9090909090909,4,1,0,80,0,0
198737,-76.9230769230769,4,1,0,80,0,0
198895,-90.9090909090909,4,1,0,80,0,0
201264,-76.9230769230769,4,1,0,80,0,0
201422,-90.9090909090909,4,1,0,80,0,0
203790,-76.9230769230769,4,1,0,80,0,0
203948,-90.9090909090909,4,1,0,80,0,0
205685,-76.9230769230769,4,1,0,80,0,0

[HitObjects]
256,192,422,5,8,0:0:0:0:
256,192,737,1,8,0:0:0:0:
256,192,1053,1,8,0:0:0:0:
256,192,1369,1,8,0:0:0:0:
256,192,1685,1,4,0:0:0:0:
256,192,2000,1,0,0:0:0:0:
256,192,2079,1,0,0:0:0:0:
256,192,2158,1,8,0:0:0:0:
256,192,2237,1,8,0:0:0:0:
256,192,2316,1,0,0:0:0:0:
256,192,2474,1,0,0:0:0:0:
256,192,2632,1,8,0:0:0:0:
256,192,2790,1,0,0:0:0:0:
256,192,2948,1,0,0:0:0:0:
256,192,3106,1,0,0:0:0:0:
256,192,3185,1,0,0:0:0:0:
256,192,3264,1,0,0:0:0:0:
256,192,3422,1,8,0:0:0:0:
256,192,3500,1,8,0:0:0:0:
256,192,3579,1,0,0:0:0:0:
256,192,3658,1,0,0:0:0:0:
256,192,3737,1,0,0:0:0:0:
256,192,3895,1,8,0:0:0:0:
256,192,4053,1,8,0:0:0:0:
256,192,4211,1,0,0:0:0:0:
256,192,4369,1,0,0:0:0:0:
256,192,4448,1,0,0:0:0:0:
256,192,4527,1,0,0:0:0:0:
256,192,4685,1,8,0:0:0:0:
256,192,4843,1,0,0:0:0:0:
256,192,4922,1,0,0:0:0:0:
256,192,5000,1,0,0:0:0:0:
256,192,5079,1,0,0:0:0:0:
256,192,5158,1,8,0:0:0:0:
256,192,5316,1,0,0:0:0:0:
256,192,5474,1,0,0:0:0:0:
256,192,5632,1,0,0:0:0:0:
256,192,5711,1,0,0:0:0:0:
256,192,5790,1,0,0:0:0:0:
256,192,5948,1,8,0:0:0:0:
256,192,6027,1,8,0:0:0:0:
256,192,6106,1,0,0:0:0:0:
256,192,6185,1,0,0:0:0:0:
256,192,6264,1,0,0:0:0:0:
256,192,6422,1,8,0:0:0:0:
256,192,6579,1,8,0:0:0:0:
256,192,6737,1,4,0:0:0:0:
256,192,7053,1,0,0:0:0:0:
256,192,7132,1,0,0:0:0:0:
256,192,7211,1,8,0:0:0:0:
256,192,7290,1,8,0:0:0:0:
256,192,7369,1,0,0:0:0:0:
256,192,7527,1,0,0:0:0:0:
256,192,7685,1,8,0:0:0:0:
256,192,7843,1,8,0:0:0:0:
256,192,8000,1,0,0:0:0:0:
256,192,8158,1,0,0:0:0:0:
256,192,8237,1,0,0:0:0:0:
256,192,8316,1,0,0:0:0:0:
256,192,8474,1,8,0:0:0:0:
256,192,8632,1,0,0:0:0:0:
256,192,8711,1,0,0:0:0:0:
256,192,8790,1,0,0:0:0:0:
256,192,8869,1,0,0:0:0:0:
256,192,8948,1,8,0:0:0:0:
256,192,9106,1,8,0:0:0:0:
256,192,9264,1,0,0:0:0:0:
256,192,9422,1,0,0:0:0:0:
256,192,9500,1,0,0:0:0:0:
256,192,9579,1,0,0:0:0:0:
256,192,9737,1,8,0:0:0:0:
256,192,9895,1,0,0:0:0:0:
256,192,10053,1,0,0:0:0:0:
256,192,10132,1,0,0:0:0:0:
256,192,10211,1,8,0:0:0:0:
256,192,10290,1,8,0:0:0:0:
256,192,10369,1,0,0:0:0:0:
256,192,10527,1,12,0:0:0:0:
256,192,10843,1,8,0:0:0:0:
256,192,10922,1,0,0:0:0:0:
256,192,11000,1,8,0:0:0:0:
256,192,11079,1,0,0:0:0:0:
256,192,11158,1,8,0:0:0:0:
256,192,11237,1,8,0:0:0:0:
256,192,11316,1,0,0:0:0:0:
256,192,11395,1,0,0:0:0:0:
256,192,11474,1,8,0:0:0:0:
256,192,11553,1,8,0:0:0:0:
256,192,11632,1,8,0:0:0:0:
256,192,11711,1,8,0:0:0:0:
256,192,11790,1,0,0:0:0:0:
256,192,13843,1,0,0:0:0:0:
256,192,14000,1,8,0:0:0:0:
256,192,14316,1,4,0:0:0:0:
256,192,14632,1,8,0:0:0:0:
256,192,14790,1,8,0:0:0:0:
256,192,14869,1,8,0:0:0:0:
256,192,14948,1,0,0:0:0:0:
256,192,15106,1,0,0:0:0:0:
256,192,15264,1,8,0:0:0:0:
256,192,15422,1,8,0:0:0:0:
256,192,15579,1,0,0:0:0:0:
256,192,15737,1,0,0:0:0:0:
256,192,15895,1,8,0:0:0:0:
256,192,16053,1,0,0:0:0:0:
256,192,16132,1,8,0:0:0:0:
256,192,16211,1,0,0:0:0:0:
256,192,16369,1,0,0:0:0:0:
256,192,16448,1,0,0:0:0:0:
256,192,16527,1,8,0:0:0:0:
256,192,16685,1,8,0:0:0:0:
256,192,16843,1,0,0:0:0:0:
256,192,17158,1,8,0:0:0:0:
256,192,17316,1,8,0:0:0:0:
256,192,17395,1,8,0:0:0:0:
256,192,17474,1,0,0:0:0:0:
256,192,17632,1,0,0:0:0:0:
256,192,17711,1,0,0:0:0:0:
256,192,17790,1,8,0:0:0:0:
256,192,17948,1,8,0:0:0:0:
256,192,18106,1,0,0:0:0:0:
256,192,18185,1,0,0:0:0:0:
256,192,18264,1,0,0:0:0:0:
256,192,18343,1,0,0:0:0:0:
256,192,18422,1,8,0:0:0:0:
256,192,18579,1,8,0:0:0:0:
256,192,18737,1,0,0:0:0:0:
256,192,18895,1,0,0:0:0:0:
256,192,19053,1,8,0:0:0:0:
256,192,19369,1,0,0:0:0:0:
256,192,19685,1,8,0:0:0:0:
256,192,19843,1,8,0:0:0:0:
256,192,19922,1,8,0:0:0:0:
256,192,20000,1,0,0:0:0:0:
256,192,20158,1,0,0:0:0:0:
256,192,20316,1,8,0:0:0:0:
256,192,20395,1,0,0:0:0:0:
256,192,20474,1,8,0:0:0:0:
256,192,20632,1,0,0:0:0:0:
256,192,20948,1,8,0:0:0:0:
256,192,21027,1,0,0:0:0:0:
256,192,21106,1,8,0:0:0:0:
256,192,21185,1,8,0:0:0:0:
256,192,21264,1,0,0:0:0:0:
256,192,21422,1,0,0:0:0:0:
256,192,21579,1,8,0:0:0:0:
256,192,21737,1,8,0:0:0:0:
256,192,21816,1,8,0:0:0:0:
256,192,21895,1,0,0:0:0:0:
256,192,22211,1,8,0:0:0:0:
256,192,22369,1,8,0:0:0:0:
256,192,22448,1,8,0:0:0:0:
256,192,22527,1,0,0:0:0:0:
256,192,22685,1,0,0:0:0:0:
256,192,22764,1,0,0:0:0:0:
256,192,22843,1,8,0:0:0:0:
256,192,23000,1,8,0:0:0:0:
256,192,23158,1,0,0:0:0:0:
256,192,23316,1,0,0:0:0:0:
256,192,23474,1,8,0:0:0:0:
256,192,23553,1,8,0:0:0:0:
256,192,23632,1,8,0:0:0:0:
256,192,23711,1,8,0:0:0:0:
256,192,23790,1,0,0:0:0:0:
256,192,23948,1,0,0:0:0:0:
256,192,24027,1,0,0:0:0:0:
256,192,24106,1,8,0:0:0:0:
256,192,24264,1,8,0:0:0:0:
256,192,24343,1,8,0:0:0:0:
256,192,24422,1,4,0:0:0:0:
256,192,24737,1,8,0:0:0:0:
256,192,24895,1,8,0:0:0:0:
256,192,24974,1,8,0:0:0:0:
256,192,25053,1,0,0:0:0:0:
256,192,25211,1,0,0:0:0:0:
256,192,25290,1,0,0:0:0:0:
256,192,25369,1,8,0:0:0:0:
256,192,25527,1,8,0:0:0:0:
256,192,25685,1,0,0:0:0:0:
256,192,25843,1,0,0:0:0:0:
256,192,26000,1,8,0:0:0:0:
256,192,26158,1,0,0:0:0:0:
256,192,26237,1,8,0:0:0:0:
256,192,26316,1,0,0:0:0:0:
256,192,26474,1,0,0:0:0:0:
256,192,26632,1,8,0:0:0:0:
256,192,26790,1,8,0:0:0:0:
256,192,26869,1,8,0:0:0:0:
256,192,26948,1,0,0:0:0:0:
256,192,27106,1,0,0:0:0:0:
256,192,27264,1,8,0:0:0:0:
256,192,27343,1,0,0:0:0:0:
256,192,27422,1,8,0:0:0:0:
256,192,27500,1,8,0:0:0:0:
256,192,27579,1,0,0:0:0:0:
256,192,27737,1,0,0:0:0:0:
256,192,27895,1,8,0:0:0:0:
256,192,28053,1,8,0:0:0:0:
256,192,28132,1,8,0:0:0:0:
256,192,28211,1,0,0:0:0:0:
256,192,28369,1,0,0:0:0:0:
256,192,28527,1,8,0:0:0:0:
256,192,28606,1,0,0:0:0:0:
256,192,28685,1,0,0:0:0:0:
256,192,28843,1,8,0:0:0:0:
256,192,29000,1,0,0:0:0:0:
256,192,29079,1,0,0:0:0:0:
256,192,29158,1,8,0:0:0:0:
256,192,29237,1,8,0:0:0:0:
256,192,29316,1,0,0:0:0:0:
256,192,29474,1,0,0:0:0:0:
256,192,29632,1,0,0:0:0:0:
256,192,29790,1,8,0:0:0:0:
256,192,29948,1,0,0:0:0:0:
256,192,30106,1,0,0:0:0:0:
256,192,30185,1,0,0:0:0:0:
256,192,30264,1,0,0:0:0:0:
256,192,30422,1,8,0:0:0:0:
256,192,30579,1,8,0:0:0:0:
256,192,30658,1,8,0:0:0:0:
256,192,30737,1,0,0:0:0:0:
256,192,30895,1,0,0:0:0:0:
256,192,30974,1,0,0:0:0:0:
256,192,31053,1,8,0:0:0:0:
256,192,31211,1,8,0:0:0:0:
256,192,31369,1,0,0:0:0:0:
256,192,31448,1,8,0:0:0:0:
256,192,31527,1,0,0:0:0:0:
256,192,31685,1,8,0:0:0:0:
256,192,31843,1,8,0:0:0:0:
256,192,31922,1,8,0:0:0:0:
256,192,32000,1,0,0:0:0:0:
256,192,32158,1,0,0:0:0:0:
256,192,32316,1,12,0:0:0:0:
256,192,32553,1,0,0:0:0:0:
256,192,32632,1,8,0:0:0:0:
256,192,32790,1,0,0:0:0:0:
256,192,32869,1,0,0:0:0:0:
256,192,32948,1,8,0:0:0:0:
256,192,33106,1,8,0:0:0:0:
256,192,33185,1,0,0:0:0:0:
256,192,33264,1,0,0:0:0:0:
256,192,33422,1,0,0:0:0:0:
256,192,33500,1,0,0:0:0:0:
256,192,33579,1,8,0:0:0:0:
256,192,33737,1,8,0:0:0:0:
256,192,33895,1,8,0:0:0:0:
256,192,34053,1,0,0:0:0:0:
256,192,34211,1,8,0:0:0:0:
256,192,34369,1,8,0:0:0:0:
256,192,34527,1,4,0:0:0:0:
256,192,34843,1,0,0:0:0:0:
256,192,35000,1,0,0:0:0:0:
256,192,35079,1,0,0:0:0:0:
256,192,35158,1,8,0:0:0:0:
256,192,35474,1,0,0:0:0:0:
256,192,35632,1,8,0:0:0:0:
256,192,35711,1,8,0:0:0:0:
256,192,35790,1,0,0:0:0:0:
256,192,36027,1,0,0:0:0:0:
256,192,36264,1,0,0:0:0:0:
256,192,36422,1,8,0:0:0:0:
256,192,36500,1,0,0:0:0:0:
256,192,36579,1,0,0:0:0:0:
256,192,36658,1,0,0:0:0:0:
256,192,36737,1,8,0:0:0:0:
256,192,36895,1,8,0:0:0:0:
256,192,37053,1,0,0:0:0:0:
256,192,37369,1,0,0:0:0:0:
256,192,37527,1,0,0:0:0:0:
256,192,37606,1,0,0:0:0:0:
256,192,37685,1,8,0:0:0:0:
256,192,38000,1,0,0:0:0:0:
256,192,38158,1,8,0:0:0:0:
256,192,38237,1,8,0:0:0:0:
256,192,38316,1,0,0:0:0:0:
256,192,38553,1,0,0:0:0:0:
256,192,38790,1,0,0:0:0:0:
256,192,38869,1,0,0:0:0:0:
256,192,38948,1,8,0:0:0:0:
256,192,39106,1,0,0:0:0:0:
256,192,39264,1,0,0:0:0:0:
256,192,39343,1,0,0:0:0:0:
256,192,39422,1,8,0:0:0:0:
256,192,39500,1,8,0:0:0:0:
256,192,39579,1,4,0:0:0:0:
256,192,39895,1,8,0:0:0:0:
256,192,40053,1,0,0:0:0:0:
256,192,40132,1,0,0:0:0:0:
256,192,40211,1,0,0:0:0:0:
256,192,40369,1,0,0:0:0:0:
256,192,40448,1,0,0:0:0:0:
256,192,40527,1,8,0:0:0:0:
256,192,40685,1,0,0:0:0:0:
256,192,40843,1,0,0:0:0:0:
256,192,41000,1,0,0:0:0:0:
256,192,41079,1,0,0:0:0:0:
256,192,41158,1,8,0:0:0:0:
256,192,41316,1,0,0:0:0:0:
256,192,41395,1,0,0:0:0:0:
256,192,41474,1,0,0:0:0:0:
256,192,41632,1,0,0:0:0:0:
256,192,41790,1,8,0:0:0:0:
256,192,42106,1,4,0:0:0:0:
256,192,42264,1,8,0:0:0:0:
256,192,42343,1,8,0:0:0:0:
256,192,42422,1,8,0:0:0:0:
256,192,42579,1,8,0:0:0:0:
256,192,42658,1,0,0:0:0:0:
256,192,42737,1,8,0:0:0:0:
256,192,42816,1,8,0:0:0:0:
256,192,42895,1,0,0:0:0:0:
256,192,42974,1,0,0:0:0:0:
256,192,43053,1,8,0:0:0:0:
256,192,43132,1,0,0:0:0:0:
256,192,43211,1,8,0:0:0:0:
256,192,44632,5,4,0:0:0:0:
256,192,44948,1,8,0:0:0:0:
256,192,45106,1,8,0:0:0:0:
256,192,45185,1,8,0:0:0:0:
256,192,45264,1,0,0:0:0:0:
256,192,45422,1,0,0:0:0:0:
256,192,45579,1,8,0:0:0:0:
256,192,45658,1,8,0:0:0:0:
256,192,45737,1,0,0:0:0:0:
256,192,45816,1,8,0:0:0:0:
256,192,45895,1,0,0:0:0:0:
256,192,46053,1,0,0:0:0:0:
256,192,46211,1,8,0:0:0:0:
256,192,46369,1,0,0:0:0:0:
256,192,46448,1,0,0:0:0:0:
256,192,46527,1,8,0:0:0:0:
256,192,46606,1,8,0:0:0:0:
256,192,46685,1,0,0:0:0:0:
256,192,46843,1,8,0:0:0:0:
256,192,47000,1,8,0:0:0:0:
256,192,47079,1,8,0:0:0:0:
256,192,47158,1,0,0:0:0:0:
256,192,47316,1,0,0:0:0:0:
256,192,47474,1,8,0:0:0:0:
256,192,47553,1,0,0:0:0:0:
256,192,47632,1,8,0:0:0:0:
256,192,47711,1,8,0:0:0:0:
256,192,47790,1,0,0:0:0:0:
256,192,47948,1,0,0:0:0:0:
256,192,48106,1,8,0:0:0:0:
256,192,48264,1,8,0:0:0:0:
256,192,48343,1,8,0:0:0:0:
256,192,48422,1,0,0:0:0:0:
256,192,48579,1,0,0:0:0:0:
256,192,48737,1,8,0:0:0:0:
256,192,48895,1,0,0:0:0:0:
256,192,48974,1,8,0:0:0:0:
256,192,49053,1,0,0:0:0:0:
256,192,49211,1,0,0:0:0:0:
256,192,49290,1,0,0:0:0:0:
256,192,49369,1,8,0:0:0:0:
256,192,49448,1,8,0:0:0:0:
256,192,49527,1,8,0:0:0:0:
256,192,49606,1,8,0:0:0:0:
256,192,49685,1,4,0:0:0:0:
256,192,50000,1,8,0:0:0:0:
256,192,50158,1,0,0:0:0:0:
256,192,50237,1,0,0:0:0:0:
256,192,50316,1,0,0:0:0:0:
256,192,50395,1,8,0:0:0:0:
256,192,50474,1,0,0:0:0:0:
256,192,50632,1,8,0:0:0:0:
256,192,50711,1,0,0:0:0:0:
256,192,50790,1,8,0:0:0:0:
256,192,50948,1,0,0:0:0:0:
256,192,51106,1,0,0:0:0:0:
256,192,51185,1,0,0:0:0:0:
256,192,51264,1,8,0:0:0:0:
256,192,51422,1,8,0:0:0:0:
256,192,51500,1,8,0:0:0:0:
256,192,51579,1,0,0:0:0:0:
256,192,51737,1,0,0:0:0:0:
256,192,51895,1,8,0:0:0:0:
256,192,51974,1,0,0:0:0:0:
256,192,52053,1,8,0:0:0:0:
256,192,52132,1,8,0:0:0:0:
256,192,52211,1,0,0:0:0:0:
256,192,52369,1,0,0:0:0:0:
256,192,52527,1,8,0:0:0:0:
256,192,52606,1,0,0:0:0:0:
256,192,52685,1,8,0:0:0:0:
256,192,52843,1,0,0:0:0:0:
256,192,52922,1,0,0:0:0:0:
256,192,53000,1,0,0:0:0:0:
256,192,53079,1,0,0:0:0:0:
256,192,53158,1,12,0:0:0:0:
256,192,53474,1,0,0:0:0:0:
256,192,53553,1,0,0:0:0:0:
256,192,53632,1,8,0:0:0:0:
256,192,53711,1,8,0:0:0:0:
256,192,53790,1,0,0:0:0:0:
256,192,53869,1,0,0:0:0:0:
256,192,53948,1,8,0:0:0:0:
256,192,54027,1,8,0:0:0:0:
256,192,54106,1,0,0:0:0:0:
256,192,54185,1,0,0:0:0:0:
256,192,54264,1,8,0:0:0:0:
256,192,54343,1,8,0:0:0:0:
256,192,54422,1,8,0:0:0:0:
256,192,54500,1,8,0:0:0:0:
256,192,54579,1,8,0:0:0:0:
256,192,54658,1,8,0:0:0:0:
256,192,54737,1,4,0:0:0:0:
256,192,55053,1,8,0:0:0:0:
256,192,55211,1,8,0:0:0:0:
256,192,55290,1,8,0:0:0:0:
256,192,55369,1,0,0:0:0:0:
256,192,55527,1,0,0:0:0:0:
256,192,55606,1,0,0:0:0:0:
256,192,55685,1,8,0:0:0:0:
256,192,55843,1,8,0:0:0:0:
256,192,56000,1,0,0:0:0:0:
256,192,56079,1,0,0:0:0:0:
256,192,56158,1,0,0:0:0:0:
256,192,56237,1,0,0:0:0:0:
256,192,56316,1,8,0:0:0:0:
256,192,56474,1,8,0:0:0:0:
256,192,56553,1,8,0:0:0:0:
256,192,56632,1,0,0:0:0:0:
256,192,56711,1,0,0:0:0:0:
256,192,56790,1,0,0:0:0:0:
256,192,56948,1,8,0:0:0:0:
256,192,57106,1,0,0:0:0:0:
256,192,57185,1,0,0:0:0:0:
256,192,57264,1,8,0:0:0:0:
256,192,57422,1,0,0:0:0:0:
256,192,57579,1,8,0:0:0:0:
256,192,57658,1,0,0:0:0:0:
256,192,57737,1,8,0:0:0:0:
256,192,57816,1,8,0:0:0:0:
256,192,57895,1,0,0:0:0:0:
256,192,58053,1,0,0:0:0:0:
256,192,58211,1,8,0:0:0:0:
256,192,58290,1,8,0:0:0:0:
256,192,58369,1,8,0:0:0:0:
256,192,58448,1,8,0:0:0:0:
256,192,58527,1,0,0:0:0:0:
256,192,58685,1,0,0:0:0:0:
256,192,58843,1,8,0:0:0:0:
256,192,59000,1,0,0:0:0:0:
256,192,59079,1,8,0:0:0:0:
256,192,59158,1,0,0:0:0:0:
256,192,59316,1,0,0:0:0:0:
256,192,59395,1,0,0:0:0:0:
256,192,59474,1,8,0:0:0:0:
256,192,59553,1,8,0:0:0:0:
256,192,59632,1,8,0:0:0:0:
256,192,59711,1,8,0:0:0:0:
256,192,59790,1,4,0:0:0:0:
256,192,60106,1,8,0:0:0:0:
256,192,60264,1,8,0:0:0:0:
256,192,60343,1,0,0:0:0:0:
256,192,60422,1,0,0:0:0:0:
256,192,60579,1,0,0:0:0:0:
256,192,60658,1,0,0:0:0:0:
256,192,60737,1,8,0:0:0:0:
256,192,60816,1,0,0:0:0:0:
256,192,60895,1,8,0:0:0:0:
256,192,61053,1,0,0:0:0:0:
256,192,61211,1,0,0:0:0:0:
256,192,61369,1,8,0:0:0:0:
256,192,61448,1,8,0:0:0:0:
256,192,61527,1,0,0:0:0:0:
256,192,61606,1,8,0:0:0:0:
256,192,61685,1,0,0:0:0:0:
256,192,61843,1,0,0:0:0:0:
256,192,62000,1,8,0:0:0:0:
256,192,62158,1,8,0:0:0:0:
256,192,62237,1,8,0:0:0:0:
256,192,62316,1,0,0:0:0:0:
256,192,62474,1,0,0:0:0:0:
256,192,62632,1,8,0:0:0:0:
256,192,62711,1,0,0:0:0:0:
256,192,62790,1,8,0:0:0:0:
256,192,62869,1,8,0:0:0:0:
256,192,62948,1,0,0:0:0:0:
256,192,63106,1,0,0:0:0:0:
256,192,63264,1,8,0:0:0:0:
256,192,63422,1,8,0:0:0:0:
256,192,63500,1,8,0:0:0:0:
256,192,63579,1,0,0:0:0:0:
256,192,63737,1,0,0:0:0:0:
256,192,63816,1,0,0:0:0:0:
256,192,63895,1,8,0:0:0:0:
256,192,64053,1,0,0:0:0:0:
256,192,64132,1,8,0:0:0:0:
256,192,64211,1,0,0:0:0:0:
256,192,64369,1,0,0:0:0:0:
256,192,64527,1,8,0:0:0:0:
256,192,64685,1,8,0:0:0:0:
256,192,64843,1,4,0:0:0:0:
256,192,65158,1,0,0:0:0:0:
256,192,65316,1,8,0:0:0:0:
256,192,65474,1,0,0:0:0:0:
256,192,65632,1,0,0:0:0:0:
256,192,65711,1,0,0:0:0:0:
256,192,65790,1,8,0:0:0:0:
256,192,65948,1,0,0:0:0:0:
256,192,66106,1,0,0:0:0:0:
256,192,66264,1,0,0:0:0:0:
256,192,66343,1,0,0:0:0:0:
256,192,66422,1,0,0:0:0:0:
256,192,66579,1,8,0:0:0:0:
256,192,66737,1,0,0:0:0:0:
256,192,66895,1,0,0:0:0:0:
256,192,66974,1,0,0:0:0:0:
256,192,67053,1,8,0:0:0:0:
256,192,67211,1,0,0:0:0:0:
256,192,67369,1,0,0:0:0:0:
256,192,67685,1,0,0:0:0:0:
256,192,67843,1,8,0:0:0:0:
256,192,67922,1,8,0:0:0:0:
256,192,68000,1,0,0:0:0:0:
256,192,68158,1,0,0:0:0:0:
256,192,68316,1,8,0:0:0:0:
256,192,68474,1,0,0:0:0:0:
256,192,68553,1,0,0:0:0:0:
256,192,68632,1,0,0:0:0:0:
256,192,68948,1,0,0:0:0:0:
256,192,69106,1,8,0:0:0:0:
256,192,69264,1,0,0:0:0:0:
256,192,69343,1,0,0:0:0:0:
256,192,69422,1,0,0:0:0:0:
256,192,69579,1,8,0:0:0:0:
256,192,69658,1,0,0:0:0:0:
256,192,69737,1,0,0:0:0:0:
256,192,69816,1,0,0:0:0:0:
256,192,69895,1,12,0:0:0:0:
256,192,70211,1,0,0:0:0:0:
256,192,70369,1,8,0:0:0:0:
256,192,70448,1,0,0:0:0:0:
256,192,70527,1,0,0:0:0:0:
256,192,70685,1,0,0:0:0:0:
256,192,70843,1,8,0:0:0:0:
256,192,71000,1,0,0:0:0:0:
256,192,71079,1,0,0:0:0:0:
256,192,71158,1,0,0:0:0:0:
256,192,71316,1,0,0:0:0:0:
256,192,71474,1,0,0:0:0:0:
256,192,71553,1,0,0:0:0:0:
256,192,71632,1,8,0:0:0:0:
256,192,71790,1,0,0:0:0:0:
256,192,71948,1,0,0:0:0:0:
256,192,72106,1,8,0:0:0:0:
256,192,72264,1,0,0:0:0:0:
256,192,72343,1,0,0:0:0:0:
256,192,72422,1,0,0:0:0:0:
256,192,72737,1,0,0:0:0:0:
256,192,72895,1,8,0:0:0:0:
256,192,72974,1,0,0:0:0:0:
256,192,73053,1,0,0:0:0:0:
256,192,73211,1,0,0:0:0:0:
256,192,73290,1,0,0:0:0:0:
256,192,73369,1,8,0:0:0:0:
256,192,73448,1,0,0:0:0:0:
256,192,73527,1,0,0:0:0:0:
256,192,73606,1,0,0:0:0:0:
256,192,73685,1,12,0:0:0:0:
256,192,74000,1,8,0:0:0:0:
256,192,74079,1,8,0:0:0:0:
256,192,74158,1,8,0:0:0:0:
256,192,74237,1,0,0:0:0:0:
256,192,74316,1,8,0:0:0:0:
256,192,74395,1,8,0:0:0:0:
256,192,74474,1,0,0:0:0:0:
256,192,74553,1,0,0:0:0:0:
256,192,74632,1,8,0:0:0:0:
256,192,74711,1,8,0:0:0:0:
256,192,74790,1,8,0:0:0:0:
256,192,74869,1,8,0:0:0:0:
256,192,74948,1,4,0:0:0:0:
256,192,75264,1,0,0:0:0:0:
256,192,75579,1,0,0:0:0:0:
256,192,75895,1,0,0:0:0:0:
256,192,76053,1,8,0:0:0:0:
256,192,76211,1,0,0:0:0:0:
256,192,76369,1,0,0:0:0:0:
256,192,76527,1,8,0:0:0:0:
256,192,76843,1,0,0:0:0:0:
256,192,77000,1,8,0:0:0:0:
256,192,77158,1,0,0:0:0:0:
256,192,77316,1,8,0:0:0:0:
256,192,77395,1,8,0:0:0:0:
256,192,77474,1,4,0:0:0:0:
256,192,77790,1,0,0:0:0:0:
256,192,77948,1,8,0:0:0:0:
256,192,78027,1,0,0:0:0:0:
256,192,78106,1,8,0:0:0:0:
256,192,78422,1,0,0:0:0:0:
256,192,78579,1,8,0:0:0:0:
256,192,78658,1,8,0:0:0:0:
256,192,78737,1,0,0:0:0:0:
256,192,79053,1,0,0:0:0:0:
256,192,79211,1,8,0:0:0:0:
256,192,79369,1,0,0:0:0:0:
256,192,79448,1,0,0:0:0:0:
256,192,79527,1,8,0:0:0:0:
256,192,79685,1,0,0:0:0:0:
256,192,79764,1,0,0:0:0:0:
256,192,79843,1,0,0:0:0:0:
256,192,79922,1,0,0:0:0:0:
256,192,80000,1,12,0:0:0:0:
256,192,80316,1,0,0:0:0:0:
256,192,80632,1,8,0:0:0:0:
256,192,80790,1,0,0:0:0:0:
256,192,80948,1,0,0:0:0:0:
256,192,81106,1,8,0:0:0:0:
256,192,81264,1,0,0:0:0:0:
256,192,81579,1,8,0:0:0:0:
256,192,81895,1,0,0:0:0:0:
256,192,82053,1,8,0:0:0:0:
256,192,82211,1,0,0:0:0:0:
256,192,82369,1,8,0:0:0:0:
256,192,82448,1,8,0:0:0:0:
256,192,82527,1,4,0:0:0:0:
256,192,82843,1,0,0:0:0:0:
256,192,83000,1,0,0:0:0:0:
256,192,83158,1,8,0:0:0:0:
256,192,83316,1,0,0:0:0:0:
256,192,83474,1,8,0:0:0:0:
256,192,83632,1,0,0:0:0:0:
256,192,83790,1,8,0:0:0:0:
256,192,83948,1,0,0:0:0:0:
256,192,84106,1,0,0:0:0:0:
256,192,84264,1,8,0:0:0:0:
256,192,85053,1,4,0:0:0:0:
256,192,85369,1,8,0:0:0:0:
256,192,85527,1,8,0:0:0:0:
256,192,85685,1,0,0:0:0:0:
256,192,85764,1,0,0:0:0:0:
256,192,85843,1,0,0:0:0:0:
256,192,85922,1,0,0:0:0:0:
256,192,86000,1,8,0:0:0:0:
256,192,86158,1,8,0:0:0:0:
256,192,86237,1,8,0:0:0:0:
256,192,86316,1,0,0:0:0:0:
256,192,86474,1,0,0:0:0:0:
256,192,86632,1,8,0:0:0:0:
256,192,86790,1,8,0:0:0:0:
256,192,86869,1,8,0:0:0:0:
256,192,86948,1,0,0:0:0:0:
256,192,87106,1,0,0:0:0:0:
256,192,87264,1,8,0:0:0:0:
256,192,87343,1,8,0:0:0:0:
256,192,87422,1,8,0:0:0:0:
256,192,87500,1,8,0:0:0:0:
256,192,87579,1,0,0:0:0:0:
256,192,87895,1,8,0:0:0:0:
256,192,88053,1,0,0:0:0:0:
256,192,88132,1,0,0:0:0:0:
256,192,88211,1,8,0:0:0:0:
256,192,88290,1,8,0:0:0:0:
256,192,88369,1,0,0:0:0:0:
256,192,88527,1,8,0:0:0:0:
256,192,88685,1,8,0:0:0:0:
256,192,88764,1,0,0:0:0:0:
256,192,88843,1,8,0:0:0:0:
256,192,88922,1,0,0:0:0:0:
256,192,89000,1,0,0:0:0:0:
256,192,89158,1,8,0:0:0:0:
256,192,89237,1,0,0:0:0:0:
256,192,89316,1,0,0:0:0:0:
256,192,89395,1,0,0:0:0:0:
256,192,89474,1,8,0:0:0:0:
256,192,89632,1,0,0:0:0:0:
256,192,89790,1,8,0:0:0:0:
256,192,89869,1,0,0:0:0:0:
256,192,89948,1,8,0:0:0:0:
256,192,90027,1,8,0:0:0:0:
256,192,90106,1,4,0:0:0:0:
256,192,90422,1,8,0:0:0:0:
256,192,90579,1,8,0:0:0:0:
256,192,90658,1,8,0:0:0:0:
256,192,90737,1,0,0:0:0:0:
256,192,90895,1,0,0:0:0:0:
256,192,90974,1,0,0:0:0:0:
256,192,91053,1,8,0:0:0:0:
256,192,91211,1,8,0:0:0:0:
256,192,91369,1,0,0:0:0:0:
256,192,91448,1,8,0:0:0:0:
256,192,91527,1,0,0:0:0:0:
256,192,91685,1,8,0:0:0:0:
256,192,91922,1,8,0:0:0:0:
256,192,92000,1,0,0:0:0:0:
256,192,92158,1,0,0:0:0:0:
256,192,92316,1,8,0:0:0:0:
256,192,92474,1,8,0:0:0:0:
256,192,92553,1,8,0:0:0:0:
256,192,92632,1,4,0:0:0:0:
256,192,92948,1,8,0:0:0:0:
256,192,93027,1,8,0:0:0:0:
256,192,93106,1,0,0:0:0:0:
256,192,93185,1,0,0:0:0:0:
256,192,93264,1,12,0:0:0:0:
256,192,93422,1,0,0:0:0:0:
256,192,93579,1,8,0:0:0:0:
256,192,93737,1,8,0:0:0:0:
256,192,93816,1,8,0:0:0:0:
256,192,93895,1,0,0:0:0:0:
256,192,93974,1,0,0:0:0:0:
256,192,94053,1,0,0:0:0:0:
256,192,94132,1,0,0:0:0:0:
256,192,94211,1,8,0:0:0:0:
256,192,94290,1,0,0:0:0:0:
256,192,94369,1,8,0:0:0:0:
256,192,94448,1,8,0:0:0:0:
256,192,94527,1,0,0:0:0:0:
256,192,94606,1,8,0:0:0:0:
256,192,94685,1,0,0:0:0:0:
256,192,94764,1,0,0:0:0:0:
256,192,94843,1,8,0:0:0:0:
256,192,94922,1,8,0:0:0:0:
256,192,95000,1,8,0:0:0:0:
256,192,95079,1,8,0:0:0:0:
256,192,95158,5,4,0:0:0:0:
256,192,95474,1,8,0:0:0:0:
256,192,95632,1,8,0:0:0:0:
256,192,95711,1,8,0:0:0:0:
256,192,95790,1,0,0:0:0:0:
256,192,95948,1,0,0:0:0:0:
256,192,96105,1,8,0:0:0:0:
256,192,96185,1,0,0:0:0:0:
256,192,96263,1,8,0:0:0:0:
256,192,96342,1,8,0:0:0:0:
256,192,96421,1,0,0:0:0:0:
256,192,96579,1,0,0:0:0:0:
256,192,96737,1,8,0:0:0:0:
256,192,96816,1,8,0:0:0:0:
256,192,96895,1,0,0:0:0:0:
256,192,97053,1,8,0:0:0:0:
256,192,97132,1,8,0:0:0:0:
256,192,97211,1,0,0:0:0:0:
256,192,97290,1,0,0:0:0:0:
256,192,97369,1,8,0:0:0:0:
256,192,97526,1,8,0:0:0:0:
256,192,97684,1,0,0:0:0:0:
256,192,97764,1,0,0:0:0:0:
256,192,97842,1,0,0:0:0:0:
256,192,98000,1,8,0:0:0:0:
256,192,98079,1,0,0:0:0:0:
256,192,98158,1,8,0:0:0:0:
256,192,98316,1,0,0:0:0:0:
256,192,98474,1,0,0:0:0:0:
256,192,98553,1,0,0:0:0:0:
256,192,98632,1,8,0:0:0:0:
256,192,98790,1,8,0:0:0:0:
256,192,98869,1,8,0:0:0:0:
256,192,98948,1,0,0:0:0:0:
256,192,99105,1,0,0:0:0:0:
256,192,99263,1,8,0:0:0:0:
256,192,99421,1,0,0:0:0:0:
256,192,99500,1,0,0:0:0:0:
256,192,99579,1,0,0:0:0:0:
256,192,99658,1,8,0:0:0:0:
256,192,99737,1,0,0:0:0:0:
256,192,99895,1,8,0:0:0:0:
256,192,99974,1,0,0:0:0:0:
256,192,100053,1,8,0:0:0:0:
256,192,100211,1,0,0:0:0:0:
256,192,100369,1,0,0:0:0:0:
256,192,100448,1,0,0:0:0:0:
256,192,100526,1,8,0:0:0:0:
256,192,100684,1,0,0:0:0:0:
256,192,100763,1,8,0:0:0:0:
256,192,100842,1,0,0:0:0:0:
256,192,101000,1,0,0:0:0:0:
256,192,101079,1,0,0:0:0:0:
256,192,101158,1,8,0:0:0:0:
256,192,101237,1,0,0:0:0:0:
256,192,101316,1,8,0:0:0:0:
256,192,101395,1,8,0:0:0:0:
256,192,101474,1,0,0:0:0:0:
256,192,101632,1,0,0:0:0:0:
256,192,101711,1,0,0:0:0:0:
256,192,101790,1,8,0:0:0:0:
256,192,101948,1,8,0:0:0:0:
256,192,102026,1,8,0:0:0:0:
256,192,102105,1,0,0:0:0:0:
256,192,102185,1,0,0:0:0:0:
256,192,102265,1,0,0:0:0:0:
256,192,102421,1,8,0:0:0:0:
256,192,102500,1,0,0:0:0:0:
256,192,102579,1,8,0:0:0:0:
256,192,102658,1,8,0:0:0:0:
256,192,102737,1,0,0:0:0:0:
256,192,102895,1,0,0:0:0:0:
256,192,103053,1,8,0:0:0:0:
256,192,103132,1,0,0:0:0:0:
256,192,103211,1,8,0:0:0:0:
256,192,103369,1,0,0:0:0:0:
256,192,103448,1,0,0:0:0:0:
256,192,103526,1,0,0:0:0:0:
256,192,103605,1,0,0:0:0:0:
256,192,103685,1,12,0:0:0:0:
256,192,104000,1,0,0:0:0:0:
256,192,104079,1,0,0:0:0:0:
256,192,104158,1,8,0:0:0:0:
256,192,104237,1,0,0:0:0:0:
256,192,104316,1,8,0:0:0:0:
256,192,104395,1,8,0:0:0:0:
256,192,104474,1,0,0:0:0:0:
256,192,104553,1,0,0:0:0:0:
256,192,104632,1,8,0:0:0:0:
256,192,104711,1,0,0:0:0:0:
256,192,104790,1,0,0:0:0:0:
256,192,104869,1,0,0:0:0:0:
256,192,104948,1,8,0:0:0:0:
256,192,105027,1,8,0:0:0:0:
256,192,105106,1,8,0:0:0:0:
256,192,105185,1,8,0:0:0:0:
256,192,105264,1,4,0:0:0:0:
256,192,105579,1,8,0:0:0:0:
256,192,105737,1,8,0:0:0:0:
256,192,105816,1,8,0:0:0:0:
256,192,105895,1,0,0:0:0:0:
256,192,106053,1,0,0:0:0:0:
256,192,106132,1,0,0:0:0:0:
256,192,106211,1,8,0:0:0:0:
256,192,106369,1,8,0:0:0:0:
256,192,106526,1,0,0:0:0:0:
256,192,106684,1,0,0:0:0:0:
256,192,106763,1,0,0:0:0:0:
256,192,106842,1,8,0:0:0:0:
256,192,106922,1,8,0:0:0:0:
256,192,107000,1,0,0:0:0:0:
256,192,107158,1,0,0:0:0:0:
256,192,107316,1,0,0:0:0:0:
256,192,107395,1,0,0:0:0:0:
256,192,107474,1,8,0:0:0:0:
256,192,107553,1,0,0:0:0:0:
256,192,107632,1,8,0:0:0:0:
256,192,107790,1,0,0:0:0:0:
256,192,107948,1,0,0:0:0:0:
256,192,108105,1,8,0:0:0:0:
256,192,108184,1,0,0:0:0:0:
256,192,108263,1,8,0:0:0:0:
256,192,108342,1,8,0:0:0:0:
256,192,108421,1,0,0:0:0:0:
256,192,108579,1,0,0:0:0:0:
256,192,108737,1,8,0:0:0:0:
256,192,108895,1,8,0:0:0:0:
256,192,108974,1,8,0:0:0:0:
256,192,109053,1,0,0:0:0:0:
256,192,109132,1,0,0:0:0:0:
256,192,109211,1,0,0:0:0:0:
256,192,109369,1,8,0:0:0:0:
256,192,109526,1,0,0:0:0:0:
256,192,109605,1,8,0:0:0:0:
256,192,109684,1,0,0:0:0:0:
256,192,109842,1,0,0:0:0:0:
256,192,109921,1,0,0:0:0:0:
256,192,110000,1,8,0:0:0:0:
256,192,110079,1,0,0:0:0:0:
256,192,110158,1,8,0:0:0:0:
256,192,110237,1,8,0:0:0:0:
256,192,110316,1,4,0:0:0:0:
256,192,110632,1,8,0:0:0:0:
256,192,110790,1,8,0:0:0:0:
256,192,110869,1,0,0:0:0:0:
256,192,110948,1,0,0:0:0:0:
256,192,111105,1,0,0:0:0:0:
256,192,111184,1,0,0:0:0:0:
256,192,111263,1,8,0:0:0:0:
256,192,111342,1,0,0:0:0:0:
256,192,111421,1,8,0:0:0:0:
256,192,111579,1,0,0:0:0:0:
256,192,111737,1,0,0:0:0:0:
256,192,111895,1,8,0:0:0:0:
256,192,111974,1,8,0:0:0:0:
256,192,112053,1,0,0:0:0:0:
256,192,112132,1,8,0:0:0:0:
256,192,112211,1,0,0:0:0:0:
256,192,112369,1,0,0:0:0:0:
256,192,112526,1,8,0:0:0:0:
256,192,112684,1,8,0:0:0:0:
256,192,112763,1,8,0:0:0:0:
256,192,112842,1,0,0:0:0:0:
256,192,113000,1,0,0:0:0:0:
256,192,113158,1,8,0:0:0:0:
256,192,113237,1,0,0:0:0:0:
256,192,113316,1,8,0:0:0:0:
256,192,113395,1,8,0:0:0:0:
256,192,113474,1,0,0:0:0:0:
256,192,113632,1,0,0:0:0:0:
256,192,113790,1,8,0:0:0:0:
256,192,113948,1,8,0:0:0:0:
256,192,114027,1,8,0:0:0:0:
256,192,114106,1,0,0:0:0:0:
256,192,114264,1,0,0:0:0:0:
256,192,114343,1,0,0:0:0:0:
256,192,114422,1,8,0:0:0:0:
256,192,114579,1,8,0:0:0:0:
256,192,114737,1,8,0:0:0:0:
256,192,114895,1,8,0:0:0:0:
256,192,115053,1,4,0:0:0:0:
256,192,115369,1,12,0:0:0:0:
256,192,115527,1,0,0:0:0:0:
256,192,115685,1,0,0:0:0:0:
256,192,115843,1,8,0:0:0:0:
256,192,116000,1,0,0:0:0:0:
256,192,116158,1,0,0:0:0:0:
256,192,116316,1,8,0:0:0:0:
256,192,116474,1,0,0:0:0:0:
256,192,116553,1,0,0:0:0:0:
256,192,116632,1,8,0:0:0:0:
256,192,116790,1,0,0:0:0:0:
256,192,116948,1,0,0:0:0:0:
256,192,117106,1,8,0:0:0:0:
256,192,117264,1,0,0:0:0:0:
256,192,117422,1,0,0:0:0:0:
256,192,117579,1,8,0:0:0:0:
256,192,117737,1,0,0:0:0:0:
256,192,117816,1,0,0:0:0:0:
256,192,117895,1,8,0:0:0:0:
256,192,118053,1,0,0:0:0:0:
256,192,118211,1,0,0:0:0:0:
256,192,118369,1,8,0:0:0:0:
256,192,118527,1,0,0:0:0:0:
256,192,118685,1,0,0:0:0:0:
256,192,118843,1,8,0:0:0:0:
256,192,119000,1,0,0:0:0:0:
256,192,119079,1,0,0:0:0:0:
256,192,119158,1,8,0:0:0:0:
256,192,119316,1,0,0:0:0:0:
256,192,119474,1,0,0:0:0:0:
256,192,119632,1,8,0:0:0:0:
256,192,119790,1,0,0:0:0:0:
256,192,119948,1,0,0:0:0:0:
256,192,120106,1,8,0:0:0:0:
256,192,120264,1,8,0:0:0:0:
256,192,120343,1,8,0:0:0:0:
256,192,120422,1,0,0:0:0:0:
256,192,120579,1,0,0:0:0:0:
256,192,120737,1,0,0:0:0:0:
256,192,120895,1,8,0:0:0:0:
256,192,121053,1,0,0:0:0:0:
256,192,121211,1,0,0:0:0:0:
256,192,121290,1,0,0:0:0:0:
256,192,121369,1,8,0:0:0:0:
256,192,121527,1,0,0:0:0:0:
256,192,121685,1,8,0:0:0:0:
256,192,121843,1,0,0:0:0:0:
256,192,122000,1,0,0:0:0:0:
256,192,122158,1,8,0:0:0:0:
256,192,122316,1,0,0:0:0:0:
256,192,122474,1,0,0:0:0:0:
256,192,122553,1,0,0:0:0:0:
256,192,122632,1,12,0:0:0:0:
256,192,122948,1,4,0:0:0:0:
256,192,123106,1,8,0:0:0:0:
256,192,123264,1,0,0:0:0:0:
256,192,123422,1,8,0:0:0:0:
256,192,123579,1,0,0:0:0:0:
256,192,123737,1,0,0:0:0:0:
256,192,123816,1,0,0:0:0:0:
256,192,123895,1,12,0:0:0:0:
256,192,124211,1,8,0:0:0:0:
256,192,124290,1,0,0:0:0:0:
256,192,124369,1,0,0:0:0:0:
256,192,124448,1,0,0:0:0:0:
256,192,124527,1,8,0:0:0:0:
256,192,124606,1,8,0:0:0:0:
256,192,124685,1,8,0:0:0:0:
256,192,124764,1,8,0:0:0:0:
256,192,124843,1,0,0:0:0:0:
256,192,124922,1,0,0:0:0:0:
256,192,125000,1,8,0:0:0:0:
256,192,125079,1,0,0:0:0:0:
256,192,125158,1,8,0:0:0:0:
256,192,125237,1,8,0:0:0:0:
256,192,125316,1,0,0:0:0:0:
256,192,125395,1,0,0:0:0:0:
256,192,125474,1,12,0:0:0:0:
256,192,125790,1,8,0:0:0:0:
256,192,125948,1,8,0:0:0:0:
256,192,126027,1,8,0:0:0:0:
256,192,126106,1,0,0:0:0:0:
256,192,126185,1,0,0:0:0:0:
256,192,126264,1,0,0:0:0:0:
256,192,126422,1,8,0:0:0:0:
256,192,126737,1,0,0:0:0:0:
256,192,126895,1,0,0:0:0:0:
256,192,126974,1,0,0:0:0:0:
256,192,127053,1,8,0:0:0:0:
256,192,127211,1,8,0:0:0:0:
256,192,127290,1,0,0:0:0:0:
256,192,127369,1,0,0:0:0:0:
256,192,127448,1,8,0:0:0:0:
256,192,127527,1,0,0:0:0:0:
256,192,127685,1,8,0:0:0:0:
256,192,127843,1,0,0:0:0:0:
256,192,128000,1,4,0:0:0:0:
256,192,128316,1,8,0:0:0:0:
256,192,128474,1,0,0:0:0:0:
256,192,128553,1,8,0:0:0:0:
256,192,128632,1,0,0:0:0:0:
256,192,128790,1,0,0:0:0:0:
256,192,128869,1,0,0:0:0:0:
256,192,128948,1,8,0:0:0:0:
256,192,129027,1,0,0:0:0:0:
256,192,129106,1,8,0:0:0:0:
256,192,129185,1,8,0:0:0:0:
256,192,129264,1,0,0:0:0:0:
256,192,129422,1,0,0:0:0:0:
256,192,129579,1,8,0:0:0:0:
256,192,129737,1,0,0:0:0:0:
256,192,129816,1,8,0:0:0:0:
256,192,129895,1,0,0:0:0:0:
256,192,130053,1,0,0:0:0:0:
256,192,130132,1,0,0:0:0:0:
256,192,130211,1,8,0:0:0:0:
256,192,130290,1,8,0:0:0:0:
256,192,130369,1,8,0:0:0:0:
256,192,130448,1,8,0:0:0:0:
256,192,130527,1,4,0:0:0:0:
256,192,130843,1,8,0:0:0:0:
256,192,130922,1,0,0:0:0:0:
256,192,131000,1,0,0:0:0:0:
256,192,131079,1,0,0:0:0:0:
256,192,131158,1,8,0:0:0:0:
256,192,131237,1,0,0:0:0:0:
256,192,131316,1,0,0:0:0:0:
256,192,131395,1,0,0:0:0:0:
256,192,131474,1,8,0:0:0:0:
256,192,131553,1,8,0:0:0:0:
256,192,131632,1,0,0:0:0:0:
256,192,131711,1,0,0:0:0:0:
256,192,131790,1,8,0:0:0:0:
256,192,131869,1,8,0:0:0:0:
256,192,131948,1,0,0:0:0:0:
256,192,132027,1,0,0:0:0:0:
256,192,132106,1,8,0:0:0:0:
256,192,132185,1,0,0:0:0:0:
256,192,132264,1,0,0:0:0:0:
256,192,132343,1,0,0:0:0:0:
256,192,132422,1,8,0:0:0:0:
256,192,132500,1,8,0:0:0:0:
256,192,132579,1,0,0:0:0:0:
256,192,132658,1,0,0:0:0:0:
256,192,132737,1,8,0:0:0:0:
256,192,133053,1,4,0:0:0:0:
256,192,133211,1,0,0:0:0:0:
256,192,133290,1,0,0:0:0:0:
256,192,133369,1,8,0:0:0:0:
256,192,133527,1,0,0:0:0:0:
256,192,133685,1,8,0:0:0:0:
256,192,133764,1,8,0:0:0:0:
256,192,133843,1,0,0:0:0:0:
256,192,133922,1,0,0:0:0:0:
256,192,134000,1,8,0:0:0:0:
256,192,134079,1,0,0:0:0:0:
256,192,134158,1,0,0:0:0:0:
256,192,134237,1,0,0:0:0:0:
256,192,134316,1,12,0:0:0:0:
256,192,134632,1,8,0:0:0:0:
256,192,134790,1,8,0:0:0:0:
256,192,134948,1,0,0:0:0:0:
256,192,135027,1,0,0:0:0:0:
256,192,135106,1,8,0:0:0:0:
256,192,135185,1,8,0:0:0:0:
256,192,135264,1,8,0:0:0:0:
256,192,135579,1,12,0:0:0:0:
256,192,135843,1,8,0:0:0:0:
256,192,136093,1,0,0:0:0:0:
256,192,136369,1,0,0:0:0:0:
256,192,136527,1,12,0:0:0:0:
256,192,136790,1,8,0:0:0:0:
256,192,137040,1,0,0:0:0:0:
256,192,137290,1,0,0:0:0:0:
256,192,137474,1,8,0:0:0:0:
256,192,137632,1,8,0:0:0:0:
256,192,137790,1,0,0:0:0:0:
256,192,137948,1,0,0:0:0:0:
256,192,138027,1,0,0:0:0:0:
256,192,138106,1,12,0:0:0:0:
256,192,138369,1,0,0:0:0:0:
256,192,138619,1,8,0:0:0:0:
256,192,138915,1,0,0:0:0:0:
256,192,139053,1,12,0:0:0:0:
256,192,139316,1,8,0:0:0:0:
256,192,139586,1,0,0:0:0:0:
256,192,139843,1,0,0:0:0:0:
256,192,140000,1,8,0:0:0:0:
256,192,140079,1,0,0:0:0:0:
256,192,140158,1,0,0:0:0:0:
256,192,140237,1,0,0:0:0:0:
256,192,140316,1,12,0:0:0:0:
256,192,140632,1,4,0:0:0:0:
256,192,140895,1,0,0:0:0:0:
256,192,141145,1,8,0:0:0:0:
256,192,141461,1,0,0:0:0:0:
256,192,141606,1,12,0:0:0:0:
256,192,141869,1,0,0:0:0:0:
256,192,142106,1,8,0:0:0:0:
256,192,142369,1,0,0:0:0:0:
256,192,142527,1,12,0:0:0:0:
256,192,142685,1,8,0:0:0:0:
256,192,142764,1,0,0:0:0:0:
256,192,142843,1,0,0:0:0:0:
256,192,143000,1,0,0:0:0:0:
256,192,143158,1,12,0:0:0:0:
256,192,143422,1,8,0:0:0:0:
256,192,143672,1,0,0:0:0:0:
256,192,143948,1,0,0:0:0:0:
256,192,144106,1,12,0:0:0:0:
256,192,144369,1,0,0:0:0:0:
256,192,144639,1,8,0:0:0:0:
256,192,144895,1,0,0:0:0:0:
256,192,145053,1,8,0:0:0:0:
256,192,145132,1,0,0:0:0:0:
256,192,145211,1,0,0:0:0:0:
256,192,145290,1,0,0:0:0:0:
256,192,145369,1,12,0:0:0:0:
256,192,145685,1,0,0:0:0:0:
256,192,145764,1,0,0:0:0:0:
256,192,145843,1,8,0:0:0:0:
256,192,145922,1,8,0:0:0:0:
256,192,146000,1,8,0:0:0:0:
256,192,146079,1,0,0:0:0:0:
256,192,146158,1,8,0:0:0:0:
256,192,146237,1,0,0:0:0:0:
256,192,146316,1,0,0:0:0:0:
256,192,146395,1,8,0:0:0:0:
256,192,146474,1,0,0:0:0:0:
256,192,146553,1,0,0:0:0:0:
256,192,146632,1,8,0:0:0:0:
256,192,146711,1,8,0:0:0:0:
256,192,146790,1,0,0:0:0:0:
256,192,146869,1,0,0:0:0:0:
256,192,146948,1,8,0:0:0:0:
256,192,147027,1,0,0:0:0:0:
256,192,147106,1,0,0:0:0:0:
256,192,147185,1,8,0:0:0:0:
256,192,147264,1,0,0:0:0:0:
256,192,147343,1,0,0:0:0:0:
256,192,147422,1,8,0:0:0:0:
256,192,147500,1,0,0:0:0:0:
256,192,147579,1,0,0:0:0:0:
256,192,147658,1,8,0:0:0:0:
256,192,147737,1,0,0:0:0:0:
256,192,147816,1,0,0:0:0:0:
256,192,147895,1,8,0:0:0:0:
256,192,147974,1,8,0:0:0:0:
256,192,148053,1,0,0:0:0:0:
256,192,148132,1,0,0:0:0:0:
256,192,148211,1,8,0:0:0:0:
256,192,148290,1,0,0:0:0:0:
256,192,148369,1,0,0:0:0:0:
256,192,148448,1,8,0:0:0:0:
256,192,148527,1,0,0:0:0:0:
256,192,148606,1,0,0:0:0:0:
256,192,148685,1,8,0:0:0:0:
256,192,148764,1,8,0:0:0:0:
256,192,148843,1,0,0:0:0:0:
256,192,148922,1,8,0:0:0:0:
256,192,149000,1,0,0:0:0:0:
256,192,149079,1,0,0:0:0:0:
256,192,149158,1,8,0:0:0:0:
256,192,149237,1,0,0:0:0:0:
256,192,149316,1,8,0:0:0:0:
256,192,149395,1,8,0:0:0:0:
256,192,149474,1,0,0:0:0:0:
256,192,149553,1,0,0:0:0:0:
256,192,149632,1,8,0:0:0:0:
256,192,149711,1,0,0:0:0:0:
256,192,149790,1,8,0:0:0:0:
256,192,149869,1,8,0:0:0:0:
256,192,149948,1,0,0:0:0:0:
256,192,150027,1,0,0:0:0:0:
256,192,150106,1,8,0:0:0:0:
256,192,150185,1,0,0:0:0:0:
256,192,150264,1,8,0:0:0:0:
256,192,150343,1,8,0:0:0:0:
256,192,150422,1,0,0:0:0:0:
256,192,150500,1,8,0:0:0:0:
256,192,150579,1,8,0:0:0:0:
256,192,150658,1,8,0:0:0:0:
256,192,150737,1,4,0:0:0:0:
256,192,150895,1,8,0:0:0:0:
256,192,150974,1,8,0:0:0:0:
256,192,151053,1,0,0:0:0:0:
256,192,151132,1,0,0:0:0:0:
256,192,151211,1,8,0:0:0:0:
256,192,151290,1,8,0:0:0:0:
256,192,151369,1,8,0:0:0:0:
256,192,151448,1,0,0:0:0:0:
256,192,151527,1,0,0:0:0:0:
256,192,151606,1,8,0:0:0:0:
256,192,151685,1,0,0:0:0:0:
256,192,151764,1,0,0:0:0:0:
256,192,151843,1,8,0:0:0:0:
256,192,151922,1,8,0:0:0:0:
256,192,152000,1,0,0:0:0:0:
256,192,152079,1,0,0:0:0:0:
256,192,152158,1,8,0:0:0:0:
256,192,152237,1,8,0:0:0:0:
256,192,152316,1,0,0:0:0:0:
256,192,152395,1,8,0:0:0:0:
256,192,152474,1,0,0:0:0:0:
256,192,152553,1,0,0:0:0:0:
256,192,152632,1,8,0:0:0:0:
256,192,152711,1,0,0:0:0:0:
256,192,152790,1,8,0:0:0:0:
256,192,152869,1,8,0:0:0:0:
256,192,152948,1,0,0:0:0:0:
256,192,153027,1,8,0:0:0:0:
256,192,153106,1,8,0:0:0:0:
256,192,153185,1,8,0:0:0:0:
256,192,153264,1,4,0:0:0:0:
256,192,153422,1,0,0:0:0:0:
256,192,153500,1,0,0:0:0:0:
256,192,153579,1,8,0:0:0:0:
256,192,153658,1,8,0:0:0:0:
256,192,153737,1,8,0:0:0:0:
256,192,153816,1,0,0:0:0:0:
256,192,153895,1,8,0:0:0:0:
256,192,153974,1,8,0:0:0:0:
256,192,154053,1,0,0:0:0:0:
256,192,154132,1,0,0:0:0:0:
256,192,154211,1,8,0:0:0:0:
256,192,154290,1,8,0:0:0:0:
256,192,154369,1,0,0:0:0:0:
256,192,154448,1,0,0:0:0:0:
256,192,154527,1,0,0:0:0:0:
256,192,155790,1,0,0:0:0:0:
256,192,155948,1,8,0:0:0:0:
256,192,156106,1,0,0:0:0:0:
256,192,156264,1,8,0:0:0:0:
256,192,156422,1,0,0:0:0:0:
256,192,156579,1,8,0:0:0:0:
256,192,156737,1,0,0:0:0:0:
256,192,156895,1,8,0:0:0:0:
256,192,157053,1,0,0:0:0:0:
256,192,157211,1,0,0:0:0:0:
256,192,157369,1,8,0:0:0:0:
256,192,157527,1,8,0:0:0:0:
256,192,157685,1,0,0:0:0:0:
256,192,157843,1,8,0:0:0:0:
256,192,158000,1,8,0:0:0:0:
256,192,158158,1,8,0:0:0:0:
256,192,158316,1,0,0:0:0:0:
256,192,158474,1,0,0:0:0:0:
256,192,158632,1,8,0:0:0:0:
256,192,158790,1,8,0:0:0:0:
256,192,158948,1,0,0:0:0:0:
256,192,159106,1,0,0:0:0:0:
256,192,159264,1,8,0:0:0:0:
256,192,159422,1,8,0:0:0:0:
256,192,159579,1,0,0:0:0:0:
256,192,159895,1,0,0:0:0:0:
256,192,160053,1,8,0:0:0:0:
256,192,160211,1,0,0:0:0:0:
256,192,160369,1,0,0:0:0:0:
256,192,160527,1,8,0:0:0:0:
256,192,160685,1,8,0:0:0:0:
256,192,160843,1,0,0:0:0:0:
256,192,161000,1,8,0:0:0:0:
256,192,161079,1,8,0:0:0:0:
256,192,161158,1,0,0:0:0:0:
256,192,161474,1,0,0:0:0:0:
256,192,161632,1,8,0:0:0:0:
256,192,161711,1,8,0:0:0:0:
256,192,161790,1,0,0:0:0:0:
256,192,161948,1,8,0:0:0:0:
256,192,162027,1,0,0:0:0:0:
256,192,162106,1,0,0:0:0:0:
256,192,162264,1,8,0:0:0:0:
256,192,162343,1,8,0:0:0:0:
256,192,162422,1,0,0:0:0:0:
256,192,162737,1,0,0:0:0:0:
256,192,162895,1,8,0:0:0:0:
256,192,163053,1,0,0:0:0:0:
256,192,163211,1,8,0:0:0:0:
256,192,163290,1,8,0:0:0:0:
256,192,163369,1,0,0:0:0:0:
256,192,163685,1,0,0:0:0:0:
256,192,163843,1,8,0:0:0:0:
256,192,164000,1,0,0:0:0:0:
256,192,164158,1,0,0:0:0:0:
256,192,164316,1,8,0:0:0:0:
256,192,164474,1,0,0:0:0:0:
256,192,164632,1,8,0:0:0:0:
256,192,164869,1,0,0:0:0:0:
256,192,165106,1,0,0:0:0:0:
256,192,165264,1,8,0:0:0:0:
256,192,165343,1,0,0:0:0:0:
256,192,165422,1,0,0:0:0:0:
256,192,165500,1,0,0:0:0:0:
256,192,165579,1,12,0:0:0:0:
256,192,165895,5,4,0:0:0:0:
256,192,166211,1,8,0:0:0:0:
256,192,166290,1,0,0:0:0:0:
256,192,166369,1,8,0:0:0:0:
256,192,166448,1,8,0:0:0:0:
256,192,166527,1,0,0:0:0:0:
256,192,166685,1,0,0:0:0:0:
256,192,166764,1,0,0:0:0:0:
256,192,166842,1,8,0:0:0:0:
256,192,166921,1,8,0:0:0:0:
256,192,167000,1,0,0:0:0:0:
256,192,167079,1,8,0:0:0:0:
256,192,167158,1,0,0:0:0:0:
256,192,167316,1,0,0:0:0:0:
256,192,167474,1,8,0:0:0:0:
256,192,167553,1,8,0:0:0:0:
256,192,167632,1,0,0:0:0:0:
256,192,167711,1,8,0:0:0:0:
256,192,167790,1,0,0:0:0:0:
256,192,167948,1,0,0:0:0:0:
256,192,168027,1,0,0:0:0:0:
256,192,168106,1,8,0:0:0:0:
256,192,168185,1,0,0:0:0:0:
256,192,168263,1,8,0:0:0:0:
256,192,168342,1,8,0:0:0:0:
256,192,168421,1,0,0:0:0:0:
256,192,168579,1,0,0:0:0:0:
256,192,168737,1,8,0:0:0:0:
256,192,168816,1,0,0:0:0:0:
256,192,168895,1,8,0:0:0:0:
256,192,169053,1,0,0:0:0:0:
256,192,169132,1,0,0:0:0:0:
256,192,169211,1,0,0:0:0:0:
256,192,169290,1,0,0:0:0:0:
256,192,169369,1,8,0:0:0:0:
256,192,169527,1,8,0:0:0:0:
256,192,169606,1,8,0:0:0:0:
256,192,169685,1,0,0:0:0:0:
256,192,169764,1,0,0:0:0:0:
256,192,169842,1,0,0:0:0:0:
256,192,169922,1,0,0:0:0:0:
256,192,170000,1,8,0:0:0:0:
256,192,170158,1,0,0:0:0:0:
256,192,170237,1,0,0:0:0:0:
256,192,170316,1,8,0:0:0:0:
256,192,170395,1,8,0:0:0:0:
256,192,170474,1,0,0:0:0:0:
256,192,170553,1,0,0:0:0:0:
256,192,170632,1,8,0:0:0:0:
256,192,170711,1,8,0:0:0:0:
256,192,170790,1,8,0:0:0:0:
256,192,170869,1,8,0:0:0:0:
256,192,170948,1,0,0:0:0:0:
256,192,171106,1,0,0:0:0:0:
256,192,171263,1,8,0:0:0:0:
256,192,171421,1,0,0:0:0:0:
256,192,171500,1,8,0:0:0:0:
256,192,171579,1,0,0:0:0:0:
256,192,171737,1,0,0:0:0:0:
256,192,171816,1,0,0:0:0:0:
256,192,171895,1,8,0:0:0:0:
256,192,171974,1,0,0:0:0:0:
256,192,172053,1,8,0:0:0:0:
256,192,172132,1,8,0:0:0:0:
256,192,172211,1,0,0:0:0:0:
256,192,172369,1,0,0:0:0:0:
256,192,172448,1,0,0:0:0:0:
256,192,172527,1,8,0:0:0:0:
256,192,172606,1,8,0:0:0:0:
256,192,172685,1,8,0:0:0:0:
256,192,172763,1,8,0:0:0:0:
256,192,172842,1,0,0:0:0:0:
256,192,173000,1,0,0:0:0:0:
256,192,173079,1,0,0:0:0:0:
256,192,173158,1,8,0:0:0:0:
256,192,173316,1,8,0:0:0:0:
256,192,173395,1,0,0:0:0:0:
256,192,173474,1,8,0:0:0:0:
256,192,173553,1,8,0:0:0:0:
256,192,173632,1,0,0:0:0:0:
256,192,173790,1,0,0:0:0:0:
256,192,173869,1,0,0:0:0:0:
256,192,173948,1,8,0:0:0:0:
256,192,174027,1,8,0:0:0:0:
256,192,174106,1,0,0:0:0:0:
256,192,174263,1,8,0:0:0:0:
256,192,174342,1,0,0:0:0:0:
256,192,174421,1,8,0:0:0:0:
256,192,174579,1,8,0:0:0:0:
256,192,174737,1,0,0:0:0:0:
256,192,174816,1,0,0:0:0:0:
256,192,174895,1,8,0:0:0:0:
256,192,174974,1,8,0:0:0:0:
256,192,175053,1,0,0:0:0:0:
256,192,175132,1,0,0:0:0:0:
256,192,175211,1,8,0:0:0:0:
256,192,175290,1,8,0:0:0:0:
256,192,175369,1,8,0:0:0:0:
256,192,175448,1,0,0:0:0:0:
256,192,175527,1,8,0:0:0:0:
256,192,175606,1,0,0:0:0:0:
256,192,175685,1,8,0:0:0:0:
256,192,175764,1,8,0:0:0:0:
256,192,175843,1,8,0:0:0:0:
256,192,175922,1,8,0:0:0:0:
256,192,176000,1,4,0:0:0:0:
256,192,176316,1,8,0:0:0:0:
256,192,176395,1,0,0:0:0:0:
256,192,176474,1,8,0:0:0:0:
256,192,176553,1,8,0:0:0:0:
256,192,176632,1,0,0:0:0:0:
256,192,176790,1,0,0:0:0:0:
256,192,176869,1,0,0:0:0:0:
256,192,176948,1,8,0:0:0:0:
256,192,177027,1,0,0:0:0:0:
256,192,177106,1,0,0:0:0:0:
256,192,177263,1,0,0:0:0:0:
256,192,177421,1,0,0:0:0:0:
256,192,177500,1,0,0:0:0:0:
256,192,177579,1,8,0:0:0:0:
256,192,177658,1,8,0:0:0:0:
256,192,177737,1,0,0:0:0:0:
256,192,177816,1,8,0:0:0:0:
256,192,177895,1,0,0:0:0:0:
256,192,178053,1,0,0:0:0:0:
256,192,178132,1,0,0:0:0:0:
256,192,178211,1,8,0:0:0:0:
256,192,178290,1,0,0:0:0:0:
256,192,178369,1,0,0:0:0:0:
256,192,178448,1,0,0:0:0:0:
256,192,178527,1,8,0:0:0:0:
256,192,178685,1,0,0:0:0:0:
256,192,178764,1,0,0:0:0:0:
256,192,178842,1,8,0:0:0:0:
256,192,178921,1,0,0:0:0:0:
256,192,179000,1,8,0:0:0:0:
256,192,179079,1,8,0:0:0:0:
256,192,179158,1,0,0:0:0:0:
256,192,179316,1,0,0:0:0:0:
256,192,179474,1,8,0:0:0:0:
256,192,179553,1,8,0:0:0:0:
256,192,179632,1,8,0:0:0:0:
256,192,179711,1,8,0:0:0:0:
256,192,179790,1,0,0:0:0:0:
256,192,179948,1,0,0:0:0:0:
256,192,180106,1,8,0:0:0:0:
256,192,180185,1,8,0:0:0:0:
256,192,180263,1,0,0:0:0:0:
256,192,180342,1,8,0:0:0:0:
256,192,180421,1,0,0:0:0:0:
256,192,180579,1,0,0:0:0:0:
256,192,180658,1,0,0:0:0:0:
256,192,180737,1,8,0:0:0:0:
256,192,180816,1,8,0:0:0:0:
256,192,180895,1,8,0:0:0:0:
256,192,180974,1,8,0:0:0:0:
256,192,181053,1,0,0:0:0:0:
256,192,181211,1,0,0:0:0:0:
256,192,181290,1,0,0:0:0:0:
256,192,181369,1,8,0:0:0:0:
256,192,181448,1,0,0:0:0:0:
256,192,181527,1,8,0:0:0:0:
256,192,181606,1,8,0:0:0:0:
256,192,181685,1,0,0:0:0:0:
256,192,181842,1,0,0:0:0:0:
256,192,181921,1,0,0:0:0:0:
256,192,182000,1,8,0:0:0:0:
256,192,182079,1,0,0:0:0:0:
256,192,182158,1,8,0:0:0:0:
256,192,182316,1,0,0:0:0:0:
256,192,182395,1,0,0:0:0:0:
256,192,182474,1,0,0:0:0:0:
256,192,182553,1,0,0:0:0:0:
256,192,182632,1,8,0:0:0:0:
256,192,182711,1,0,0:0:0:0:
256,192,182790,1,8,0:0:0:0:
256,192,182869,1,8,0:0:0:0:
256,192,182948,1,0,0:0:0:0:
256,192,183106,1,0,0:0:0:0:
256,192,183185,1,0,0:0:0:0:
256,192,183263,1,8,0:0:0:0:
256,192,183343,1,8,0:0:0:0:
256,192,183421,1,8,0:0:0:0:
256,192,183500,1,8,0:0:0:0:
256,192,183579,1,0,0:0:0:0:
256,192,183737,1,0,0:0:0:0:
256,192,183895,1,8,0:0:0:0:
256,192,183974,1,0,0:0:0:0:
256,192,184053,1,8,0:0:0:0:
256,192,184132,1,8,0:0:0:0:
256,192,184211,1,0,0:0:0:0:
256,192,184290,1,0,0:0:0:0:
256,192,184369,1,0,0:0:0:0:
256,192,184448,1,0,0:0:0:0:
256,192,184527,1,8,0:0:0:0:
256,192,184685,1,8,0:0:0:0:
256,192,184763,1,8,0:0:0:0:
256,192,184842,1,0,0:0:0:0:
256,192,185000,1,8,0:0:0:0:
256,192,185079,1,8,0:0:0:0:
256,192,185158,1,8,0:0:0:0:
256,192,185316,1,0,0:0:0:0:
256,192,185395,1,0,0:0:0:0:
256,192,185474,1,8,0:0:0:0:
256,192,185632,1,0,0:0:0:0:
256,192,185790,1,8,0:0:0:0:
256,192,185948,1,8,0:0:0:0:
256,192,186106,1,4,0:0:0:0:
256,192,186422,1,0,0:0:0:0:
256,192,186580,1,8,0:0:0:0:
256,192,186737,1,0,0:0:0:0:
256,192,186896,1,0,0:0:0:0:
256,192,186974,1,0,0:0:0:0:
256,192,187054,1,8,0:0:0:0:
256,192,187211,1,0,0:0:0:0:
256,192,187370,1,0,0:0:0:0:
256,192,187527,1,0,0:0:0:0:
256,192,187606,1,0,0:0:0:0:
256,192,187686,1,0,0:0:0:0:
256,192,187764,1,0,0:0:0:0:
256,192,187843,1,8,0:0:0:0:
256,192,188000,1,0,0:0:0:0:
256,192,188158,1,0,0:0:0:0:
256,192,188317,1,8,0:0:0:0:
256,192,188395,1,8,0:0:0:0:
256,192,188474,1,0,0:0:0:0:
256,192,188553,1,0,0:0:0:0:
256,192,188633,1,0,0:0:0:0:
256,192,188790,1,0,0:0:0:0:
256,192,188949,1,0,0:0:0:0:
256,192,189027,1,0,0:0:0:0:
256,192,189107,1,8,0:0:0:0:
256,192,189264,1,0,0:0:0:0:
256,192,189422,1,0,0:0:0:0:
256,192,189500,1,0,0:0:0:0:
256,192,189580,1,8,0:0:0:0:
256,192,189737,1,0,0:0:0:0:
256,192,189896,1,0,0:0:0:0:
256,192,190053,1,0,0:0:0:0:
256,192,190132,1,0,0:0:0:0:
256,192,190211,1,0,0:0:0:0:
256,192,190369,1,8,0:0:0:0:
256,192,190528,1,0,0:0:0:0:
256,192,190606,1,0,0:0:0:0:
256,192,190686,1,0,0:0:0:0:
256,192,190764,1,0,0:0:0:0:
256,192,190843,1,8,0:0:0:0:
256,192,191159,1,4,0:0:0:0:
256,192,191316,1,0,0:0:0:0:
256,192,191395,1,0,0:0:0:0:
256,192,191475,1,0,0:0:0:0:
256,192,191633,1,8,0:0:0:0:
256,192,191711,1,0,0:0:0:0:
256,192,191790,1,0,0:0:0:0:
256,192,191949,1,0,0:0:0:0:
256,192,192027,1,0,0:0:0:0:
256,192,192106,1,8,0:0:0:0:
256,192,192185,1,0,0:0:0:0:
256,192,192264,1,0,0:0:0:0:
256,192,192422,1,0,0:0:0:0:
256,192,192579,1,0,0:0:0:0:
256,192,192658,1,0,0:0:0:0:
256,192,192737,1,0,0:0:0:0:
256,192,192895,1,8,0:0:0:0:
256,192,192974,1,0,0:0:0:0:
256,192,193053,1,0,0:0:0:0:
256,192,193211,1,0,0:0:0:0:
256,192,193290,1,0,0:0:0:0:
256,192,193370,1,8,0:0:0:0:
256,192,193448,1,8,0:0:0:0:
256,192,193527,1,0,0:0:0:0:
256,192,193686,1,0,0:0:0:0:
256,192,193843,1,0,0:0:0:0:
256,192,193922,1,0,0:0:0:0:
256,192,194001,1,0,0:0:0:0:
256,192,194079,1,0,0:0:0:0:
256,192,194159,1,8,0:0:0:0:
256,192,194316,1,0,0:0:0:0:
256,192,194474,1,0,0:0:0:0:
256,192,194553,1,0,0:0:0:0:
256,192,194633,1,8,0:0:0:0:
256,192,194711,1,8,0:0:0:0:
256,192,194790,1,0,0:0:0:0:
256,192,194948,1,0,0:0:0:0:
256,192,195106,1,0,0:0:0:0:
256,192,195185,1,0,0:0:0:0:
256,192,195264,1,0,0:0:0:0:
256,192,195343,1,0,0:0:0:0:
256,192,195422,1,8,0:0:0:0:
256,192,195579,1,0,0:0:0:0:
256,192,195658,1,0,0:0:0:0:
256,192,195737,1,0,0:0:0:0:
256,192,195816,1,0,0:0:0:0:
256,192,195895,1,8,0:0:0:0:
256,192,196211,1,12,0:0:0:0:
256,192,196369,1,8,0:0:0:0:
256,192,196448,1,8,0:0:0:0:
256,192,196527,1,0,0:0:0:0:
256,192,196606,1,0,0:0:0:0:
256,192,196685,1,8,0:0:0:0:
256,192,196764,1,8,0:0:0:0:
256,192,196843,1,0,0:0:0:0:
256,192,196922,1,0,0:0:0:0:
256,192,197000,1,0,0:0:0:0:
256,192,197079,1,0,0:0:0:0:
256,192,197158,1,8,0:0:0:0:
256,192,197237,1,8,0:0:0:0:
256,192,197316,1,0,0:0:0:0:
256,192,197395,1,0,0:0:0:0:
256,192,197474,1,8,0:0:0:0:
256,192,197553,1,8,0:0:0:0:
256,192,197632,1,0,0:0:0:0:
256,192,197711,1,0,0:0:0:0:
256,192,197790,1,0,0:0:0:0:
256,192,197869,1,0,0:0:0:0:
256,192,197948,1,8,0:0:0:0:
256,192,198027,1,8,0:0:0:0:
256,192,198106,1,0,0:0:0:0:
256,192,198185,1,0,0:0:0:0:
256,192,198264,1,0,0:0:0:0:
256,192,198343,1,0,0:0:0:0:
256,192,198422,1,8,0:0:0:0:
256,192,198500,1,0,0:0:0:0:
256,192,198579,1,0,0:0:0:0:
256,192,198658,1,0,0:0:0:0:
256,192,198737,1,12,0:0:0:0:
256,192,198895,1,0,0:0:0:0:
256,192,198974,1,8,0:0:0:0:
256,192,199053,1,0,0:0:0:0:
256,192,199132,1,0,0:0:0:0:
256,192,199211,1,8,0:0:0:0:
256,192,199290,1,8,0:0:0:0:
256,192,199369,1,0,0:0:0:0:
256,192,199448,1,0,0:0:0:0:
256,192,199527,1,0,0:0:0:0:
256,192,199606,1,0,0:0:0:0:
256,192,199685,1,8,0:0:0:0:
256,192,199764,1,8,0:0:0:0:
256,192,199843,1,0,0:0:0:0:
256,192,199922,1,0,0:0:0:0:
256,192,200000,1,8,0:0:0:0:
256,192,200079,1,0,0:0:0:0:
256,192,200158,1,8,0:0:0:0:
256,192,200237,1,8,0:0:0:0:
256,192,200316,1,0,0:0:0:0:
256,192,200395,1,0,0:0:0:0:
256,192,200474,1,8,0:0:0:0:
256,192,200553,1,0,0:0:0:0:
256,192,200632,1,8,0:0:0:0:
256,192,200711,1,8,0:0:0:0:
256,192,200790,1,0,0:0:0:0:
256,192,200869,1,0,0:0:0:0:
256,192,200948,1,8,0:0:0:0:
256,192,201027,1,8,0:0:0:0:
256,192,201106,1,0,0:0:0:0:
256,192,201185,1,0,0:0:0:0:
256,192,201264,1,12,0:0:0:0:
256,192,201422,1,0,0:0:0:0:
256,192,201500,1,8,0:0:0:0:
256,192,201579,1,8,0:0:0:0:
256,192,201658,1,0,0:0:0:0:
256,192,201737,1,8,0:0:0:0:
256,192,201816,1,0,0:0:0:0:
256,192,201895,1,0,0:0:0:0:
256,192,201974,1,8,0:0:0:0:
256,192,202053,1,8,0:0:0:0:
256,192,202132,1,0,0:0:0:0:
256,192,202211,1,8,0:0:0:0:
256,192,202290,1,8,0:0:0:0:
256,192,202369,1,0,0:0:0:0:
256,192,202448,1,8,0:0:0:0:
256,192,202527,1,0,0:0:0:0:
256,192,202606,1,0,0:0:0:0:
256,192,202685,1,8,0:0:0:0:
256,192,202764,1,8,0:0:0:0:
256,192,202843,1,0,0:0:0:0:
256,192,202922,1,8,0:0:0:0:
256,192,203000,1,0,0:0:0:0:
256,192,203079,1,0,0:0:0:0:
256,192,203158,1,8,0:0:0:0:
256,192,203237,1,0,0:0:0:0:
256,192,203316,1,8,0:0:0:0:
256,192,203395,1,8,0:0:0:0:
256,192,203474,1,0,0:0:0:0:
256,192,203553,1,0,0:0:0:0:
256,192,203632,1,0,0:0:0:0:
256,192,203711,1,0,0:0:0:0:
256,192,203790,1,12,0:0:0:0:
256,192,203948,1,0,0:0:0:0:
256,192,204027,1,8,0:0:0:0:
256,192,204106,1,0,0:0:0:0:
256,192,204185,1,0,0:0:0:0:
256,192,204264,1,8,0:0:0:0:
256,192,204343,1,8,0:0:0:0:
256,192,204422,1,0,0:0:0:0:
256,192,204500,1,8,0:0:0:0:
256,192,204579,1,0,0:0:0:0:
256,192,204658,1,0,0:0:0:0:
256,192,204737,1,8,0:0:0:0:
256,192,204816,1,0,0:0:0:0:
256,192,204895,1,8,0:0:0:0:
256,192,204974,1,8,0:0:0:0:
256,192,205053,1,0,0:0:0:0:
256,192,205132,1,0,0:0:0:0:
256,192,205211,1,8,0:0:0:0:
256,192,205290,1,8,0:0:0:0:
256,192,205369,1,0,0:0:0:0:
256,192,205448,1,0,0:0:0:0:
256,192,205527,1,0,0:0:0:0:
256,192,205606,1,0,0:0:0:0:
256,192,205685,1,12,0:0:0:0:
256,192,205843,1,12,0:0:0:0:
256,192,206000,1,12,0:0:0:0:
256,192,206158,1,12,0:0:0:0:
