osu file format v14

[General]
AudioFilename: audio.mp3
AudioLeadIn: 0
PreviewTime: 128295
Countdown: 0
SampleSet: Soft
StackLeniency: 0.3
Mode: 0
LetterboxInBreaks: 0
WidescreenStoryboard: 1

[Editor]
Bookmarks: 15464,29582,50758,71935,100170,107229,144288,158405
DistanceSpacing: 1
BeatDivisor: 4
GridSize: 8
TimelineZoom: 1.2

[Metadata]
Title:beside you
TitleUnicode:beside you
Artist:keshi
ArtistUnicode:keshi
Creator:Narrative
Version:hard
Source:
Tags:english eng indie indie-pop male vocals
BeatmapID:3285971
BeatmapSetID:1606214

[Difficulty]
HPDrainRate:4.5
CircleSize:3.8
OverallDifficulty:6
ApproachRate:7.5
SliderMultiplier:1.4
SliderTickRate:1

[Events]
//Background and Video events
0,0,"bg 66s.jpg",0,0
//Break Periods
2,43899,49933
2,114267,127580
//Storyboard Layer 0 (Background)
//Storyboard Layer 1 (Fail)
//Storyboard Layer 2 (Pass)
//Storyboard Layer 3 (Foreground)
//Storyboard Layer 4 (Overlay)
//Storyboard Sound Samples

[TimingPoints]
1347,441.176470588235,4,2,1,40,1,0
15464,-125,4,2,1,40,0,0
29582,-86.9565217391304,4,2,1,65,0,0
29913,-86.9565217391304,4,2,1,5,0,0
30023,-86.9565217391304,4,2,1,65,0,0
35648,-86.9565217391304,4,2,1,5,0,0
35758,-86.9565217391304,4,2,1,65,0,0
36971,-86.9565217391304,4,2,1,5,0,0
37082,-86.9565217391304,4,2,1,65,0,0
39619,-86.9565217391304,4,2,1,5,0,0
39729,-86.9565217391304,4,2,1,65,0,0
42817,-153.846153846154,4,2,1,65,0,0
50758,-100,4,2,1,55,0,0
55501,-100,4,2,1,5,0,0
55611,-100,4,2,1,55,0,0
58589,-100,4,2,1,5,0,0
58699,-100,4,2,1,55,0,0
63442,-100,4,2,1,5,0,0
63552,-100,4,2,1,55,0,0
71935,-80,4,2,1,70,0,0
72266,-80,4,2,1,5,0,0
72376,-80,4,2,1,70,0,0
74471,-80,4,2,1,5,0,0
74582,-80,4,2,1,70,0,0
78001,-80,4,2,1,5,0,0
78111,-80,4,2,1,70,0,0
79324,-80,4,2,1,5,0,0
79435,-80,4,2,1,70,0,0
80207,-80,4,2,1,5,0,0
80317,-80,4,2,1,70,0,0
81971,-80,4,2,1,5,0,0
82082,-80,4,2,1,70,0,0
86383,-80,4,2,1,5,0,0
86494,-80,4,2,1,70,0,0
88589,-80,4,2,1,5,0,0
88699,-80,4,2,1,70,0,0
93442,-80,4,2,1,5,0,0
93552,-80,4,2,1,70,0,0
94324,-80,4,2,1,5,0,0
94435,-80,4,2,1,70,0,0
96089,-80,4,2,1,5,0,0
96199,-80,4,2,1,70,0,0
99288,-153.846153846154,4,2,1,70,0,0
100170,-200,4,2,1,35,0,0
104141,-142.857142857143,4,2,1,35,0,0
104471,-142.857142857143,4,2,1,5,0,0
104582,-142.857142857143,4,2,1,35,0,0
107229,-90.9090909090909,4,2,1,60,0,0
107560,-90.9090909090909,4,2,1,5,0,0
107670,-90.9090909090909,4,2,1,60,0,0
110648,-90.9090909090909,4,2,1,5,0,0
110758,-90.9090909090909,4,2,1,60,0,0
111530,-90.9090909090909,4,2,1,5,0,0
111641,-90.9090909090909,4,2,1,60,0,0
128405,-90.9090909090909,4,2,1,45,0,0
128736,-90.9090909090909,4,2,1,5,0,0
128846,-90.9090909090909,4,2,1,45,0,0
129067,-90.9090909090909,4,2,1,5,0,0
129288,-90.9090909090909,4,2,1,45,0,0
129619,-90.9090909090909,4,2,1,5,0,0
129729,-90.9090909090909,4,2,1,45,0,0
129949,-90.9090909090909,4,2,1,5,0,0
130170,-80,4,2,1,75,0,0
130501,-80,4,2,1,5,0,0
130611,-80,4,2,1,75,0,0
132707,-80,4,2,1,5,0,0
132817,-80,4,2,1,75,0,0
137560,-80,4,2,1,5,0,0
137670,-80,4,2,1,75,0,0
138442,-80,4,2,1,5,0,0
138552,-80,4,2,1,75,0,0
141530,-80,4,2,1,5,0,0
141641,-80,4,2,1,75,0,0
144288,-90.9090909090909,4,2,1,60,0,0
147266,-90.9090909090909,4,2,1,5,0,0
147376,-90.9090909090909,4,2,1,60,0,0
149030,-90.9090909090909,4,2,1,5,0,0
149141,-90.9090909090909,4,2,1,60,0,0
155648,-90.9090909090909,4,2,1,5,0,0
155758,-90.9090909090909,4,2,1,60,0,0
157413,-90.9090909090909,4,2,1,5,0,0
157523,-90.9090909090909,4,2,1,60,0,0

[Colours]
Combo1 : 205,205,205
Combo2 : 85,170,255
Combo3 : 170,170,255
Combo4 : 237,200,71

[HitObjects]
132,38,15464,6,0,L|78:53,2,56,2|2|2,0:0|0:0|0:0,0:0:0:0:
203,81,16126,1,2,0:0:0:0:
203,81,16346,2,0,L|173:256,1,168,0|2,0:0|0:0,0:0:0:0:
196,328,17229,6,0,P|222:321|243:302,2,56,2|2|2,0:0|0:0|0:0,0:0:0:0:
112,319,17891,2,0,P|73:280|73:225,1,112,2|0,0:0|0:0,0:0:0:0:
26,156,18552,2,0,P|50:142|78:139,1,56,2|2,0:0|0:0,0:0:0:0:
158,165,18994,6,0,L|220:176,1,56,2|2,0:0|0:0,0:0:0:0:
295,194,19435,1,2,0:0:0:0:
295,194,19655,1,2,0:0:0:0:
278,111,19876,2,0,L|266:38,1,56,2|2,0:0|0:0,0:0:0:0:
186,63,20317,2,0,L|195:118,1,56,2|2,0:0|0:0,0:0:0:0:
138,180,20758,6,0,P|114:165|87:159,2,56,2|2|2,0:0|0:0|0:0,0:0:0:0:
193,243,21420,1,2,0:0:0:0:
193,243,21641,2,0,P|236:209|291:210,1,112,2|0,0:0|0:0,0:0:0:0:
366,248,22302,1,0,0:0:0:0:
366,248,22523,6,0,P|376:222|375:194,2,56,2|2|2,0:0|0:0|0:0,0:0:0:0:
293,290,23185,2,0,L|182:271,1,112,2|0,0:0|0:0,0:0:0:0:
137,201,23846,2,0,L|203:187,1,56,2|2,0:0|0:0,0:0:0:0:
272,163,24288,6,0,L|280:107,2,56,2|2|2,0:0|0:0|0:0,0:0:0:0:
336,216,24949,2,0,B|388:239|388:239|429:202,1,112,2|0,0:0|0:0,0:0:0:0:
371,140,25611,1,2,0:0:0:0:
371,140,25832,1,2,0:0:0:0:
298,98,26052,6,0,P|300:70|313:45,1,56,2|2,0:0|0:0,0:0:0:0:
395,26,26494,2,0,L|469:37,1,56,2|2,0:0|0:0,0:0:0:0:
497,104,26935,1,2,0:0:0:0:
497,104,27155,1,2,0:0:0:0:
428,153,27376,2,0,L|419:208,1,56,2|2,0:0|0:0,0:0:0:0:
486,259,27817,5,2,0:0:0:0:
486,259,28038,2,0,L|494:314,1,56,2|2,0:0|0:0,0:0:0:0:
413,348,28479,1,2,0:0:0:0:
413,348,28699,2,0,B|352:335|352:335|310:351|310:351|250:336,1,168
207,249,29582,6,0,P|147:248|103:288,1,120.750002303124,0|0,1:2|0:0,0:0:0:0:
106,327,30023,2,0,L|193:347,1,80.5000015354157,2|0,0:0|0:0,0:0:0:0:
277,375,30464,1,8,0:0:0:0:
497,59,31346,5,2,1:2:0:0:
399,30,31567,1,2,0:0:0:0:
424,124,31788,2,0,L|449:233,1,80.5000015354157,2|0,0:0|0:0,0:0:0:0:
474,297,32229,1,10,0:0:0:0:
155,81,33111,5,0,1:2:0:0:
197,181,33332,1,0,1:2:0:0:
90,162,33552,2,0,P|50:168|19:193,1,80.5000015354157,2|2,1:2|0:0,0:0:0:0:
15,295,33994,2,0,B|51:327|51:327|163:290,1,161.000003070831,10|0,0:0|0:0,0:0:0:0:
253,244,34655,1,0,0:0:0:0:
231,341,34876,5,2,0:0:0:0:
231,341,35096,1,2,1:2:0:0:
334,322,35317,2,0,L|467:298,1,120.750002303124,2|0,0:0|0:0,0:0:0:0:
491,287,35758,2,0,B|502:249|502:249|482:212,1,80.5000015354157,10|0,0:0|1:2,0:0:0:0:
406,140,36199,1,2,1:2:0:0:
346,209,36420,1,0,1:2:0:0:
252,117,36641,6,0,L|113:141,1,120.750002303124,2|0,1:2|0:0,0:0:0:0:
86,152,37082,2,0,P|109:110|97:73,1,80.5000015354157,2|2,0:0|1:2,0:0:0:0:
35,32,37523,1,10,0:0:0:0:
114,278,38405,5,0,1:2:0:0:
208,208,38626,1,2,1:2:0:0:
266,308,38846,2,0,L|372:334,1,80.5000015354157,0|0,1:2|0:0,0:0:0:0:
449,276,39288,2,0,B|462:237|462:237|438:154,1,120.750002303124,10|0,0:0|0:0,0:0:0:0:
427,121,39729,2,0,B|388:108|388:108|350:123,1,80.5000015354157,2|0,0:0|0:0,0:0:0:0:
251,166,40170,5,2,1:2:0:0:
336,246,40391,1,0,1:2:0:0:
243,305,40611,2,0,L|164:286,1,80.5000015354157,0|0,1:2|0:0,0:0:0:0:
74,312,41052,2,0,P|128:257|114:181,1,161.000003070831,10|0,0:0|0:0,0:0:0:0:
40,115,41714,1,0,0:0:0:0:
100,36,41935,6,0,L|139:44,3,40.2500007677078,2|0|2|0,0:0|0:0|1:2|0:0,0:0:0:0:
158,71,42376,2,0,L|252:55,1,80.5000015354157
330,32,42817,2,0,L|300:211,1,181.999991668702,2|0,0:0|0:0,0:0:0:0:
480,54,50758,6,0,L|379:35,1,70,2|0,1:2|0:0,0:0:0:0:
335,77,51199,2,0,L|266:89,1,70,2|0,0:0|1:2,0:0:0:0:
205,30,51641,1,8,0:0:0:0:
100,357,52523,5,2,1:2:0:0:
164,288,52744,1,0,1:2:0:0:
238,347,52964,2,0,P|270:362|304:356,1,70,2|2,1:2|0:0,0:0:0:0:
375,307,53405,2,0,B|383:245|383:245|398:226|398:226|405:171,1,140,10|2,0:0|0:0,0:0:0:0:
410,85,54067,1,2,0:0:0:0:
332,25,54288,5,2,1:2:0:0:
250,78,54508,1,0,1:2:0:0:
165,32,54729,2,0,L|90:49,1,70,2|0,1:2|0:0,0:0:0:0:
15,75,55170,2,0,P|80:92|94:145,1,105,8|0,0:0|0:0,0:0:0:0:
106,163,55611,1,2,0:0:0:0:
106,163,55832,1,2,0:0:0:0:
42,241,56052,6,0,L|25:316,1,70,2|0,0:0|1:2,0:0:0:0:
100,360,56494,2,0,L|255:335,1,140,2|8,0:0|0:0,0:0:0:0:
341,318,57155,1,2,1:2:0:0:
264,245,57376,1,2,1:2:0:0:
350,185,57596,1,2,1:2:0:0:
264,123,57817,6,0,P|257:79|274:45,1,70,2|0,1:2|0:0,0:0:0:0:
356,22,58258,2,0,L|471:36,1,105,2|0,0:0|0:0,0:0:0:0:
505,42,58699,1,10,0:0:0:0:
412,269,59582,5,2,1:2:0:0:
362,350,59802,1,0,1:2:0:0:
290,280,60023,2,0,P|255:277|223:292,1,70,2|0,1:2|0:0,0:0:0:0:
164,358,60464,2,0,B|211:327|211:327|189:246,1,140,8|0,0:0|0:0,0:0:0:0:
168,163,61126,1,0,0:0:0:0:
87,234,61346,5,2,1:2:0:0:
0,204,61567,1,0,1:2:0:0:
19,117,61788,2,0,L|35:31,1,70,2|0,1:2|0:0,0:0:0:0:
127,14,62229,1,10,0:0:0:0:
127,14,62449,1,2,0:0:0:0:
206,87,62670,1,2,0:0:0:0:
206,87,62891,1,2,0:0:0:0:
330,39,63111,6,0,P|365:14|435:25,1,105,2|0,0:0|0:0,0:0:0:0:
451,41,63552,2,0,L|430:185,1,140,2|8,0:0|0:0,0:0:0:0:
346,243,64214,1,2,1:2:0:0:
288,163,64435,1,2,1:2:0:0:
204,222,64655,1,2,1:2:0:0:
160,138,64876,5,0,1:2:0:0:
89,207,65096,1,2,0:0:0:0:
89,207,65317,2,0,L|71:280,1,70,2|2,0:0|1:2,0:0:0:0:
122,349,65758,1,8,0:0:0:0:
439,246,66641,5,0,1:2:0:0:
495,331,66861,1,2,1:2:0:0:
397,348,67082,2,0,L|306:364,1,70,2|2,1:2|0:0,0:0:0:0:
248,295,67523,2,0,L|97:269,1,140,8|0,0:0|0:0,0:0:0:0:
19,255,68185,1,0,0:0:0:0:
101,167,68405,5,0,1:2:0:0:
6,132,68626,1,2,1:2:0:0:
88,66,68846,1,2,1:2:0:0:
183,16,69067,1,2,0:0:0:0:
201,104,69288,2,0,L|224:251,1,140,8|0,0:0|0:0,0:0:0:0:
292,311,69949,1,0,0:0:0:0:
359,240,70170,5,0,0:0:0:0:
359,240,70280,1,0,0:0:0:0:
359,240,70391,1,2,0:0:0:0:
439,295,70611,1,2,0:0:0:0:
482,206,70832,1,2,0:0:0:0:
386,337,71935,6,0,B|351:367|351:367|263:349,1,131.25,0|0,1:2|0:0,0:0:0:0:
245,311,72376,2,0,P|210:283|154:288,1,87.5,2|0,0:0|1:2,0:0:0:0:
59,371,72817,2,0,L|25:181,1,175,10|0,0:0|0:0,0:0:0:0:
6,103,73479,1,0,0:0:0:0:
133,181,73699,5,2,0:0:0:0:
183,81,73920,1,2,1:2:0:0:
274,147,74141,2,0,B|308:171|308:171|401:143,1,131.25,2|0,0:0|0:0,0:0:0:0:
422,111,74582,2,0,P|485:138|478:241,1,175,10|0,0:0|0:0,0:0:0:0:
434,309,75244,1,0,0:0:0:0:
316,365,75464,5,0,1:2:0:0:
342,249,75685,1,0,1:2:0:0:
246,281,75905,2,0,L|142:260,1,87.5,2|2,1:2|0:0,0:0:0:0:
92,145,76346,2,0,L|269:179,1,175,10|0,0:0|0:0,0:0:0:0:
352,186,77008,1,0,0:0:0:0:
438,106,77229,5,2,0:0:0:0:
438,106,77449,1,2,1:2:0:0:
485,195,77670,2,0,B|480:243|480:243|459:268|459:268|449:328,1,131.25,2|0,0:0|0:0,0:0:0:0:
446,352,78111,1,10,0:0:0:0:
352,272,78332,1,0,1:2:0:0:
273,365,78552,1,2,1:2:0:0:
185,278,78773,1,0,1:2:0:0:
80,347,78994,6,0,B|28:331|28:331|51:227,1,131.25,2|0,1:2|0:0,0:0:0:0:
71,220,79435,2,0,B|80:177|80:177|62:131,1,87.5,2|2,0:0|0:0,0:0:0:0:
83,29,79876,2,0,P|127:75|191:82,1,131.25,10|0,0:0|0:0,0:0:0:0:
223,51,80317,2,0,B|260:24|260:24|387:61,1,175,2|0,0:0|0:0,0:0:0:0:
484,93,80979,6,0,B|460:142|421:152|421:152|459:170|463:227,1,175,2|0,1:2|1:2,0:0:0:0:
491,339,81641,2,0,L|360:318,1,131.25,10|0,0:0|0:0,0:0:0:0:
327,290,82082,2,0,L|241:307,1,87.5,2|0,0:0|0:0,0:0:0:0:
140,313,82523,5,2,1:2:0:0:
209,215,82744,1,0,1:2:0:0:
113,164,82964,2,0,B|99:125|99:125|115:78,1,87.5,0|0,1:2|0:0,0:0:0:0:
211,26,83405,2,0,B|241:18|272:30|289:53|289:53|307:78|338:88|366:80,1,175,8|0,0:0|0:0,0:0:0:0:
443,23,84067,1,0,0:0:0:0:
512,116,84288,5,2,0:0:0:0:
512,116,84508,1,2,1:2:0:0:
420,160,84729,2,0,P|400:198|397:241,1,87.5,2|2,0:0|0:0,0:0:0:0:
409,339,85170,1,10,0:0:0:0:
409,339,85391,1,0,1:2:0:0:
320,293,85611,1,2,1:2:0:0:
234,240,85832,1,0,1:2:0:0:
119,205,86052,6,0,B|92:266|92:266|133:334,1,131.25,0|0,1:2|0:0,0:0:0:0:
148,359,86494,2,0,P|175:336|240:340,1,87.5,2|0,0:0|1:2,0:0:0:0:
326,378,86935,2,0,B|397:364|397:364|419:336|419:336|484:321,1,175,10|0,0:0|0:0,0:0:0:0:
507,231,87596,1,0,0:0:0:0:
485,133,87817,5,2,0:0:0:0:
485,133,88038,1,2,1:2:0:0:
463,34,88258,2,0,B|418:22|418:22|321:68,1,131.25,2|0,0:0|0:0,0:0:0:0:
305,75,88699,2,0,B|262:53|245:13|245:13|216:51|170:52,1,175,10|0,0:0|0:0,0:0:0:0:
64,59,89361,1,0,0:0:0:0:
126,139,89582,5,0,1:2:0:0:
14,184,89802,1,0,1:2:0:0:
100,253,90023,2,0,P|125:288|130:331,1,87.5,2|2,1:2|0:0,0:0:0:0:
233,355,90464,2,0,B|263:363|294:351|311:328|311:328|329:303|360:293|388:301,1,175,10|0,0:0|0:0,0:0:0:0:
465,367,91126,1,0,0:0:0:0:
487,283,91346,5,2,0:0:0:0:
487,283,91567,1,2,1:2:0:0:
502,193,91788,2,0,L|480:91,1,87.5,2|0,0:0|0:0,0:0:0:0:
392,27,92229,1,10,0:0:0:0:
392,27,92449,1,0,1:2:0:0:
307,118,92670,1,2,1:2:0:0:
221,34,92891,1,0,1:2:0:0:
120,102,93111,6,0,B|132:157|132:157|123:188|123:188|137:237,1,131.25,2|0,1:2|0:0,0:0:0:0:
166,259,93552,2,0,B|210:266|210:266|249:227,1,87.5,2|2,0:0|1:2,0:0:0:0:
307,118,93994,2,0,P|376:118|421:170,1,131.25,10|0,0:0|0:0,0:0:0:0:
437,198,94435,2,0,B|427:260|427:260|397:294|397:294|380:358,1,175,2|0,0:0|0:0,0:0:0:0:
274,373,95096,6,0,P|230:301|146:298,1,175,2|0,1:2|1:2,0:0:0:0:
40,364,95758,2,0,B|73:328|73:328|46:250,1,131.25,10|0,0:0|0:0,0:0:0:0:
29,209,96199,2,0,P|70:185|85:142,1,87.5,2|0,0:0|0:0,0:0:0:0:
44,61,96641,5,2,1:2:0:0:
142,25,96861,1,0,1:2:0:0:
192,125,97082,2,0,B|225:151|225:151|268:137,1,87.5,0|0,1:2|0:0,0:0:0:0:
388,51,97523,2,0,B|374:132|374:132|366:142|366:142|352:223,1,175,8|0,0:0|0:0,0:0:0:0:
329,319,98185,1,0,0:0:0:0:
263,232,98405,5,2,0:0:0:0:
263,232,98626,1,2,1:2:0:0:
186,302,98846,2,0,P|145:319|103:310,1,87.5,2|0,0:0|1:2,0:0:0:0:
69,215,99288,2,0,P|27:165|45:232,1,181.999991668702,2|0,0:0|0:0,0:0:0:0:
248,337,100611,6,0,L|294:328,1,35,2|0,0:0|0:0,0:0:0:0:
355,359,101052,2,0,L|382:211,1,140,2|0,0:0|0:0,0:0:0:0:
461,47,102376,6,0,L|418:59,1,35,2|0,0:0|0:0,0:0:0:0:
368,114,102817,2,0,L|221:86,1,140,2|0,0:0|0:0,0:0:0:0:
118,74,104141,6,0,L|132:150,1,73.4999977569581,2|0,0:0|0:0,0:0:0:0:
142,168,104582,2,0,B|98:146|98:146|57:173,2,97.9999970092774,2|2|2,0:0|0:0|0:0,0:0:0:0:
107,247,105685,5,2,0:0:0:0:
107,247,105905,2,0,L|94:308,1,48.9999985046387,2|0,0:0|0:0,0:0:0:0:
45,367,106346,2,0,P|103:320|175:351,1,146.999995513916,2|0,0:0|0:0,0:0:0:0:
253,369,107229,6,0,L|271:225,1,115.50000352478,2|0,1:2|0:0,0:0:0:0:
294,226,107670,2,0,L|278:142,1,77.0000023498536,2|0,0:0|1:2,0:0:0:0:
237,75,108111,1,10,0:0:0:0:
472,116,108994,5,0,1:2:0:0:
387,176,109214,1,0,1:2:0:0:
465,250,109435,2,0,P|470:287|458:324,1,77.0000023498536,2|0,1:2|0:0,0:0:0:0:
375,365,109876,1,10,0:0:0:0:
375,365,110096,1,2,0:0:0:0:
290,315,110317,2,0,L|151:299,1,115.50000352478,2|0,0:0|0:0,0:0:0:0:
129,294,110758,5,0,1:2:0:0:
69,223,110979,1,0,1:2:0:0:
21,142,111199,2,0,B|1:102|1:102|43:29,1,115.50000352478,2|0,1:2|0:0,0:0:0:0:
67,17,111641,2,0,B|158:36,1,77.0000023498536,10|0,0:0|0:0,0:0:0:0:
235,58,112082,1,2,0:0:0:0:
235,58,112302,1,2,0:0:0:0:
174,135,112523,5,2,0:0:0:0:
232,209,112744,1,2,1:2:0:0:
149,255,112964,2,0,P|130:294|136:331,1,77.0000023498536,2|0,0:0|0:0,0:0:0:0:
219,366,113405,1,10,0:0:0:0:
219,366,113626,1,0,1:2:0:0:
308,291,113846,1,0,1:2:0:0:
404,357,114067,1,0,1:2:0:0:
257,88,128405,6,0,L|139:107,1,115.50000352478,2|0,0:0|0:0,0:0:0:0:
104,112,128846,2,0,L|85:197,1,77.0000023498536,2|0,0:0|0:0,0:0:0:0:
59,279,129288,6,0,P|125:284|169:341,1,115.50000352478,2|0,0:0|0:0,0:0:0:0:
185,344,129729,2,0,P|223:344|255:323,1,77.0000023498536,2|0,0:0|0:0,0:0:0:0:
329,247,130170,6,0,B|362:290|362:290|447:271,1,131.25,2|0,1:2|0:0,0:0:0:0:
477,255,130611,2,0,P|502:217|500:169,1,87.5,2|0,0:0|1:2,0:0:0:0:
423,70,131052,2,0,B|346:56|346:56|337:49|337:49|253:31,1,175,10|0,0:0|0:0,0:0:0:0:
151,10,131714,1,0,0:0:0:0:
55,67,131935,5,2,0:0:0:0:
55,67,132155,1,2,1:2:0:0:
121,154,132376,2,0,P|141:204|108:278,1,131.25,2|0,0:0|0:0,0:0:0:0:
81,303,132817,2,0,B|158:260|158:260|206:332,1,175,10|0,0:0|0:0,0:0:0:0:
287,300,133479,1,0,0:0:0:0:
370,376,133699,5,0,1:2:0:0:
445,314,133920,1,0,1:2:0:0:
512,246,134141,2,0,L|497:159,1,87.5,2|2,1:2|0:0,0:0:0:0:
475,74,134582,2,0,B|427:65|397:35|397:35|376:74|320:103,1,175,10|0,0:0|0:0,0:0:0:0:
280,154,135244,1,0,0:0:0:0:
372,180,135464,5,2,0:0:0:0:
372,180,135685,1,2,1:2:0:0:
458,214,135905,2,0,P|477:253|478:297,1,87.5,2|0,0:0|0:0,0:0:0:0:
387,331,136346,1,10,0:0:0:0:
387,331,136567,1,0,1:2:0:0:
286,254,136788,1,2,1:2:0:0:
227,346,137008,1,0,1:2:0:0:
119,236,137229,6,0,B|112:184|112:184|90:156|90:156|84:112,1,131.25,2|0,1:2|0:0,0:0:0:0:
69,71,137670,2,0,P|101:39|161:41,1,87.5,2|2,0:0|1:2,0:0:0:0:
267,83,138111,2,0,L|244:234,1,131.25,10|0,0:0|0:0,0:0:0:0:
272,248,138552,2,0,P|340:249|417:164,1,175,2|0,0:0|0:0,0:0:0:0:
353,68,139214,6,0,L|266:83,1,87.5,2|0,1:2|0:0,0:0:0:0:
178,153,139655,1,0,1:2:0:0:
116,64,139876,1,10,0:0:0:0:
116,64,140096,1,2,0:0:0:0:
49,149,140317,2,0,P|40:192|55:232,1,87.5,2|0,0:0|0:0,0:0:0:0:
131,324,140758,5,2,1:2:0:0:
240,296,140979,1,0,1:2:0:0:
338,266,141199,2,0,P|396:316|474:313,1,131.25,0|0,1:2|0:0,0:0:0:0:
476,286,141641,2,0,B|499:173|499:173|455:115,1,175,8|0,0:0|0:0,0:0:0:0:
402,59,142302,1,0,0:0:0:0:
311,121,142523,5,2,0:0:0:0:
311,121,142744,1,2,1:2:0:0:
228,43,142964,2,0,B|187:32|187:32|137:58,1,87.5,2|2,0:0|0:0,0:0:0:0:
76,105,143405,1,10,0:0:0:0:
145,174,143626,1,0,1:2:0:0:
45,255,143846,1,2,1:2:0:0:
141,356,144288,5,0,1:2:0:0:
141,356,144508,2,0,L|240:341,1,77.0000023498536
293,301,144949,1,0,1:2:0:0:
364,361,145170,2,0,P|340:306|407:228,1,154.000004699707,8|0,0:0|0:0,0:0:0:0:
477,207,145832,1,0,0:0:0:0:
477,207,146052,5,2,0:0:0:0:
432,106,146273,2,0,B|372:98|372:98|335:122|335:122|267:114,1,154.000004699707,2|0,0:0|1:2,0:0:0:0:
214,64,146935,2,0,P|191:115|209:169,1,115.50000352478,10|0,0:0|0:0,0:0:0:0:
232,199,147376,2,0,L|323:212,1,77.0000023498536,2|0,0:0|0:0,0:0:0:0:
401,217,147817,5,2,1:2:0:0:
502,240,148038,1,0,1:2:0:0:
434,326,148258,2,0,L|348:312,1,77.0000023498536,0|0,1:2|0:0,0:0:0:0:
263,268,148699,2,0,P|203:294|179:351,1,115.50000352478,10|0,0:0|0:0,0:0:0:0:
149,359,149141,2,0,L|63:338,1,77.0000023498536,2|0,0:0|0:0,0:0:0:0:
6,261,149582,5,2,0:0:0:0:
74,185,149802,2,0,B|66:120|66:120|37:98|37:98|30:43,1,154.000004699707,2|0,1:2|0:0,0:0:0:0:
119,4,150464,1,8,0:0:0:0:
119,4,150685,1,0,1:2:0:0:
190,72,150905,1,2,1:2:0:0:
274,22,151126,1,0,1:2:0:0:
363,108,151346,5,2,1:2:0:0:
440,47,151567,2,0,B|467:82|467:82|430:216,1,154.000004699707,2|0,0:0|1:2,0:0:0:0:
397,267,152229,5,10,0:0:0:0:
397,267,152339,1,2,0:0:0:0:
397,267,152449,1,2,0:0:0:0:
326,193,152670,2,0,L|276:199,2,38.5000011749268,2|2|2,0:0|0:0|0:0,0:0:0:0:
287,292,153111,5,2,0:0:0:0:
287,292,153221,1,2,0:0:0:0:
287,292,153332,1,2,1:2:0:0:
350,360,153552,2,0,L|388:354,2,38.5000011749268,2|2|2,0:0|0:0|1:2,0:0:0:0:
261,377,153994,5,10,0:0:0:0:
261,377,154104,1,2,0:0:0:0:
261,377,154214,1,2,0:0:0:0:
197,289,154435,2,0,L|204:251,2,38.5000011749268,2|2|2,0:0|0:0|0:0,0:0:0:0:
121,353,154876,5,2,1:2:0:0:
36,284,155096,1,0,1:2:0:0:
121,216,155317,2,0,P|124:160|89:116,1,115.50000352478,2|0,1:2|0:0,0:0:0:0:
61,87,155758,2,0,B|109:26|109:26|208:71,1,154.000004699707,10|0,0:0|0:0,0:0:0:0:
257,142,156420,1,0,0:0:0:0:
257,142,156641,5,2,0:0:0:0:
321,89,156861,1,2,1:2:0:0:
387,40,157082,2,0,P|449:35|499:85,1,115.50000352478,2|0,0:0|0:0,0:0:0:0:
494,104,157523,2,0,B|501:130|490:157|470:172|470:172|448:188|439:215|446:239,1,154.000004699707,10|0,0:0|0:0,0:0:0:0:
466,318,158185,1,0,0:0:0:0:
466,318,158405,5,0,0:0:0:0:
