osu file format v14

[General]
AudioFilename: audio.mp3
AudioLeadIn: 0
PreviewTime: 101744
Countdown: 0
SampleSet: Soft
StackLeniency: 0.7
Mode: 0
LetterboxInBreaks: 0
WidescreenStoryboard: 1

[Editor]
DistanceSpacing: 1
BeatDivisor: 4
GridSize: 4
TimelineZoom: 1.3

[Metadata]
Title:GET IT
TitleUnicode:GET IT
Artist:keshi
ArtistUnicode:keshi
Creator:Agatsu
Version:normal
Source:
Tags:english indie pop hip-hop gabriel heroine some hero some_hero
BeatmapID:3973090
BeatmapSetID:1727800

[Difficulty]
HPDrainRate:4
CircleSize:3
OverallDifficulty:4
ApproachRate:6
SliderMultiplier:1
SliderTickRate:1

[Events]
//Background and Video events
0,0,"96668523_p0.jpg",0,0
//Break Periods
2,102031,126194
//Storyboard Layer 0 (Background)
//Storyboard Layer 1 (Fail)
//Storyboard Layer 2 (Pass)
//Storyboard Layer 3 (Foreground)
//Storyboard Layer 4 (Overlay)
//Storyboard Sound Samples

[TimingPoints]
186,352.941176470588,4,2,0,80,1,0
34069,-111.111111111111,4,2,0,60,0,0
45363,-100,4,2,0,70,0,0
59480,-100,4,2,0,70,0,0
79245,-100,4,2,0,80,0,0
124422,-100,4,2,0,50,0,0
127245,-100,4,2,0,70,0,0

[Colours]
Combo1 : 219,149,170
Combo2 : 167,172,220
Combo3 : 135,203,175
Combo4 : 199,162,219

[HitObjects]
19,193,11480,5,4,1:0:0:0:
112,158,11832,1,2,0:1:0:0:
197,209,12185,2,0,P|247:226|350:227,1,150,10|0,0:1|0:0,0:0:0:0:
399,222,12891,1,0,0:0:0:0:
399,222,13068,1,0,0:0:0:0:
399,222,13244,1,2,1:0:0:0:
488,265,13597,2,0,P|502:216|508:154,1,100,10|0,0:1|0:0,0:0:0:0:
466,76,14303,5,2,1:0:0:0:
466,76,14480,1,0,0:0:0:0:
466,76,14656,1,0,0:0:0:0:
370,106,15009,2,0,P|322:104|245:91,1,100,10|0,0:1|0:0,0:0:0:0:
222,81,15538,1,0,0:0:0:0:
222,81,15715,2,0,P|183:97|150:122,1,50
136,130,16068,1,2,1:0:0:0:
72,207,16421,1,10,0:1:0:0:
147,272,16774,2,0,P|161:307|170:341,2,50,0|0|4,0:0|0:0|1:0,0:0:0:0:
72,207,17480,6,0,P|82:171|87:125,1,50,2|0,0:1|0:0,0:0:0:0:
84,108,17832,1,8,0:0:0:0:
176,71,18185,2,0,P|186:107|191:153,1,50,2|0,0:1|0:0,0:0:0:0:
188,170,18537,1,0,0:0:0:0:
281,206,18891,2,0,P|291:170|296:124,1,50,2|0,1:1|0:0,0:0:0:0:
293,107,19243,1,8,0:0:0:0:
386,71,19597,2,0,P|396:107|401:153,2,50,2|0|0,0:1|0:0|1:0,0:0:0:0:
352,33,20127,5,0,1:0:0:0:
352,33,20303,2,0,P|316:22|283:14,1,50,2|0,0:1|0:0,0:0:0:0:
254,8,20656,1,8,0:0:0:0:
243,107,21009,2,0,P|208:121|177:136,1,50,2|0,0:1|0:0,0:0:0:0:
152,150,21362,1,0,0:0:0:0:
220,223,21715,2,0,P|202:256|188:287,1,50,2|0,1:0|0:0,0:0:0:0:
178,314,22068,1,8,0:0:0:0:
277,318,22421,2,0,P|284:354|294:388,1,50,0|0,0:0|1:0,0:0:0:0:
337,376,22774,5,6,1:0:0:0:
427,336,23127,2,0,P|434:275|428:224,1,100,2|8,0:1|0:0,0:0:0:0:
353,172,23832,1,0,0:0:0:0:
353,172,24009,1,0,0:0:0:0:
353,172,24185,1,0,0:0:0:0:
263,216,24538,1,2,1:0:0:0:
169,181,24891,2,0,P|138:188|103:204,1,50,8|0,0:0|0:0,0:0:0:0:
92,235,25244,6,0,P|38:207|-2:155,1,100,0|2,0:0|1:0,0:0:0:0:
33,80,25950,1,2,0:1:0:0:
112,19,26303,2,0,P|154:33|177:44,1,50,8|0,0:0|0:0,0:0:0:0:
206,17,26656,2,0,P|240:60|252:84,1,50
263,98,27009,1,0,0:0:0:0:
210,182,27362,1,2,1:0:0:0:
247,274,27715,1,8,0:0:0:0:
247,274,27891,1,0,1:0:0:0:
247,274,28068,2,0,P|257:320|261:357,2,50,0|0|4,0:0|0:0|1:0,0:0:0:0:
326,212,28774,6,0,P|373:228|414:235,1,50,2|0,0:1|0:0,0:0:0:0:
422,236,29127,1,8,0:0:0:0:
454,141,29479,2,0,P|407:125|366:118,1,50,2|0,0:1|0:0,0:0:0:0:
358,117,29832,1,0,0:0:0:0:
262,147,30185,2,0,P|215:163|174:170,1,50,2|0,1:1|0:0,0:0:0:0:
166,171,30538,1,8,0:0:0:0:
134,76,30890,2,0,P|181:60|222:53,1,50,2|0,0:1|0:0,0:0:0:0:
230,52,31243,1,0,1:0:0:0:
326,79,31597,6,0,P|343:113|352:153,1,50,2|0,0:1|0:0,0:0:0:0:
356,173,31950,1,8,0:0:0:0:
256,164,32303,2,0,P|239:198|230:238,2,50,2|0|0,0:1|0:0|0:0,0:0:0:0:
228,121,32832,1,0,1:0:0:0:
228,121,33009,2,0,P|190:104|159:82,1,50,2|0,1:0|0:0,0:0:0:0:
150,61,33362,1,8,0:0:0:0:
50,69,33715,2,0,P|18:25|6:-3,2,50,2|0|0,0:1|3:0|3:0,0:0:0:0:
51,159,34421,5,2,0:0:0:0:
24,245,34774,1,8,0:0:0:0:
50,330,35127,1,2,0:0:0:0:
133,363,35479,2,0,P|203:358|286:343,1,134.999995880127,2|0,0:0|0:0,0:0:0:0:
309,333,36185,1,10,0:0:0:0:
391,368,36538,6,0,P|438:361|486:348,1,89.9999972534181,2|0,0:0|0:0,0:0:0:0:
492,261,37244,1,0,0:0:0:0:
423,202,37597,2,0,L|435:151,2,44.999998626709,10|0|2,0:0|0:0|0:0,0:0:0:0:
336,227,38303,2,0,P|285:242|219:237,1,89.9999972534181,2|0,0:0|0:0,0:0:0:0:
206,226,38832,1,0,0:0:0:0:
206,226,39009,1,10,0:0:0:0:
140,287,39362,6,0,P|137:348|144:399,2,89.9999972534181,2|0|0,0:0|0:0|0:0,0:0:0:0:
59,245,40421,1,8,0:0:0:0:
21,162,40774,1,2,0:0:0:0:
46,75,41127,2,0,P|90:63|154:57,1,89.9999972534181,2|0,0:0|0:0,0:0:0:0:
181,49,41656,1,0,0:0:0:0:
181,49,41832,2,0,P|176:110|184:165,2,89.9999972534181,10|2|0,0:0|0:0|0:0,0:0:0:0:
457,317,44656,2,0,P|463:280|464:244,1,44.999998626709,0|0,1:0|1:0,0:0:0:0:
437,236,45009,2,0,P|426:203|421:166,1,44.999998626709,0|0,1:0|1:0,0:0:0:0:
451,151,45362,5,4,1:0:0:0:
478,54,45715,1,0,0:0:0:0:
389,7,46068,2,0,P|312:17|236:57,1,150,10|0,0:1|0:0,0:0:0:0:
203,71,46774,1,0,0:0:0:0:
273,141,47127,1,0,1:0:0:0:
193,201,47479,2,0,P|105:206|63:154,1,150,10|0,0:1|0:0,0:0:0:0:
54,115,48185,5,0,1:0:0:0:
115,36,48538,1,0,0:0:0:0:
208,70,48891,2,0,P|221:135|220:251,1,150,10|0,0:1|0:0,0:0:0:0:
215,267,49597,1,0,0:0:0:0:
136,329,49950,1,0,1:0:0:0:
221,381,50303,2,0,P|295:360|384:352,1,150,10|0,0:1|0:0,0:0:0:0:
406,320,51009,6,0,P|450:332|479:345,2,50,0|0|2,1:0|0:0|0:0,0:0:0:0:
342,242,51715,2,0,P|279:249|210:235,1,100,10|0,0:0|0:0,0:0:0:0:
196,225,52244,1,0,0:0:0:0:
196,225,52421,2,0,P|174:279|170:303,1,50,2|0,0:0|0:0,0:0:0:0:
164,319,52774,1,2,1:2:0:0:
75,364,53127,2,0,P|74:313|60:241,1,100,10|0,0:0|0:0,0:0:0:0:
48,217,53656,1,0,0:0:0:0:
48,217,53832,5,2,1:2:0:0:
17,121,54185,1,2,0:0:0:0:
64,32,54538,2,0,P|123:40|183:35,1,100,10|0,0:0|0:0,0:0:0:0:
211,24,55068,1,0,0:0:0:0:
211,24,55244,2,0,P|234:91|239:148,1,100,2|0,0:0|1:0,0:0:0:0:
219,168,55774,1,0,0:0:0:0:
219,168,55950,2,0,P|237:241|265:298,2,100,10|2|0,0:0|0:2|3:0,0:0:0:0:
26,355,58774,2,0,P|52:343|93:328,1,50,0|0,1:0|1:0,0:0:0:0:
110,303,59127,2,0,P|154:312|175:321,1,50,0|0,1:0|1:0,0:0:0:0:
199,342,59479,6,0,P|284:354|323:345,1,100,4|0,1:0|0:0,0:0:0:0:
381,297,60185,1,10,0:0:0:0:
327,212,60538,1,2,0:0:0:0:
396,140,60891,2,0,P|463:157|534:166,1,100,2|0,0:0|1:0,0:0:0:0:
501,261,61597,1,10,0:0:0:0:
410,303,61950,1,2,0:0:0:0:
331,365,62303,6,0,P|356:292|292:233,1,150,2|0,1:2|0:0,0:0:0:0:
271,213,63009,2,0,P|210:219|141:208,1,100,10|2,0:0|0:0,0:0:0:0:
84,166,63715,1,2,0:0:0:0:
29,250,64068,1,0,1:0:0:0:
103,316,64421,2,0,P|168:327|286:317,1,150,10|0,0:0|0:0,0:0:0:0:
301,319,65127,6,0,P|286:276|277:202,1,100,0|0,1:0|0:0,0:0:0:0:
203,155,65832,1,10,0:0:0:0:
110,193,66185,1,2,0:0:0:0:
43,118,66538,1,2,0:0:0:0:
95,32,66891,1,0,1:0:0:0:
191,58,67244,2,0,P|252:55|319:33,1,100,10|2,0:0|0:0,0:0:0:0:
335,24,67774,1,0,0:0:0:0:
335,24,67950,6,0,P|399:26|474:8,1,100,2|0,1:2|0:0,0:0:0:0:
491,102,68656,1,10,0:0:0:0:
402,148,69009,1,2,0:0:0:0:
468,222,69362,2,0,P|471:281|460:349,1,100,2|2,0:0|1:2,0:0:0:0:
374,361,70068,2,0,P|267:348|241:289,1,150,10|0,0:0|3:0,0:0:0:0:
238,270,70774,6,0,P|292:271|350:255,1,100,0|0,1:0|0:0,0:0:0:0:
416,200,71479,1,10,0:0:0:0:
335,140,71832,1,0,0:0:0:0:
237,118,72185,1,2,0:0:0:0:
137,127,72538,1,2,1:2:0:0:
47,172,72891,2,0,P|33:256|35:288,1,100,10|0,0:0|0:0,0:0:0:0:
87,354,73597,6,0,P|155:362|205:297,1,150,2|0,1:2|0:0,0:0:0:0:
194,255,74303,2,0,P|264:260|333:243,1,100,10|2,0:0|0:0,0:0:0:0:
371,192,75009,1,2,0:0:0:0:
408,284,75362,1,2,1:2:0:0:
492,229,75715,2,0,P|494:178|505:109,1,100,10|0,0:0|0:0,0:0:0:0:
503,79,76244,1,0,0:0:0:0:
503,79,76421,2,0,P|435:84|372:71,2,100,0|0|0,1:0|0:0|0:0,0:0:0:0:
466,24,79244,5,4,1:0:0:0:
422,113,79596,1,2,0:1:0:0:
322,104,79949,2,0,P|272:121|169:122,1,150,10|0,0:1|0:0,0:0:0:0:
136,114,80655,1,0,0:0:0:0:
136,114,80832,1,0,1:0:0:0:
136,114,81008,1,2,1:0:0:0:
160,210,81361,2,0,P|146:259|140:321,1,100,10|0,0:1|0:0,0:0:0:0:
60,364,82067,5,2,1:0:0:0:
60,364,82244,1,0,0:0:0:0:
60,364,82420,1,0,0:0:0:0:
45,264,82774,2,0,P|39:214|25:166,1,100,10|0,0:1|0:0,0:0:0:0:
11,123,83302,1,0,1:0:0:0:
11,123,83479,2,0,P|50:107|83:82,1,50
97,74,83832,1,2,1:0:0:0:
185,120,84185,1,10,0:1:0:0:
279,88,84538,2,0,P|265:53|256:19,2,50,0|0|4,0:0|0:0|1:0,0:0:0:0:
364,140,85244,6,0,P|354:176|349:222,1,50,2|0,0:1|0:0,0:0:0:0:
356,238,85596,1,8,0:0:0:0:
255,238,85949,2,0,P|249:264|241:291,2,50,2|0|0,0:1|0:0|0:0,0:0:0:0:
218,206,86479,1,0,1:0:0:0:
218,206,86656,2,0,P|222:181|230:157,2,50,2|0|8,1:1|0:0|0:0,0:0:0:0:
125,167,87361,2,0,P|120:191|112:215,1,50,2|0,0:1|0:0,0:0:0:0:
94,262,87715,1,0,1:0:0:0:
131,355,88067,6,0,P|167:366|200:374,1,50,2|0,0:1|0:0,0:0:0:0:
228,374,88420,1,8,0:0:0:0:
269,283,88773,2,0,P|304:269|335:254,1,50,2|0,0:1|1:0,0:0:0:0:
358,238,89127,2,0,P|349:311|351:356,1,100,0|2,3:0|1:1,0:0:0:0:
434,376,89832,1,8,0:0:0:0:
493,295,90185,2,0,P|486:259|476:225,1,50
462,200,90538,5,6,1:0:0:0:
469,100,90891,2,0,P|408:107|357:101,1,100,2|8,0:1|0:0,0:0:0:0:
282,141,91596,1,0,0:0:0:0:
282,141,91773,1,0,0:0:0:0:
282,141,91949,1,0,0:0:0:0:
198,85,92302,1,2,1:0:0:0:
119,146,92655,2,0,P|95:154|71:159,1,50,8|0,0:0|0:0,0:0:0:0:
22,173,93008,6,0,P|76:201|116:253,1,100,0|2,0:0|1:0,0:0:0:0:
125,326,93714,1,2,0:1:0:0:
210,377,94067,2,0,P|252:363|275:352,1,50,8|0,0:0|0:0,0:0:0:0:
304,379,94420,2,0,P|338:336|350:312,1,50,0|0,0:0|1:0,0:0:0:0:
362,297,94773,1,0,0:0:0:0:
307,213,95126,1,2,1:0:0:0:
359,131,95479,1,8,0:0:0:0:
359,131,95655,1,0,0:0:0:0:
359,131,95832,2,0,P|349:85|345:48,2,50,0|0|4,0:0|0:0|1:0,0:0:0:0:
301,213,96538,6,0,P|254:197|213:190,1,50,2|0,0:1|0:0,0:0:0:0:
205,189,96891,1,8,0:0:0:0:
175,284,97243,2,0,P|222:300|263:307,1,50,2|0,0:1|0:0,0:0:0:0:
271,308,97596,1,0,0:0:0:0:
363,270,97949,2,0,P|410:254|451:247,1,50,2|0,1:1|0:0,0:0:0:0:
459,246,98302,1,8,0:0:0:0:
445,344,98656,2,0,P|398:360|357:367,1,50,2|0,0:1|0:0,0:0:0:0:
349,368,99009,1,0,1:0:0:0:
251,342,99361,6,0,P|234:308|225:268,1,50,2|0,0:1|0:0,0:0:0:0:
221,248,99714,1,8,0:0:0:0:
239,149,100067,2,0,P|256:115|265:75,2,50,2|0|0,0:1|1:0|0:0,0:0:0:0:
146,187,100773,2,0,P|108:204|77:226,1,50,2|0,1:0|0:0,0:0:0:0:
62,240,101126,1,8,0:0:0:0:
9,325,101479,2,0,P|41:369|53:397,2,50,0|0|0,3:0|3:0|3:0,0:0:0:0:
244,368,127244,5,4,1:0:0:0:
268,271,127597,1,0,0:0:0:0:
253,172,127950,2,0,P|254:138|261:111,1,50,8|0,0:0|0:0,0:0:0:0:
183,54,128479,1,0,0:0:0:0:
83,61,128832,2,0,P|50:114|41:135,1,50,0|0,0:0|1:0,0:0:0:0:
33,147,129185,1,0,3:0:0:0:
33,147,129362,2,0,P|30:204|39:265,1,100,8|0,0:0|3:0,0:0:0:0:
91,329,130068,5,4,1:0:0:0:
184,294,130421,2,0,P|212:234|210:181,1,100,0|8,0:0|0:0,0:0:0:0:
206,151,130950,2,0,P|150:154|84:144,1,100
163,66,131656,2,0,P|225:69|300:87,1,100
307,97,132185,1,8,0:0:0:0:
396,53,132538,1,0,0:0:0:0:
475,113,132891,5,0,1:0:0:0:
464,212,133244,2,0,P|405:232|341:231,1,100,0|8,0:0|0:0,0:0:0:0:
329,267,133774,2,0,P|314:332|312:375,2,100
257,205,134832,1,0,3:0:0:0:
257,205,135009,2,0,P|214:211|170:224,1,50,8|0,0:0|0:0,0:0:0:0:
160,229,135362,1,0,0:0:0:0:
164,330,135715,6,0,P|93:330|42:315,1,100,4|0,1:0|0:0,0:0:0:0:
30,292,136244,2,0,P|41:231|37:156,2,100
13,339,137127,1,0,0:0:0:0:
108,368,137479,1,0,1:0:0:0:
108,368,137656,1,0,0:0:0:0:
196,321,138009,2,0,P|255:339|319:344,1,100
332,312,138538,6,0,P|365:328|390:346,2,50,0|0|0,1:0|0:0|0:0,0:0:0:0:
304,270,139068,1,0,0:0:0:0:
230,202,139421,1,0,0:0:0:0:
129,202,139774,2,0,P|110:130|116:53,1,150,0|0,0:0|1:0,0:0:0:0:
159,31,140479,2,0,P|212:43|297:38,1,100,0|0,3:0|0:0,0:0:0:0:
305,27,141009,1,0,3:0:0:0:
393,73,141362,6,0,P|419:108|450:171,1,100,4|0,1:0|0:0,0:0:0:0:
415,198,141891,2,0,P|505:220|535:215,2,100
368,217,142774,1,0,0:0:0:0:
395,313,143127,1,0,1:0:0:0:
395,313,143303,1,0,0:0:0:0:
311,368,143656,2,0,P|265:351|184:344,1,100
164,345,144185,5,0,1:0:0:0:
215,259,144538,1,0,0:0:0:0:
215,259,144715,2,0,P|211:190|196:136,1,100
179,116,145244,1,0,0:0:0:0:
179,116,145421,2,0,P|199:55|201:0,1,100
102,33,146127,1,0,3:0:0:0:
102,33,146303,2,0,P|46:70|35:87,1,50,8|0,0:0|0:0,0:0:0:0:
31,99,146656,1,0,0:0:0:0:
19,147,146832,1,0,0:0:0:0:
