osu file format v14

[General]
AudioFilename: audio.mp3
AudioLeadIn: 0
PreviewTime: 101744
Countdown: 0
SampleSet: Soft
StackLeniency: 0.7
Mode: 0
LetterboxInBreaks: 0
WidescreenStoryboard: 1

[Editor]
Bookmarks: 11480,34068,45362,59480,67950,79244,101833,124421,127244
DistanceSpacing: 2.5
BeatDivisor: 4
GridSize: 4
TimelineZoom: 1.3

[Metadata]
Title:GET IT
TitleUnicode:GET IT
Artist:keshi
ArtistUnicode:keshi
Creator:Agatsu
Version:heroine's insane
Source:
Tags:english indie pop hip-hop gabriel heroine some hero some_hero
BeatmapID:3543537
BeatmapSetID:1727800

[Difficulty]
HPDrainRate:6
CircleSize:4
OverallDifficulty:7.5
ApproachRate:9
SliderMultiplier:1.4
SliderTickRate:1

[Events]
//Background and Video events
0,0,"96668523_p0.jpg",0,0
//Break Periods
2,56855,58174
//Storyboard Layer 0 (Background)
//Storyboard Layer 1 (Fail)
//Storyboard Layer 2 (Pass)
//Storyboard Layer 3 (Foreground)
//Storyboard Layer 4 (Overlay)
//Storyboard Sound Samples

[TimingPoints]
186,352.941176470588,4,2,0,80,1,0
10773,-66.6666666666667,4,2,0,80,0,0
11655,-100,4,2,0,80,0,0
34068,-133.333333333333,4,2,0,60,0,0
45362,-133.333333333333,4,2,0,70,0,0
46068,-117.647058823529,4,2,0,70,0,0
59479,-133.333333333333,4,2,0,70,0,0
78538,-66.6666666666667,4,2,0,70,0,0
79244,-66.6666666666667,4,2,0,80,0,1
79597,-100,4,2,0,80,0,1
101833,-400,4,2,0,50,0,0
102538,-100,4,2,0,50,0,0
103244,-200,4,2,0,50,0,0
103597,-100,4,2,0,50,0,0
104303,-400,4,2,0,50,0,0
106774,-100,4,2,0,50,0,0
107479,-400,4,2,0,50,0,0
108185,-100,4,2,0,50,0,0
108891,-200,4,2,0,50,0,0
109244,-100,4,2,0,50,0,0
109950,-400,4,2,0,50,0,0
111009,-100,4,2,0,50,0,0
111362,-200,4,2,0,50,0,0
113832,-100,4,2,0,50,0,0
114538,-200,4,2,0,50,0,0
114891,-100,4,2,0,50,0,0
115597,-200,4,2,0,50,0,0
116656,-100,4,2,0,50,0,0
120185,-200,4,2,0,50,0,0
120538,-100,4,2,0,50,0,0
121244,-200,4,2,0,50,0,0
122303,-200,4,2,0,50,0,0
123009,-66.6666666666667,4,2,0,50,0,0
124421,-66.6666666666667,4,2,0,50,0,0
124774,-400,4,2,0,50,0,0
127244,-111.111111111111,4,2,0,70,0,0

[Colours]
Combo1 : 219,149,170
Combo2 : 167,172,220
Combo3 : 135,203,175
Combo4 : 199,162,219

[HitObjects]
220,302,10774,6,2,B|138:241|105:136|189:11|367:73|257:202,1,420,2|4,0:1|1:0,0:1:0:0:
273,202,11656,1,0,0:0:0:0:
214,313,11832,2,0,P|184:294|150:289,1,70,2|0,0:1|0:0,0:0:0:0:
258,209,12185,2,0,P|193:190|175:126,1,140,10|0,0:1|0:0,0:0:0:0:
186,117,12715,1,0,0:0:0:0:
232,316,12891,5,0,0:0:0:0:
305,357,13068,1,0,0:0:0:0:
386,229,13244,2,0,P|390:177|361:134,1,105,2|0,1:0|0:0,0:0:0:0:
344,142,13597,2,0,P|408:153|441:96,1,140,10|0,0:1|0:0,0:0:0:0:
380,35,14127,1,0,0:0:0:0:
399,240,14303,5,2,1:0:0:0:
323,276,14479,1,0,0:0:0:0:
247,230,14656,2,0,P|213:220|180:207,1,70
413,248,15009,2,0,P|384:268|368:299,1,70,10|0,0:1|0:0,0:0:0:0:
249,329,15362,5,0,0:0:0:0:
238,334,15538,1,0,0:0:0:0:
165,232,15715,1,0,0:0:0:0:
251,146,15891,1,0,0:0:0:0:
228,340,16068,2,0,P|226:305|241:273,1,70,2|0,1:0|3:0,0:0:0:0:
263,143,16421,1,10,0:1:0:0:
158,235,16597,2,0,P|77:212|60:131,1,175,0|0,1:0|0:0,0:0:0:0:
71,124,17127,6,0,P|91:189|47:239,1,140,4|2,1:0|0:1,0:0:0:0:
42,255,17656,1,0,0:0:0:0:
211,72,17832,1,8,0:0:0:0:
211,72,18185,2,0,P|176:65|142:57,1,70,2|0,0:1|0:0,0:0:0:0:
257,148,18538,1,0,0:0:0:0:
260,159,18715,1,0,0:0:0:0:
391,14,18891,5,2,1:1:0:0:
391,14,19244,2,0,P|425:7|459:0,1,70,8|0,0:0|0:0,0:0:0:0:
499,66,19597,1,2,0:1:0:0:
494,80,19774,1,0,0:0:0:0:
397,269,19950,5,0,1:0:0:0:
328,228,20127,2,0,P|294:231|268:253,1,70,0|2,1:0|0:1,0:0:0:0:
269,266,20479,1,0,0:0:0:0:
402,288,20656,2,0,P|441:230|449:161,1,140,8|2,0:0|0:1,0:0:0:0:
434,154,21185,2,0,P|438:189|454:220,1,70
487,303,21538,1,0,0:0:0:0:
329,212,21715,6,0,P|271:172|202:164,1,140,2|8,1:0|0:0,0:0:0:0:
211,175,22244,2,0,P|240:156|259:127,1,70,0|0,1:0|0:0,0:0:0:0:
327,227,22597,1,0,1:0:0:0:
177,93,22774,2,0,B|116:80|124:97|74:80,1,105,6|0,1:0|0:0,0:0:0:0:
65,89,23127,2,0,P|76:121|83:156,1,70,2|0,0:1|0:0,0:0:0:0:
0,267,23479,6,0,P|67:257|119:301,1,140,8|0,0:0|0:0,0:0:0:0:
211,342,24009,1,0,0:0:0:0:
115,314,24185,2,0,P|100:282|103:248,1,70
182,84,24538,2,0,P|248:67|308:100,1,140,2|8,1:0|0:0,0:0:0:0:
303,113,25068,2,0,P|288:81|291:47,1,70
369,20,25421,1,0,0:0:0:0:
407,248,25597,6,0,P|345:216|276:218,1,140,2|2,1:0|0:1,0:0:0:0:
268,227,26127,1,0,0:0:0:0:
472,82,26303,2,0,P|439:93|417:120,1,70,8|0,0:0|0:0,0:0:0:0:
464,190,26656,1,0,0:0:0:0:
477,187,26832,1,0,0:0:0:0:
261,238,27009,6,0,P|228:177|166:146,1,140,0|2,0:0|1:0,0:0:0:0:
98,218,27538,1,0,0:0:0:0:
232,117,27715,2,0,P|199:129|165:138,1,70,8|0,0:0|1:0,0:0:0:0:
250,252,28068,2,0,P|282:264|316:273,1,70
29,247,28421,6,0,P|27:177|46:110,1,140,4|2,1:0|0:1,0:0:0:0:
160,122,28950,2,0,P|151:155|130:183,1,70,0|8,0:0|0:0,0:0:0:0:
55,107,29303,1,0,0:0:0:0:
251,230,29479,2,0,P|220:247|186:253,1,70,2|0,0:1|0:0,0:0:0:0:
173,131,29832,1,0,0:0:0:0:
185,144,30009,1,0,0:0:0:0:
250,366,30185,2,0,P|216:357|188:336,1,70,2|0,1:1|0:0,0:0:0:0:
264,240,30538,1,8,0:0:0:0:
271,253,30715,1,0,0:0:0:0:
178,337,30891,1,2,0:1:0:0:
116,288,31068,1,0,0:0:0:0:
276,267,31244,6,0,P|341:292|409:308,1,140,0|2,1:0|0:1,0:0:0:0:
408,321,31774,2,0,P|376:335|343:346,1,70,0|8,0:0|0:0,0:0:0:0:
264,278,32127,1,0,0:0:0:0:
204,151,32303,2,0,P|235:165|268:176,1,70,2|0,0:1|0:0,0:0:0:0:
248,278,32656,1,0,0:0:0:0:
190,157,32832,1,0,1:0:0:0:
236,274,33009,2,0,P|243:240|265:213,1,70,2|0,1:0|0:0,0:0:0:0:
394,318,33362,1,8,0:0:0:0:
179,161,33538,2,0,P|263:102|301:5,1,210,0|0,1:0|3:0,0:0:0:0:
158,158,34244,5,0,0:0:0:0:
247,215,34421,1,2,0:0:0:0:
175,263,34597,1,0,0:0:0:0:
275,241,34774,1,8,0:0:0:0:
167,185,34950,1,0,0:0:0:0:
261,323,35127,2,0,P|255:297|251:271,1,52.5000020027161,2|0,0:0|0:0,0:0:0:0:
113,317,35479,2,0,P|118:342|122:368,1,52.5000020027161,2|0,0:0|0:0,0:0:0:0:
143,176,35832,5,0,0:0:0:0:
127,190,36009,1,0,0:0:0:0:
239,261,36185,2,0,P|287:239|331:212,1,105.000004005432,10|2,0:0|0:0,0:0:0:0:
325,128,36715,1,0,0:0:0:0:
328,203,36891,2,0,P|336:254|342:306,1,105.000004005432
147,159,37421,5,0,0:0:0:0:
224,256,37597,2,0,P|211:234|206:209,1,52.5000020027161,10|0,0:0|0:0,0:0:0:0:
408,148,37950,2,0,P|388:195|340:213,1,105.000004005432,2|2,0:0|0:0,0:0:0:0:
316,119,38479,1,0,0:0:0:0:
417,140,38656,2,0,P|441:148|467:153,1,52.5000020027161
339,220,39009,2,0,P|314:228|288:233,1,52.5000020027161,10|0,0:0|0:0,0:0:0:0:
367,300,39362,2,0,B|419:297|419:317|473:322,1,105.000004005432,2|0,0:0|0:0,0:0:0:0:
479,312,39891,1,0,0:0:0:0:
323,360,40068,6,0,P|298:371|273:377,1,52.5000020027161
156,318,40421,1,8,0:0:0:0:
191,247,40597,1,0,0:0:0:0:
266,304,40774,1,2,0:0:0:0:
172,229,40950,1,0,0:0:0:0:
158,332,41127,2,0,P|132:336|105:337,1,52.5000020027161,2|0,0:0|0:0,0:0:0:0:
199,216,41479,2,0,P|224:220|251:221,1,52.5000020027161
30,384,41832,2,0,P|48:336|94:314,1,105.000004005432,10|2,0:0|0:0,0:0:0:0:
356,365,42362,6,0,B|431:352|435:375|512:354,1,157.500006008148
501,349,43068,1,2,0:1:0:0:
424,286,43244,1,2,0:1:0:0:
406,185,43421,1,2,0:1:0:0:
459,97,43597,1,2,0:1:0:0:
466,93,43774,1,2,0:1:0:0:
223,186,43950,6,0,P|228:160|232:134,1,52.5000020027161,2|2,0:1|0:1,0:0:0:0:
145,171,44303,2,0,P|119:165|93:161,1,52.5000020027161,2|2,0:1|3:1,0:0:0:0:
239,341,44656,1,0,1:0:0:0:
352,258,44832,1,0,1:0:0:0:
249,356,45009,1,0,1:0:0:0:
362,273,45185,1,0,1:0:0:0:
233,197,45362,6,0,B|146:168|171:254|68:245,1,157.500006008148,4|0,1:0|0:0,0:0:0:0:
85,260,46068,1,10,0:1:0:0:
163,300,46244,1,0,0:0:0:0:
129,185,46421,2,0,P|119:155|112:125,1,59.5000011348725
245,186,46774,2,0,P|235:215|228:245,1,59.5000011348725
27,54,47127,1,0,1:0:0:0:
89,14,47303,1,0,0:0:0:0:
334,129,47479,6,0,B|259:145|291:171|211:185,1,119.000002269745,10|0,0:1|0:0,0:0:0:0:
222,77,48009,1,0,0:0:0:0:
350,139,48185,2,0,P|342:113|333:78,1,59.5000011348725,0|0,1:0|0:0,0:0:0:0:
239,191,48538,1,0,0:0:0:0:
304,233,48715,1,0,0:0:0:0:
512,165,48891,6,0,P|454:171|428:219,1,119.000002269745,10|0,0:1|0:0,0:0:0:0:
439,236,49421,1,0,0:0:0:0:
427,80,49597,1,0,0:0:0:0:
415,65,49774,2,0,P|389:70|348:72,1,59.5000011348725,0|0,0:0|1:0,0:0:0:0:
428,251,50303,6,0,P|385:209|327:195,1,119.000002269745,10|0,0:1|0:0,0:0:0:0:
276,250,50832,1,0,0:0:0:0:
441,246,51009,1,0,1:0:0:0:
497,192,51185,1,0,0:0:0:0:
437,91,51362,2,0,P|431:65|430:31,1,59.5000011348725,2|0,0:0|0:0,0:0:0:0:
353,98,51715,2,0,P|352:69|346:39,1,59.5000011348725,10|0,0:0|0:0,0:0:0:0:
286,259,52068,5,0,0:0:0:0:
238,151,52244,1,0,0:0:0:0:
347,111,52421,1,2,0:0:0:0:
359,120,52597,1,0,0:0:0:0:
171,271,52774,2,0,P|141:268|112:260,1,59.5000011348725,2|0,1:2|3:0,0:0:0:0:
292,271,53127,2,0,P|321:268|350:260,1,59.5000011348725,10|0,0:0|0:0,0:0:0:0:
178,288,53479,1,0,0:0:0:0:
235,375,53656,1,0,0:0:0:0:
304,277,53832,6,0,P|288:219|268:163,2,119.000002269745,2|2|10,1:2|0:0|0:0,0:0:0:0:
378,316,54715,1,0,0:0:0:0:
459,308,54891,1,0,0:0:0:0:
486,234,55068,1,0,0:0:0:0:
257,166,55244,2,0,P|228:163|198:159,1,59.5000011348725,2|0,0:0|0:0,0:0:0:0:
392,105,55597,2,0,P|421:102|451:98,1,59.5000011348725,0|0,1:0|3:0,0:0:0:0:
267,178,55950,2,0,P|221:141|213:84,1,119.000002269745,10|2,0:0|0:2,0:0:0:0:
386,118,56479,2,0,L|391:147,2,29.7500005674362,0|0|0,3:0|3:0|3:0,0:0:0:0:
376,111,58774,5,0,1:0:0:0:
243,91,58950,1,0,1:0:0:0:
110,71,59127,1,0,1:0:0:0:
119,78,59303,1,0,1:0:0:0:
376,124,59479,6,0,B|277:155|328:164|234:190,1,157.500006008148,4|0,1:0|0:0,0:0:0:0:
240,201,60185,2,0,P|247:227|250:253,1,52.5000020027161,10|0,0:0|0:0,0:0:0:0:
361,113,60538,2,0,P|354:87|351:61,1,52.5000020027161,2|0,0:0|0:0,0:0:0:0:
390,295,60891,2,0,P|388:244|427:211,1,105.000004005432,2|0,0:0|1:0,0:0:0:0:
438,219,61421,1,0,0:0:0:0:
358,214,61597,1,10,0:0:0:0:
284,241,61774,2,0,P|214:204|136:196,1,157.500006008148,0|2,0:0|1:2,0:0:0:0:
147,208,62479,2,0,P|165:189|179:167,2,52.5000020027161
38,247,63009,6,0,P|27:196|10:147,1,105.000004005432,10|2,0:0|0:0,0:0:0:0:
152,220,63538,1,0,0:0:0:0:
44,235,63715,2,0,P|46:209|58:185,1,52.5000020027161,2|0,0:0|0:0,0:0:0:0:
213,273,64068,2,0,P|210:298|198:322,1,52.5000020027161,0|0,1:0|0:0,0:0:0:0:
159,209,64421,2,0,B|156:150|146:158|143:105,1,105.000004005432,10|0,0:0|0:0,0:0:0:0:
132,94,64950,1,0,0:0:0:0:
279,91,65127,6,0,P|256:103|230:109,1,52.5000020027161,0|0,1:0|0:0,0:0:0:0:
323,223,65479,2,0,P|310:200|304:174,1,52.5000020027161
119,80,65832,2,0,P|68:90|39:132,1,105.000004005432,10|2,0:0|0:0,0:0:0:0:
86,200,66362,1,0,0:0:0:0:
133,74,66538,2,0,P|127:48|119:23,1,52.5000020027161,2|0,0:0|0:0,0:0:0:0:
311,235,66891,2,0,P|316:260|324:285,1,52.5000020027161,0|0,1:0|0:0,0:0:0:0:
97,211,67244,2,0,P|53:239|5:261,1,105.000004005432,10|2,0:0|0:0,0:0:0:0:
340,294,67950,6,0,B|332:233|322:251|316:192,1,105.000004005432,2|0,1:2|0:0,0:0:0:0:
339,113,68479,1,0,0:0:0:0:
308,189,68656,2,0,P|311:163|314:136,1,52.5000020027161,10|0,0:0|0:0,0:0:0:0:
400,199,69009,2,0,P|425:202|452:205,1,52.5000020027161,2|0,0:0|0:0,0:0:0:0:
250,282,69362,2,0,B|194:283|209:311|149:306,1,105.000004005432,2|2,0:0|1:2,0:0:0:0:
327,99,70068,5,10,0:0:0:0:
390,50,70244,2,0,P|414:57|440:62,2,52.5000020027161,0|0|0,0:0|0:0|3:0,0:0:0:0:
340,112,70774,1,0,1:0:0:0:
356,123,70950,1,0,0:0:0:0:
295,204,71127,1,0,0:0:0:0:
229,124,71303,1,0,0:0:0:0:
166,245,71479,2,0,P|173:219|176:193,1,52.5000020027161,10|0,0:0|0:0,0:0:0:0:
268,324,71832,2,0,P|242:317|216:314,1,52.5000020027161
360,278,72185,6,0,P|410:290|450:258,1,105.000004005432,2|2,0:0|1:2,0:0:0:0:
415,188,72715,1,0,0:0:0:0:
355,268,72891,1,10,0:0:0:0:
463,261,73068,2,0,P|455:235|453:209,1,52.5000020027161
504,331,73421,1,0,0:0:0:0:
344,271,73597,6,0,B|282:273|297:296|227:286,1,105.000004005432,2|0,1:2|0:0,0:0:0:0:
233,275,74127,1,0,0:0:0:0:
498,345,74303,2,0,P|472:340|446:333,1,52.5000020027161,10|0,0:0|0:0,0:0:0:0:
354,259,74656,2,0,P|328:254|302:247,1,52.5000020027161,2|0,0:0|0:0,0:0:0:0:
124,309,75009,6,0,P|175:298|225:284,1,105.000004005432,2|2,0:0|1:2,0:0:0:0:
52,274,75538,2,0,P|43:249|26:228,1,52.5000020027161,0|10,0:0|0:0,0:0:0:0:
120,323,75891,1,0,0:0:0:0:
233,291,76068,2,0,P|259:246|308:231,1,105.000004005432,0|0,0:0|1:0,0:0:0:0:
319,243,76597,1,0,0:0:0:0:
147,203,76774,2,0,P|131:182|124:156,1,52.5000020027161
215,148,77127,2,0,P|218:122|231:99,1,52.5000020027161
304,154,77479,2,0,P|324:138|350:131,1,52.5000020027161
245,291,77832,6,0,P|271:335|278:387,1,105.000004005432
401,252,78538,2,2,B|483:191|516:86|432:-39|254:23|364:152,1,420,2|4,0:1|1:0,0:1:0:0:
356,141,79597,2,0,P|321:139|286:132,1,70,2|0,0:1|0:0,0:0:0:0:
401,252,79950,2,0,P|435:254|470:261,1,70,10|0,0:1|0:0,0:0:0:0:
195,188,80303,2,0,P|202:153|205:119,1,70
336,303,80656,5,0,0:0:0:0:
200,356,80832,1,0,1:0:0:0:
346,324,81009,2,0,P|280:310|259:246,1,140,2|10,1:0|0:1,0:0:0:0:
185,192,81538,2,0,P|180:226|154:248,1,70
272,240,81891,6,0,P|304:224|336:210,1,70,0|2,0:0|1:0,0:0:0:0:
34,137,82244,2,0,P|65:152|97:166,1,70
151,263,82597,1,0,0:0:0:0:
258,227,82774,2,0,P|208:183|222:118,1,140,10|0,0:1|0:0,0:0:0:0:
235,115,83303,6,0,P|219:146|190:165,1,70,0|0,1:0|0:0,0:0:0:0:
312,85,83656,1,0,0:0:0:0:
330,330,83832,2,0,P|276:288|270:220,1,140,2|10,1:0|0:1,0:0:0:0:
394,265,84362,2,0,P|382:232|389:198,1,70
481,182,84715,1,0,0:0:0:0:
318,333,84891,6,0,P|309:264|296:195,1,140,4|2,1:0|0:1,0:0:0:0:
408,270,85421,1,0,0:0:0:0:
302,344,85597,2,0,P|234:350|188:301,1,140,8|2,0:0|0:1,0:0:0:0:
275,192,86127,1,0,0:0:0:0:
193,291,86303,1,0,0:0:0:0:
134,172,86479,1,0,1:0:0:0:
256,193,86656,2,0,P|240:161|242:127,1,70,2|0,1:1|0:0,0:0:0:0:
316,77,87009,1,8,0:0:0:0:
178,303,87185,6,0,P|139:245|75:218,1,140
29,288,87715,1,0,1:0:0:0:
84,201,87891,2,0,P|116:188|143:166,1,70,0|2,0:0|0:1,0:0:0:0:
164,292,88244,1,0,0:0:0:0:
77,348,88421,2,0,P|64:315|42:288,1,70,8|0,0:0|0:0,0:0:0:0:
140,150,88774,1,2,0:1:0:0:
228,194,88950,6,0,P|175:237|177:304,1,140,0|0,1:0|0:0,0:0:0:0:
245,111,89479,2,0,P|230:79|222:45,1,70,2|0,1:1|0:0,0:0:0:0:
125,159,89832,1,8,0:0:0:0:
239,212,90009,2,0,P|287:182|384:185,1,140
254,289,90538,6,0,P|221:306|181:314,1,70,6|0,1:0|0:0,0:0:0:0:
377,191,90891,2,0,P|409:208|449:216,1,70,2|0,0:1|0:0,0:0:0:0:
225,204,91244,1,8,0:0:0:0:
277,134,91421,1,0,0:0:0:0:
367,310,91597,1,0,0:0:0:0:
262,302,91774,1,0,0:0:0:0:
365,187,91950,6,0,P|371:152|381:119,1,70,0|0,0:0|1:0,0:0:0:0:
216,213,92303,2,0,P|183:206|158:181,1,70,2|0,1:0|0:0,0:0:0:0:
449,207,92656,1,8,0:0:0:0:
375,303,92832,1,0,0:0:0:0:
293,239,93009,1,0,0:0:0:0:
233,290,93185,1,0,0:0:0:0:
79,199,93362,6,0,P|113:193|148:188,1,70,2|0,1:0|0:0,0:0:0:0:
371,325,93715,2,0,P|336:319|301:314,1,70,2|0,0:1|0:0,0:0:0:0:
188,109,94068,1,8,0:0:0:0:
268,68,94244,1,0,0:0:0:0:
188,17,94421,1,0,0:0:0:0:
204,113,94597,1,0,1:0:0:0:
281,61,94774,2,0,P|284:26|289:-8,1,70
295,308,95127,2,0,P|291:342|286:377,1,70,2|0,1:0|0:0,0:0:0:0:
399,209,95479,5,8,0:0:0:0:
286,180,95656,1,0,0:0:0:0:
412,225,95832,1,0,0:0:0:0:
299,293,96009,2,0,P|332:285|364:298,1,70,0|4,0:0|1:0,0:0:0:0:
406,367,96362,1,0,0:0:0:0:
105,307,96538,6,0,P|169:277|227:238,1,140,2|8,0:1|0:0,0:0:0:0:
226,153,97068,1,0,0:0:0:0:
127,317,97244,1,2,0:1:0:0:
61,237,97421,2,0,P|58:202|45:169,1,70
154,312,97774,1,0,1:0:0:0:
237,136,97950,2,0,P|189:89|120:84,1,140,2|8,1:1|0:0,0:0:0:0:
269,214,98479,2,0,P|304:213|336:198,1,70,0|2,0:0|0:1,0:0:0:0:
384,125,98832,1,0,0:0:0:0:
121,101,99009,6,0,P|189:101|237:53,1,140,0|2,1:0|0:1,0:0:0:0:
176,0,99538,1,0,0:0:0:0:
213,71,99715,2,0,P|219:106|228:140,1,70,8|0,0:0|0:0,0:0:0:0:
283,226,100068,1,2,0:1:0:0:
352,271,100244,1,0,1:0:0:0:
427,231,100421,1,0,0:0:0:0:
426,151,100597,1,0,0:0:0:0:
295,57,100774,5,2,1:0:0:0:
501,162,100950,2,0,P|467:153|433:142,1,70,0|8,0:0|0:0,0:0:0:0:
371,32,101303,1,0,0:0:0:0:
161,58,101479,2,0,L|144:55,6,17.5,0|0|0|0|0|0|0,3:0|0:0|3:0|0:0|3:0|0:0|3:0,0:0:0:0:
198,131,101833,6,0,P|226:145|247:167,1,61.25,2|0,3:2|0:0,0:0:0:0:
181,127,102538,2,0,P|229:80|215:14,1,140,0|0,1:2|0:2,0:2:0:0:
49,0,103068,1,2,0:2:0:0:
42,6,103156,1,2,0:2:0:0:
17,33,103244,2,0,P|44:33|69:39,1,52.5,0|0,0:2|0:2,0:2:0:0:
202,16,103597,2,0,P|271:26|336:1,1,140,0|0,1:2|0:2,0:2:0:0:
344,6,104303,6,0,B|339:57|335:63|330:110,1,105,2|0,1:2|1:2,0:2:0:0:
335,120,105891,1,0,0:2:0:0:
383,59,106068,1,0,0:2:0:0:
451,90,106244,1,0,0:2:0:0:
389,49,106421,1,0,3:2:0:0:
403,36,106597,1,0,3:2:0:0:
456,100,106774,2,0,P|441:169|404:228,1,140,0|2,1:2|0:2,0:2:0:0:
387,232,107303,2,0,P|388:249|391:266,1,35,0|0,3:2|3:2,0:2:0:0:
302,357,107479,6,0,P|301:326|283:302,1,61.25,0|0,3:2|0:2,0:2:0:0:
349,375,108185,2,0,P|291:337|224:350,1,140,2|0,1:2|0:2,0:2:0:0:
120,267,108715,1,2,3:2:0:0:
133,252,108803,1,0,3:2:0:0:
171,238,108891,2,0,P|167:211|164:185,1,52.5,0|0,3:2|0:2,0:2:0:0:
51,174,109244,2,0,P|5:224|5:292,1,140,0|0,1:2|3:2,0:2:0:0:
174,178,109950,2,0,P|167:135|134:108,1,87.5,0|0,1:2|0:2,0:2:0:0:
124,118,111009,2,0,P|156:134|190:131,1,70,2|0,0:3|0:2,0:2:0:0:
368,27,111362,6,0,B|443:15|423:57|508:38,1,140,0|0,1:2|3:2,0:2:0:0:
511,27,112421,1,0,3:2:0:0:
495,36,112774,2,0,P|485:54|480:82,1,35,2|0,0:3|0:2,0:2:0:0:
343,196,113127,2,0,P|360:245|375:295,1,105,2|0,3:2|0:2,0:2:0:0:
403,318,113832,2,0,B|300:258|315:355|207:347,1,210,0|0,1:2|0:2,0:2:0:0:
126,235,114538,2,0,P|141:255|162:271,1,52.5,0|0,3:2|0:2,0:2:0:0:
103,271,114891,2,0,P|118:250|226:263,1,140,0|0,1:2|3:2,0:2:0:0:
0,40,115597,6,0,P|66:64|131:33,1,140,2|0,1:2|3:2,0:2:0:0:
115,29,116656,2,0,P|98:60|94:95,1,70,0|0,1:2|0:2,0:2:0:0:
396,268,117185,1,0,3:2:0:0:
430,199,117362,1,0,3:2:0:0:
389,135,117538,1,0,0:2:0:0:
408,272,117715,1,0,3:2:0:0:
443,204,117891,1,0,3:2:0:0:
393,126,118068,2,0,B|325:78|320:166|237:116,1,140,0|2,1:2|3:2,0:2:0:0:
209,54,118597,5,0,3:2:0:0:
266,120,118774,2,0,P|278:151|281:193,1,70,0|0,3:2|0:2,0:2:0:0:
296,194,119479,2,0,P|228:206|169:172,1,140,2|2,1:2|0:2,0:2:0:0:
145,98,120009,1,2,0:3:0:0:
167,232,120185,2,0,P|158:209|155:169,1,52.5,2|0,3:2|0:2,0:2:0:0:
172,245,120538,2,0,P|181:222|291:200,1,140,2|0,1:2|0:2,0:2:0:0:
462,319,121127,5,0,3:2:0:0:
462,319,121185,1,0,3:2:0:0:
462,319,121244,2,0,B|366:310|370:367|253:344,1,210,0|0,1:2|2:2,0:2:0:0:
223,358,123009,6,2,B|305:297|338:192|254:67|76:129|186:258,2,420,2|0|0,0:1|0:2|3:2,0:1:0:0:
229,341,124774,6,0,P|245:335|262:330,1,35,0|0,3:0|0:0,0:0:0:0:
178,255,125303,2,0,P|161:248|144:243,1,35,0|0,3:0|0:0,0:0:0:0:
293,160,125832,1,0,3:0:0:0:
232,114,126009,2,0,P|215:120|198:125,1,35,0|0,0:0|3:0,0:0:0:0:
271,344,126538,5,8,0:0:0:0:
258,354,127244,1,4,1:0:0:0:
298,271,127421,1,0,0:0:0:0:
247,190,127597,1,0,0:0:0:0:
289,101,127774,1,0,0:0:0:0:
251,348,127950,2,0,P|219:353|189:359,1,62.9999980773926,8|0,0:0|0:0,0:0:0:0:
40,264,128303,5,0,0:0:0:0:
145,286,128479,1,0,0:0:0:0:
36,240,128656,1,0,0:0:0:0:
154,276,128832,2,0,P|136:250|134:219,1,62.9999980773926,0|0,0:0|1:0,0:0:0:0:
201,118,129185,1,0,3:0:0:0:
223,124,129274,1,0,3:0:0:0:
235,143,129362,1,8,0:0:0:0:
123,205,129538,1,0,0:0:0:0:
32,112,129715,6,0,P|72:63|128:34,1,125.999996154785,0|4,3:0|1:0,0:0:0:0:
206,26,130244,1,0,0:0:0:0:
233,162,130421,2,0,P|249:188|272:210,1,62.9999980773926
411,189,130774,2,0,P|357:218|339:277,1,125.999996154785,8|0,0:0|0:0,0:0:0:0:
388,351,131303,1,0,0:0:0:0:
242,165,131479,6,0,P|268:148|290:125,1,62.9999980773926
336,294,131832,2,0,P|319:267|296:245,1,62.9999980773926,0|0,1:0|0:0,0:0:0:0:
221,45,132185,2,0,P|178:86|120:69,1,125.999996154785,8|0,0:0|0:0,0:0:0:0:
88,1,132715,1,0,0:0:0:0:
113,75,132891,6,0,P|84:87|54:98,1,62.9999980773926,0|0,1:0|0:0,0:0:0:0:
229,53,133244,2,0,P|257:40|287:29,1,62.9999980773926
110,314,133597,2,0,P|97:254|130:202,1,125.999996154785,8|0,0:0|0:0,0:0:0:0:
199,247,134127,1,0,0:0:0:0:
108,330,134303,1,0,0:0:0:0:
35,302,134479,1,0,0:0:0:0:
116,347,134656,1,0,1:0:0:0:
310,358,134832,5,0,3:0:0:0:
326,352,134921,1,0,3:0:0:0:
339,341,135009,1,8,0:0:0:0:
272,245,135185,2,0,P|241:254|210:258,1,62.9999980773926
358,343,135715,2,0,P|350:281|380:227,1,125.999996154785,4|0,1:0|0:0,0:0:0:0:
460,248,136244,1,0,0:0:0:0:
205,142,136421,6,0,P|233:157|264:165,1,62.9999980773926,8|0,0:0|0:0,0:0:0:0:
130,191,136774,1,0,0:0:0:0:
388,234,136950,2,0,P|360:248|329:256,1,62.9999980773926
193,138,137303,1,0,0:0:0:0:
277,157,137479,2,0,P|262:129|312:54,1,125.999996154785,0|8,1:0|0:0,0:0:0:0:
319,64,138009,2,0,P|291:49|260:41,2,62.9999980773926
64,145,138538,6,0,P|122:127|176:156,1,125.999996154785,0|0,1:0|0:0,0:0:0:0:
176,245,139068,1,0,0:0:0:0:
164,160,139244,2,0,P|153:130|151:99,1,62.9999980773926,8|0,0:0|0:0,0:0:0:0:
189,255,139597,1,0,0:0:0:0:
332,285,139774,2,0,P|345:256|366:232,1,62.9999980773926
261,221,140127,1,0,0:0:0:0:
252,314,140303,2,0,P|265:342|286:366,1,62.9999980773926,0|0,1:0|3:0,0:0:0:0:
474,295,140656,2,0,P|437:245|377:237,1,125.999996154785,8|0,0:0|3:0,0:0:0:0:
130,306,141362,5,4,1:0:0:0:
53,263,141538,1,0,0:0:0:0:
164,282,141715,1,0,0:0:0:0:
231,211,141891,1,0,0:0:0:0:
146,164,142068,6,0,P|86:153|61:98,1,125.999996154785,8|0,0:0|0:0,0:0:0:0:
124,53,142597,1,0,0:0:0:0:
161,173,142774,2,0,P|150:202|143:233,1,62.9999980773926
307,8,143127,2,0,P|305:69|342:120,1,125.999996154785,0|8,1:0|0:0,0:0:0:0:
349,108,143656,2,0,P|320:119|305:146,1,62.9999980773926
444,180,144009,1,0,0:0:0:0:
250,291,144185,6,0,P|312:280|358:239,1,125.999996154785,0|0,1:0|0:0,0:0:0:0:
235,308,144715,2,0,P|223:279|196:264,1,62.9999980773926,0|8,0:0|0:0,0:0:0:0:
130,307,145068,1,0,0:0:0:0:
352,238,145244,2,0,P|364:209|354:179,1,62.9999980773926
278,163,145597,1,0,0:0:0:0:
469,348,145774,2,0,P|497:336|512:309,1,62.9999980773926,0|0,0:0|1:0,0:0:0:0:
469,242,146127,1,0,3:0:0:0:
246,326,146303,6,0,P|184:315|132:279,1,125.999996154785,8|0,0:0|0:0,0:0:0:0:
110,279,146744,1,0,3:0:0:0:
80,282,146832,1,0,3:0:0:0:
38,287,146921,1,0,3:0:0:0:
0,291,147009,1,0,3:0:0:0:
