osu file format v14

[General]
AudioFilename: audio.mp3
AudioLeadIn: 0
PreviewTime: 101744
Countdown: 0
SampleSet: Soft
StackLeniency: 0.7
Mode: 0
LetterboxInBreaks: 0
WidescreenStoryboard: 1

[Editor]
Bookmarks: 11480,34068,45362,59480,67950,79244,101833,124421,127244
DistanceSpacing: 2.5
BeatDivisor: 4
GridSize: 4
TimelineZoom: 1.3

[Metadata]
Title:GET IT
TitleUnicode:GET IT
Artist:keshi
ArtistUnicode:keshi
Creator:Agatsu
Version:hard
Source:
Tags:english indie pop hip-hop gabriel heroine some hero some_hero
BeatmapID:3973089
BeatmapSetID:1727800

[Difficulty]
HPDrainRate:5
CircleSize:4
OverallDifficulty:6
ApproachRate:8
SliderMultiplier:1.4
SliderTickRate:1

[Events]
//Background and Video events
0,0,"96668523_p0.jpg",0,0
//Break Periods
2,102032,123671
//Storyboard Layer 0 (Background)
//Storyboard Layer 1 (Fail)
//Storyboard Layer 2 (Pass)
//Storyboard Layer 3 (Foreground)
//Storyboard Layer 4 (Overlay)
//Storyboard Sound Samples

[TimingPoints]
186,352.941176470588,4,2,0,80,1,0
34068,-125,4,2,0,60,0,0
45362,-111.111111111111,4,2,0,70,0,0
79244,-100,4,2,0,80,0,0
124421,-111.111111111111,4,2,0,50,0,0
127244,-100,4,2,0,70,0,0

[Colours]
Combo1 : 219,149,170
Combo2 : 167,172,220
Combo3 : 135,203,175
Combo4 : 199,162,219

[HitObjects]
34,114,11480,6,0,P|101:129|162:78,1,140,4|2,1:0|0:1,0:0:0:0:
215,151,12009,1,0,0:0:0:0:
128,216,12185,2,0,P|135:250|153:300,2,70,10|0|0,0:1|0:0|0:0,0:0:0:0:
225,255,12715,1,0,0:0:0:0:
195,346,12891,5,0,0:0:0:0:
283,317,13068,1,0,0:0:0:0:
359,357,13244,2,0,P|403:358|450:353,1,70,2|0,1:0|0:0,0:0:0:0:
493,275,13597,2,0,P|469:202|458:134,1,140,10|0,0:1|0:0,0:0:0:0:
385,212,14127,1,0,0:0:0:0:
268,153,14303,6,0,P|304:150|357:139,1,70,2|0,1:0|0:0,0:0:0:0:
245,232,14656,2,0,P|209:235|156:246,1,70
79,317,15009,2,0,P|45:267|63:187,1,140,10|0,0:1|0:0,0:0:0:0:
115,131,15538,1,0,0:0:0:0:
141,220,15715,5,0,0:0:0:0:
219,188,15891,1,0,0:0:0:0:
190,299,16068,2,0,P|141:304|96:300,1,70,2|0,1:0|3:0,0:0:0:0:
287,317,16421,1,10,0:1:0:0:
355,375,16597,2,0,P|372:326|375:278,2,70,0|0|0,1:0|0:0|0:0,0:0:0:0:
441,236,17127,5,4,1:0:0:0:
441,236,17480,2,0,P|486:234|531:221,1,70,2|0,0:1|0:0,0:0:0:0:
375,172,17833,1,8,0:0:0:0:
375,172,18185,2,0,P|330:170|285:157,1,70,2|0,0:1|0:0,0:0:0:0:
231,130,18538,5,0,0:0:0:0:
164,181,18715,1,0,0:0:0:0:
71,117,18891,2,0,P|88:80|99:39,1,70,2|0,1:1|0:0,0:0:0:0:
134,180,19244,2,0,P|136:226|130:291,1,105,8|0,0:0|0:0,0:0:0:0:
110,311,19597,2,0,P|61:318|15:313,1,70,2|0,0:1|0:0,0:0:0:0:
181,370,19950,5,0,1:0:0:0:
236,270,20127,1,0,1:0:0:0:
309,316,20303,2,0,P|302:358|291:391,1,70,2|0,0:1|0:0,0:0:0:0:
397,346,20656,1,8,0:0:0:0:
397,346,21009,2,0,P|446:351|490:352,1,70,2|0,0:1|0:0,0:0:0:0:
428,267,21362,5,0,0:0:0:0:
372,205,21538,1,0,0:0:0:0:
294,228,21715,1,2,1:0:0:0:
204,188,21891,1,0,0:0:0:0:
109,217,22068,2,0,P|156:225|208:224,1,70,8|0,0:0|1:0,0:0:0:0:
124,297,22421,1,0,0:0:0:0:
212,355,22597,1,0,1:0:0:0:
57,358,22774,6,0,P|36:311|48:253,1,105,6|0,1:0|0:0,0:0:0:0:
67,220,23127,2,0,P|55:162|43:122,1,70,2|0,0:1|0:0,0:0:0:0:
17,32,23480,1,8,0:0:0:0:
17,32,23833,1,0,0:0:0:0:
88,78,24009,1,0,0:0:0:0:
161,12,24185,6,0,P|182:48|194:89,1,70
127,154,24538,2,0,P|67:192|-13:156,1,140,2|8,1:0|0:0,0:0:0:0:
143,251,25068,2,0,P|197:261|241:260,2,70
71,300,25597,6,0,P|79:339|101:389,1,70,2|0,1:0|0:0,0:0:0:0:
213,338,25950,2,0,P|204:279|185:220,1,105,2|0,0:1|0:0,0:0:0:0:
180,197,26303,1,8,0:0:0:0:
215,117,26480,1,0,0:0:0:0:
290,166,26656,1,0,0:0:0:0:
257,248,26833,1,0,0:0:0:0:
321,193,27009,6,0,P|369:189|406:191,1,70
491,313,27362,2,0,P|425:322|366:265,1,140,2|8,1:0|0:0,0:0:0:0:
290,316,27891,2,0,P|296:369|307:400,2,70,0|0|0,1:0|0:0|0:0,0:0:0:0:
272,220,28421,5,4,1:0:0:0:
272,220,28774,2,0,P|312:211|362:193,1,70,2|0,0:1|0:0,0:0:0:0:
435,94,29127,1,8,0:0:0:0:
435,94,29480,2,0,P|385:80|338:61,1,70,2|0,0:1|0:0,0:0:0:0:
292,29,29833,5,0,0:0:0:0:
292,29,30009,1,0,0:0:0:0:
302,128,30185,1,2,1:1:0:0:
211,80,30362,1,0,0:0:0:0:
235,180,30538,2,0,P|246:227|247:298,1,105,8|0,0:0|0:0,0:0:0:0:
235,326,30891,2,0,P|286:335|334:338,1,70,2|0,0:1|0:0,0:0:0:0:
154,368,31244,5,0,1:0:0:0:
154,368,31597,2,0,P|95:348|59:342,1,70,2|0,0:1|0:0,0:0:0:0:
3,211,31950,2,0,P|53:251|138:235,1,140,8|2,0:0|0:1,0:0:0:0:
175,111,32480,1,0,0:0:0:0:
96,157,32656,6,0,P|86:120|88:59,1,70,0|0,0:0|1:0,0:0:0:0:
222,17,33009,1,2,1:0:0:0:
175,111,33185,1,0,0:0:0:0:
263,93,33362,2,0,P|307:104|346:117,1,70,8|0,0:0|1:0,0:0:0:0:
392,183,33715,1,2,0:1:0:0:
275,238,33891,1,0,3:0:0:0:
361,273,34068,5,0,3:0:0:0:
361,273,34421,2,0,P|379:319|350:393,1,112,2|8,0:0|0:0,0:0:0:0:
288,322,34950,1,0,0:0:0:0:
213,364,35127,2,0,P|200:322|197:286,1,56,2|0,0:0|0:0,0:0:0:0:
248,229,35480,6,0,P|286:223|326:212,1,56,2|0,0:0|0:0,0:0:0:0:
354,142,35833,1,0,0:0:0:0:
354,142,36009,1,0,0:0:0:0:
412,199,36185,2,0,P|404:234|403:279,1,56,10|0,0:0|0:0,0:0:0:0:
489,133,36538,6,0,P|481:79|483:4,2,112,2|0|0,0:0|0:0|0:0,0:0:0:0:
488,138,37597,2,0,P|441:147|408:158,1,56,10|0,0:0|0:0,0:0:0:0:
321,111,37950,2,0,P|362:98|392:86,1,56,2|0,0:0|0:0,0:0:0:0:
332,187,38303,6,0,P|289:213|208:199,1,112,2|0,0:0|0:0,0:0:0:0:
169,158,38833,1,0,0:0:0:0:
121,251,39009,1,10,0:0:0:0:
121,251,39185,1,0,0:0:0:0:
65,184,39362,2,0,P|77:146|83:106,1,56,2|0,0:0|0:0,0:0:0:0:
44,266,39715,6,0,P|20:316|5:394,1,112
12,382,40421,1,8,0:0:0:0:
91,362,40597,1,0,0:0:0:0:
122,262,40774,1,2,0:0:0:0:
56,293,40950,1,0,0:0:0:0:
175,332,41127,6,0,P|236:349|303:353,1,112,2|0,0:0|0:0,0:0:0:0:
407,304,41656,1,0,0:0:0:0:
407,304,41833,2,0,P|385:247|381:175,1,112,10|2,0:0|0:0,0:0:0:0:
413,128,42362,1,0,0:0:0:0:
315,159,42538,5,0,0:0:0:0:
315,159,43068,1,2,0:1:0:0:
235,138,43244,1,2,0:1:0:0:
150,149,43421,1,2,0:1:0:0:
86,205,43597,1,2,0:1:0:0:
56,287,43774,1,2,0:1:0:0:
79,368,43950,6,0,P|117:359|152:357,3,56,2|2|2|2,0:1|0:1|0:1|3:1,0:0:0:0:
174,278,44656,1,0,1:0:0:0:
80,228,44833,1,0,1:0:0:0:
132,145,45009,1,0,1:0:0:0:
217,191,45185,1,0,1:0:0:0:
83,255,45362,6,0,P|43:200|52:129,1,125.999996154785,4|0,1:0|0:0,0:0:0:0:
14,67,45891,1,0,0:0:0:0:
115,103,46068,2,0,P|163:115|260:104,1,125.999996154785,10|0,0:1|0:0,0:0:0:0:
315,80,46597,1,0,0:0:0:0:
422,83,46774,6,0,P|405:133|400:169,1,62.9999980773926
414,255,47127,1,0,1:0:0:0:
470,198,47303,1,0,0:0:0:0:
486,313,47480,2,0,P|399:281|350:272,1,125.999996154785,10|0,0:1|0:0,0:0:0:0:
279,295,48009,1,0,0:0:0:0:
331,196,48185,6,0,P|351:150|358:110,1,62.9999980773926,0|0,1:0|0:0,0:0:0:0:
291,69,48538,2,0,P|272:114|264:154,1,62.9999980773926
184,204,48891,2,0,P|135:233|50:234,1,125.999996154785,10|0,0:1|0:0,0:0:0:0:
98,157,49421,1,0,0:0:0:0:
51,50,49597,5,0,0:0:0:0:
127,78,49774,2,0,P|165:83|210:82,1,62.9999980773926,0|0,0:0|1:0,0:0:0:0:
186,161,50127,1,0,0:0:0:0:
56,138,50303,2,0,P|38:234|39:281,1,125.999996154785,10|0,0:1|0:0,0:0:0:0:
59,338,50833,1,0,0:0:0:0:
128,236,51009,5,0,1:0:0:0:
128,236,51185,1,0,0:0:0:0:
177,307,51362,2,0,P|226:308|263:299,1,62.9999980773926,2|0,0:0|0:0,0:0:0:0:
423,341,51715,2,0,P|365:377|294:365,1,125.999996154785,10|0,0:0|0:0,0:0:0:0:
347,289,52244,1,0,0:0:0:0:
389,210,52421,6,0,P|421:238|446:267,1,62.9999980773926,2|0,0:0|0:0,0:0:0:0:
421,134,52774,2,0,P|398:102|381:64,1,62.9999980773926,2|0,1:2|3:0,0:0:0:0:
310,155,53127,2,0,P|305:233|296:281,1,125.999996154785,10|0,0:0|0:0,0:0:0:0:
263,357,53656,1,0,0:0:0:0:
215,240,53833,5,2,1:2:0:0:
215,240,54185,2,0,P|174:244|131:252,1,62.9999980773926,2|0,0:0|0:0,0:0:0:0:
28,345,54538,2,0,P|93:356|164:322,1,125.999996154785,10|0,0:0|0:0,0:0:0:0:
156,247,55068,1,0,0:0:0:0:
65,137,55244,6,0,P|64:215|74:289,1,125.999996154785,2|0,0:0|1:0,0:0:0:0:
155,153,55774,1,0,3:0:0:0:
155,153,55950,2,0,P|166:109|168:68,1,62.9999980773926,10|0,0:0|0:0,0:0:0:0:
230,197,56303,2,0,P|241:237|247:268,1,62.9999980773926,2|0,0:2|3:0,0:0:0:0:
244,367,56656,1,0,3:0:0:0:
259,348,58774,5,0,1:0:0:0:
214,252,58950,1,0,1:0:0:0:
127,298,59127,1,0,1:0:0:0:
171,382,59303,1,0,1:0:0:0:
253,330,59480,6,0,P|251:253|234:188,1,125.999996154785,4|0,1:0|0:0,0:0:0:0:
330,212,60009,1,0,0:0:0:0:
345,297,60185,2,0,P|402:293|433:285,1,62.9999980773926,10|0,0:0|0:0,0:0:0:0:
441,208,60538,2,0,P|456:180|464:149,1,62.9999980773926,2|0,0:0|0:0,0:0:0:0:
511,264,60891,6,0,P|482:319|468:380,1,125.999996154785,2|0,0:0|1:0,0:0:0:0:
386,328,61421,1,0,0:0:0:0:
419,246,61597,1,10,0:0:0:0:
419,246,61774,1,0,0:0:0:0:
324,275,61950,2,0,P|290:287|249:294,1,62.9999980773926,2|0,0:0|0:0,0:0:0:0:
134,359,62303,6,0,P|94:304|109:230,1,125.999996154785,2|0,1:2|0:0,0:0:0:0:
152,183,62833,1,0,0:0:0:0:
46,184,63009,2,0,P|39:145|39:94,1,62.9999980773926,10|0,0:0|0:0,0:0:0:0:
102,40,63362,2,0,P|107:87|108:125,1,62.9999980773926,2|0,0:0|0:0,0:0:0:0:
193,156,63715,6,0,P|261:160|336:172,1,125.999996154785,2|0,0:0|1:0,0:0:0:0:
401,195,64244,1,0,0:0:0:0:
294,246,64421,2,0,P|238:299|236:362,1,125.999996154785,10|0,0:0|0:0,0:0:0:0:
312,376,64950,1,0,0:0:0:0:
379,293,65127,5,0,1:0:0:0:
379,293,65480,2,0,P|419:298|457:298,1,62.9999980773926
337,177,65833,2,0,P|324:221|317:249,1,62.9999980773926,10|0,0:0|0:0,0:0:0:0:
259,164,66185,2,0,P|274:117|274:89,1,62.9999980773926,2|0,0:0|0:0,0:0:0:0:
190,246,66538,6,0,P|201:293|215:328,1,62.9999980773926,2|0,0:0|0:0,0:0:0:0:
139,359,66891,2,0,P|66:360|6:397,1,125.999996154785,0|10,1:0|0:0,0:0:0:0:
88,275,67421,1,0,0:0:0:0:
88,275,67597,2,0,P|91:228|84:189,1,62.9999980773926,2|0,0:0|0:0,0:0:0:0:
202,277,67950,6,0,P|247:335|231:404,1,125.999996154785,2|0,1:2|0:0,0:0:0:0:
332,331,68480,1,0,0:0:0:0:
332,331,68656,2,0,P|381:325|423:313,1,62.9999980773926,10|0,0:0|0:0,0:0:0:0:
305,188,69009,2,0,P|296:236|296:271,1,62.9999980773926,2|0,0:0|0:0,0:0:0:0:
392,223,69362,6,0,P|401:170|404:95,1,125.999996154785,2|2,0:0|1:2,0:0:0:0:
367,28,69891,1,0,0:0:0:0:
316,134,70068,2,0,P|253:165|186:145,1,125.999996154785,10|0,0:0|0:0,0:0:0:0:
137,94,70597,1,0,3:0:0:0:
237,73,70774,5,0,1:0:0:0:
237,73,71127,2,0,P|232:29|222:-4,1,62.9999980773926
128,113,71480,2,0,P|103:179|104:255,1,125.999996154785,10|0,0:0|0:0,0:0:0:0:
155,297,72009,1,0,0:0:0:0:
190,189,72185,6,0,P|234:198|273:203,1,62.9999980773926,2|0,0:0|0:0,0:0:0:0:
307,289,72538,2,0,P|263:280|224:275,1,62.9999980773926,2|0,1:2|0:0,0:0:0:0:
353,224,72891,2,0,P|369:176|374:143,1,62.9999980773926,10|0,0:0|0:0,0:0:0:0:
430,245,73244,2,0,P|450:289|457:318,1,62.9999980773926
301,378,73597,6,0,P|263:336|272:246,1,125.999996154785,2|0,1:2|0:0,0:0:0:0:
310,209,74127,1,0,0:0:0:0:
361,307,74303,1,10,0:0:0:0:
361,307,74656,2,0,P|405:302|437:290,1,62.9999980773926,2|0,0:0|0:0,0:0:0:0:
492,245,75009,6,0,P|499:181|495:159,1,62.9999980773926,2|0,0:0|0:0,0:0:0:0:
443,73,75362,2,0,P|436:137|440:159,1,62.9999980773926,2|0,1:2|0:0,0:0:0:0:
380,200,75715,2,0,P|324:217|250:169,1,125.999996154785,10|0,0:0|0:0,0:0:0:0:
222,126,76244,1,0,0:0:0:0:
318,54,76421,6,0,L|193:36,2,125.999996154785,0|0|0,1:0|0:0|0:0,0:0:0:0:
315,51,79244,6,0,P|309:124|290:211,1,140,4|2,1:0|0:1,0:0:0:0:
224,236,79774,1,0,0:0:0:0:
209,109,79950,2,0,P|98:105|65:68,1,140,10|0,0:1|0:0,0:0:0:0:
141,214,80480,1,0,0:0:0:0:
61,180,80656,6,0,P|45:230|45:281,1,70,0|0,0:0|1:0,0:0:0:0:
140,121,81009,2,0,P|85:95|47:88,1,70,2|0,1:0|0:0,0:0:0:0:
149,217,81362,2,0,P|186:257|286:248,1,140,10|0,0:1|0:0,0:0:0:0:
330,200,81891,1,0,0:0:0:0:
273,82,82068,5,2,1:0:0:0:
350,119,82244,1,0,0:0:0:0:
356,25,82421,2,0,P|410:21|450:13,1,70
482,113,82774,2,0,P|470:171|467:240,1,105,10|0,0:1|0:0,0:0:0:0:
464,251,83127,2,0,P|395:246|361:240,1,70,0|0,0:0|1:0,0:0:0:0:
294,224,83480,5,0,0:0:0:0:
323,338,83656,1,0,0:0:0:0:
245,292,83833,2,0,P|233:357|234:383,1,70,2|0,1:0|0:0,0:0:0:0:
143,294,84185,2,0,P|174:236|154:149,1,140,10|0,0:1|0:0,0:0:0:0:
77,136,84715,1,0,0:0:0:0:
61,246,84891,5,4,1:0:0:0:
61,246,85244,2,0,P|55:294|56:336,1,70,2|0,0:1|0:0,0:0:0:0:
137,184,85597,1,8,0:0:0:0:
137,184,85950,2,0,P|144:138|150:84,1,70,2|0,0:1|0:0,0:0:0:0:
214,252,86303,5,0,0:0:0:0:
283,201,86480,1,0,1:0:0:0:
320,296,86656,1,2,1:1:0:0:
412,229,86833,1,0,0:0:0:0:
460,302,87009,2,0,P|505:316|535:322,1,70,8|0,0:0|0:0,0:0:0:0:
393,351,87362,2,0,P|344:335|302:328,1,70,2|0,0:1|0:0,0:0:0:0:
241,366,87715,5,0,1:0:0:0:
241,366,88068,2,0,P|253:320|261:273,1,70,2|0,0:1|0:0,0:0:0:0:
221,141,88421,1,8,0:0:0:0:
221,141,88774,2,0,P|232:201|243:228,1,70,2|0,0:1|1:0,0:0:0:0:
151,260,89127,6,0,P|91:266|19:275,1,105,0|0,3:0|0:0,0:0:0:0:
10,286,89480,1,2,1:1:0:0:
68,191,89656,1,0,0:0:0:0:
109,315,89833,2,0,P|118:365|120:404,1,70,8|0,0:0|0:0,0:0:0:0:
150,227,90185,1,0,0:0:0:0:
232,299,90362,1,0,0:0:0:0:
305,211,90538,6,0,P|253:213|217:222,1,70,6|0,1:0|0:0,0:0:0:0:
368,273,90891,2,0,P|439:282|501:241,1,140,2|8,0:1|0:0,0:0:0:0:
487,117,91421,1,0,0:0:0:0:
427,182,91597,2,0,P|375:180|331:171,1,70
284,113,91950,6,0,P|299:63|305:23,1,70,0|0,0:0|1:0,0:0:0:0:
197,177,92303,2,0,P|206:248|205:300,1,105,2|0,1:0|0:0,0:0:0:0:
203,327,92656,1,8,0:0:0:0:
283,269,92833,1,0,0:0:0:0:
215,193,93009,1,0,0:0:0:0:
145,249,93185,1,0,0:0:0:0:
70,195,93362,6,0,P|10:195|-23:188,1,70,2|0,1:0|0:0,0:0:0:0:
139,122,93715,2,0,P|191:116|254:100,1,105,2|0,0:1|0:0,0:0:0:0:
279,78,94068,1,8,0:0:0:0:
315,165,94244,1,0,0:0:0:0:
398,132,94421,1,0,0:0:0:0:
364,240,94597,1,0,1:0:0:0:
446,208,94774,6,0,P|459:248|463:281,1,70
373,148,95127,2,0,P|385:100|388:58,1,70,2|0,1:0|0:0,0:0:0:0:
284,194,95480,1,8,0:0:0:0:
230,260,95656,2,0,P|165:276|129:275,2,70
165,184,96185,5,4,1:0:0:0:
165,184,96538,2,0,P|109:206|81:212,1,70,2|0,0:1|0:0,0:0:0:0:
216,103,96891,1,8,0:0:0:0:
216,103,97244,2,0,P|257:88|305:77,1,70,2|0,0:1|0:0,0:0:0:0:
357,123,97597,5,0,0:0:0:0:
274,182,97774,1,0,1:0:0:0:
359,211,97950,2,0,P|370:280|369:313,1,70,2|0,1:1|0:0,0:0:0:0:
429,145,98303,2,0,P|413:74|408:18,1,105,8|0,0:0|0:0,0:0:0:0:
412,3,98656,1,2,0:1:0:0:
494,40,98833,1,0,0:0:0:0:
359,101,99009,5,0,1:0:0:0:
359,101,99362,2,0,P|299:100|259:93,1,70,2|0,0:1|0:0,0:0:0:0:
442,202,99715,1,8,0:0:0:0:
442,202,100068,2,0,P|481:211|519:215,1,70,2|0,0:1|1:0,0:0:0:0:
346,275,100421,5,0,0:0:0:0:
346,275,100774,2,0,P|288:288|254:292,1,70,2|0,1:0|0:0,0:0:0:0:
165,355,101127,1,8,0:0:0:0:
202,247,101303,1,0,0:0:0:0:
118,284,101480,2,0,P|77:273|59:265,4,35,0|0|0|0|0,3:0|3:0|3:0|3:0|3:0,0:0:0:0:
60,234,124421,5,0,3:0:0:0:
60,234,124774,2,0,P|124:249|186:210,1,125.999996154785,0|0,3:0|0:0,0:0:0:0:
218,153,125303,1,0,3:0:0:0:
251,241,125480,1,0,0:0:0:0:
251,241,125656,1,0,0:0:0:0:
318,207,125833,2,0,P|319:170|325:133,1,62.9999980773926,0|0,3:0|0:0,0:0:0:0:
328,142,126362,1,0,0:0:0:0:
432,211,126538,1,8,0:0:0:0:
436,208,127244,6,0,P|485:202|520:188,1,70,4|0,1:0|0:0,0:0:0:0:
384,292,127597,2,0,P|328:327|244:302,1,140,0|8,0:0|0:0,0:0:0:0:
230,215,128127,2,0,P|277:228|305:241,1,70
160,262,128480,2,0,P|114:251|81:236,1,70
97,114,128833,2,0,P|128:138|164:177,1,70,0|0,0:0|1:0,0:0:0:0:
20,143,129185,1,0,3:0:0:0:
20,143,129362,2,0,P|4:94|-2:48,1,70,8|0,0:0|0:0,0:0:0:0:
126,0,129715,2,0,P|117:54|101:112,1,105,0|0,3:0|3:0,0:0:0:0:
85,138,130068,6,0,P|40:135|-2:128,1,70,4|0,1:0|0:0,0:0:0:0:
106,227,130421,2,0,P|179:210|250:252,1,140,0|8,0:0|0:0,0:0:0:0:
293,302,130950,2,0,P|283:347|274:382,1,70
374,336,131303,2,0,P|386:286|399:244,1,70
349,193,131656,2,0,P|310:173|260:155,2,70,0|0|0,0:0|1:0|0:0,0:0:0:0:
255,250,132185,2,0,P|201:260|134:201,1,140,8|0,0:0|0:0,0:0:0:0:
148,126,132715,1,0,0:0:0:0:
48,206,132891,5,0,1:0:0:0:
48,206,133244,2,0,P|54:259|55:288,1,70
107,336,133597,1,8,0:0:0:0:
174,264,133774,2,0,P|155:228|138:184,1,70
216,342,134127,2,0,P|255:364|288:372,1,70
261,255,134480,2,0,P|255:208|256:169,1,70,0|0,0:0|1:0,0:0:0:0:
339,301,134833,5,0,3:0:0:0:
339,301,134921,1,0,3:0:0:0:
339,301,135009,1,8,0:0:0:0:
232,333,135185,1,0,0:0:0:0:
332,375,135362,2,0,P|394:360|462:358,1,105
479,358,135715,5,4,1:0:0:0:
419,288,135891,1,0,0:0:0:0:
409,208,136068,1,0,0:0:0:0:
451,135,136244,2,0,P|376:160|289:162,1,140
241,125,136774,2,0,P|254:84|259:34,1,70
145,137,137127,5,0,0:0:0:0:
195,209,137303,1,0,0:0:0:0:
136,281,137480,1,0,1:0:0:0:
216,312,137656,2,0,P|196:372|194:399,1,70,0|8,0:0|0:0,0:0:0:0:
124,264,138009,2,0,P|75:245|34:237,2,70
210,311,138538,5,0,1:0:0:0:
286,269,138715,1,0,0:0:0:0:
317,184,138891,1,0,0:0:0:0:
273,105,139068,2,0,P|236:148|221:176,1,70,0|8,0:0|0:0,0:0:0:0:
150,199,139421,1,0,0:0:0:0:
150,199,139597,1,0,0:0:0:0:
74,110,139774,6,0,P|65:168|65:208,1,70
126,278,140127,1,0,0:0:0:0:
126,278,140303,1,0,1:0:0:0:
3,236,140480,2,0,P|26:288|43:312,1,70,0|8,3:0|0:0,0:0:0:0:
103,360,140833,1,0,0:0:0:0:
114,244,141009,2,0,L|121:198,3,35,0|0|0|0,3:0|3:0|3:0|3:0,0:0:0:0:
110,172,141362,6,0,P|52:149|15:142,1,70,4|0,1:0|0:0,0:0:0:0:
56,60,141715,1,0,0:0:0:0:
167,97,141891,2,0,P|205:164|185:230,1,140
256,285,142421,2,0,P|294:276|339:258,1,70
401,306,142774,6,0,P|385:349|380:386,2,70,0|0|0,0:0|0:0|1:0,0:0:0:0:
484,256,143303,2,0,P|470:197|454:158,1,70,0|8,0:0|0:0,0:0:0:0:
365,126,143656,2,0,P|379:178|392:214,1,70
449,106,144009,1,0,0:0:0:0:
341,37,144185,6,0,P|286:55|254:68,1,70,0|0,1:0|0:0,0:0:0:0:
208,151,144538,1,0,0:0:0:0:
308,131,144715,2,0,P|340:170|316:264,1,140
241,297,145244,1,0,0:0:0:0:
228,191,145421,6,0,L|59:174,1,140
18,218,145950,1,0,1:0:0:0:
103,276,146127,1,0,3:0:0:0:
103,276,146215,1,0,3:0:0:0:
103,276,146303,1,8,0:0:0:0:
179,243,146480,1,0,0:0:0:0:
253,318,146656,1,0,0:0:0:0:
254,205,146833,2,0,P|233:153|226:123,1,70
