osu file format v14

[General]
AudioFilename: audio.mp3
AudioLeadIn: 0
PreviewTime: 101744
Countdown: 0
SampleSet: Soft
StackLeniency: 0.7
Mode: 0
LetterboxInBreaks: 0
WidescreenStoryboard: 0

[Editor]
DistanceSpacing: 2.5
BeatDivisor: 4
GridSize: 4
TimelineZoom: 1.3

[Metadata]
Title:GET IT
TitleUnicode:GET IT
Artist:keshi
ArtistUnicode:keshi
Creator:Agatsu
Version:come and
Source:
Tags:english indie pop hip-hop gabriel heroine some hero some_hero
BeatmapID:3530788
BeatmapSetID:1727800

[Difficulty]
HPDrainRate:6
CircleSize:4
OverallDifficulty:7
ApproachRate:8
SliderMultiplier:1.4
SliderTickRate:1

[Events]
//Background and Video events
0,0,"96668523_p0.jpg",0,0
//Break Periods
2,102032,123671
//Storyboard Layer 0 (Background)
//Storyboard Layer 1 (Fail)
//Storyboard Layer 2 (Pass)
//Storyboard Layer 3 (Foreground)
//Storyboard Layer 4 (Overlay)
//Storyboard Sound Samples

[TimingPoints]
186,352.941176470588,4,2,0,80,1,0
34068,-125,4,2,0,60,0,0
45362,-111.111111111111,4,2,0,70,0,0
59480,-111.111111111111,4,2,0,70,0,0
79244,-100,4,2,0,80,0,0
124421,-125,4,2,0,50,0,0
127244,-100,4,2,0,70,0,0

[Colours]
Combo1 : 219,149,170
Combo2 : 167,172,220
Combo3 : 135,203,175
Combo4 : 199,162,219

[HitObjects]
130,244,11480,6,0,P|185:143|166:115,1,140,4|2,1:0|0:1,0:0:0:0:
84,163,12009,1,0,0:0:0:0:
176,32,12185,2,0,P|224:50|262:57,1,70,10|0,0:1|0:0,0:0:0:0:
357,209,12538,1,0,0:0:0:0:
289,153,12715,1,0,0:0:0:0:
357,99,12891,5,0,0:0:0:0:
297,269,13068,1,0,0:0:0:0:
183,162,13244,2,0,P|145:157|99:140,1,70,2|0,1:0|0:0,0:0:0:0:
262,297,13597,2,0,P|217:315|103:339,1,140,10|0,0:1|0:0,0:0:0:0:
68,266,14127,1,0,0:0:0:0:
203,358,14303,5,2,1:0:0:0:
241,197,14480,1,0,0:0:0:0:
302,264,14656,2,0,P|317:304|328:356,1,70
152,178,15009,2,0,P|141:135|165:69,1,105,10|0,0:1|0:0,0:0:0:0:
184,42,15362,1,0,0:0:0:0:
180,260,15538,1,0,0:0:0:0:
251,108,15715,6,0,P|291:108|341:98,1,70
437,204,16068,1,2,1:0:0:0:
312,273,16244,1,0,3:0:0:0:
312,273,16332,1,0,3:0:0:0:
312,273,16421,1,10,0:1:0:0:
372,339,16597,1,0,1:0:0:0:
392,220,16774,5,0,0:0:0:0:
272,342,16950,1,0,0:0:0:0:
94,260,17127,1,4,1:0:0:0:
94,260,17480,2,0,P|55:270|10:270,1,70,2|0,0:1|0:0,0:0:0:0:
250,252,17832,2,0,P|242:299|241:364,1,105,8|0,0:0|0:0,0:0:0:0:
255,384,18185,1,2,0:1:0:0:
323,200,18362,1,0,0:0:0:0:
356,283,18538,5,0,0:0:0:0:
397,171,18715,1,0,0:0:0:0:
439,281,18891,1,2,1:1:0:0:
280,199,19068,1,0,0:0:0:0:
390,45,19244,2,0,P|426:80|491:93,1,105,8|0,0:0|0:0,0:0:0:0:
506,115,19597,2,0,P|484:154|472:206,1,70,2|0,0:1|0:0,0:0:0:0:
314,111,19950,5,0,1:0:0:0:
334,284,20127,1,0,1:0:0:0:
373,203,20303,1,2,0:1:0:0:
261,244,20479,1,0,0:0:0:0:
364,305,20656,2,0,P|405:316|448:319,1,70,8|0,0:0|0:0,0:0:0:0:
273,198,21009,1,2,0:1:0:0:
190,317,21185,1,0,0:0:0:0:
83,263,21362,6,0,P|101:314|103:353,1,70
17,110,21715,1,2,1:0:0:0:
158,215,21891,1,0,0:0:0:0:
232,158,22068,2,0,P|269:163|324:187,1,70,8|0,0:0|1:0,0:0:0:0:
426,245,22421,1,0,0:0:0:0:
250,327,22597,1,0,1:0:0:0:
336,368,22774,6,0,P|348:328|352:278,1,70,6|0,1:0|0:0,0:0:0:0:
428,212,23127,2,0,P|415:164|393:115,1,70,2|0,0:1|0:0,0:0:0:0:
217,15,23479,2,0,P|174:66|172:121,1,105,8|0,0:0|0:0,0:0:0:0:
184,140,23832,1,0,0:0:0:0:
272,84,24009,1,0,0:0:0:0:
219,209,24185,6,0,P|202:260|196:295,1,70
363,100,24538,2,0,P|407:88|466:64,1,105,2|0,1:0|0:0,0:0:0:0:
491,47,24891,1,8,0:0:0:0:
373,184,25068,1,0,0:0:0:0:
334,18,25244,1,0,0:0:0:0:
398,80,25421,1,0,0:0:0:0:
237,95,25597,6,0,P|197:96|137:80,1,70,2|0,1:0|0:0,0:0:0:0:
358,225,25950,2,0,P|365:262|367:349,1,105,2|0,0:1|0:0,0:0:0:0:
359,373,26303,1,8,0:0:0:0:
272,240,26479,1,0,0:0:0:0:
238,321,26656,1,0,0:0:0:0:
352,199,26832,1,0,0:0:0:0:
368,289,27009,6,0,P|408:289|467:276,1,70
173,243,27362,2,0,P|144:283|128:319,1,70,2|0,1:0|0:0,0:0:0:0:
317,120,27715,2,0,P|310:79|292:40,1,70,8|0,0:0|1:0,0:0:0:0:
276,223,28068,1,0,0:0:0:0:
217,101,28244,1,0,0:0:0:0:
35,235,28421,5,4,1:0:0:0:
35,235,28774,2,0,P|44:280|57:323,1,70,2|0,0:1|0:0,0:0:0:0:
168,129,29127,2,0,P|159:80|147:45,1,70,8|0,0:0|0:0,0:0:0:0:
149,264,29479,1,2,0:1:0:0:
64,116,29656,1,0,0:0:0:0:
154,171,29832,5,0,0:0:0:0:
154,171,30009,1,0,0:0:0:0:
255,98,30185,1,2,1:1:0:0:
406,155,30362,1,0,0:0:0:0:
424,73,30538,1,8,0:0:0:0:
475,189,30715,1,0,0:0:0:0:
299,168,30891,2,0,P|340:155|383:129,1,70,2|0,0:1|0:0,0:0:0:0:
496,350,31244,6,0,P|434:365|367:306,1,140,0|2,1:0|0:1,0:0:0:0:
255,184,31774,1,0,0:0:0:0:
164,253,31950,2,0,P|212:269|248:274,1,70,8|0,0:0|0:0,0:0:0:0:
316,90,32303,1,2,0:1:0:0:
150,156,32479,1,0,0:0:0:0:
190,74,32656,5,0,0:0:0:0:
266,163,32832,1,0,1:0:0:0:
387,36,33009,2,0,P|426:34|487:16,1,70,2|0,1:0|0:0,0:0:0:0:
343,181,33362,1,8,0:0:0:0:
477,253,33538,1,0,1:0:0:0:
356,371,33715,1,2,0:1:0:0:
375,215,33891,2,0,P|392:242|405:271,1,35,0|0,3:0|3:0,0:0:0:0:
193,379,34068,5,0,3:0:0:0:
185,384,34421,2,0,P|157:342|177:269,1,112,2|8,0:0|0:0,0:0:0:0:
225,217,34950,1,0,0:0:0:0:
297,268,35127,2,0,P|288:313|279:347,1,56,2|0,0:0|0:0,0:0:0:0:
208,182,35479,5,2,0:0:0:0:
143,88,35656,1,0,0:0:0:0:
120,173,35832,2,0,P|95:183|54:189,1,56
280,85,36185,1,10,0:0:0:0:
232,161,36362,1,0,0:0:0:0:
363,221,36538,2,0,P|405:226|497:223,2,112,2|0|0,0:0|0:0|0:0,0:0:0:0:
355,230,37597,6,0,P|362:264|365:298,1,56,10|0,0:0|0:0,0:0:0:0:
273,302,37950,2,0,P|261:329|240:362,1,56,2|0,0:0|0:0,0:0:0:0:
154,205,38303,2,0,P|151:131|182:89,1,112,2|0,0:0|0:0,0:0:0:0:
239,197,38832,1,0,0:0:0:0:
134,284,39009,1,10,0:0:0:0:
188,353,39185,1,0,0:0:0:0:
85,368,39362,2,0,P|51:361|10:345,1,56,2|0,0:0|0:0,0:0:0:0:
262,314,39715,6,0,P|268:287|280:194,2,112,0|0|8,0:0|0:0|0:0,0:0:0:0:
166,162,40597,1,0,0:0:0:0:
97,248,40774,2,0,P|143:242|177:231,1,56,2|0,0:0|0:0,0:0:0:0:
305,124,41127,6,0,P|316:77|266:18,1,112,2|0,0:0|0:0,0:0:0:0:
379,168,41656,1,0,0:0:0:0:
446,108,41832,2,0,P|459:70|461:37,1,56,10|0,0:0|0:0,0:0:0:0:
303,139,42185,2,0,P|261:155|231:162,1,56,2|0,0:0|0:0,0:0:0:0:
78,221,42538,6,0,P|80:189|72:96,1,112
115,217,43068,1,2,0:1:0:0:
157,295,43244,1,2,0:1:0:0:
228,344,43421,1,2,0:1:0:0:
316,359,43597,1,2,0:1:0:0:
403,343,43774,1,2,0:1:0:0:
477,291,43950,2,0,P|487:328|494:366,3,56,2|2|2|2,0:1|0:1|0:1|3:1,0:0:0:0:
349,168,44656,5,0,1:0:0:0:
226,265,44832,1,0,1:0:0:0:
161,106,45009,1,0,1:0:0:0:
315,183,45185,1,0,1:0:0:0:
179,286,45362,6,0,P|139:299|41:298,1,125.999996154785,4|0,1:0|0:0,0:0:0:0:
338,340,45891,1,0,0:0:0:0:
252,341,46068,2,0,P|341:370|385:374,1,125.999996154785,10|0,0:1|0:0,0:0:0:0:
298,263,46597,1,0,0:0:0:0:
250,193,46774,6,0,P|239:156|234:109,1,62.9999980773926
407,29,47127,1,0,1:0:0:0:
332,151,47303,1,0,0:0:0:0:
242,0,47479,2,0,P|294:5|370:32,1,125.999996154785,10|0,0:1|0:0,0:0:0:0:
178,56,48009,1,0,0:0:0:0:
101,98,48185,6,0,P|86:58|83:11,1,62.9999980773926,0|0,1:0|0:0,0:0:0:0:
195,224,48538,2,0,P|152:246|115:251,1,62.9999980773926
301,70,48891,2,0,P|341:122|322:191,1,125.999996154785,10|0,0:1|0:0,0:0:0:0:
268,240,49421,1,0,0:0:0:0:
401,354,49597,5,0,0:0:0:0:
303,383,49774,2,0,P|314:335|326:297,1,62.9999980773926,0|0,0:0|1:0,0:0:0:0:
241,271,50127,1,0,0:0:0:0:
385,182,50303,2,0,P|452:195|537:200,1,125.999996154785,10|0,0:1|0:0,0:0:0:0:
509,199,50832,1,0,0:0:0:0:
344,246,51009,5,0,1:0:0:0:
415,110,51185,1,0,0:0:0:0:
318,157,51362,2,0,P|280:152|235:138,1,62.9999980773926,2|0,0:0|0:0,0:0:0:0:
51,201,51715,2,0,P|107:194|167:252,1,125.999996154785,10|0,0:0|0:0,0:0:0:0:
185,316,52244,1,0,0:0:0:0:
245,195,52421,5,2,0:0:0:0:
302,365,52597,1,0,0:0:0:0:
376,294,52774,2,0,P|336:289|292:273,1,62.9999980773926,2|0,1:2|3:0,0:0:0:0:
314,282,53038,1,0,3:0:0:0:
314,282,53127,1,10,0:0:0:0:
225,298,53303,1,0,0:0:0:0:
139,244,53479,1,0,0:0:0:0:
24,266,53656,1,0,0:0:0:0:
6,182,53832,6,0,P|39:179|92:165,1,62.9999980773926,2|0,1:2|0:0,0:0:0:0:
202,83,54185,2,0,P|235:80|288:66,1,62.9999980773926,2|0,0:0|0:0,0:0:0:0:
443,8,54538,2,0,P|453:46|448:138,1,125.999996154785,10|0,0:0|0:0,0:0:0:0:
388,259,55068,1,0,0:0:0:0:
342,346,55244,6,0,P|352:308|347:216,1,125.999996154785,2|0,0:0|1:0,0:0:0:0:
437,344,55774,1,0,3:0:0:0:
437,344,55862,1,0,3:0:0:0:
437,344,55950,1,10,0:0:0:0:
450,152,56127,1,0,0:0:0:0:
276,255,56303,2,0,P|284:289|290:342,1,62.9999980773926,2|0,0:2|3:0,0:0:0:0:
284,343,56568,1,0,3:0:0:0:
276,361,56656,1,0,3:0:0:0:
403,229,58774,5,0,1:0:0:0:
459,39,58950,1,0,1:0:0:0:
303,95,59127,1,0,1:0:0:0:
458,164,59303,1,0,1:0:0:0:
381,122,59480,6,0,L|234:144,1,125.999996154785,4|0,1:0|0:0,0:0:0:0:
191,191,60009,1,0,0:0:0:0:
289,272,60185,2,0,P|303:238|317:184,1,62.9999980773926,10|0,0:0|0:0,0:0:0:0:
366,340,60538,2,0,P|395:317|422:279,1,62.9999980773926,2|0,0:0|0:0,0:0:0:0:
152,272,60891,6,0,P|122:295|12:279,1,125.999996154785,2|0,0:0|1:0,0:0:0:0:
145,189,61421,1,0,0:0:0:0:
288,264,61597,2,0,P|276:314|261:351,1,62.9999980773926,10|0,0:0|0:0,0:0:0:0:
277,152,61950,1,2,0:0:0:0:
385,244,62127,1,0,0:0:0:0:
330,95,62303,6,0,P|291:99|180:130,1,125.999996154785,2|0,1:2|0:0,0:0:0:0:
137,169,62832,1,0,0:0:0:0:
253,202,63009,2,0,P|245:248|229:289,1,62.9999980773926,10|0,0:0|0:0,0:0:0:0:
90,98,63362,2,0,P|100:53|119:14,1,62.9999980773926,2|0,0:0|0:0,0:0:0:0:
331,146,63715,6,0,P|381:187|463:171,1,125.999996154785,2|0,0:0|1:0,0:0:0:0:
409,94,64244,1,0,0:0:0:0:
450,277,64421,2,0,P|442:327|423:374,1,94.499997116089,10|0,0:0|0:0,0:0:0:0:
386,378,64774,1,0,0:0:0:0:
232,257,64950,1,0,0:0:0:0:
238,346,65127,6,0,P|273:339|326:319,1,62.9999980773926,0|0,1:0|0:0,0:0:0:0:
136,224,65479,1,0,0:0:0:0:
258,242,65656,1,0,0:0:0:0:
284,82,65832,1,10,0:0:0:0:
186,149,66009,1,0,0:0:0:0:
345,208,66185,2,0,P|379:216|432:235,1,62.9999980773926,2|0,0:0|0:0,0:0:0:0:
205,70,66538,6,0,P|154:110|70:97,1,125.999996154785,2|0,0:0|1:0,0:0:0:0:
257,156,67068,1,0,0:0:0:0:
98,224,67244,2,0,P|65:216|26:211,1,62.9999980773926,10|0,0:0|0:0,0:0:0:0:
284,237,67597,2,0,P|292:280|293:318,1,62.9999980773926,2|0,0:0|0:0,0:0:0:0:
82,374,67950,6,0,P|57:332|66:233,2,125.999996154785,2|0|10,1:2|0:0|0:0,0:0:0:0:
269,255,68832,1,0,0:0:0:0:
160,210,69009,2,0,P|174:254|194:294,1,62.9999980773926,2|0,0:0|0:0,0:0:0:0:
361,365,69362,5,2,0:0:0:0:
429,241,69538,1,0,0:0:0:0:
495,337,69715,1,2,1:2:0:0:
351,278,69891,1,0,0:0:0:0:
462,213,70068,2,0,P|476:163|484:69,1,125.999996154785,10|0,0:0|0:0,0:0:0:0:
417,0,70597,1,0,3:0:0:0:
410,8,70685,1,0,3:0:0:0:
405,16,70774,6,0,P|365:33|325:42,1,62.9999980773926,0|0,1:0|0:0,0:0:0:0:
270,82,71127,1,0,0:0:0:0:
356,143,71303,1,0,0:0:0:0:
213,240,71479,2,0,P|183:205|204:106,1,125.999996154785,10|0,0:0|0:0,0:0:0:0:
174,325,72009,1,0,0:0:0:0:
99,269,72185,6,0,P|48:286|16:305,1,62.9999980773926,2|0,0:0|0:0,0:0:0:0:
69,173,72538,2,0,P|25:162|-11:158,1,62.9999980773926,2|0,1:2|0:0,0:0:0:0:
255,308,72891,1,10,0:0:0:0:
187,363,73068,2,0,P|220:359|331:313,1,125.999996154785
492,168,73597,6,0,P|434:178|369:117,1,125.999996154785,2|0,1:2|0:0,0:0:0:0:
323,337,74127,1,0,0:0:0:0:
385,269,74303,2,0,P|412:329|416:347,1,62.9999980773926,10|0,0:0|0:0,0:0:0:0:
217,182,74656,1,2,0:0:0:0:
294,261,74832,1,0,0:0:0:0:
277,117,75009,5,2,0:0:0:0:
141,217,75185,1,0,0:0:0:0:
345,178,75362,2,0,P|337:221|325:257,1,62.9999980773926,2|0,1:2|0:0,0:0:0:0:
169,74,75715,5,10,0:0:0:0:
227,175,75891,1,0,0:0:0:0:
320,20,76068,1,0,0:0:0:0:
252,95,76244,1,0,0:0:0:0:
375,200,76421,6,0,P|454:218|514:228,2,125.999996154785,0|0|0,1:0|0:0|0:0,0:0:0:0:
155,126,79244,6,0,P|172:52|121:-13,1,140,4|2,1:0|0:1,0:0:0:0:
210,209,79774,1,0,0:0:0:0:
2,100,79950,2,0,P|45:85|93:56,1,70,10|0,0:1|0:0,0:0:0:0:
142,145,80303,1,0,0:0:0:0:
24,216,80479,1,0,0:0:0:0:
154,309,80656,5,0,0:0:0:0:
110,229,80832,1,0,1:0:0:0:
81,364,81009,2,0,P|33:352|3:338,1,70,2|0,1:0|0:0,0:0:0:0:
211,256,81362,2,0,P|252:207|243:129,1,140,10|0,0:1|0:0,0:0:0:0:
298,300,81891,1,0,0:0:0:0:
374,344,82068,6,0,P|423:366|462:374,1,70,2|0,1:0|0:0,0:0:0:0:
267,326,82421,1,0,0:0:0:0:
393,242,82597,1,0,0:0:0:0:
265,124,82774,1,10,0:1:0:0:
299,207,82950,1,0,0:0:0:0:
181,142,83127,1,0,0:0:0:0:
81,242,83303,1,0,1:0:0:0:
0,222,83479,6,0,P|41:206|82:202,1,70
237,297,83832,2,0,P|216:355|212:395,1,70,2|0,1:0|0:0,0:0:0:0:
142,152,84185,2,0,P|108:87|133:1,1,140,10|0,0:1|0:0,0:0:0:0:
195,229,84715,1,0,0:0:0:0:
210,78,84891,5,4,1:0:0:0:
210,78,85244,2,0,P|249:83|303:102,1,70,2|0,0:1|0:0,0:0:0:0:
433,199,85597,2,0,P|391:223|310:214,1,105,8|0,0:0|0:0,0:0:0:0:
300,202,85950,2,0,P|281:245|275:294,1,70,2|0,0:1|0:0,0:0:0:0:
187,279,86303,5,0,0:0:0:0:
324,353,86479,1,0,1:0:0:0:
95,381,86656,2,0,P|139:372|182:353,1,70,2|0,1:1|0:0,0:0:0:0:
343,221,87009,2,0,P|288:230|218:162,1,140,8|2,0:0|0:1,0:0:0:0:
473,98,87538,1,0,0:0:0:0:
394,140,87715,5,0,1:0:0:0:
394,140,88068,2,0,P|440:149|490:164,1,70,2|0,0:1|0:0,0:0:0:0:
269,0,88421,2,0,P|266:46|259:120,1,105,8|0,0:0|0:0,0:0:0:0:
250,143,88774,1,2,0:1:0:0:
112,66,88950,1,0,1:0:0:0:
112,66,89038,1,0,3:0:0:0:
112,66,89127,5,0,3:0:0:0:
139,141,89303,1,0,0:0:0:0:
210,53,89479,1,2,1:1:0:0:
159,231,89656,1,0,0:0:0:0:
243,195,89832,2,0,P|268:202|323:225,1,70,8|0,0:0|0:0,0:0:0:0:
71,257,90185,1,0,0:0:0:0:
277,304,90362,1,0,0:0:0:0:
188,330,90538,6,0,P|154:344|77:355,1,105,6|0,1:0|0:0,0:0:0:0:
51,355,90891,2,0,P|39:314|23:271,1,70,2|0,0:1|0:0,0:0:0:0:
203,117,91244,1,8,0:0:0:0:
152,184,91421,1,0,0:0:0:0:
257,229,91597,1,0,0:0:0:0:
189,83,91774,1,0,0:0:0:0:
315,162,91950,6,0,P|326:122|330:77,1,70,0|0,0:0|1:0,0:0:0:0:
63,229,92303,2,0,P|155:283|188:270,1,140,2|8,1:0|0:0,0:0:0:0:
250,218,92832,1,0,0:0:0:0:
364,329,93009,1,0,0:0:0:0:
272,354,93185,1,0,0:0:0:0:
394,352,93362,6,0,P|442:375|481:388,1,70,2|0,1:0|0:0,0:0:0:0:
308,232,93715,2,0,P|355:224|423:217,1,105,2|0,0:1|0:0,0:0:0:0:
459,217,94068,1,8,0:0:0:0:
290,149,94244,1,0,0:0:0:0:
185,275,94421,1,0,0:0:0:0:
322,233,94597,1,0,1:0:0:0:
168,127,94774,6,0,P|156:167|151:219,1,70
314,320,95127,2,0,P|349:334|403:344,1,70,2|0,1:0|0:0,0:0:0:0:
161,195,95479,1,8,0:0:0:0:
286,245,95656,1,0,0:0:0:0:
97,315,95832,1,0,0:0:0:0:
183,222,96009,1,0,0:0:0:0:
64,81,96185,5,4,1:0:0:0:
64,81,96538,2,0,P|48:125|41:173,1,70,2|0,0:1|0:0,0:0:0:0:
250,257,96891,2,0,P|269:215|259:140,1,105,8|0,0:0|0:0,0:0:0:0:
248,122,97244,2,0,P|210:110|170:104,1,70,2|0,0:1|0:0,0:0:0:0:
340,184,97597,5,0,0:0:0:0:
252,220,97774,1,0,1:0:0:0:
385,275,97950,1,2,1:1:0:0:
350,103,98127,1,0,0:0:0:0:
437,129,98303,2,0,P|459:175|469:215,1,70,8|0,0:0|0:0,0:0:0:0:
277,332,98656,1,2,0:1:0:0:
381,225,98832,1,0,0:0:0:0:
481,366,99009,6,0,P|414:383|349:320,1,140,0|2,1:0|0:1,0:0:0:0:
270,201,99538,1,0,0:0:0:0:
345,138,99715,2,0,P|363:182|368:222,1,70,8|0,0:0|0:0,0:0:0:0:
163,295,100068,1,2,0:1:0:0:
240,189,100244,1,0,1:0:0:0:
140,208,100421,6,0,P|103:203|59:184,1,70
241,269,100774,1,2,1:0:0:0:
59,333,100950,1,0,0:0:0:0:
137,240,101127,1,8,0:0:0:0:
229,299,101303,1,0,0:0:0:0:
480,203,101479,2,0,P|493:237|498:261,1,35,0|0,3:0|3:0,0:0:0:0:
306,375,101656,2,0,P|293:341|288:317,1,35,0|0,3:0|3:0,0:0:0:0:
413,128,101832,5,0,3:0:0:0:
129,215,124421,6,0,P|139:188|147:144,1,56,0|0,3:0|0:0,0:0:0:0:
81,14,124774,2,0,P|116:47|197:44,1,112,0|0,3:0|0:0,0:0:0:0:
260,10,125303,1,0,3:0:0:0:
331,67,125479,1,0,0:0:0:0:
417,47,125656,1,0,0:0:0:0:
485,96,125832,2,0,P|496:126|503:170,1,56,0|0,3:0|0:0,0:0:0:0:
512,153,126362,1,0,3:0:0:0:
322,253,126538,1,8,0:0:0:0:
330,264,127244,6,0,P|368:276|423:277,1,70,4|0,1:0|0:0,0:0:0:0:
196,223,127597,1,0,0:0:0:0:
283,328,127774,1,0,0:0:0:0:
166,298,127950,1,8,0:0:0:0:
98,355,128127,2,0,P|53:349|19:335,2,70
212,291,128656,5,0,0:0:0:0:
187,145,128832,2,0,P|167:182|155:236,1,70,0|0,0:0|1:0,0:0:0:0:
352,254,129185,1,0,3:0:0:0:
352,254,129274,1,0,3:0:0:0:
352,254,129362,1,8,0:0:0:0:
280,190,129538,1,0,0:0:0:0:
384,173,129715,2,0,P|405:160|425:144,1,35,0|0,3:0|3:0,0:0:0:0:
264,277,129891,2,0,P|229:297|210:311,1,35,0|0,3:0|3:0,0:0:0:0:
297,151,130068,6,0,P|254:96|263:20,1,140,4|0,1:0|0:0,0:0:0:0:
136,203,130597,1,0,0:0:0:0:
35,92,130774,2,0,P|73:110|116:120,1,70,8|0,0:0|0:0,0:0:0:0:
221,208,131127,1,0,0:0:0:0:
51,261,131303,1,0,0:0:0:0:
105,182,131479,5,0,0:0:0:0:
151,295,131656,1,0,0:0:0:0:
221,177,131832,1,0,1:0:0:0:
306,204,132009,1,0,0:0:0:0:
415,118,132185,2,0,P|449:105|508:93,1,70,8|0,0:0|0:0,0:0:0:0:
346,292,132538,2,0,P|324:335|314:368,1,70
298,165,132891,6,0,P|320:122|330:89,1,70,0|0,1:0|0:0,0:0:0:0:
502,313,133244,2,0,P|489:291|383:273,1,140,0|8,0:0|0:0,0:0:0:0:
308,315,133774,1,0,0:0:0:0:
203,189,133950,1,0,0:0:0:0:
284,233,134127,1,0,0:0:0:0:
396,114,134303,5,0,0:0:0:0:
285,192,134479,2,0,P|334:206|372:205,1,70,0|0,0:0|1:0,0:0:0:0:
152,60,134832,5,0,3:0:0:0:
152,60,134921,1,0,3:0:0:0:
152,60,135009,1,8,0:0:0:0:
291,112,135185,1,0,0:0:0:0:
462,21,135362,2,0,P|470:65|494:142,1,105
501,159,135715,6,0,P|446:171|418:184,1,70,4|0,1:0|0:0,0:0:0:0:
270,350,136068,1,0,0:0:0:0:
209,287,136244,2,0,P|214:258|231:206,1,70,0|8,0:0|0:0,0:0:0:0:
75,102,136597,1,0,0:0:0:0:
214,182,136774,1,0,0:0:0:0:
249,29,136950,1,0,0:0:0:0:
173,86,137127,6,0,P|121:72|86:56,1,70
297,140,137479,1,0,1:0:0:0:
140,209,137656,1,0,0:0:0:0:
208,266,137832,1,8,0:0:0:0:
276,172,138009,2,0,P|296:224|317:256,2,70
197,372,138538,5,0,1:0:0:0:
332,267,138715,1,0,0:0:0:0:
166,163,138891,1,0,0:0:0:0:
217,89,139068,1,0,0:0:0:0:
225,233,139244,1,8,0:0:0:0:
321,84,139421,2,0,P|281:101|231:112,1,70
59,233,139774,6,0,P|16:177|39:91,1,140
146,263,140303,1,0,1:0:0:0:
54,324,140479,1,0,3:0:0:0:
54,324,140568,1,0,3:0:0:0:
54,324,140656,1,8,0:0:0:0:
157,185,140832,1,0,0:0:0:0:
243,264,141009,2,0,L|231:308,1,35,0|0,3:0|3:0,0:0:0:0:
242,172,141185,2,0,L|254:128,1,35,0|0,3:0|3:0,0:0:0:0:
358,344,141362,6,0,P|407:364|500:384,1,140,4|0,1:0|0:0,0:0:0:0:
421,277,141891,1,0,0:0:0:0:
386,191,142068,1,8,0:0:0:0:
494,245,142244,1,0,0:0:0:0:
319,265,142421,1,0,0:0:0:0:
372,77,142597,1,0,0:0:0:0:
401,153,142774,5,0,0:0:0:0:
276,182,142950,1,0,0:0:0:0:
345,237,143127,1,0,1:0:0:0:
206,296,143303,2,0,P|212:318|216:387,1,70,0|8,0:0|0:0,0:0:0:0:
259,138,143656,1,0,0:0:0:0:
176,215,143832,1,0,0:0:0:0:
101,37,144009,1,0,0:0:0:0:
27,88,144185,6,0,P|68:71|114:61,1,70,0|0,1:0|0:0,0:0:0:0:
275,109,144538,2,0,P|288:65|291:10,1,70
301,191,144891,1,8,0:0:0:0:
214,45,145068,1,0,0:0:0:0:
44,113,145244,1,0,0:0:0:0:
2,32,145421,6,0,P|34:66|133:68,1,140
243,168,145950,1,0,1:0:0:0:
417,122,146127,1,0,3:0:0:0:
417,122,146215,1,0,3:0:0:0:
417,122,146303,1,8,0:0:0:0:
347,189,146479,1,0,0:0:0:0:
237,130,146656,1,0,0:0:0:0:
72,202,146832,2,0,P|32:189|-9:168,1,70
