osu file format v14

[General]
AudioFilename: audio.mp3
AudioLeadIn: 0
PreviewTime: 124418
Countdown: 0
SampleSet: Soft
StackLeniency: 0.7
Mode: 0
LetterboxInBreaks: 0
WidescreenStoryboard: 0

[Editor]
DistanceSpacing: 0.7
BeatDivisor: 4
GridSize: 4
TimelineZoom: 1.68

[Metadata]
Title:ANGOSTURA
TitleUnicode:ANGOSTURA
Artist:keshi
ArtistUnicode:keshi
Creator:Hiroto-
Version:WHAT YOU SAY?
Source:
Tags:english indie pop gabriel banger
BeatmapID:4573798
BeatmapSetID:2167877

[Difficulty]
HPDrainRate:5
CircleSize:4
OverallDifficulty:9
ApproachRate:9.2
SliderMultiplier:1.8
SliderTickRate:1

[Events]
//Background and Video events
0,0,"keshi.jpg",0,0
//Break Periods
2,79441,85730
//Storyboard Layer 0 (Background)
//Storyboard Layer 1 (Fail)
//Storyboard Layer 2 (Pass)
//Storyboard Layer 3 (Foreground)
//Storyboard Layer 4 (Overlay)
//Storyboard Sound Samples

[TimingPoints]
183,352.941176470589,4,2,1,28,1,0
183,-125,4,2,1,28,0,0
4418,-117.647058823529,4,2,1,28,0,0
11477,-111.111111111111,4,2,1,33,0,0
12535,-200,4,2,1,33,0,0
13594,-111.111111111111,4,2,1,33,0,0
15006,-142.857142857143,4,2,1,33,0,0
17124,-111.111111111111,4,2,1,33,0,0
17830,-200,4,2,1,33,0,0
19947,-111.111111111111,4,2,1,33,0,0
20653,-125,4,2,1,33,0,0
21712,-200,4,2,1,33,0,0
22241,-200,4,2,1,10,0,0
22771,-105.263157894737,4,2,1,40,0,0
23212,-105.263157894737,4,2,1,5,0,0
23300,-105.263157894737,4,2,1,40,0,0
31153,-105.263157894737,4,2,1,5,0,0
31241,-105.263157894737,4,2,1,40,0,0
31947,-153.846153846154,4,2,1,40,0,0
32477,-105.263157894737,4,2,1,40,0,0
33535,-151.515151515152,4,2,1,40,0,0
34065,-99.6677740863771,4,2,1,45,0,0
45359,-99.6677740863771,4,2,1,33,0,0
46771,-165.745856353587,4,2,1,33,0,0
47035,-165.745856353587,4,2,1,5,0,0
47124,-165.745856353587,4,2,1,33,0,0
47477,-247.93388429751,4,2,1,33,0,0
48888,-198.675496688735,4,2,1,33,0,0
51977,-198.675496688735,4,2,1,5,0,0
52065,-198.675496688735,4,2,1,33,0,0
52683,-198.675496688735,4,2,1,5,0,0
52771,-198.675496688735,4,2,1,33,0,0
56300,-58.7084148727979,4,2,1,55,0,0
56388,-58.7084148727979,4,2,1,5,0,0
56477,-58.7084148727979,4,2,1,55,0,0
56565,-58.7084148727979,4,2,1,5,0,0
56653,-99.6677740863771,4,2,1,60,0,1
65124,-90.6344410876119,4,2,1,60,0,1
67947,-99.6677740863771,4,2,1,60,0,1
79241,-99.6677740863771,4,2,1,33,0,0
86300,-66.5188470066511,4,2,1,50,0,0
86565,-66.5188470066511,4,2,1,5,0,0
86653,-66.5188470066511,4,2,1,50,0,0
86918,-66.5188470066511,4,2,1,5,0,0
87006,-198.675496688735,4,2,1,50,0,0
87359,-198.675496688735,4,2,1,33,0,0
90535,-88.9328063241091,4,2,1,45,0,0
91065,-99.6677740863771,4,2,1,45,0,0
93977,-99.6677740863771,4,2,1,5,0,0
94065,-99.6677740863771,4,2,1,45,0,0
96183,-138.888888888889,4,2,1,45,0,0
96888,-99.6677740863771,4,2,1,45,0,0
97065,-99.6677740863771,4,2,1,5,0,0
97153,-99.6677740863771,4,2,1,45,0,0
97330,-99.6677740863771,4,2,1,5,0,0
97418,-49.9168053244588,4,2,1,45,0,0
97506,-49.9168053244588,4,2,1,5,0,0
97594,-99.6677740863771,4,2,1,45,0,0
97859,-99.6677740863771,4,2,1,5,0,0
97947,-99.6677740863771,4,2,1,45,0,0
98065,-99.6677740863771,4,2,1,5,0,0
98183,-99.6677740863771,4,2,1,45,0,0
98300,-99.6677740863771,4,2,1,5,0,0
98388,-142.180094786726,4,2,1,45,0,0
98918,-142.180094786726,4,2,1,5,0,0
99006,-142.180094786726,4,2,1,45,0,0
99624,-142.180094786726,4,2,1,5,0,0
99712,-142.180094786726,4,2,1,45,0,0
101477,-247.933884297509,4,2,1,45,0,0
102006,-247.933884297509,4,2,1,40,0,0
102183,-285.714285714286,4,2,1,40,0,0
103594,-285.714285714286,4,2,1,20,0,0
104653,-117.647058823529,4,2,1,40,0,0
106947,-222.222222222222,4,2,1,40,0,0
108183,-400,4,2,1,40,0,0
109771,-117.647058823529,4,2,1,40,0,0
110830,-222.222222222222,4,2,1,40,0,0
113124,-222.222222222222,4,2,1,33,0,0
114535,-111.111111111111,4,2,1,33,0,0
114800,-111.111111111111,4,2,1,5,0,0
114888,-111.111111111111,4,2,1,33,0,0
115241,-166.666666666667,4,2,1,33,0,0
116653,-111.111111111111,4,2,1,33,0,0
117624,-111.111111111111,4,2,1,5,0,0
117712,-111.111111111111,4,2,1,33,0,0
118065,-166.666666666667,4,2,1,33,0,0
119741,-166.666666666667,4,2,1,5,0,0
119830,-166.666666666667,4,2,1,33,0,0
120888,-500,4,2,1,33,0,0
121947,-111.111111111111,4,2,1,33,0,0
123712,-333.333333333333,4,2,1,38,0,0
126183,-66.6666666666667,4,2,1,50,0,0
126447,-66.6666666666667,4,2,1,5,0,0
126535,-125,4,2,1,50,0,0
126800,-125,4,2,1,5,0,0
126888,-66.6666666666667,4,2,1,50,0,0
127153,-66.6666666666667,4,2,1,5,0,0
127241,-66.6666666666667,4,2,1,65,0,1
128653,-100,4,2,1,65,0,1
129977,-100,4,2,1,5,0,1
130065,-100,4,2,1,65,0,1
138447,-100,4,2,1,5,0,1
138535,-100,4,2,1,65,0,1
141271,-100,4,2,1,5,0,1
141359,-100,4,2,1,65,0,1
144799,-100,4,2,1,5,0,1
144888,-100,4,2,1,65,0,1
146653,-100,4,2,1,60,0,1
146830,-100,4,2,1,50,0,1
147006,-100,4,2,1,40,0,0

[Colours]
Combo1 : 202,255,202
Combo2 : 128,128,128
Combo3 : 255,255,128
Combo4 : 96,96,255

[HitObjects]
16,62,183,6,0,B|104:55|47:118|148:125,1,144,2|2,0:0|0:0,0:0:0:0:
202,79,712,2,1,P|220:61|205:82,1,72,2|0,0:0|0:0,0:0:0:0:
198,170,1065,2,0,P|213:245|226:323,1,144,2|0,0:0|0:0,0:0:0:0:
487,138,1594,6,0,B|462:89|462:89|364:120,1,144,2|2,0:0|0:0,0:0:0:0:
304,87,2124,2,0,B|299:77|271:83|271:83|295:88|302:103,1,72,2|0,0:0|0:0,0:0:0:0:
331,175,2477,2,0,P|342:103|355:33,1,144,2|0,0:0|0:0,0:0:0:0:
445,349,3006,6,0,P|426:312|330:318,1,144,2|2,0:0|0:0,0:0:0:0:
278,232,3535,2,0,P|249:264|244:296,1,72,2|0,0:0|0:0,0:0:0:0:
196,354,3888,2,0,P|264:333|345:310,1,144,2|0,0:0|0:0,0:0:0:0:
111,302,4418,6,0,P|99:228|77:150,1,153.000002918243,2|2,0:0|0:0,0:0:0:0:
182,103,4947,2,0,P|171:144|166:181,1,76.5000014591217,2|0,0:0|0:0,0:0:0:0:
18,43,5300,2,0,P|64:62|138:-8,1,153.000002918243,2|0,0:0|0:0,0:0:0:0:
269,91,5830,5,2,0:0:0:0:
360,51,6183,5,2,0:0:0:0:
360,51,6359,2,0,L|346:141,1,76.5000014591217,2|0,0:0|0:0,0:0:0:0:
276,186,6712,2,0,P|292:262|308:349,1,153.000002918243,2|0,0:0|0:0,0:0:0:0:
93,313,7241,5,2,0:0:0:0:
156,257,7594,5,2,0:0:0:0:
156,257,7771,2,0,P|150:220|137:178,1,76.5000014591217,2|0,0:0|0:0,0:0:0:0:
68,150,8124,2,0,P|79:78|101:-13,1,153.000002918243,2|0,0:0|0:0,0:0:0:0:
269,91,8653,5,2,0:0:0:0:
333,150,9006,5,2,0:0:0:0:
333,150,9183,2,0,L|417:128,1,76.5000014591217,2|0,0:0|0:0,0:0:0:0:
352,254,9535,2,0,B|300:232|300:232|258:255|258:255|183:219,1,153.000002918243,2|0,0:0|0:0,0:0:0:0:
93,313,10065,5,2,0:0:0:0:
164,360,10418,5,2,0:0:0:0:
164,360,10594,2,0,L|246:336,1,76.5000014591217,2|0,0:0|0:0,0:0:0:0:
98,308,10947,2,0,B|77:242|77:242|82:239|82:239|55:152,1,153.000002918243,2|0,0:0|0:0,0:0:0:0:
223,119,11477,5,2,0:0:0:0:
223,119,11830,2,0,P|270:111|288:74,1,80.9999975280763,2|0,0:0|0:0,0:0:0:0:
426,98,12183,2,0,P|379:90|361:53,1,80.9999975280763,2|0,0:0|0:0,0:0:0:0:
309,0,12535,6,0,P|329:89|341:232,1,225,2|0,0:0|0:0,0:0:0:0:
282,280,13594,1,2,0:0:0:0:
208,249,13947,1,2,0:0:0:0:
208,249,14300,6,0,P|233:210|220:169,1,80.9999975280763,2|0,0:0|0:0,0:0:0:0:
107,290,14653,2,0,P|112:334|149:357,1,80.9999975280763,2|0,0:0|0:0,0:0:0:0:
141,200,15006,2,0,P|81:215|10:235,1,125.999996154785,2|0,0:0|0:0,0:0:0:0:
98,78,15535,1,2,0:0:0:0:
193,115,15712,1,2,0:0:0:0:
394,356,16418,5,2,0:0:0:0:
444,259,16771,1,2,0:0:0:0:
280,255,17124,6,0,P|324:263|371:278,1,80.9999975280763,2|0,0:0|0:0,0:0:0:0:
491,192,17477,2,0,P|451:205|410:215,1,80.9999975280763,2|0,0:0|0:0,0:0:0:0:
359,159,17830,2,0,P|384:245|402:334,1,180,2|2,0:0|0:0,0:0:0:0:
178,287,19241,5,2,0:0:0:0:
167,282,19418,1,2,0:0:0:0:
258,232,19594,5,2,0:0:0:0:
269,227,19771,1,2,0:0:0:0:
177,147,19947,6,0,P|170:109|153:59,1,80.9999975280763,2|0,0:0|0:0,0:0:0:0:
43,203,20300,2,0,P|55:249|69:292,1,80.9999975280763,2|0,0:0|0:0,0:0:0:0:
194,140,20653,2,1,B|254:110|324:186|259:165|328:238|387:197,1,216,2|2,0:0|0:0,0:0:0:0:
374,59,21359,2,0,P|360:94|353:140,1,72,2|0,0:0|0:0,0:0:0:0:
480,256,21712,2,0,P|469:196|454:122,1,135,2|0,0:0|0:0,0:0:0:0:
86,126,22771,6,0,B|44:101|44:101|167:64|167:64|148:112,1,213.749994292259,2|0,3:2|0:0,0:0:0:0:
148,180,23300,1,0,0:0:0:0:
335,61,23477,5,10,0:0:0:0:
406,116,23653,1,2,0:0:0:0:
263,231,23830,5,2,3:2:0:0:
244,151,24006,1,2,0:0:0:0:
441,301,24183,2,0,P|354:319|270:342,1,170.999995433807,2|2,0:0|3:2,0:0:0:0:
147,248,24712,2,0,P|110:282|122:328,1,85.4999977169037,2|8,0:0|3:2,0:0:0:0:
260,228,25065,2,0,B|242:165|242:165|261:132|261:132|240:53,1,170.999995433807,2|0,0:0|0:0,0:0:0:0:
460,34,25594,5,2,3:2:0:0:
382,72,25771,1,2,0:0:0:0:
494,208,25947,1,2,0:0:0:0:
411,186,26124,1,2,3:2:0:0:
436,278,26300,1,10,0:0:0:0:
89,75,26653,5,2,3:2:0:0:
148,144,26830,1,2,0:0:0:0:
205,81,27006,2,0,P|128:97|25:128,1,170.999995433807,2|2,0:0|3:2,0:0:0:0:
194,260,27535,2,0,P|228:223|218:189,1,85.4999977169037,2|8,0:0|0:0,0:0:0:0:
77,208,27888,2,0,P|95:287|113:389,1,170.999995433807,2|0,0:0|3:2,0:0:0:0:
220,192,28418,1,0,3:2:0:0:
354,64,29124,6,0,B|411:81|411:81|414:84|414:84|496:105,2,128.249996575356,10|2|2,0:0|0:0|0:0,0:0:0:0:
269,105,29830,2,0,P|191:77|114:63,1,128.249996575356,2|0,0:0|0:0,0:0:0:0:
133,74,30183,1,2,3:2:0:0:
179,158,30359,1,2,0:0:0:0:
61,350,30535,38,1,B|-9:289|59:174|153:191|182:242|164:304|107:298,1,299.249992009163,10|0,0:0|0:0,0:0:0:0:
111,296,31241,1,0,3:2:0:0:
343,111,31771,5,2,3:2:0:0:
343,111,31947,2,0,P|336:72|321:20,1,87.749995983124,10|2,0:0|0:0,0:0:0:0:
203,237,32477,1,2,0:0:0:0:
274,291,32653,6,0,B|332:271|332:271|372:297|372:297|451:267,1,170.999995433807,2|2,0:0|3:2,0:0:0:0:
404,130,33183,2,0,P|386:174|382:222,1,85.4999977169037,2|8,0:0|0:0,0:0:0:0:
224,155,33535,2,0,P|210:82|193:22,1,118.799999637451,2|0,0:0|3:2,0:0:0:0:
191,21,34065,6,1,B|146:3|112:46|112:46|92:97|37:85,1,180.600000000003,2|2,3:2|0:0,0:0:0:0:
172,237,34594,2,0,P|177:192|188:141,1,90.3000033528138,2|8,0:0|0:0,0:0:0:0:
58,317,34947,2,0,P|145:338|243:367,1,180.600006705628,2|0,0:0|0:0,0:0:0:0:
370,206,35477,5,2,0:0:0:0:
440,264,35653,1,2,3:2:0:0:
338,355,35830,2,0,P|330:312|313:249,1,90.3000033528138,2|2,3:2|0:0,0:0:0:0:
220,198,36183,2,0,B|258:247|258:247|383:200,1,180.600006705628,8|0,3:2|3:2,0:0:0:0:
451,176,36712,1,0,0:0:0:0:
313,88,36888,5,2,3:2:0:0:
313,88,37065,2,0,P|320:41|330:-8,1,90.3000033528138,2|0,0:0|0:0,0:0:0:0:
164,162,37418,2,0,P|206:175|269:202,1,90.3000033528138,2|8,3:2|0:0,0:0:0:0:
183,25,37771,2,0,P|100:45|2:60,1,180.600006705628,2|2,0:0|0:0,0:0:0:0:
124,278,38300,5,2,0:0:0:0:
190,210,38477,2,0,P|202:256|214:316,1,90.3000033528138,2|0,3:2|3:2,0:0:0:0:
349,177,38830,2,0,P|305:163|265:143,1,90.3000033528138,2|8,0:0|0:0,0:0:0:0:
279,369,39183,2,0,P|363:346|462:326,1,180.600006705628,2|0,0:0|3:2,0:0:0:0:
390,157,39712,5,2,3:2:0:0:
317,197,39888,1,2,0:0:0:0:
187,56,40065,1,2,0:0:0:0:
261,87,40241,1,2,0:0:0:0:
199,322,40418,2,0,P|188:235|167:140,1,180.600006705628,8|0,0:0|3:2,0:0:0:0:
108,95,40947,1,0,0:0:0:0:
333,25,41124,5,2,0:0:0:0:
283,92,41300,1,2,3:2:0:0:
371,257,41477,2,0,P|412:244|469:236,1,90.3000033528138,2|2,3:2|0:0,0:0:0:0:
244,294,41830,1,8,0:0:0:0:
244,294,42006,2,0,P|213:249|130:267,1,135.450005029221,2|0,0:0|0:0,0:0:0:0:
126,270,42359,6,0,P|135:313|142:360,1,90.3000033528138,2|0,0:0|3:2,0:0:0:0:
57,160,42712,2,0,P|94:126|148:139,1,90.3000033528138,2|0,0:0|0:0,0:0:0:0:
205,200,43065,2,0,P|114:223|16:252,1,180.600006705628,2|0,3:2|0:0,0:0:0:0:
210,50,43594,1,2,3:2:0:0:
288,88,43771,1,0,0:0:0:0:
453,25,43947,6,0,P|443:70|437:130,1,90.3000033528138,2|2,0:0|3:2,0:0:0:0:
410,290,44300,2,0,P|441:325|489:319,1,90.3000033528138,2|2,3:2|0:0,0:0:0:0:
321,178,44653,2,0,P|277:177|249:211,1,90.3000033528138,8|2,0:0|0:0,0:0:0:0:
437,113,45006,2,0,P|443:69|453:24,1,90.3000033528138,8|0,0:0|0:0,0:0:0:0:
453,24,45359,1,2,0:0:0:0:
33,347,45888,5,2,0:0:0:0:
43,341,46065,1,2,0:0:0:0:
49,350,46241,1,2,0:0:0:0:
39,356,46418,1,2,0:0:0:0:
40,349,46594,1,2,0:0:0:0:
115,302,46771,6,0,P|155:309|200:323,1,81.4500033142091,2|0,0:0|0:0,0:0:0:0:
203,328,47124,1,2,0:0:0:0:
177,238,47300,1,2,0:0:0:0:
279,371,47477,6,0,P|335:358|395:347,1,108.900000276947,2|0,0:0|0:0,0:0:0:0:
401,350,48183,1,2,0:0:0:0:
420,146,48888,6,0,P|418:108|398:93,1,45.3000012211609,2|0,0:0|0:0,0:0:0:0:
310,98,49241,2,0,P|326:118|360:120,1,45.3000012211609,2|0,0:0|0:0,0:0:0:0:
366,42,49594,5,2,0:0:0:0:
363,30,49771,1,2,0:0:0:0:
424,102,49947,5,2,0:0:0:0:
422,113,50123,1,2,0:0:0:0:
473,49,50300,6,0,P|407:64|332:86,1,135.900003663483,2|0,0:0|0:0,0:0:0:0:
335,94,51006,1,2,0:0:0:0:
99,237,51712,6,0,P|110:274|117:321,1,67.9500018317414,2|0,0:0|0:0,0:0:0:0:
113,320,52065,1,2,0:0:0:0:
191,278,52241,1,2,0:0:0:0:
303,346,52418,2,0,P|341:354|388:365,1,67.9500018317414,2|0,0:0|0:0,0:0:0:0:
384,366,52771,1,2,0:0:0:0:
451,314,52947,1,2,0:0:0:0:
360,194,53124,6,0,P|351:128|338:60,1,135.900003663483,2|0,0:0|0:0,0:0:0:0:
328,51,53830,1,2,0:0:0:0:
328,51,54183,5,2,0:0:0:0:
286,133,54359,1,2,0:0:0:0:
202,93,54535,1,2,0:0:0:0:
202,93,54888,5,2,0:0:0:0:
114,32,55064,1,2,0:0:0:0:
44,117,55241,1,2,0:0:0:0:
44,117,55594,5,2,0:0:0:0:
150,201,55771,1,2,0:0:0:0:
59,290,55947,1,2,0:0:0:0:
137,355,56300,6,0,B|174:348|174:348|176:346|176:346|232:332,1,76.6499985477639,2|0,0:1|0:0,0:0:0:0:
413,216,56477,2,0,B|375:209|375:209|374:207|374:207|318:193,1,76.6499985477639,2|0,0:1|0:0,0:0:0:0:
183,74,56653,5,6,3:2:0:0:
271,268,56830,1,2,0:0:0:0:
313,35,57006,1,2,0:0:0:0:
203,218,57183,1,2,0:0:0:0:
100,28,57359,5,10,0:0:0:0:
326,134,57535,1,2,0:0:0:0:
79,232,57712,1,2,3:2:0:0:
200,88,57888,1,2,0:0:0:0:
213,251,58065,6,0,P|225:295|232:340,1,90.3000033528138,2|0,0:0|3:2,0:0:0:0:
452,118,58418,2,0,P|441:166|435:212,1,90.3000033528138,2|0,3:2|0:2,0:2:0:0:
269,174,58771,2,0,P|316:162|358:148,1,90.3000033528138,10|0,3:2|0:2,0:2:0:0:
453,312,59124,2,0,P|390:291|312:274,1,135.450005029221,2|0,3:2|0:2,0:2:0:0:
315,281,59477,5,2,3:2:0:0:
427,143,59653,1,2,0:0:0:0:
285,43,59830,1,2,0:0:0:0:
334,175,60006,1,2,3:2:0:0:
435,18,60183,5,10,0:0:0:0:
232,136,60359,1,2,0:0:0:0:
454,251,60535,1,2,3:2:0:0:
361,91,60712,1,2,0:0:0:0:
220,316,60888,6,0,P|261:303|328:290,1,90.3000033528138,2|0,0:0|3:2,0:0:0:0:
113,105,61241,2,0,B|64:166|64:166|116:285,1,180.600006705628,2|8,3:2|0:0,0:0:0:0:
267,209,61771,1,2,0:0:0:0:
207,73,61947,2,0,P|199:116|192:180,1,90.3000033528138,10|0,0:0|3:2,0:0:0:0:
422,324,62300,5,2,3:2:0:0:
311,129,62477,1,2,0:0:0:0:
260,322,62653,1,2,0:0:0:0:
427,225,62830,1,2,0:0:0:0:
202,121,63006,5,10,0:0:0:0:
445,228,63183,1,2,0:0:0:0:
144,245,63359,1,2,3:2:0:0:
453,127,63535,1,2,0:0:0:0:
288,18,63712,2,0,P|297:67|303:115,1,90.3000033528138,2|0,0:0|3:2,0:0:0:0:
53,301,64065,6,0,P|65:212|89:110,1,180.600006705628,2|8,3:2|0:0,0:0:0:0:
306,221,64594,1,0,0:0:0:0:
207,357,64771,2,0,P|200:313|186:252,1,90.3000033528138,2|0,0:0|0:0,0:0:0:0:
352,51,65124,6,0,P|395:49|437:106,1,99.3000038637544,2|0,3:2|0:0,0:0:0:0:
281,316,65477,2,0,P|357:297|480:279,1,198.600007727509,2|8,0:0|0:0,0:0:0:0:
298,122,66006,1,0,0:0:0:0:
226,162,66183,1,0,3:2:0:0:
44,69,66359,1,0,0:0:0:0:
189,294,66535,6,0,P|143:278|89:264,1,99.3000038637544,2|0,0:0|3:2,0:0:0:0:
210,50,66888,2,0,P|161:96|30:48,1,198.600007727509,2|8,3:2|0:0,0:0:0:0:
251,203,67418,1,0,0:0:0:0:
385,77,67594,1,8,0:0:0:0:
459,121,67771,1,0,3:2:0:0:
353,304,67947,5,2,3:2:0:0:
294,91,68124,1,2,0:0:0:0:
146,262,68300,1,2,0:0:0:0:
205,49,68477,1,2,0:0:0:0:
70,143,68653,5,10,0:0:0:0:
277,234,68830,1,2,0:0:0:0:
81,346,69006,1,2,3:2:0:0:
173,189,69183,1,2,0:0:0:0:
335,350,69359,6,0,P|383:335|437:326,1,90.3000033528138,2|0,0:0|3:2,0:0:0:0:
173,189,69712,2,0,P|127:173|64:161,1,90.3000033528138,2|0,3:2|0:2,0:2:0:0:
375,53,70065,2,0,P|362:105|351:160,1,90.3000033528138,10|0,3:2|0:2,0:2:0:0:
242,86,70418,2,0,P|258:159|272:254,1,135.450005029221,2|0,3:2|0:2,0:2:0:0:
266,234,70771,5,2,3:2:0:0:
113,154,70947,1,2,0:0:0:0:
29,345,71124,1,2,0:0:0:0:
151,287,71300,1,2,3:2:0:0:
35,170,71477,5,10,0:0:0:0:
105,367,71653,1,2,0:0:0:0:
243,123,71830,1,2,3:2:0:0:
208,345,72006,1,2,0:0:0:0:
127,125,72183,6,0,P|135:78|148:13,1,90.3000033528138,2|0,0:0|3:2,0:0:0:0:
374,224,72535,2,0,P|285:241|186:267,1,180.600006705628,2|8,3:2|0:0,0:0:0:0:
262,35,73065,1,2,0:0:0:0:
323,106,73241,1,10,0:0:0:0:
455,34,73418,1,0,3:2:0:0:
418,232,73594,5,2,3:2:0:0:
210,167,73771,1,2,0:0:0:0:
250,353,73947,1,2,0:0:0:0:
331,180,74124,1,2,0:0:0:0:
132,68,74300,5,10,0:0:0:0:
195,276,74477,1,2,0:0:0:0:
270,86,74653,1,2,3:2:0:0:
65,166,74830,1,2,0:0:0:0:
285,317,75006,6,0,P|325:303|380:296,1,90.3000033528138,2|0,0:0|3:2,0:0:0:0:
181,23,75359,2,0,P|164:111|157:209,1,180.600006705628,2|8,3:2|0:0,0:0:0:0:
212,262,75888,1,0,0:0:0:0:
399,105,76065,1,2,0:0:0:0:
318,360,76241,1,0,0:0:0:0:
372,296,76418,6,0,P|366:252|355:194,1,90.3000033528138,2|0,3:2|0:0,0:0:0:0:
181,23,76771,2,0,P|164:111|157:209,1,180.600006705628,2|8,0:0|0:0,0:0:0:0:
366,104,77300,1,0,0:0:0:0:
236,257,77477,1,0,3:2:0:0:
346,321,77653,1,0,0:0:0:0:
265,364,77830,6,0,P|224:354|170:345,1,90.3000033528138,2|0,0:0|3:2,0:0:0:0:
50,213,78183,2,0,P|94:205|138:194,1,90.3000033528138,2|0,3:2|0:0,0:0:0:0:
363,71,78535,2,0,P|395:106|389:160,1,90.3000033528138,8|0,0:0|0:0,0:0:0:0:
210,93,78888,2,0,P|216:50|226:2,1,90.3000033528138,8|0,0:0|0:0,0:0:0:0:
225,4,79241,5,2,0:0:0:0:
58,206,86300,6,0,B|142:191|142:191|144:187|144:187|267:167,1,202.950007329026,2|0,3:2|0:0,0:0:0:0:
320,80,86653,2,0,B|276:106|276:106|288:159|288:159|290:159|290:159|303:211|303:211|363:228,1,202.950007329026,2|0,3:2|0:0,0:0:0:0:
458,129,87006,6,0,P|413:135|369:146,1,90.6000024423218,2|2,3:2|0:0,0:0:0:0:
137,305,89477,2,0,L|141:322,7,11.3250003052902,0|0|0|0|0|0|0|0,3:2|3:2|3:2|3:2|3:2|3:2|3:2|3:2,0:0:0:0:
152,354,89830,2,0,P|160:312|171:261,1,90.6000024423218,8|0,0:0|3:2,0:0:0:0:
66,105,90359,1,2,0:0:0:0:
66,105,90447,1,2,0:0:0:0:
66,105,90535,54,1,B|178:149|178:149|222:127|212:70,1,202.400000000004,2|0,3:2|0:0,0:0:0:0:
156,22,91065,1,2,0:0:0:0:
302,146,91241,1,10,0:0:0:0:
368,90,91418,1,2,0:0:0:0:
208,236,91594,1,2,3:2:0:0:
364,308,91771,1,2,0:0:0:0:
265,367,91947,6,0,P|273:322|285:271,1,90.3000033528138,2|0,0:0|3:2,0:0:0:0:
362,194,92300,1,2,3:2:0:0:
460,292,92477,2,0,P|452:246|441:188,1,90.3000033528138,2|8,0:0|3:2,0:0:0:0:
261,83,92830,2,0,P|269:129|280:187,1,90.3000033528138,2|0,0:0|3:2,0:0:0:0:
484,27,93183,1,2,0:0:0:0:
425,82,93359,6,0,B|378:65|378:65|376:67|376:67|330:49,1,90.3000033528138,2|0,3:2|0:0,0:0:0:0:
203,273,93712,2,0,P|274:253|363:236,1,135.450005029221,2|0,0:0|0:0,0:0:0:0:
346,246,94065,1,10,0:0:0:0:
313,162,94241,1,2,0:0:0:0:
452,66,94418,1,2,3:2:0:0:
421,194,94594,1,2,0:0:0:0:
244,65,94771,6,0,P|163:79|62:101,1,180.600006705628,2|2,0:0|3:2,0:0:0:0:
164,241,95300,2,0,P|190:202|177:160,1,90.3000033528138,2|8,0:0|0:0,0:0:0:0:
75,262,95653,2,0,P|91:324|209:321,1,180.600006705628,2|2,0:0|3:2,0:0:0:0:
164,241,96094,1,2,0:0:0:0:
164,241,96183,6,1,B|222:215|286:284|225:264|289:333|344:295,1,194.400004746094,2|0,3:2|0:0,0:0:0:0:
441,148,96888,6,0,B|474:118|474:118|462:167,1,90.3000033528138,10|0,0:0|0:0,0:0:0:0:
344,175,97153,6,0,B|300:173|300:173|340:203,1,90.3000033528138,2|0,0:0|0:0,0:0:0:0:
414,282,97418,6,0,B|446:314|446:314|448:259,1,90.1500001031685,2|0,0:0|0:0,0:0:0:0:
406,203,97594,2,0,P|389:120|364:44,1,135.450005029221,2|0,0:0|0:0,0:0:0:0:
364,57,97947,2,0,P|341:86|293:89,1,60.2000022352092,2|0,3:2|0:0,0:0:0:0:
243,110,98183,2,0,P|241:73|276:39,1,60.2000022352092,2|8,0:0|0:0,0:0:0:0:
333,285,98388,6,0,B|299:274|272:262|272:262|223:289|223:289|201:277|156:255,1,189.899993721771,2|0,0:0|0:0,0:0:0:0:
82,179,99006,54,1,B|82:161|142:164|177:205|163:291|44:314|47:231,1,221.5499926754,2|0,3:2|0:0,0:0:0:0:
3,185,99712,5,10,0:0:0:0:
193,77,99947,5,2,0:0:0:0:
181,315,100183,5,2,0:0:0:0:
129,202,100418,6,0,P|202:186|296:169,1,158.249994768143,2|2,0:0|0:0,0:0:0:0:
296,176,100947,1,0,0:0:0:0:
255,95,101124,1,10,0:0:0:0:
427,17,101477,6,0,P|410:67|394:132,1,108.900000276947,2|0,0:0|0:0,0:0:0:0:
461,244,102183,2,0,B|478:194|478:194|282:131,1,251.999992309571,2|0,0:0|0:0,0:0:0:0:
53,309,104653,5,2,0:0:0:0:
214,249,104830,1,2,0:0:0:0:
128,271,105183,2,0,P|122:234|107:183,1,76.5000014591217,2|0,0:0|0:0,0:0:0:0:
187,329,105535,2,0,P|257:344|341:363,1,153.000002918243,2|2,0:0|0:0,0:0:0:0:
398,228,106065,5,2,0:0:0:0:
466,353,106241,1,2,0:0:0:0:
466,353,106594,6,0,P|472:316|482:269,1,76.5000014591217,2|0,0:0|0:0,0:0:0:0:
321,222,106947,2,0,P|312:148|294:60,1,161.999995056153,2|2,0:0|0:0,0:0:0:0:
286,56,107830,1,2,0:0:0:0:
225,112,108006,1,2,0:0:0:0:
112,45,108183,2,0,P|71:52|14:64,1,90,2|0,0:0|0:0,0:0:0:0:
23,61,109594,1,2,0:0:0:0:
23,61,109771,2,0,P|32:104|38:152,1,76.5000014591217,2|0,0:0|0:0,0:0:0:0:
206,272,110124,6,0,P|183:299|132:301,1,76.5000014591217,2|0,0:0|0:0,0:0:0:0:
290,279,110477,2,0,P|313:306|364:308,1,76.5000014591217,2|0,0:0|0:0,0:0:0:0:
252,206,110830,2,0,P|258:148|265:85,1,121.499996292114,2|2,0:0|0:0,0:0:0:0:
256,78,111712,22,1,B|296:74|323:108|323:108|204:79|143:184,1,283.499991348267,2|0,0:0|0:0,0:0:0:0:
143,194,113124,1,2,0:0:0:0:
453,40,113653,5,2,0:0:0:0:
315,138,113830,1,2,0:0:0:0:
386,177,114006,1,2,0:0:0:0:
284,319,114183,1,2,0:0:0:0:
369,287,114359,1,2,0:0:0:0:
222,237,114535,6,0,P|160:247|77:268,1,121.499996292114,2|0,0:0|0:0,0:0:0:0:
93,268,114888,1,2,0:0:0:0:
31,204,115065,1,2,0:0:0:0:
130,24,115241,2,0,B|171:74|171:74|132:183,1,161.999995056153,2|0,0:0|0:0,0:0:0:0:
133,179,115947,1,0,0:0:0:0:
320,358,116653,6,0,P|356:340|398:334,1,80.9999975280763,2|0,0:0|0:0,0:0:0:0:
476,265,117006,2,0,P|436:258|400:240,1,80.9999975280763,2|0,0:0|0:0,0:0:0:0:
294,145,117359,2,0,P|307:206|315:274,1,121.499996292114,2|0,0:0|0:0,0:0:0:0:
312,275,117712,1,2,0:0:0:0:
231,245,117888,1,2,0:0:0:0:
343,53,118065,6,0,P|316:101|207:76,1,161.999995056153,2|0,0:0|0:0,0:0:0:0:
211,83,118771,1,2,0:0:0:0:
75,248,119477,6,0,P|88:309|94:350,1,80.9999975280763,2|0,0:0|0:0,0:0:0:0:
95,344,119830,1,2,0:0:0:0:
181,301,120006,1,2,0:0:0:0:
137,124,120183,1,2,0:0:0:0:
137,124,120535,1,2,0:0:0:0:
200,186,120712,1,2,0:0:0:0:
252,116,120888,6,0,P|285:124|305:133,1,54,2|0,0:0|0:0,0:0:0:0:
312,138,121594,1,2,0:0:0:0:
312,138,121947,5,2,0:0:0:0:
357,66,122124,1,2,0:0:0:0:
432,106,122300,1,2,0:0:0:0:
320,157,122653,5,2,0:0:0:0:
253,261,122830,1,2,0:0:0:0:
148,204,123006,1,2,0:0:0:0:
333,160,123359,5,2,0:0:0:0:
477,211,123535,1,2,0:0:0:0:
353,351,123712,2,0,P|364:314|380:268,1,80.9999975280763,2|0,0:0|0:0,0:0:0:0:
262,193,124418,5,2,0:0:0:0:
252,197,124594,1,2,0:0:0:0:
419,139,124771,5,2,0:0:0:0:
429,135,124947,1,2,0:0:0:0:
305,80,125124,5,2,0:0:0:0:
299,68,125300,1,2,0:0:0:0:
365,251,125477,5,2,0:0:0:0:
372,269,125653,1,2,0:0:0:0:
341,165,125830,5,2,0:0:0:0:
341,165,126183,6,0,P|246:144|130:126,1,202.500007724762,2|0,3:2|0:0,0:0:0:0:
69,98,126535,6,0,P|125:86|180:68,1,108,2|0,3:2|0:0,0:0:0:0:
220,16,126888,6,0,P|195:111|169:235,1,202.500007724762,2|0,3:2|0:0,0:0:0:0:
167,230,127241,5,6,3:2:0:0:
350,155,127418,1,2,0:0:0:0:
195,60,127594,1,2,0:0:0:0:
270,274,127771,1,2,0:0:0:0:
321,66,127947,5,10,0:0:0:0:
92,167,128124,1,2,0:0:0:0:
314,346,128300,1,2,3:2:0:0:
226,163,128477,1,2,0:0:0:0:
94,349,128653,6,0,P|138:332|188:319,1,90,2|0,0:0|3:2,0:0:0:0:
310,152,129006,2,0,P|291:101|175:96,1,180,2|8,3:2|0:0,0:2:0:0:
277,288,129535,1,2,0:2:0:0:
355,259,129712,1,2,0:0:0:0:
436,233,129888,1,0,3:2:0:0:
320,161,130065,5,2,3:2:0:0:
349,381,130241,1,2,0:0:0:0:
495,291,130418,1,2,0:0:0:0:
374,262,130594,1,2,0:0:0:0:
439,204,130771,5,10,0:0:0:0:
218,280,130947,1,2,0:0:0:0:
382,120,131124,1,2,3:2:0:0:
223,175,131300,1,2,0:0:0:0:
285,87,131477,6,0,P|276:42|258:-18,1,90,2|0,0:0|3:2,0:0:0:0:
58,192,131830,2,0,P|80:280|102:375,1,180,2|8,3:2|0:0,0:0:0:0:
263,150,132359,1,2,0:0:0:0:
162,291,132535,1,10,0:0:0:0:
94,74,132712,1,0,3:2:0:0:
194,33,132888,6,0,P|183:83|173:145,1,90,2|0,3:2|0:0,0:0:0:0:
383,297,133241,2,0,P|368:212|349:111,1,180,2|8,0:0|0:0,0:0:0:0:
400,57,133771,1,0,0:0:0:0:
235,215,133947,1,0,3:2:0:0:
152,150,134124,1,0,0:0:0:0:
70,256,134300,6,0,P|83:302|92:361,1,90,2|0,0:0|3:2,0:0:0:0:
384,130,134653,2,0,P|294:107|203:79,1,180,2|8,3:2|0:0,0:0:0:0:
229,345,135183,1,0,0:0:0:0:
330,297,135359,1,8,0:0:0:0:
434,248,135535,1,0,3:2:0:0:
215,93,135712,5,2,3:2:0:0:
384,172,135888,1,2,0:0:0:0:
192,269,136065,1,2,0:0:0:0:
308,56,136241,1,2,3:2:0:0:
401,333,136418,5,10,0:0:0:0:
144,193,136594,1,2,0:0:0:0:
389,61,136771,1,2,3:2:0:0:
353,159,136947,1,2,0:0:0:0:
186,88,137124,6,0,P|182:46|167:-13,1,90,2|0,0:0|3:2,0:0:0:0:
397,266,137477,2,0,P|387:310|382:355,1,90,2|0,3:2|0:0,0:0:0:0:
128,213,137830,2,0,P|176:202|226:187,1,90,10|0,3:2|0:0,0:0:0:0:
401,140,138183,2,0,P|332:121|267:107,1,135,2|0,3:2|0:0,0:0:0:0:
262,109,138535,5,2,3:2:0:0:
297,248,138712,1,2,0:0:0:0:
163,96,138888,1,2,0:0:0:0:
218,318,139065,1,2,3:2:0:0:
63,89,139241,5,10,0:0:0:0:
317,251,139418,1,2,0:0:0:0:
15,202,139594,1,2,3:2:0:0:
334,151,139771,1,2,0:0:0:0:
141,348,139947,6,0,P|149:301|161:243,1,90,2|0,0:0|3:2,0:0:0:0:
321,69,140300,2,0,B|375:45|434:109|378:91|437:154|488:119,1,180.599999999999,2|8,3:2|0:0,0:2:0:0:
464,48,140830,1,2,0:2:0:0:
298,237,141006,1,2,0:0:0:0:
182,91,141183,1,0,3:2:0:0:
122,167,141359,5,2,3:2:0:0:
317,94,141535,1,2,0:0:0:0:
106,286,141712,1,2,0:0:0:0:
380,177,141888,1,2,0:0:0:0:
77,69,142065,5,10,0:0:0:0:
197,342,142241,1,2,0:0:0:0:
293,83,142418,1,2,3:2:0:0:
42,203,142594,1,2,0:0:0:0:
330,334,142771,6,0,P|371:321|431:307,1,90,2|0,0:0|3:2,0:0:0:0:
200,96,143124,1,2,3:2:0:0:
430,197,143300,1,0,0:0:0:0:
235,353,143477,2,0,P|243:304|259:251,1,90,10|0,0:0|0:0,0:0:0:0:
39,131,143830,2,0,P|52:187|59:242,1,90,2|2,0:0|3:2,0:0:0:0:
245,54,144183,6,0,P|201:43|156:26,1,90,2|0,3:2|0:0,0:0:0:0:
283,254,144535,2,0,P|347:239|443:222,1,135,2|0,0:0|0:0,0:0:0:0:
426,228,144888,1,8,0:0:0:0:
405,144,145065,1,0,0:0:0:0:
224,45,145241,1,0,3:2:0:0:
196,189,145418,1,0,0:0:0:0:
107,131,145594,6,0,P|61:143|3:159,1,90,2|0,0:0|3:2,0:0:0:0:
339,317,145947,2,0,P|385:305|443:289,1,90,2|0,3:2|0:0,0:0:0:0:
256,62,146300,5,8,0:0:0:0:
182,326,146477,1,0,0:0:0:0:
256,62,146653,1,0,0:0:0:0:
182,326,146830,1,0,3:2:0:0:
408,150,147006,1,2,0:0:0:0:
