osu file format v14

[General]
AudioFilename: audio.mp3
AudioLeadIn: 0
PreviewTime: 24131
Countdown: 0
SampleSet: Soft
StackLeniency: 0.7
Mode: 0
LetterboxInBreaks: 0
WidescreenStoryboard: 0

[Editor]
Bookmarks: 46893,91031,135169,157238,201377
DistanceSpacing: 0.8
BeatDivisor: 4
GridSize: 16
TimelineZoom: 1

[Metadata]
Title:2 soon
TitleUnicode:2 soon
Artist:keshi
ArtistUnicode:keshi
Creator:AirinCat
Version:insane
Source:
Tags:indie kyouren english pop the reaper R&B rnb rhythm and blues Soul too two gokugohan12468 kittyadventure
BeatmapID:4048746
BeatmapSetID:1954877

[Difficulty]
HPDrainRate:6
CircleSize:4
OverallDifficulty:8
ApproachRate:9
SliderMultiplier:2.4
SliderTickRate:1

[Events]
//Background and Video events
0,0,"girldrinking.jpg",0,0
//Break Periods
//Storyboard Layer 0 (Background)
//Storyboard Layer 1 (Fail)
//Storyboard Layer 2 (Pass)
//Storyboard Layer 3 (Foreground)
//Storyboard Layer 4 (Overlay)
//Storyboard Sound Samples

[TimingPoints]
2752,689.655172413793,4,2,1,60,1,0
24821,-83.3333333333333,4,2,1,60,0,0
47234,-100,4,2,1,40,0,0
68958,-90.9090909090909,4,2,1,50,0,0
91027,-76.9230769230769,4,2,1,60,0,0
113096,-142.857142857143,4,2,1,40,0,0
134476,-76.9230769230769,4,2,1,60,0,0
135510,-90.9090909090909,4,2,1,50,0,0
157234,-76.9230769230769,4,2,1,60,0,0
195855,-111.111111111111,4,2,1,40,0,0

[Colours]
Combo1 : 243,223,188
Combo2 : 224,180,163

[HitObjects]
125,130,24304,5,0,1:2:0:0:
125,130,24477,1,0,1:2:0:0:
125,130,24649,1,0,1:2:0:0:
224,83,24821,5,0,1:2:0:0:
224,83,25166,2,0,P|214:48|210:12,1,71.9999978027344,2|0,1:2|0:2,0:2:0:0:
55,193,25510,2,0,P|65:228|73:270,1,71.9999978027344,10|0,0:2|0:2,0:2:0:0:
338,199,25855,2,0,P|412:208|459:263,2,143.999995605469,2|0|0,0:2|0:2|1:2,0:2:0:0:
264,253,26717,1,0,0:2:0:0:
328,382,26889,1,10,0:2:0:0:
372,303,27062,1,8,1:3:0:0:
195,367,27234,2,0,P|185:328|175:289,1,71.9999978027344,2|8,0:2|0:3,0:2:0:0:
317,69,27579,5,0,1:2:0:0:
317,69,27924,1,2,1:2:0:0:
383,126,28096,1,2,0:2:0:0:
196,191,28269,2,0,P|147:128|160:60,1,143.999995605469,10|2,0:2|0:2,0:2:0:0:
234,92,28786,1,2,0:2:0:0:
143,269,28958,2,0,B|77:275|88:311|4:327,1,143.999995605469,2|2,0:2|1:2,0:2:0:0:
23,227,29476,1,2,0:2:0:0:
182,351,29648,1,10,0:2:0:0:
295,274,29820,1,0,1:2:0:0:
234,92,29993,2,0,P|165:121|150:191,1,143.999995605469,2|0,0:1|1:2,0:2:0:0:
148,183,30683,6,0,P|183:193|221:206,1,71.9999978027344,2|0,1:2|0:2,0:2:0:0:
446,98,31027,2,0,P|407:93|366:79,1,71.9999978027344,10|0,0:2|0:2,0:2:0:0:
377,378,31372,2,0,P|397:302|405:237,1,143.999995605469,2|0,0:2|0:2,0:2:0:0:
340,166,31889,1,0,0:2:0:0:
216,204,32062,1,0,1:2:0:0:
272,340,32234,1,0,0:2:0:0:
303,245,32407,1,10,0:2:0:0:
168,312,32579,1,8,1:3:0:0:
68,249,32752,2,0,P|57:209|52:170,1,71.9999978027344,2|8,0:2|0:3,0:2:0:0:
138,3,33096,5,0,1:2:0:0:
138,3,33441,1,2,1:2:0:0:
197,111,33614,1,2,0:2:0:0:
431,0,33786,2,0,B|350:6|365:30|292:37,1,143.999995605469,10|2,0:2|0:2,0:2:0:0:
292,36,34303,1,2,0:2:0:0:
496,205,34476,2,0,B|423:212|438:236|357:242,1,143.999995605469,2|2,0:2|1:2,0:2:0:0:
277,201,34993,1,2,0:2:0:0:
371,133,35165,1,10,0:2:0:0:
453,302,35338,1,8,1:3:0:0:
345,362,35510,2,0,P|306:352|263:346,1,71.9999978027344,2|8,0:2|0:3,0:2:0:0:
22,145,35855,6,0,P|76:189|146:184,1,143.999995605469,0|2,1:2|1:2,0:2:0:0:
109,83,36372,1,2,0:2:0:0:
19,324,36545,2,0,P|10:287|-2:249,1,71.9999978027344,10|0,0:2|0:2,0:2:0:0:
229,78,36889,2,0,P|257:153|275:228,1,143.999995605469,2|0,0:2|0:2,0:2:0:0:
272,214,37579,5,2,1:2:0:0:
155,177,37752,1,2,0:2:0:0:
342,106,37924,2,0,P|330:72|319:37,1,71.9999978027344,10|8,0:2|1:3,0:2:0:0:
186,277,38269,2,0,P|198:314|209:358,1,71.9999978027344,2|8,0:2|0:3,0:2:0:0:
378,228,38614,6,0,B|457:245|450:266|531:284,1,143.999995605469,0|2,1:2|1:2,0:2:0:0:
501,178,39131,1,2,0:2:0:0:
374,340,39303,1,10,0:2:0:0:
374,340,39648,1,2,0:2:0:0:
261,270,39820,1,2,0:2:0:0:
298,153,39993,1,2,0:2:0:0:
298,153,40338,5,2,1:2:0:0:
177,226,40511,1,2,0:2:0:0:
34,173,40683,2,0,P|13:135|10:99,1,71.9999978027344,10|8,0:2|1:3,0:2:0:0:
159,0,41027,2,0,P|179:36|186:72,1,71.9999978027344,2|8,0:2|0:3,0:2:0:0:
397,165,41372,6,0,P|481:139|512:78,1,143.999995605469,0|2,1:2|1:2,0:2:0:0:
411,65,41889,1,2,0:2:0:0:
370,271,42062,2,0,P|339:286|300:299,1,71.9999978027344,10|0,0:2|0:2,0:2:0:0:
156,231,42407,2,0,P|222:196|296:180,1,143.999995605469,2|0,0:2|0:2,0:2:0:0:
289,180,43096,1,2,1:2:0:0:
321,92,43269,1,2,0:2:0:0:
169,69,43441,2,0,P|142:83|98:95,1,71.9999978027344,10|8,0:2|1:3,0:2:0:0:
188,292,43786,2,0,P|229:273|267:262,1,71.9999978027344,2|8,0:2|0:3,0:2:0:0:
161,187,44131,5,0,1:2:0:0:
161,187,44476,1,2,1:2:0:0:
70,241,44648,1,2,0:2:0:0:
0,155,44820,1,10,0:2:0:0:
0,155,45165,1,2,0:2:0:0:
93,87,45338,1,2,0:2:0:0:
252,207,45510,2,0,P|303:152|305:81,1,143.999995605469,2|2,0:2|1:2,0:2:0:0:
225,106,46027,1,2,0:2:0:0:
392,210,46200,2,0,P|431:219|466:232,1,71.9999978027344,10|0,0:2|1:2,0:2:0:0:
511,15,46545,2,0,P|473:74|405:94,1,143.999995605469,2|0,0:2|1:2,0:2:0:0:
405,94,47234,6,0,P|393:56|386:22,1,60,0|0,1:2|0:2,0:2:0:0:
207,205,47579,2,0,P|263:189|326:174,2,120,8|0|0,0:2|3:2|0:2,0:2:0:0:
207,205,48614,2,0,P|218:237|227:271,1,60,0|0,1:2|0:2,0:2:0:0:
354,384,48958,2,0,P|361:348|368:315,1,60,8|0,0:2|1:2,0:2:0:0:
479,167,49303,2,0,P|411:194|360:208,1,120,0|0,3:2|1:2,0:2:0:0:
46,356,49993,6,0,P|75:365|104:375,1,60,0|0,1:2|0:2,0:2:0:0:
40,237,50338,2,0,P|98:260|152:278,1,120,8|0,0:2|3:2,0:2:0:0:
203,350,50855,1,0,3:2:0:0:
274,288,51027,2,0,P|281:255|290:229,1,60,0|0,3:2|0:2,0:2:0:0:
224,111,51372,2,0,P|214:139|209:168,1,60,0|0,1:2|0:2,0:2:0:0:
338,144,51717,2,0,P|366:154|395:162,1,60,8|0,3:2|1:2,0:2:0:0:
178,267,52062,2,0,P|122:237|64:246,1,120,2|0,0:1|1:2,0:2:0:0:
67,244,52752,6,0,P|60:271|54:311,1,60,0|0,1:2|0:2,0:2:0:0:
146,383,53096,1,8,3:2:0:0:
221,361,53269,1,0,3:2:0:0:
195,259,53441,1,0,3:2:0:0:
137,306,53614,1,0,3:2:0:0:
306,323,53786,6,0,P|365:330|422:347,2,120,0|0|8,3:2|1:2|0:2,0:2:0:0:
347,162,54648,2,0,P|407:183|463:189,1,120,0|0,1:2|0:2,0:2:0:0:
512,283,55165,1,0,1:2:0:0:
512,283,55510,6,0,P|505:315|497:344,1,60,0|0,1:2|0:2,0:2:0:0:
354,362,55855,1,8,3:2:0:0:
314,284,56027,1,0,3:2:0:0:
377,240,56200,1,0,3:2:0:0:
422,305,56372,1,0,3:2:0:0:
255,357,56545,6,0,P|227:365|199:376,1,60,0|0,3:2|0:2,0:2:0:0:
76,210,56889,2,0,P|110:221|142:228,1,60,0|0,1:2|0:2,0:2:0:0:
77,332,57234,1,8,3:2:0:0:
77,332,57407,1,0,1:2:0:0:
234,255,57579,2,0,P|257:200|250:141,1,120,2|0,0:1|1:2,0:2:0:0:
250,141,58269,5,0,1:2:0:0:
181,78,58441,1,0,3:2:0:0:
66,158,58614,1,8,3:2:0:0:
142,161,58786,1,0,3:2:0:0:
87,72,58958,1,0,3:2:0:0:
0,109,59131,1,0,3:2:0:0:
0,234,59303,6,0,P|15:288|32:369,1,120,0|0,3:2|1:2,0:2:0:0:
28,350,59993,1,8,0:2:0:0:
95,211,60165,2,0,P|108:270|124:327,1,120,0|0,1:2|0:2,0:2:0:0:
224,369,60683,1,0,1:2:0:0:
224,369,61027,6,0,P|251:363|289:351,1,60,0|0,1:2|0:2,0:2:0:0:
464,233,61372,2,0,P|420:203|343:211,1,120,8|0,3:2|3:2,0:2:0:0:
392,287,61889,1,0,3:2:0:0:
355,205,62062,2,0,P|365:172|385:85,1,120,0|0,3:2|1:2,0:2:0:0:
384,88,62752,1,8,0:2:0:0:
255,180,62924,2,0,P|265:147|285:60,1,120,0|0,1:2|0:2,0:2:0:0:
353,8,63441,1,0,1:2:0:0:
353,8,63786,5,0,1:2:0:0:
284,63,63958,1,0,3:2:0:0:
168,3,64131,2,0,P|110:19|52:34,1,120,8|0,3:2|0:2,0:2:0:0:
102,281,64820,2,0,P|130:272|228:250,2,120,0|0|8,3:2|1:2|3:2,0:2:0:0:
16,253,65683,1,0,1:2:0:0:
16,253,65855,2,0,P|11:226|0:194,1,60,0|0,3:2|0:2,0:2:0:0:
48,97,66200,1,0,1:2:0:0:
48,97,66545,5,0,1:2:0:0:
135,102,66717,1,0,3:2:0:0:
241,208,66889,1,8,3:2:0:0:
324,149,67062,1,0,3:2:0:0:
284,74,67234,1,0,3:2:0:0:
218,122,67407,1,0,3:2:0:0:
322,232,67579,6,0,P|341:240|381:265,1,60,0|0,3:2|0:2,0:2:0:0:
512,135,67924,2,0,P|478:144|452:149,1,60,0|0,1:2|0:2,0:2:0:0:
476,375,68269,1,8,3:2:0:0:
476,375,68441,2,0,P|494:306|506:257,1,120,0|0,1:2|0:2,0:2:0:0:
347,87,68958,5,0,1:2:0:0:
347,87,69303,2,0,P|355:118|368:164,1,66.0000020141602,0|0,1:2|0:2,0:2:0:0:
282,261,69648,1,8,0:2:0:0:
173,194,69820,2,0,P|101:215|42:235,1,132.00000402832,2|0,0:2|0:2,0:2:0:0:
0,303,70338,1,0,3:2:0:0:
0,303,70683,2,0,P|13:341|21:377,1,66.0000020141602,0|0,1:2|0:2,0:2:0:0:
292,343,71027,1,8,0:2:0:0:
228,285,71200,2,0,P|231:213|257:154,1,132.00000402832,2|0,1:2|0:2,0:2:0:0:
350,143,71717,1,0,1:2:0:0:
350,143,72062,5,0,1:2:0:0:
398,211,72234,1,0,0:2:0:0:
318,280,72407,1,8,0:2:0:0:
163,236,72579,2,0,P|136:167|136:99,1,132.00000402832,2|0,0:2|0:2,0:2:0:0:
199,44,73096,1,0,3:2:0:0:
199,44,73441,2,0,P|225:55|263:62,1,66.0000020141602,0|0,1:2|0:2,0:2:0:0:
327,236,73786,2,0,P|344:202|348:163,1,66.0000020141602,8|0,0:2|1:2,0:2:0:0:
467,58,74131,2,0,P|437:61|403:77,1,66.0000020141602,2|0,0:1|0:2,0:2:0:0:
112,124,74476,6,0,P|165:163|230:165,1,132.00000402832,2|0,1:2|1:2,0:2:0:0:
230,165,74993,1,0,0:2:0:0:
48,211,75165,2,0,P|11:263|14:328,1,132.00000402832,10|0,0:2|0:2,0:2:0:0:
79,378,75683,1,0,0:2:0:0:
222,379,75855,2,0,P|250:321|243:256,1,132.00000402832,2|0,0:2|1:2,0:2:0:0:
170,290,76372,1,0,0:2:0:0:
345,357,76545,1,10,0:2:0:0:
345,357,76717,2,0,P|403:318|481:344,1,132.00000402832,0|0,1:2|0:2,0:2:0:0:
460,328,77234,6,0,P|442:297|442:258,1,66.0000020141602,2|0,1:2|0:2,0:2:0:0:
512,118,77579,2,0,P|487:140|450:147,1,66.0000020141602,2|0,1:2|0:2,0:2:0:0:
224,156,77924,2,0,P|262:157|293:180,1,66.0000020141602,10|0,0:2|0:2,0:2:0:0:
287,384,78269,2,0,P|329:334|329:268,2,132.00000402832,2|2|2,0:2|0:2|1:2,0:2:0:0:
105,123,79303,2,0,P|130:133|177:146,1,66.0000020141602,10|0,0:2|1:2,0:2:0:0:
100,347,79648,2,0,P|74:336|28:324,1,66.0000020141602,2|0,0:1|0:2,0:2:0:0:
103,233,79993,5,2,1:2:0:0:
103,233,80338,2,0,P|136:243|168:253,1,66.0000020141602,0|0,1:2|0:2,0:2:0:0:
374,77,80683,2,0,P|310:66|254:99,1,132.00000402832,8|0,0:2|0:2,0:2:0:0:
253,98,81372,2,0,P|260:122|271:165,1,66.0000020141602,0|0,3:2|0:2,0:2:0:0:
328,325,81717,2,0,P|342:260|360:197,1,132.00000402832,0|8,1:2|0:2,0:2:0:0:
432,362,82234,2,0,P|449:298|464:234,1,132.00000402832,0|0,1:2|0:2,0:2:0:0:
418,116,82752,1,0,1:2:0:0:
418,116,83096,5,0,1:2:0:0:
495,59,83269,1,0,3:2:0:0:
317,0,83441,2,0,P|308:26|299:71,1,66.0000020141602,8|0,0:2|0:2,0:2:0:0:
212,186,83786,2,0,P|197:152|193:118,1,66.0000020141602,0|0,3:2|3:2,0:2:0:0:
314,161,84131,1,2,3:2:0:0:
314,161,84303,1,0,3:2:0:0:
160,300,84476,6,0,P|90:315|36:343,1,132.00000402832,0|8,1:2|0:2,0:2:0:0:
132,201,84993,2,0,P|62:216|8:244,1,132.00000402832,0|0,1:2|0:2,0:2:0:0:
23,40,85510,1,0,1:2:0:0:
23,40,85855,5,0,1:2:0:0:
78,112,86027,1,0,3:2:0:0:
238,62,86200,1,8,3:2:0:0:
158,18,86372,1,0,3:2:0:0:
155,143,86545,1,0,3:2:0:0:
234,182,86717,1,0,3:2:0:0:
331,88,86889,5,2,3:2:0:0:
331,88,87062,1,0,3:2:0:0:
357,280,87234,2,0,P|380:219|390:148,1,132.00000402832,0|8,1:2|0:2,0:2:0:0:
468,323,87752,2,0,P|477:257|500:196,1,132.00000402832,0|0,1:2|0:2,0:2:0:0:
500,196,88269,1,2,0:2:0:0:
169,290,90510,5,0,1:2:0:0:
205,384,90683,1,0,1:2:0:0:
60,302,90855,1,0,1:2:0:0:
272,233,91027,6,0,P|297:159|297:73,1,155.999992858887,4|0,1:2|1:2,0:2:0:0:
210,82,91545,1,0,0:2:0:0:
380,223,91717,2,0,P|394:183|401:138,1,77.9999964294435,10|0,0:2|0:2,0:2:0:0:
150,218,92062,2,0,P|82:180|6:189,2,155.999992858887,2|0|0,0:2|0:2|1:2,0:2:0:0:
57,271,92924,1,0,0:2:0:0:
175,127,93096,1,10,0:2:0:0:
284,250,93269,1,8,1:3:0:0:
185,339,93441,2,0,P|140:349|104:370,1,77.9999964294435,2|8,0:2|0:3,0:2:0:0:
301,120,93786,6,0,P|363:169|439:163,1,155.999992858887,0|2,1:2|1:2,0:2:0:0:
387,81,94303,1,2,0:2:0:0:
185,233,94476,2,0,P|104:248|27:272,1,155.999992858887,10|2,0:2|0:2,0:2:0:0:
43,164,94993,1,2,0:2:0:0:
251,367,95165,2,0,B|254:284|293:292|298:214,1,155.999992858887,2|2,0:2|1:2,0:2:0:0:
232,162,95683,1,2,0:2:0:0:
387,311,95855,1,10,0:2:0:0:
484,190,96027,1,0,1:2:0:0:
345,94,96200,2,0,P|383:87|420:74,1,77.9999964294435,2|0,0:1|0:2,0:2:0:0:
202,328,96545,6,0,P|138:285|63:299,1,155.999992858887,0|0,1:2|1:2,0:2:0:0:
88,376,97062,1,0,0:2:0:0:
277,225,97234,2,0,P|286:183|292:147,1,77.9999964294435,10|0,0:2|0:2,0:2:0:0:
77,9,97579,2,0,P|102:78|125:164,1,155.999992858887,2|0,0:2|0:2,0:2:0:0:
19,237,98096,1,0,0:2:0:0:
123,157,98269,1,0,1:2:0:0:
185,332,98441,1,0,0:2:0:0:
99,264,98614,1,10,0:2:0:0:
258,172,98786,1,8,1:3:0:0:
311,297,98958,2,0,P|357:310|401:330,1,77.9999964294435,2|8,0:2|0:3,0:2:0:0:
491,73,99303,6,0,P|424:107|399:179,1,155.999992858887,0|2,1:2|1:2,0:2:0:0:
475,193,99820,1,2,0:2:0:0:
335,20,99993,2,0,P|248:46|177:60,1,155.999992858887,8|2,0:2|0:2,0:2:0:0:
184,58,100510,1,2,0:2:0:0:
60,196,100683,2,0,P|11:137|18:62,1,155.999992858887,2|2,0:2|1:2,0:2:0:0:
102,18,101200,1,2,0:2:0:0:
226,179,101372,1,10,0:2:0:0:
338,109,101545,1,8,1:3:0:0:
259,37,101717,2,0,P|213:51|178:59,1,77.9999964294435,2|8,0:2|0:3,0:2:0:0:
343,262,102062,6,0,P|418:275|463:336,1,155.999992858887,0|2,1:2|1:2,0:2:0:0:
384,372,102579,1,2,0:2:0:0:
242,178,102752,2,0,P|228:217|223:262,1,77.9999964294435,10|0,0:2|0:2,0:2:0:0:
463,336,103096,2,0,P|493:264|500:187,1,155.999992858887,2|0,0:2|0:2,0:2:0:0:
500,187,103786,1,2,1:2:0:0:
399,213,103958,1,2,0:2:0:0:
307,22,104131,2,0,P|351:38|392:50,1,77.9999964294435,10|8,0:2|1:3,0:2:0:0:
309,256,104476,2,0,P|273:241|236:232,1,77.9999964294435,2|8,0:2|0:3,0:2:0:0:
69,92,104820,5,0,1:2:0:0:
69,92,105165,1,2,1:2:0:0:
174,58,105338,1,2,0:2:0:0:
262,139,105510,1,10,0:2:0:0:
262,139,105855,1,2,0:2:0:0:
168,249,106027,1,2,0:2:0:0:
36,207,106200,1,2,0:2:0:0:
36,207,106545,5,2,1:2:0:0:
120,129,106717,1,2,0:2:0:0:
274,263,106889,2,0,P|313:274|362:279,1,77.9999964294435,10|8,0:2|1:3,0:2:0:0:
412,63,107234,2,0,P|374:54|328:53,1,77.9999964294435,2|8,0:2|0:3,0:2:0:0:
453,369,107579,6,0,P|469:296|502:210,1,155.999992858887,0|2,1:2|1:2,0:2:0:0:
451,144,108096,1,2,0:2:0:0:
210,308,108269,2,0,P|192:270|184:226,1,77.9999964294435,10|0,0:2|0:2,0:2:0:0:
142,57,108614,2,0,P|207:71|289:113,1,155.999992858887,2|0,0:2|0:2,0:2:0:0:
286,112,109303,5,2,1:2:0:0:
315,24,109476,1,2,0:2:0:0:
109,135,109648,2,0,P|92:162|82:209,1,77.9999964294435,10|8,0:2|1:3,0:2:0:0:
296,354,109993,2,0,P|313:327|323:280,1,77.9999964294435,2|8,0:2|0:3,0:2:0:0:
220,195,110338,5,0,1:2:0:0:
220,195,110683,1,2,1:2:0:0:
322,282,110855,1,2,0:2:0:0:
446,206,111027,1,10,0:2:0:0:
446,206,111372,1,2,0:2:0:0:
391,75,111545,1,2,0:2:0:0:
245,84,111717,1,2,0:2:0:0:
245,84,112062,5,2,1:2:0:0:
347,158,112234,1,2,0:2:0:0:
275,0,112407,1,10,0:2:0:0:
136,162,112579,1,8,1:3:0:0:
53,119,112752,2,0,P|45:86|31:34,1,77.9999964294435,2|8,0:2|0:3,0:2:0:0:
238,176,113096,6,0,P|145:204|105:285,1,167.999994873047,2|0,0:2|0:2,0:2:0:0:
29,286,113958,1,2,0:2:0:0:
33,284,114131,2,0,P|124:302|199:342,1,167.999994873047,2|0,0:2|0:2,0:2:0:0:
510,309,115165,1,2,0:2:0:0:
507,303,115338,2,0,P|442:314|377:343,1,125.999996154785,2|0,0:2|0:2,0:2:0:0:
386,337,116200,2,0,P|378:295|362:256,1,83.9999974365235,2|0,0:2|0:2,0:2:0:0:
161,144,116889,2,0,P|155:164|151:184,1,41.9999987182618,2|0,0:2|0:2,0:2:0:0:
0,230,117234,2,0,P|37:245|92:255,1,83.9999974365235,2|0,0:2|0:2,0:2:0:0:
289,352,117924,2,0,P|247:360|207:376,1,83.9999974365235,2|0,0:2|0:2,0:2:0:0:
208,375,118614,6,0,P|198:281|251:212,1,167.999994873047,2|0,0:2|0:2,0:2:0:0:
188,149,119476,1,2,0:2:0:0:
184,154,119648,2,0,P|233:181|378:214,1,167.999994873047,2|0,0:2|0:2,0:2:0:0:
512,40,120683,1,2,0:2:0:0:
506,35,120855,2,0,P|479:76|469:167,1,125.999996154785,2|0,0:2|0:2,0:2:0:0:
467,151,121717,2,0,P|479:186|487:236,1,83.9999974365235,2|0,0:2|0:2,0:2:0:0:
240,382,122407,2,0,P|233:357|230:334,1,41.9999987182618,2|0,0:2|0:2,0:2:0:0:
306,266,122752,2,0,P|349:273|391:290,1,83.9999974365235,2|0,0:2|0:2,0:2:0:0:
129,361,123441,2,0,P|88:368|45:387,1,83.9999974365235,2|0,0:2|0:2,0:2:0:0:
49,384,124131,6,0,B|57:302|100:309|104:206,1,167.999994873047,2|0,0:2|0:2,0:2:0:0:
187,208,124993,1,2,0:2:0:0:
183,214,125165,2,0,B|174:132|132:139|128:36,1,167.999994873047,2|0,0:2|0:2,0:2:0:0:
374,26,126200,1,2,0:2:0:0:
374,20,126372,2,0,P|310:35|237:64,1,125.999996154785,2|0,0:2|0:2,0:2:0:0:
1,2,127234,1,2,0:2:0:0:
1,2,127579,1,2,0:2:0:0:
1,2,127924,6,0,P|7:20|15:51,1,41.9999987182618,2|0,0:2|0:2,0:2:0:0:
136,100,128269,2,0,P|127:143|113:191,1,83.9999974365235,2|0,0:2|0:2,0:2:0:0:
21,376,128958,2,0,P|6:330|-2:287,1,83.9999974365235,2|0,0:2|0:2,0:2:0:0:
0,295,129648,6,0,P|62:298|169:341,1,167.999994873047,2|0,0:2|0:2,0:2:0:0:
250,316,130510,1,2,0:2:0:0:
247,310,130683,2,0,P|282:228|294:140,1,167.999994873047,2|0,0:2|0:2,0:2:0:0:
135,8,131717,1,2,0:2:0:0:
134,0,131889,2,0,P|108:50|92:146,1,125.999996154785,2|0,0:2|0:2,0:2:0:0:
92,117,132752,1,2,0:2:0:0:
412,75,133096,6,0,P|374:67|326:47,1,83.9999974365235,2|0,0:2|0:2,0:2:0:0:
171,289,133786,2,0,P|209:269|262:256,1,83.9999974365235,2|0,0:2|0:2,0:2:0:0:
512,320,134476,2,0,B|430:243|461:131|506:117|536:182|485:189,1,233.999989288331,2|0,0:2|0:2,0:2:0:0:
390,178,135165,1,0,1:2:0:0:
390,178,135510,6,0,L|314:201,1,66.0000020141602,0|0,1:2|0:2,0:2:0:0:
168,353,135855,1,8,0:2:0:0:
135,258,136027,2,0,P|191:270|270:305,1,132.00000402832,2|0,0:2|0:2,0:2:0:0:
327,384,136545,1,0,3:2:0:0:
327,384,136889,2,0,P|336:350|348:317,1,66.0000020141602,0|0,1:2|0:2,0:2:0:0:
327,126,137234,1,8,0:2:0:0:
236,186,137407,1,0,1:2:0:0:
307,226,137579,2,0,P|378:239|443:268,1,132.00000402832,2|0,0:2|1:2,0:2:0:0:
432,262,138269,6,0,P|438:224|451:187,1,66.0000020141602,0|0,1:2|0:2,0:2:0:0:
512,145,138614,1,8,0:2:0:0:
385,74,138786,2,0,P|309:57|247:34,1,132.00000402832,2|0,0:2|0:2,0:2:0:0:
174,91,139303,1,0,3:2:0:0:
174,91,139648,1,0,1:2:0:0:
149,191,139820,1,0,0:2:0:0:
50,171,139993,1,8,0:2:0:0:
80,74,140165,1,0,1:2:0:0:
248,157,140338,2,0,P|300:168|384:193,1,132.00000402832,2|0,0:1|1:2,0:2:0:0:
375,190,141027,6,0,L|359:256,1,66.0000020141602,0|0,1:2|0:2,0:2:0:0:
144,293,141372,1,8,0:2:0:0:
186,384,141545,2,0,P|237:345|253:282,1,132.00000402832,2|0,0:2|0:2,0:2:0:0:
218,199,142062,1,0,3:2:0:0:
218,199,142407,1,0,1:2:0:0:
285,128,142579,1,0,0:2:0:0:
337,226,142752,1,8,0:2:0:0:
253,282,142924,1,0,1:2:0:0:
134,245,143096,2,0,P|118:178|95:111,1,132.00000402832,2|0,0:2|1:2,0:2:0:0:
98,119,143786,6,0,P|140:109|169:96,1,66.0000020141602,0|0,1:2|0:2,0:2:0:0:
202,27,144131,1,8,0:2:0:0:
352,153,144303,2,0,P|391:82|378:25,1,132.00000402832,2|0,0:2|0:2,0:2:0:0:
282,2,144820,1,0,3:2:0:0:
282,2,145165,2,0,P|287:35|298:77,1,66.0000020141602,0|0,1:2|0:2,0:2:0:0:
160,181,145510,2,0,P|197:173|236:155,1,66.0000020141602,8|0,0:2|1:2,0:2:0:0:
448,225,145855,2,0,P|402:178|336:174,1,132.00000402832,2|0,0:1|1:2,0:2:0:0:
338,173,146545,6,0,P|328:201|321:244,1,66.0000020141602,0|0,1:2|0:2,0:2:0:0:
120,384,146889,2,0,P|87:325|102:257,1,132.00000402832,8|0,0:2|0:2,0:2:0:0:
97,264,147579,2,0,L|171:286,1,66.0000020141602,0|0,3:2|0:2,0:2:0:0:
255,363,147924,2,0,L|383:331,1,132.00000402832,0|8,1:2|0:2,0:2:0:0:
512,256,148441,2,0,L|351:216,1,132.00000402832,0|0,1:2|0:2,0:2:0:0:
333,144,148958,1,0,1:2:0:0:
333,144,149303,6,0,P|344:104|351:65,1,66.0000020141602,0|0,1:2|0:2,0:2:0:0:
144,0,149648,2,0,P|123:59|111:137,1,132.00000402832,8|0,0:2|0:2,0:2:0:0:
111,127,150338,2,0,P|141:137|183:144,1,66.0000020141602,0|0,3:2|0:2,0:2:0:0:
297,225,150683,2,0,P|233:234|171:264,1,132.00000402832,0|8,1:2|0:2,0:2:0:0:
64,335,151200,2,0,P|123:344|212:387,1,132.00000402832,0|0,1:2|0:2,0:2:0:0:
281,308,151717,1,0,1:2:0:0:
281,308,152062,5,0,1:2:0:0:
358,367,152234,1,0,3:2:0:0:
441,308,152407,1,8,3:2:0:0:
425,227,152579,1,0,3:2:0:0:
326,210,152752,1,0,3:2:0:0:
357,281,152924,1,0,3:2:0:0:
460,136,153096,5,2,3:2:0:0:
460,136,153269,1,0,3:2:0:0:
233,131,153441,2,0,P|295:110|360:100,1,132.00000402832,0|8,1:2|0:2,0:2:0:0:
210,40,153958,2,0,P|272:20|338:10,1,132.00000402832,0|0,1:2|0:2,0:2:0:0:
337,10,154476,1,2,0:2:0:0:
127,346,156717,5,0,1:2:0:0:
208,234,156889,1,0,1:2:0:0:
318,353,157062,1,0,1:2:0:0:
94,248,157234,6,0,P|53:182|56:105,1,155.999992858887,4|0,1:2|1:2,0:2:0:0:
168,0,157752,1,0,0:2:0:0:
356,144,157924,2,0,P|378:103|377:53,1,77.9999964294435,10|0,0:2|0:2,0:2:0:0:
178,183,158269,2,0,P|250:183|323:254,2,155.999992858887,2|0|0,0:2|0:2|1:2,0:2:0:0:
121,267,159131,1,0,0:2:0:0:
49,78,159303,1,10,0:2:0:0:
252,82,159476,1,8,1:3:0:0:
178,183,159648,2,0,P|142:171|96:163,1,77.9999964294435,2|8,0:2|0:3,0:2:0:0:
356,28,159993,6,0,P|417:87|415:179,1,155.999992858887,0|2,1:2|1:2,0:2:0:0:
345,213,160510,1,2,0:2:0:0:
472,368,160683,2,0,P|490:296|517:203,1,155.999992858887,10|2,0:2|0:2,0:2:0:0:
423,154,161200,1,2,0:2:0:0:
262,384,161372,2,0,P|242:288|227:225,1,155.999992858887,2|2,0:2|1:2,0:2:0:0:
289,180,161889,1,2,0:2:0:0:
140,355,162062,1,10,0:2:0:0:
63,202,162234,1,8,1:3:0:0:
228,231,162407,2,0,P|187:243|141:265,1,77.9999964294435,2|8,0:1|0:3,0:2:0:0:
24,18,162752,6,0,P|82:76|180:75,1,155.999992858887,0|0,1:2|1:2,0:2:0:0:
169,0,163269,1,0,0:2:0:0:
22,222,163441,2,0,P|13:184|0:148,1,77.9999964294435,10|0,0:2|0:2,0:2:0:0:
283,31,163786,2,0,P|322:112|333:190,1,155.999992858887,2|0,0:2|0:2,0:2:0:0:
221,300,164303,1,0,0:2:0:0:
124,232,164476,1,0,1:2:0:0:
199,130,164648,1,0,0:2:0:0:
343,312,164820,1,10,0:2:0:0:
414,233,164993,1,8,1:3:0:0:
332,176,165165,2,0,P|293:186|258:200,1,77.9999964294435,2|8,0:2|0:3,0:2:0:0:
438,384,165510,5,0,1:2:0:0:
438,384,165855,1,2,1:2:0:0:
343,312,166027,1,2,0:2:0:0:
483,221,166200,2,0,P|507:143|486:59,1,155.999992858887,10|2,0:2|0:2,0:2:0:0:
420,15,166717,1,2,0:2:0:0:
268,211,166889,2,0,P|232:130|256:56,1,155.999992858887,2|0,0:2|1:2,0:2:0:0:
328,89,167407,1,0,0:2:0:0:
159,221,167579,1,10,0:2:0:0:
73,104,167752,1,8,1:3:0:0:
173,44,167924,2,0,P|203:55|248:68,1,77.9999964294435,2|8,0:2|0:3,0:2:0:0:
64,384,168269,6,0,P|6:314|10:236,1,155.999992858887,0|2,1:2|1:2,0:2:0:0:
74,193,168786,1,2,0:2:0:0:
254,351,168958,2,0,P|289:338|337:325,1,77.9999964294435,10|0,0:2|0:2,0:2:0:0:
334,95,169303,2,0,P|248:116|177:153,1,155.999992858887,2|0,0:2|0:2,0:2:0:0:
187,146,169993,1,2,1:2:0:0:
303,220,170165,1,2,0:2:0:0:
167,359,170338,2,0,P|148:327|137:281,1,77.9999964294435,10|8,0:2|1:3,0:2:0:0:
371,121,170683,2,0,P|405:135|454:145,1,77.9999964294435,2|8,0:2|0:3,0:2:0:0:
336,358,171027,1,0,1:2:0:0:
336,358,171372,5,2,1:2:0:0:
236,266,171545,1,2,0:2:0:0:
293,157,171717,1,10,0:2:0:0:
293,157,172062,1,2,0:2:0:0:
431,172,172234,1,2,0:2:0:0:
459,305,172407,1,2,0:2:0:0:
459,305,172752,5,2,1:2:0:0:
351,235,172924,1,2,0:2:0:0:
213,354,173096,2,0,P|180:363|142:385,1,77.9999964294435,10|8,0:2|1:3,0:2:0:0:
4,160,173441,2,0,P|37:171|90:185,1,77.9999964294435,2|8,0:2|0:3,0:2:0:0:
276,275,173786,6,0,P|324:214|326:138,1,155.999992858887,0|2,1:2|1:2,0:2:0:0:
244,163,174303,1,2,0:2:0:0:
413,279,174476,2,0,P|429:241|436:196,1,77.9999964294435,10|0,0:2|0:2,0:2:0:0:
186,5,174820,2,0,P|154:75|146:153,1,155.999992858887,2|0,0:2|0:2,0:2:0:0:
145,152,175510,1,2,1:2:0:0:
274,92,175683,1,2,0:2:0:0:
177,283,175855,2,0,P|137:270|86:260,1,77.9999964294435,10|8,0:2|1:3,0:2:0:0:
0,48,176200,2,0,P|40:58|80:71,1,77.9999964294435,2|8,0:2|0:3,0:2:0:0:
21,166,176545,1,0,1:2:0:0:
21,166,176889,5,2,1:2:0:0:
161,50,177061,1,2,0:2:0:0:
315,172,177234,1,10,0:2:0:0:
315,172,177579,1,2,0:2:0:0:
213,286,177752,1,2,0:2:0:0:
103,191,177924,1,2,0:2:0:0:
103,191,178269,5,2,1:2:0:0:
215,114,178441,1,2,0:2:0:0:
409,270,178614,2,0,P|461:213|460:132,1,155.999992858887,10|0,0:2|0:2,0:2:0:0:
462,137,179303,5,0,1:2:0:0:
168,259,179476,1,2,1:2:0:0:
322,204,179648,1,0,1:2:0:0:
322,204,179820,1,0,1:2:0:0:
167,52,179993,2,0,P|157:92|149:134,1,77.9999964294435,10|0,0:2|0:2,0:2:0:0:
376,384,180338,2,0,P|421:294|409:229,1,155.999992858887,2|0,0:2|0:2,0:2:0:0:
414,242,181027,1,0,1:2:0:0:
284,350,181200,1,0,0:2:0:0:
212,246,181372,2,0,P|217:203|232:162,1,77.9999964294435,10|8,0:2|1:3,0:2:0:0:
378,32,181717,2,0,P|392:70|401:115,1,77.9999964294435,2|8,0:2|0:3,0:2:0:0:
113,228,182062,6,0,P|37:211|0:135,1,155.999992858887,0|2,1:2|1:2,0:2:0:0:
50,77,182579,1,2,0:2:0:0:
230,204,182752,2,0,B|232:126|272:136|275:56,1,155.999992858887,10|2,0:2|0:2,0:2:0:0:
198,29,183269,1,2,0:2:0:0:
376,241,183441,2,0,B|378:163|418:173|421:93,1,155.999992858887,2|0,0:2|1:2,0:2:0:0:
363,43,183958,1,0,0:2:0:0:
512,176,184131,1,10,0:2:0:0:
512,30,184303,1,8,1:3:0:0:
352,168,184476,2,0,P|314:178|278:194,1,77.9999964294435,2|8,0:1|0:3,0:2:0:0:
56,15,184820,6,0,P|132:18|184:73,1,155.999992858887,0|0,1:2|1:2,0:2:0:0:
131,148,185338,1,0,0:2:0:0:
263,270,185510,2,0,P|269:226|285:178,1,77.9999964294435,10|0,0:2|0:2,0:2:0:0:
37,107,185855,2,0,P|8:179|0:270,1,155.999992858887,2|0,0:2|0:2,0:2:0:0:
77,373,186372,1,0,0:2:0:0:
126,249,186545,1,0,1:2:0:0:
0,257,186717,1,0,0:2:0:0:
181,362,186889,1,10,0:2:0:0:
266,246,187062,1,8,1:3:0:0:
190,157,187234,2,0,P|152:153|109:139,1,77.9999964294435,2|8,0:2|0:3,0:2:0:0:
304,367,187579,6,0,P|356:338|468:318,1,155.999992858887,0|2,1:2|1:2,0:2:0:0:
499,378,188096,1,2,0:2:0:0:
353,237,188269,2,0,P|320:167|334:92,1,155.999992858887,10|2,0:2|0:2,0:2:0:0:
413,132,188786,1,2,0:2:0:0:
247,246,188958,2,0,P|167:264|81:290,1,155.999992858887,2|2,0:2|1:2,0:2:0:0:
0,218,189476,1,2,0:2:0:0:
133,53,189648,1,10,0:2:0:0:
146,187,189820,1,8,1:3:0:0:
59,140,189993,2,0,P|50:104|30:58,1,77.9999964294435,2|8,0:2|0:3,0:2:0:0:
318,101,190338,6,0,B|387:111|382:140|473:157,1,155.999992858887,0|2,1:2|1:2,0:2:0:0:
461,65,190855,1,2,0:2:0:0:
276,184,191027,2,0,P|285:220|296:258,1,77.9999964294435,10|0,0:2|0:2,0:2:0:0:
460,384,191372,2,0,P|507:323|512:247,1,155.999992858887,2|0,0:2|0:2,0:2:0:0:
512,247,192062,1,2,1:2:0:0:
413,202,192234,1,2,0:2:0:0:
346,341,192407,2,0,P|308:352|275:372,1,77.9999964294435,10|8,0:2|1:3,0:2:0:0:
71,225,192752,2,0,P|111:206|149:185,1,77.9999964294435,2|8,0:2|0:3,0:2:0:0:
244,239,193096,1,0,1:2:0:0:
244,239,193441,5,2,1:2:0:0:
155,370,193614,1,2,0:2:0:0:
22,299,193786,1,10,0:2:0:0:
22,299,194131,1,2,0:2:0:0:
74,167,194303,1,2,0:2:0:0:
231,197,194476,1,2,0:2:0:0:
231,197,194820,5,2,1:2:0:0:
131,278,194993,1,2,0:2:0:0:
328,378,195165,2,0,P|339:335|350:291,1,77.9999964294435,10|8,0:2|1:3,0:2:0:0:
184,37,195510,2,0,P|173:67|167:117,1,77.9999964294435,2|8,0:2|0:3,0:2:0:0:
272,97,195855,6,0,P|325:105|377:120,1,107.999996704102,2|2,0:2|0:2,0:2:0:0:
452,190,196372,1,2,0:2:0:0:
451,190,196545,2,0,P|470:139|480:86,2,107.999996704102,2|2|0,0:2|0:2|0:2,0:2:0:0:
55,358,197579,2,0,P|44:330|38:292,1,53.9999983520508,2|0,0:2|0:2,0:2:0:0:
116,237,197924,2,0,P|144:290|153:346,2,107.999996704102,2|2|0,0:2|0:2|0:2,0:2:0:0:
116,235,198958,5,2,0:2:0:0:
58,181,199131,1,2,0:2:0:0:
95,105,199303,1,2,0:2:0:0:
95,105,199648,1,2,0:2:0:0:
173,109,199820,1,2,0:2:0:0:
194,185,199993,1,2,0:2:0:0:
194,185,200338,1,2,0:2:0:0:
266,217,200510,1,2,0:2:0:0:
321,161,200683,2,0,P|325:128|332:92,1,53.9999983520508,2|0,0:2|0:2,0:2:0:0:
406,178,201027,2,0,L|417:113,1,53.9999983520508,2|0,0:2|0:2,0:2:0:0:
