osu file format v14

[General]
AudioFilename: 39. lit(var).mp3
AudioLeadIn: 0
PreviewTime: 49
Countdown: 0
SampleSet: Soft
StackLeniency: 0.6
Mode: 0
LetterboxInBreaks: 1
WidescreenStoryboard: 1

[Editor]
Bookmarks: 7057,7914,10445,15628,18199,20771,31057,33628,52942,60521,66206,68100,75699,90856
DistanceSpacing: 1.25
BeatDivisor: 4
GridSize: 32
TimelineZoom: 1

[Metadata]
Title:lit(var)
TitleUnicode:lit(var)
Artist:kensuke ushio
ArtistUnicode:牛尾憲輔
Creator:Smokeman
Version:sparkle
Source:聲の形
Tags:koe no katachi the shape of voice a silent voice a shape of light piano ost litvar Jakomo73
BeatmapID:1315399
BeatmapSetID:623863

[Difficulty]
HPDrainRate:5
CircleSize:3.5
OverallDifficulty:4
ApproachRate:5
SliderMultiplier:1.4
SliderTickRate:1

[Events]
//Background and Video events
0,0,"koe.jpg",0,0
//Break Periods
//Storyboard Layer 0 (Background)
//Storyboard Layer 1 (Fail)
//Storyboard Layer 2 (Pass)
//Storyboard Layer 3 (Foreground)
Sprite,Foreground,Centre,"Sb\ripple.png",0,0 M,0,200,,507,319 F,0,200,1914,0.05,0 P,0,200,2771,A S,1,200,3628,0,3 M,0,10485,,469,323 F,0,10485,12199,0.1,0 P,0,10485,13056,A S,1,10485,13913,0,3 M,0,20771,,312,243 F,0,20771,23342,0.15,0 P,0,20771,23342,A S,1,20771,24199,0,3 M,0,38771,,219,198 F,0,38771,41342,0.24,0 P,0,38771,41342,A S,1,38771,42199,0,3
//Storyboard Sound Samples

[TimingPoints]
200,857.142857142857,3,2,1,18,1,0
20771,-125,3,2,1,18,0,0
21574,-125,3,2,1,5,0,0
21682,-125,3,2,1,18,0,0
21949,-125,3,2,2,16,0,0
22057,-125,3,2,1,14,0,0
22164,-125,3,2,2,12,0,0
22271,-125,3,2,1,10,0,0
22378,-125,3,2,2,9,0,0
22485,-125,3,2,1,8,0,0
23342,-125,3,2,1,18,0,0
24146,-125,3,2,1,5,0,0
24253,-125,3,2,1,18,0,0
24521,-125,3,2,2,16,0,0
24628,-125,3,2,1,14,0,0
24735,-125,3,2,2,12,0,0
24842,-125,3,2,1,10,0,0
24949,-125,3,2,2,9,0,0
25057,-125,3,2,1,8,0,0
25914,-125,3,2,1,18,0,0
29289,-125,3,2,1,5,0,0
29396,-125,3,2,1,18,0,0
29664,-125,3,2,2,16,0,0
29771,-125,3,2,1,14,0,0
29878,-125,3,2,2,12,0,0
29985,-125,3,2,1,10,0,0
30092,-125,3,2,2,9,0,0
30199,-125,3,2,1,8,0,0
31057,-125,3,2,1,18,0,0
34432,-125,3,2,1,5,0,0
34539,-125,3,2,1,18,0,0
34807,-125,3,2,2,16,0,0
34914,-125,3,2,1,14,0,0
35021,-125,3,2,2,12,0,0
35128,-125,3,2,1,10,0,0
35235,-125,3,2,2,9,0,0
35342,-125,3,2,1,8,0,0
36199,-125,3,2,1,18,0,0
39574,-125,3,2,1,5,0,0
39682,-125,3,2,1,18,0,0
39949,-125,3,2,2,16,0,0
40057,-125,3,2,1,14,0,0
40164,-125,3,2,2,12,0,0
40271,-125,3,2,1,10,0,0
40378,-125,3,2,2,9,0,0
40485,-125,3,2,1,14,0,0
45364,631.578947368421,3,2,1,35,1,1
45364,-83.3333333333333,3,2,1,35,0,1
75699,631.578947368421,3,2,2,28,1,0
75699,-111.111111111111,3,2,2,28,0,0
90856,-125,3,2,1,28,0,0
106014,-125,3,2,1,32,0,0
109734,918.836140888208,3,2,1,18,1,0
109734,-142.857142857143,3,2,1,18,0,0
110193,-142.857142857143,3,2,1,12,0,0
110652,909.090909090909,3,2,1,18,1,0
110652,-142.857142857143,3,2,1,18,0,0
111106,1034.48275862069,3,2,1,18,1,0
111623,967.741935483871,3,2,1,18,1,0
111623,-142.857142857143,3,2,1,18,0,0
112348,1111.11111111111,3,2,1,18,1,0
112625,1000,3,2,1,18,1,0
112625,-142.857142857143,3,2,1,18,0,0
113125,857.142857142857,3,2,1,18,1,0
113553,898.876404494382,3,2,1,18,1,0
113553,-142.857142857143,3,2,1,18,0,0
114002,1034.48275862069,3,2,1,18,1,0
114519,902.255639097744,3,2,1,14,1,0
114519,-142.857142857143,3,2,1,14,0,0
115195,1395.3488372093,3,2,1,18,1,0
115543,967.741935483871,3,2,1,18,1,0
115543,-142.857142857143,3,2,1,18,0,0
116026,863.309352517986,3,2,1,18,1,0
116457,1054.70397974968,3,2,1,18,1,0
116457,-142.857142857143,3,2,1,18,0,0
116984,1111.11111111111,3,2,1,18,1,0
117539,1379.31034482759,3,2,1,14,1,0
117539,-142.857142857143,3,2,1,14,0,0
118573,4000,3,2,1,16,1,0
120573,950.118764845606,3,2,1,22,1,0
123423,-100,3,2,1,12,0,0

[Colours]
Combo1 : 255,170,119
Combo2 : 10,240,190
Combo3 : 80,200,239
Combo4 : 241,184,203
Combo5 : 251,203,174
Combo6 : 194,194,231
Combo7 : 220,170,160
Combo8 : 255,120,120

[HitObjects]
443,263,200,6,0,P|397:284|368:290,1,70,2|0,0:0|0:0,0:0:0:0:
325,348,1057,2,0,P|275:343|246:334,1,70
180,363,1914,2,0,P|139:334|108:282,1,105
72,276,2771,6,0,P|102:259|136:250,1,70,2|0,0:0|0:0,0:0:0:0:
190,191,3628,2,0,P|224:192|258:200,1,70
335,176,4485,2,0,P|377:145|404:101,1,105,0|0,0:0|0:0,0:0:0:0:
382,49,5342,102,0,P|348:40|313:39,1,70,2|0,0:0|0:0,0:0:0:0:
263,101,6199,2,0,P|232:117|198:126,1,70
126,91,7057,1,0,0:0:0:0:
120,97,7699,1,0,0:0:0:0:
95,129,7914,6,0,P|107:199|110:278,1,140,2|0,0:0|0:0,0:0:0:0:
257,330,9628,1,0,0:0:0:0:
405,267,10485,102,0,P|409:197|416:169,1,70,2|0,0:0|0:0,0:0:0:0:
330,182,11342,2,0,P|326:147|326:112,1,70,0|0,0:0|0:0,0:0:0:0:
283,44,12199,1,0,0:0:0:0:
278,49,12842,1,0,0:0:0:0:
248,75,13057,6,0,P|244:109|244:144,1,70,2|0,0:0|0:0,0:0:0:0:
171,177,13914,2,0,P|179:211|174:246,1,70,2|0,0:0|0:0,0:0:0:0:
121,305,14771,1,0,0:0:0:0:
121,305,15414,1,0,0:0:0:0:
149,333,15628,102,0,P|218:324|248:325,1,70,2|0,0:0|0:0,0:0:0:0:
271,263,16485,2,0,P|305:268|339:278,1,70,0|0,0:0|0:0,0:0:0:0:
394,336,17342,2,0,P|419:294|411:238,1,105,0|0,0:0|0:0,0:0:0:0:
408,236,18199,5,2,0:0:0:0:
256,181,19057,1,0,0:0:0:0:
379,76,19914,1,0,0:0:0:0:
248,187,20771,102,0,P|141:179|76:265,1,224,2|0,0:0|0:0,0:0:0:0:
199,304,23342,6,0,B|301:361|301:242|409:299,1,224
319,207,25914,102,0,P|307:156|315:77,2,112
258,320,28485,2,0,P|150:328|85:242,1,224,2|0,0:0|0:0,0:0:0:0:
208,204,31056,5,0,0:0:0:0:
208,204,33628,102,0,B|310:146|310:265|419:208,1,224
331,113,36199,6,0,P|264:97|201:109,1,112
221,102,38342,1,0,0:0:0:0:
155,142,38771,102,0,P|132:189|236:174,1,224,2|0,0:0|0:0,0:0:0:0:
221,102,41342,1,0,0:0:0:0:
139,164,45364,22,0,P|175:143|216:135,1,83.9999974365235,6|0,0:0|0:0,0:0:0:0:
210,239,45995,2,0,P|173:259|132:267,1,83.9999974365235,8|0,0:0|0:0,0:0:0:0:
44,208,46627,2,0,P|38:146|68:87,1,125.999996154785,2|2,0:0|0:0,0:0:0:0:
113,69,47258,6,0,P|154:69|194:83,1,83.9999974365235,4|0,0:0|0:0,0:0:0:0:
278,147,47890,2,0,P|317:133|359:132,1,83.9999974365235,8|0,0:0|0:0,0:0:0:0:
437,62,48521,2,0,P|382:32|316:36,1,125.999996154785,2|2,0:0|0:0,0:0:0:0:
275,68,49153,102,0,P|280:109|282:162,1,83.9999974365235,4|0,0:0|0:0,0:0:0:0:
364,216,49785,2,0,P|362:257|356:299,1,83.9999974365235,8|0,0:0|0:0,0:0:0:0:
282,372,50416,1,2,0:0:0:0:
434,334,50890,1,2,0:0:0:0:
466,292,51048,6,0,P|464:250|458:208,1,83.9999974365235,4|0,0:0|0:0,0:0:0:0:
395,124,51679,2,0,P|400:82|402:40,1,83.9999974365235,8|0,0:0|0:0,0:0:0:0:
299,16,52311,1,2,0:0:0:0:
246,107,52627,1,8,0:0:0:0:
312,187,52942,102,0,P|269:209|214:205,1,83.9999974365235,4|0,0:0|0:0,0:0:0:0:
175,297,53574,2,0,P|133:294|97:273,1,83.9999974365235,8|0,0:0|0:0,0:0:0:0:
26,194,54206,2,0,P|83:168|144:178,1,125.999996154785,2|2,0:0|0:0,0:0:0:0:
180,139,54837,6,0,P|158:96|162:41,1,83.9999974365235,4|0,0:0|0:0,0:0:0:0:
256,25,55469,2,0,P|276:61|279:102,1,83.9999974365235,8|0,0:0|0:0,0:0:0:0:
260,206,56100,2,0,P|320:187|383:184,1,125.999996154785,2|2,0:0|0:0,0:0:0:0:
418,224,56732,102,0,P|412:265|411:318,1,83.9999974365235,4|0,0:0|0:0,0:0:0:0:
329,374,57364,2,0,P|327:332|321:290,1,83.9999974365235,8|0,0:0|0:0,0:0:0:0:
260,206,57995,1,2,0:0:0:0:
107,246,58469,1,2,0:0:0:0:
126,197,58627,6,0,P|124:155|118:113,1,83.9999974365235,4|0,0:0|0:0,0:0:0:0:
20,75,59259,2,0,P|14:116|12:158,1,83.9999974365235,8|0,0:0|0:0,0:0:0:0:
25,262,59890,1,2,0:0:0:0:
105,329,60206,1,8,0:0:0:0:
192,273,60521,102,0,P|233:261|275:264,1,83.9999974365235,4|0,0:0|0:0,0:0:0:0:
317,167,61153,2,0,P|276:155|234:158,1,83.9999974365235,8|0,0:0|0:0,0:0:0:0:
158,85,61785,2,0,P|233:49|275:52,1,125.999996154785,2|2,0:0|0:0,0:0:0:0:
319,78,62416,6,0,P|359:66|401:69,1,83.9999974365235,4|0,0:0|0:0,0:0:0:0:
444,185,63048,2,0,P|403:173|361:176,1,83.9999974365235,8|0,0:0|0:0,0:0:0:0:
285,247,63679,1,2,0:0:0:0:
145,173,64153,1,2,0:0:0:0:
115,216,64311,102,0,P|121:258|122:307,1,83.9999974365235,4|0,0:0|0:0,0:0:0:0:
203,375,64942,2,0,P|204:333|210:291,1,83.9999974365235,8|0,0:0|0:0,0:0:0:0:
254,194,65574,2,0,P|265:133|246:74,1,125.999996154785,2|2,0:0|0:0,0:0:0:0:
204,42,66206,6,0,P|161:48|113:49,1,83.9999974365235,4|0,0:0|0:0,0:0:0:0:
54,131,66837,2,0,P|96:132|138:138,1,83.9999974365235,8|0,0:0|0:0,0:0:0:0:
214,211,67469,1,2,0:0:0:0:
311,173,67785,1,8,0:0:0:0:
365,83,68100,102,0,P|312:65|273:75,1,83.9999974365235,4|0,0:0|0:0,0:0:0:0:
311,173,68732,2,0,P|352:176|390:159,1,83.9999974365235,8|0,0:0|0:0,0:0:0:0:
478,218,69364,2,0,P|430:258|370:277,1,125.999996154785,2|2,0:0|0:0,0:0:0:0:
353,326,69995,6,0,P|311:329|273:312,1,83.9999974365235,4|0,0:0|0:0,0:0:0:0:
214,225,70627,2,0,P|252:208|293:211,1,83.9999974365235,8|0,0:0|0:0,0:0:0:0:
273,312,71258,1,2,0:0:0:0:
124,259,71732,1,2,0:0:0:0:
112,207,71890,102,0,P|108:163|112:114,1,83.9999974365235,4|0,0:0|0:0,0:0:0:0:
194,59,72521,2,0,P|196:100|192:142,1,83.9999974365235,8|0,0:0|0:0,0:0:0:0:
255,227,73153,2,0,P|282:159|287:88,1,125.999996154785,2|2,0:0|0:0,0:0:0:0:
322,66,73785,6,0,P|362:76|404:81,1,83.9999974365235,4|0,0:0|0:0,0:0:0:0:
467,165,74416,2,0,P|425:170|384:180,1,83.9999974365235,8|0,0:0|0:0,0:0:0:0:
334,273,75048,1,2,0:0:0:0:
255,202,75364,1,8,0:0:0:0:
184,280,75699,6,0,P|126:259|37:270,2,125.999996154785,14|0|0,0:0|0:0|0:0,0:0:0:0:
263,351,77593,1,10,0:0:0:0:
334,273,78225,1,0,0:0:0:0:
249,136,79172,1,2,0:0:0:0:
249,135,79488,6,0,P|365:98|471:160,1,251.999992309571,6|0,0:0|0:0,0:0:0:0:
431,262,81383,2,0,B|380:311|292:305|292:305|302:246|338:215,1,251.999992309571
337,215,83277,102,0,P|267:199|203:225,2,125.999996154785,10|0|0,0:0|0:0|0:0,0:0:0:0:
278,305,85172,1,10,0:0:0:0:
174,332,85804,1,0,0:0:0:0:
67,211,86751,1,2,0:0:0:0:
73,215,87067,6,0,P|186:230|280:126,1,251.999992309571,6|0,0:0|0:0,0:0:0:0:
380,103,88962,2,0,B|449:184|420:302|420:302|361:292|330:256,1,314.999990386963
330,256,90856,102,0,P|309:201|311:147,1,112,2|0,0:0|0:0,0:0:0:0:
245,36,92751,1,2,0:0:0:0:
230,130,93383,1,0,0:0:0:0:
114,46,94330,1,0,0:0:0:0:
120,53,94646,6,0,P|133:132|115:182,1,112,2|0,0:0|0:0,0:0:0:0:
180,315,96225,1,0,0:0:0:0:
198,271,96540,1,2,0:0:0:0:
235,183,97172,1,2,0:0:0:0:
235,183,97804,1,0,0:0:0:0:
323,217,98435,102,0,P|377:222|440:203,1,112,2|0,0:0|0:0,0:0:0:0:
509,136,100014,1,0,0:0:0:0:
466,114,100330,1,2,0:0:0:0:
373,136,100961,1,0,0:0:0:0:
256,218,101909,1,0,0:0:0:0:
227,267,102225,6,0,P|175:244|110:252,1,112,2|0,0:0|0:0,0:0:0:0:
31,147,104119,2,0,P|135:111|245:126,1,224,0|0,0:0|0:0,0:0:0:0:
310,175,106014,1,2,0:0:0:0:
253,192,109734,6,0,L|318:205,1,48.9999985046387
334,224,110652,2,0,L|382:214,1,48.9999985046387
409,178,111623,2,0,P|416:143|404:108,1,73.4999977569581,2|0,0:0|0:0,0:0:0:0:
384,97,112625,6,0,L|319:84,1,48.9999985046387
303,65,113553,2,0,L|254:74,1,48.9999985046387
224,93,114519,2,0,P|194:71|158:67,1,73.4999977569581,2|0,0:0|0:0,0:0:0:0:
133,82,115543,102,0,L|120:147,1,48.9999985046387
143,160,116457,2,0,L|152:208,1,48.9999985046387
143,239,117539,1,2,0:0:0:0:
207,283,118573,5,0,0:0:0:0:
256,192,120573,1,2,0:0:0:0:
268,164,123423,53,0,0:0:0:0:
