osu file format v14

[General]
AudioFilename: 39. lit(var).mp3
AudioLeadIn: 0
PreviewTime: 49
Countdown: 0
SampleSet: Soft
StackLeniency: 0.6
Mode: 0
LetterboxInBreaks: 1
WidescreenStoryboard: 1

[Editor]
Bookmarks: 7057,7914,10445,15628,18199,20771,31057,33628,52942,60521,68100,75699,90856
DistanceSpacing: 1.5
BeatDivisor: 4
GridSize: 32
TimelineZoom: 1

[Metadata]
Title:lit(var)
TitleUnicode:lit(var)
Artist:kensuke ushio
ArtistUnicode:牛尾憲輔
Creator:Smokeman
Version:glimmer
Source:聲の形
Tags:koe no katachi the shape of voice a silent voice a shape of light piano ost litvar Jakomo73
BeatmapID:1345222
BeatmapSetID:623863

[Difficulty]
HPDrainRate:3
CircleSize:3.2
OverallDifficulty:2
ApproachRate:3
SliderMultiplier:1.2
SliderTickRate:1

[Events]
//Background and Video events
0,0,"koe.jpg",0,0
//Break Periods
//Storyboard Layer 0 (Background)
//Storyboard Layer 1 (Fail)
//Storyboard Layer 2 (Pass)
//Storyboard Layer 3 (Foreground)
Sprite,Foreground,Centre,"Sb\ripple.png",0,0 M,0,200,,223,421 F,0,200,1914,0.05,0 P,0,200,2771,A S,1,200,3628,0,3 M,0,10485,,131,115 F,0,10485,12199,0.1,0 P,0,10485,13056,A S,1,10485,13913,0,3 M,0,20771,,379,111 F,0,20771,23342,0.15,0 P,0,20771,23342,A S,1,20771,24199,0,3 M,0,38771,,398,139 F,0,38771,41342,0.24,0 P,0,38771,41342,A S,1,38771,42199,0,3
//Storyboard Sound Samples

[TimingPoints]
200,857.142857142857,3,2,1,18,1,0
20771,-125,3,2,1,18,0,0
24146,-125,3,2,1,5,0,0
24253,-125,3,2,1,18,0,0
24521,-125,3,2,2,16,0,0
24628,-125,3,2,1,14,0,0
24735,-125,3,2,2,12,0,0
24842,-125,3,2,1,10,0,0
24949,-125,3,2,2,9,0,0
25057,-125,3,2,1,8,0,0
25914,-125,3,2,1,18,0,0
31057,-125,3,2,1,18,0,0
34432,-125,3,2,1,5,0,0
34539,-125,3,2,2,18,0,0
34807,-125,3,2,1,16,0,0
34914,-125,3,2,2,14,0,0
35021,-125,3,2,1,12,0,0
35128,-125,3,2,2,10,0,0
35235,-125,3,2,1,9,0,0
35342,-125,3,2,1,8,0,0
36199,-125,3,2,1,18,0,0
40485,-125,3,2,1,14,0,0
45364,631.578947368421,3,2,1,35,1,1
45364,-86.9565217391303,3,2,1,35,0,1
75699,631.578947368421,3,2,2,28,1,0
75699,-111.111111111111,3,2,2,28,0,0
90856,-125,3,2,1,28,0,0
106014,-125,3,2,1,32,0,0
109734,918.836140888208,3,2,1,18,1,0
109734,-142.857142857143,3,2,1,18,0,0
110193,-142.857142857143,3,2,1,12,0,0
110652,909.090909090909,3,2,1,18,1,0
110652,-142.857142857143,3,2,1,18,0,0
111106,1034.48275862069,3,2,1,18,1,0
111623,967.741935483871,3,2,1,18,1,0
111623,-142.857142857143,3,2,1,18,0,0
112348,1111.11111111111,3,2,1,18,1,0
112625,1000,3,2,1,18,1,0
112625,-142.857142857143,3,2,1,18,0,0
113125,857.142857142857,3,2,1,18,1,0
113553,898.876404494382,3,2,1,18,1,0
113553,-142.857142857143,3,2,1,18,0,0
114002,1034.48275862069,3,2,1,18,1,0
114519,902.255639097744,3,2,1,14,1,0
114519,-142.857142857143,3,2,1,14,0,0
115195,1395.3488372093,3,2,1,18,1,0
115543,967.741935483871,3,2,1,18,1,0
115543,-142.857142857143,3,2,1,18,0,0
116026,863.309352517986,3,2,1,18,1,0
116457,1054.70397974968,3,2,1,18,1,0
116457,-142.857142857143,3,2,1,18,0,0
116984,1111.11111111111,3,2,1,18,1,0
117539,1379.31034482759,3,2,1,14,1,0
117539,-142.857142857143,3,2,1,14,0,0
118573,4000,3,2,1,16,1,0
120573,950.118764845606,3,2,1,22,1,0

[Colours]
Combo1 : 255,170,119
Combo2 : 10,240,190
Combo3 : 80,200,239
Combo4 : 241,184,203
Combo5 : 251,203,174
Combo6 : 194,194,231
Combo7 : 220,170,160
Combo8 : 255,120,120

[HitObjects]
159,365,200,6,0,P|122:319|123:260,1,120,2|0,0:0|0:0,0:0:0:0:
202,196,1914,1,0,0:0:0:0:
202,196,2771,6,0,L|346:209,1,120,2|0,0:0|0:0,0:0:0:0:
416,170,4485,1,0,0:0:0:0:
416,170,5342,102,0,B|450:172|488:99|455:60,1,120,2|0,0:0|0:0,0:0:0:0:
366,43,7057,1,0,0:0:0:0:
366,43,7914,5,2,0:0:0:0:
266,65,8771,1,0,0:0:0:0:
166,88,9628,1,0,0:0:0:0:
67,59,10485,102,0,P|41:115|61:194,1,120,2|0,0:0|0:0,0:0:0:0:
129,233,12199,1,0,0:0:0:0:
129,233,13057,6,0,L|188:227,1,60,2|0,0:0|0:0,0:0:0:0:
236,245,13914,2,0,L|295:239,1,60,2|0,0:0|0:0,0:0:0:0:
343,257,14771,1,0,0:0:0:0:
343,257,15628,102,0,B|365:235|441:267|438:301,1,120,2|0,0:0|0:0,0:0:0:0:
357,361,17342,1,0,0:0:0:0:
357,361,18199,5,2,0:0:0:0:
343,259,19057,1,0,0:0:0:0:
329,157,19914,1,0,0:0:0:0:
315,55,20771,1,2,0:0:0:0:
328,156,23342,102,0,P|253:211|165:184,1,192,0|0,0:0|0:0,0:0:0:0:
82,162,25914,2,0,P|79:200|116:256,1,96,0|0,0:0|0:0,0:0:0:0:
165,184,27628,1,0,0:0:0:0:
139,102,28485,5,2,0:0:0:0:
192,267,31057,1,0,0:0:0:0:
165,184,33628,102,0,P|239:129|328:156,1,192,0|0,0:0|0:0,0:0:0:0:
368,232,36199,2,0,P|405:197|414:151,1,96,0|0,0:0|0:0,0:0:0:0:
347,42,38342,1,0,0:0:0:0:
334,83,38771,5,2,0:0:0:0:
180,162,40485,1,0,0:0:0:0:
257,122,41342,1,0,0:0:0:0:
460,217,45364,6,0,P|470:272|463:308,1,69.0000013160706,6|0,0:0|0:0,0:0:0:0:
412,341,45995,2,0,P|382:324|357:299,1,69.0000013160706,8|0,0:0|0:0,0:0:0:0:
371,221,46627,2,0,P|379:167|351:101,1,103.500001974106,2|2,0:0|0:0,0:0:0:0:
361,115,47258,6,0,P|319:105|277:106,1,69.0000013160706,4|0,0:0|0:0,0:0:0:0:
245,168,47890,2,0,P|203:177|161:176,1,69.0000013160706,8|0,0:0|0:0,0:0:0:0:
104,146,48521,1,2,0:0:0:0:
56,257,49153,102,0,P|89:265|123:267,1,69.0000013160706,4|0,0:0|0:0,0:0:0:0:
197,296,49785,2,0,P|230:287|264:285,1,69.0000013160706,8|0,0:0|0:0,0:0:0:0:
335,322,50416,2,0,P|409:307|429:276,1,103.500001974106,2|2,0:0|0:0,0:0:0:0:
423,281,51048,6,0,P|413:233|412:203,1,69.0000013160706,4|0,0:0|0:0,0:0:0:0:
344,170,51679,2,0,P|333:202|332:237,1,69.0000013160706,8|0,0:0|0:0,0:0:0:0:
265,282,52311,1,2,0:0:0:0:
109,253,52942,102,0,P|95:209|102:168,1,69.0000013160706,4|0,0:0|0:0,0:0:0:0:
17,175,53574,2,0,P|34:132|66:105,1,69.0000013160706,8|0,0:0|0:0,0:0:0:0:
129,106,54206,2,0,P|175:121|235:121,1,103.500001974106,2|2,0:0|0:0,0:0:0:0:
235,117,54837,6,0,P|283:95|314:91,1,69.0000013160706,4|0,0:0|0:0,0:0:0:0:
298,12,55469,2,0,P|331:20|361:36,1,69.0000013160706,8|0,0:0|0:0,0:0:0:0:
398,107,56100,1,2,0:0:0:0:
362,249,56732,102,0,P|380:303|377:324,1,69.0000013160706,4|0,0:0|0:0,0:0:0:0:
303,338,57364,2,0,P|285:284|288:263,1,69.0000013160706,8|0,0:0|0:0,0:0:0:0:
301,195,57995,2,0,P|252:173|190:172,1,103.500001974106,2|2,0:0|0:0,0:0:0:0:
197,177,58627,6,0,P|154:200|134:225,1,69.0000013160706,4|0,0:0|0:0,0:0:0:0:
66,187,59258,2,0,P|64:235|76:265,1,69.0000013160706,8|0,0:0|0:0,0:0:0:0:
23,318,59890,1,2,0:0:0:0:
181,317,60521,102,0,P|234:298|274:307,1,69.0000013160706,4|0,0:0|0:0,0:0:0:0:
317,264,61153,2,0,P|351:266|381:282,1,69.0000013160706,8|0,0:0|0:0,0:0:0:0:
459,300,61785,2,0,P|477:242|470:175,1,103.500001974106,2|2,0:0|0:0,0:0:0:0:
473,195,62416,6,0,P|420:176|380:185,1,69.0000013160706,4|0,0:0|0:0,0:0:0:0:
343,129,63048,2,0,P|308:131|278:147,1,69.0000013160706,8|0,0:0|0:0,0:0:0:0:
211,190,63679,1,2,0:0:0:0:
54,235,64311,102,0,P|31:189|31:154,1,69.0000013160706,4|0,0:0|0:0,0:0:0:0:
97,132,64942,2,0,P|120:86|120:51,1,69.0000013160706,8|0,0:0|0:0,0:0:0:0:
190,29,65574,2,0,P|223:59|298:70,1,103.500001974106,2|2,0:0|0:0,0:0:0:0:
288,70,66206,6,0,P|294:103|312:132,1,69.0000013160706,4|0,0:0|0:0,0:0:0:0:
388,155,66837,2,0,P|381:188|363:217,1,69.0000013160706,8|0,0:0|0:0,0:0:0:0:
294,258,67469,1,2,0:0:0:0:
422,350,68100,102,0,P|375:340|330:338,1,69.0000013160706,4|0,0:0|0:0,0:0:0:0:
274,341,68732,2,0,P|240:348|206:352,1,69.0000013160706,8|0,0:0|0:0,0:0:0:0:
128,331,69364,2,0,P|97:286|99:234,1,103.500001974106,2|2,0:0|0:0,0:0:0:0:
103,230,69995,6,0,P|137:226|170:218,1,69.0000013160706,4|0,0:0|0:0,0:0:0:0:
235,171,70627,2,0,P|269:174|302:182,1,69.0000013160706,8|0,0:0|0:0,0:0:0:0:
367,229,71258,1,2,0:0:0:0:
416,78,71890,102,0,P|424:124|424:160,1,69.0000013160706,4|0,0:0|0:0,0:0:0:0:
483,199,72521,2,0,P|475:245|475:281,1,69.0000013160706,8|0,0:0|0:0,0:0:0:0:
417,322,73153,2,0,P|363:327|326:292,1,103.500001974106,2|2,0:0|0:0,0:0:0:0:
330,290,73785,6,0,P|328:255|321:221,1,69.0000013160706,4|0,0:0|0:0,0:0:0:0:
244,200,74416,2,0,P|236:233|235:268,1,69.0000013160706,8|0,0:0|0:0,0:0:0:0:
259,343,75048,1,2,0:0:0:0:
182,364,75364,1,0,0:0:0:0:
116,319,75699,6,0,P|108:263|141:200,1,107.999996704102,14|0,0:0|0:0,0:0:0:0:
284,166,77593,1,10,0:0:0:0:
206,127,78225,1,0,0:0:0:0:
255,246,79172,1,2,0:0:0:0:
255,246,79488,6,0,P|351:217|353:117,1,215.999993408203,6|0,0:0|0:0,0:0:0:0:
287,61,81383,2,0,B|231:65|180:47|180:47|137:76|65:89,1,215.999993408203,0|0,0:0|0:0,0:0:0:0:
122,161,83277,102,0,P|140:210|132:263,1,107.999996704102,10|0,0:0|0:0,0:0:0:0:
290,328,85172,1,10,0:0:0:0:
256,248,85804,1,0,0:0:0:0:
376,294,86751,1,2,0:0:0:0:
376,293,87067,6,0,P|439:211|410:112,1,215.999993408203,6|0,0:0|0:0,0:0:0:0:
325,97,88961,2,0,B|267:115|253:172|253:172|207:140|150:158,1,215.999993408203,0|0,0:0|0:0,0:0:0:0:
87,92,90856,102,0,P|131:67|194:76,1,96,2|0,0:0|0:0,0:0:0:0:
292,165,92751,2,0,P|247:189|184:180,1,96,2|0,0:0|0:0,0:0:0:0:
124,272,94330,2,0,P|143:285|165:295,1,48,0|2,0:0|0:0,0:0:0:0:
245,306,95277,1,0,0:0:0:0:
346,251,96225,5,0,0:0:0:0:
361,215,96540,1,2,0:0:0:0:
430,173,97172,1,2,0:0:0:0:
352,40,98435,102,0,P|342:89|370:146,1,96,2|0,0:0|0:0,0:0:0:0:
435,263,100330,2,0,P|390:287|327:278,1,96,2|0,0:0|0:0,0:0:0:0:
244,336,101909,1,0,0:0:0:0:
230,301,102225,2,0,P|229:253|253:212,1,96,2|0,0:0|0:0,0:0:0:0:
325,76,104119,6,0,P|217:58|141:100,1,192,0|0,0:0|0:0,0:0:0:0:
117,169,106014,1,2,0:0:0:0:
92,231,109734,6,0,L|190:224,1,83.9999974365235
212,245,111106,1,0,0:0:0:0:
248,264,111623,6,0,P|280:258|316:259,1,62.9999980773926,2|0,0:0|0:0,0:0:0:0:
323,246,112625,102,0,L|421:253,1,78
433,227,114002,1,0,0:0:0:0:
469,215,114519,6,0,P|477:168|471:145,1,62.9999980773926,2|0,0:0|0:0,0:0:0:0:
460,133,115543,102,0,L|382:127,1,79.5
339,145,116984,1,0,0:0:0:0:
296,152,117539,6,0,P|265:146|233:146,1,62.9999980773926,2|0,0:0|0:0,0:0:0:0:
256,245,120573,1,2,0:0:0:0:
