osu file format v14

[General]
AudioFilename: audio.mp3
AudioLeadIn: 1000
PreviewTime: 81
Countdown: 0
SampleSet: Soft
StackLeniency: 0.7
Mode: 0
LetterboxInBreaks: 0
WidescreenStoryboard: 0

[Editor]
DistanceSpacing: 1.1
BeatDivisor: 4
GridSize: 8
TimelineZoom: 2

[Metadata]
Title:lit(var)
TitleUnicode:lit(var)
Artist:kensuke ushio
ArtistUnicode:kensuke ushio
Creator:Monstrata
Version:uplift
Source:聲の形
Tags:koe no katachi shoko nishimiya shoya ishida shouko shouya the shape of voice piano ost soundtrack ending theme light original sound track lit extended full version
BeatmapID:1315184
BeatmapSetID:623972

[Difficulty]
HPDrainRate:5
CircleSize:4
OverallDifficulty:6
ApproachRate:8.5
SliderMultiplier:3
SliderTickRate:1

[Events]
//Background and Video events
0,0,"this background is lit.jpg",0,0
//Break Periods
2,106179,109041
//Storyboard Layer 0 (Background)
//Storyboard Layer 1 (Fail)
//Storyboard Layer 2 (Pass)
//Storyboard Layer 3 (Foreground)
//Storyboard Sound Samples

[TimingPoints]
189,857.142857142857,3,2,40,50,1,0
189,-200,3,2,40,50,0,0
617,-200,3,2,35,50,0,0
1046,-200,3,2,39,50,0,0
1474,-200,3,2,35,50,0,0
1903,-200,3,2,41,50,0,0
2546,-200,3,2,40,50,0,0
2760,-200,3,2,42,50,0,0
3188,-200,3,2,35,50,0,0
3617,-200,3,2,39,50,0,0
4046,-200,3,2,35,50,0,0
4474,-200,3,2,41,50,0,0
5117,-200,3,2,40,50,0,0
5331,-200,3,2,43,50,0,0
5760,-200,3,2,35,50,0,0
6188,-200,3,2,39,50,0,0
6617,-200,3,2,35,50,0,0
7046,-200,3,2,41,50,0,0
7688,-200,3,2,40,50,0,0
7903,-200,3,2,32,50,0,0
8760,-200,3,2,33,50,0,0
9617,-200,3,2,34,50,0,0
10474,-200,3,2,40,50,0,0
10903,-200,3,2,35,50,0,0
11331,-200,3,2,39,50,0,0
11760,-200,3,2,35,35,0,0
12188,-200,3,2,41,35,0,0
12831,-200,3,2,40,35,0,0
13046,-200,3,2,42,35,0,0
13474,-200,3,2,35,50,0,0
13903,-200,3,2,38,50,0,0
14331,-200,3,2,35,50,0,0
14760,-200,3,2,41,50,0,0
15403,-200,3,2,40,50,0,0
15617,-200,3,2,43,50,0,0
16046,-200,3,2,35,50,0,0
16474,-200,3,2,39,50,0,0
16903,-200,3,2,35,50,0,0
17331,-200,3,2,41,50,0,0
17974,-200,3,2,40,50,0,0
18188,-200,3,2,32,50,0,0
19046,-200,3,2,33,50,0,0
19903,-200,3,2,34,50,0,0
20760,-200,3,2,44,50,0,0
23331,-200,3,2,25,50,0,0
24188,-200,3,2,25,5,0,0
25903,-200,3,2,26,50,0,0
26331,-200,3,2,26,5,0,0
26760,-200,3,2,25,50,0,0
27188,-200,3,2,25,5,0,0
27617,-200,3,2,28,50,0,0
28046,-200,3,2,28,5,0,0
28474,-200,3,2,27,50,0,0
29331,-200,3,2,27,5,0,0
31046,-200,3,2,29,50,0,0
33617,-200,3,2,25,50,0,0
34474,-200,3,2,25,5,0,0
36188,-200,3,2,26,50,0,0
36617,-200,3,2,26,5,0,0
37046,-200,3,2,24,50,0,0
37903,-200,3,2,24,5,0,0
38331,-200,3,2,23,50,0,0
38760,-200,3,2,27,50,0,0
39617,-200,3,2,27,5,0,0
40474,-200,3,2,21,50,0,0
41331,-200,3,2,22,50,0,0
42831,857.142857142857,3,2,0,50,1,0
45340,631.578947368421,3,2,70,65,1,0
45340,-133.333333333333,3,2,70,65,0,0
45655,-133.333333333333,3,2,68,65,0,0
45971,-133.333333333333,3,2,69,65,0,0
46287,-133.333333333333,3,2,68,65,0,0
46603,-133.333333333333,3,2,71,65,0,0
47076,-133.333333333333,3,2,70,65,0,0
47550,-133.333333333333,3,2,68,65,0,0
47866,-133.333333333333,3,2,69,65,0,0
48182,-133.333333333333,3,2,68,65,0,0
48497,-133.333333333333,3,2,71,65,0,0
48971,-133.333333333333,3,2,70,65,0,0
49445,-133.333333333333,3,2,68,65,0,0
49761,-133.333333333333,3,2,69,65,0,0
50076,-133.333333333333,3,2,68,65,0,0
50392,-133.333333333333,3,2,71,65,0,0
50866,-133.333333333333,3,2,70,65,0,0
51024,-133.333333333333,3,2,69,65,0,0
51340,-133.333333333333,3,2,68,65,0,0
51655,-114.285714285714,3,2,67,65,0,0
51971,-114.285714285714,3,2,68,65,0,0
52287,-100,3,2,66,65,0,0
52603,-100,3,2,67,65,0,0
52918,-133.333333333333,3,2,70,65,0,0
53233,-133.333333333333,3,2,68,65,0,0
53549,-133.333333333333,3,2,69,65,0,0
53865,-133.333333333333,3,2,68,65,0,0
54181,-133.333333333333,3,2,71,65,0,0
54654,-133.333333333333,3,2,70,65,0,0
55128,-133.333333333333,3,2,68,65,0,0
55444,-133.333333333333,3,2,69,65,0,0
55760,-133.333333333333,3,2,68,65,0,0
56075,-133.333333333333,3,2,71,65,0,0
56549,-133.333333333333,3,2,70,65,0,0
57023,-133.333333333333,3,2,68,65,0,0
57339,-133.333333333333,3,2,69,65,0,0
57654,-133.333333333333,3,2,68,65,0,0
57970,-133.333333333333,3,2,71,65,0,0
58444,-133.333333333333,3,2,70,65,0,0
58602,-133.333333333333,3,2,69,65,0,0
58918,-133.333333333333,3,2,68,65,0,0
59233,-114.285714285714,3,2,67,65,0,0
59549,-114.285714285714,3,2,68,65,0,0
59865,-100,3,2,66,65,0,0
60181,-100,3,2,67,65,0,0
60496,-133.333333333333,3,2,70,65,0,0
60811,-133.333333333333,3,2,68,65,0,0
61127,-133.333333333333,3,2,69,65,0,0
61443,-133.333333333333,3,2,68,65,0,0
61759,-133.333333333333,3,2,71,65,0,0
62232,-133.333333333333,3,2,70,65,0,0
62706,-133.333333333333,3,2,68,65,0,0
63022,-133.333333333333,3,2,69,65,0,0
63338,-133.333333333333,3,2,68,65,0,0
63653,-133.333333333333,3,2,71,65,0,0
64127,-133.333333333333,3,2,70,65,0,0
64601,-133.333333333333,3,2,68,65,0,0
64917,-133.333333333333,3,2,69,65,0,0
65232,-133.333333333333,3,2,68,65,0,0
65548,-133.333333333333,3,2,71,65,0,0
66022,-133.333333333333,3,2,70,65,0,0
66180,-133.333333333333,3,2,69,65,0,0
66496,-133.333333333333,3,2,68,65,0,0
66811,-114.285714285714,3,2,67,65,0,0
67127,-114.285714285714,3,2,68,65,0,0
67443,-100,3,2,66,65,0,0
67759,-100,3,2,67,65,0,0
68074,-133.333333333333,3,2,70,65,0,0
68389,-133.333333333333,3,2,68,65,0,0
68705,-133.333333333333,3,2,69,65,0,0
69021,-133.333333333333,3,2,68,65,0,0
69337,-133.333333333333,3,2,71,65,0,0
69810,-133.333333333333,3,2,70,65,0,0
70284,-133.333333333333,3,2,68,65,0,0
70600,-133.333333333333,3,2,69,65,0,0
70916,-133.333333333333,3,2,68,65,0,0
71231,-133.333333333333,3,2,71,65,0,0
71705,-133.333333333333,3,2,70,65,0,0
72179,-133.333333333333,3,2,68,65,0,0
72495,-133.333333333333,3,2,69,65,0,0
72810,-133.333333333333,3,2,68,65,0,0
73126,-133.333333333333,3,2,71,65,0,0
73600,-133.333333333333,3,2,70,65,0,0
73758,-133.333333333333,3,2,69,65,0,0
74074,-133.333333333333,3,2,68,65,0,0
74389,-114.285714285714,3,2,67,65,0,0
74705,-114.285714285714,3,2,68,65,0,0
75021,-100,3,2,66,65,0,0
75337,-100,3,2,67,65,0,0
75655,634.920634920635,3,2,65,50,1,0
75655,-142.857142857143,3,2,65,50,0,0
77559,648.648648648649,3,2,66,50,1,0
77559,-142.857142857143,3,2,66,50,0,0
78207,638.297872340426,3,2,65,50,1,0
78207,-142.857142857143,3,2,65,50,0,0
79164,-142.857142857143,3,2,66,50,0,0
79483,-142.857142857143,3,2,67,50,0,0
81359,638.297872340426,3,2,67,50,1,0
81359,-142.857142857143,3,2,67,50,0,0
83263,631.578947368421,3,2,65,50,1,0
83263,-142.857142857143,3,2,65,50,0,0
85157,-142.857142857143,3,2,66,50,0,0
85789,-142.857142857143,3,2,65,50,0,0
86726,631.578947368421,3,2,69,50,1,0
86726,-142.857142857143,3,2,69,50,0,0
87041,631.578947368421,3,2,67,50,1,0
87041,-142.857142857143,3,2,67,50,0,0
90841,631.578947368421,3,2,65,50,1,0
90841,-181.818181818182,3,2,65,50,0,0
92715,648.648648648649,3,2,66,50,1,0
92715,-181.818181818182,3,2,66,50,0,0
93363,634.920634920635,3,2,65,50,1,0
93363,-181.818181818182,3,2,65,50,0,0
94315,645.161290322581,3,2,66,50,1,0
94637,629.92125984252,3,2,67,50,1,0
94637,-181.818181818182,3,2,67,50,0,0
96526,631.578947368421,3,2,70,50,1,0
96526,-181.818181818182,3,2,70,50,0,0
97157,-181.818181818182,3,2,69,50,0,0
98420,-181.818181818182,3,2,65,50,0,0
99999,-181.818181818182,3,2,64,50,0,0
100315,-181.818181818182,3,2,66,50,0,0
100947,-181.818181818182,3,2,65,50,0,0
101894,-181.818181818182,3,2,69,50,0,0
102210,-181.818181818182,3,2,67,50,0,0
105979,622.891253568648,3,2,72,50,1,0
109716,895.522388059701,3,2,80,45,1,0
109716,-200,3,2,80,45,0,0
110163,937.5,3,2,75,45,1,0
110631,952.380952380952,3,2,79,45,1,0
110631,-200,3,2,79,45,0,0
111107,1043.47826086957,3,2,75,45,1,0
111628,916.030534351145,3,2,81,45,1,0
111628,-200,3,2,81,45,0,0
112315,1153.84615384615,3,2,80,45,1,0
112603,952.380952380952,3,2,82,45,1,0
112603,-200,3,2,82,45,0,0
113079,898.876404494382,3,2,75,45,1,0
113528,916.030534351145,3,2,79,45,1,0
113528,-200,3,2,79,45,0,0
113986,888.888888888889,3,2,75,45,1,0
114503,888.888888888889,3,2,81,45,1,0
114503,-200,3,2,81,45,0,0
115169,1348.31460674157,3,2,80,45,1,0
115506,1000,3,2,83,45,1,0
115506,-200,3,2,83,45,0,0
116006,869.565217391304,3,2,75,45,1,0
116440,1016.94915254237,3,2,79,45,1,0
116440,-200,3,2,79,45,0,0
116948,1142.85714285714,3,2,75,45,1,0
117519,1384.0830449827,3,2,81,45,1,0
117519,-200,3,2,81,45,0,0
118557,995.850622406639,3,2,80,45,1,0
120548,1437.12574850299,3,2,78,45,1,0
120548,-131.061598951507,3,2,78,45,0,0
120907,-131.061598951507,3,2,78,5,0,0
123062,-131.061598951507,3,2,78,5,0,0
123422,1610.73825503356,3,2,77,45,1,0
123422,-224.9,3,2,77,45,0,0
123824,-224.9,3,2,77,5,0,0
128254,-224.9,3,2,77,5,0,0

[Colours]
Combo1 : 255,255,128
Combo2 : 128,255,255
Combo3 : 255,168,255
Combo4 : 0,255,128

[HitObjects]
489,349,189,6,0,L|476:272,1,75,14|8,0:0|0:0,0:0:0:0:
410,377,1046,2,0,L|397:300,1,75,8|8,0:0|0:0,0:0:0:0:
325,353,1903,2,0,P|360:311|362:256,1,112.5,10|8,0:0|0:0,0:0:0:0:
247,336,2760,6,0,P|231:302|232:264,1,75,14|8,0:0|0:0,0:0:0:0:
187,384,3617,2,0,P|156:362|138:329,1,75,8|8,0:0|0:0,0:0:0:0:
45,327,4474,2,0,P|75:281|61:216,1,112.5,10|8,0:0|0:0,0:0:0:0:
225,281,5331,6,0,P|253:257|269:223,1,75,14|8,0:0|0:0,0:0:0:0:
263,349,6188,2,0,P|299:343|330:321,1,75,8|8,0:0|0:0,0:0:0:0:
195,306,7046,2,0,P|184:258|224:185,1,112.5,10|8,0:0|0:0,0:0:0:0:
256,384,7903,5,14,0:0:0:0:
334,360,8760,1,12,0:0:0:0:
413,337,9617,1,12,0:0:0:0:
492,314,10474,6,0,L|504:225,1,75,14|8,0:0|0:0,0:0:0:0:
416,358,11331,2,0,L|404:269,1,75,8|8,0:0|0:0,0:0:0:0:
316,298,12189,2,0,P|320:244|284:194,1,112.5,10|8,0:0|0:0,0:0:0:0:
246,336,13046,6,0,P|236:300|243:264,1,75,14|8,0:0|0:0,0:0:0:0:
320,366,13903,2,0,P|352:347|373:316,1,75,8|8,0:0|0:0,0:0:0:0:
246,336,14760,2,0,P|200:320|170:252,1,112.5,10|8,0:0|0:0,0:0:0:0:
320,366,15617,6,0,L|336:288,1,75,14|8,0:0|0:0,0:0:0:0:
241,384,16474,2,0,L|225:306,1,75,8|8,0:0|0:0,0:0:0:0:
320,366,17331,2,0,P|360:314|347:261,1,112.5,10|8,0:0|0:0,0:0:0:0:
241,384,18188,5,14,0:0:0:0:
169,352,19046,1,12,0:0:0:0:
97,322,19903,1,12,0:0:0:0:
107,243,20760,5,14,0:0:0:0:
315,384,23331,6,0,P|274:323|291:253,1,150,14|0,0:0|0:0,0:0:0:0:
132,314,25903,6,0,P|138:277|137:239,1,75,14|0,0:0|0:0,0:0:0:0:
165,384,26760,2,0,P|195:362|221:335,1,75,8|0,0:0|0:0,0:0:0:0:
89,379,27617,2,0,P|58:357|32:330,1,75,14|0,0:0|0:0,0:0:0:0:
165,384,28474,2,0,P|206:308|179:259,1,150,14|0,0:0|0:0,0:0:0:0:
256,384,31046,5,6,0:0:0:0:
403,384,33617,6,0,P|425:348|411:246,1,150,14|0,0:0|0:0,0:0:0:0:
320,347,36188,6,0,P|300:316|295:280,1,75,14|0,0:0|0:0,0:0:0:0:
253,384,37046,2,0,P|232:349|117:321,1,150,14|0,0:0|0:0,0:0:0:0:
0,384,38331,1,14,0:0:0:0:
140,334,38760,6,0,P|167:296|174:181,1,150,14|0,0:0|0:0,0:0:0:0:
255,339,40474,1,10,0:0:0:0:
255,42,41331,5,10,0:0:0:0:
256,192,42831,12,0,45189,0:0:0:0:
288,145,45340,6,0,L|295:89,1,56.2500021457673,10|0,0:0|0:0,0:0:0:0:
364,161,45655,2,0,L|371:105,1,56.2500021457673,8|0,0:0|0:0,0:0:0:0:
212,161,45971,2,0,L|195:37,1,112.500004291535,10|8,0:0|0:0,0:0:0:0:
273,256,46603,6,0,L|289:132,1,112.500004291535,10|0,0:0|0:0,0:0:0:0:
212,161,47076,1,10,0:0:0:0:
163,223,47234,6,0,P|143:203|135:176,1,56.2500021457673,10|0,0:0|0:0,0:0:0:0:
211,285,47550,2,0,P|230:265|238:238,1,56.2500021457673,8|0,0:0|0:0,0:0:0:0:
70,218,47866,2,0,P|61:164|89:116,1,112.500004291535,10|8,0:0|0:0,0:0:0:0:
256,341,48497,6,0,P|265:286|237:238,1,112.500004291535,10|0,0:0|0:0,0:0:0:0:
187,300,48971,1,10,0:0:0:0:
343,272,49129,6,0,L|362:199,1,56.2500021457673,10|0,0:0|0:0,0:0:0:0:
237,238,49445,2,0,L|218:165,1,56.2500021457673,8|0,0:0|0:0,0:0:0:0:
357,217,49761,2,0,L|387:99,1,112.500004291535,10|8,0:0|0:0,0:0:0:0:
157,131,50392,6,0,L|126:13,1,112.500004291535,10|0,0:0|0:0,0:0:0:0:
236,101,50866,1,10,0:0:0:0:
213,247,51024,6,0,P|190:231|177:206,1,56.2500021457673,10|0,0:0|0:0,0:0:0:0:
299,247,51340,2,0,P|321:231|334:206,1,56.2500021457673,8|0,0:0|0:0,0:0:0:0:
201,262,51655,6,0,P|181:237|177:205,1,65.6250006258488,10|0,0:0|0:0,0:0:0:0:
310,262,51971,2,0,P|330:237|334:205,1,65.6250006258488,8|0,0:0|0:0,0:0:0:0:
178,278,52287,6,0,P|169:241|177:205,1,75,10|0,0:0|0:0,0:0:0:0:
333,278,52603,2,0,P|342:241|334:205,1,75,10|0,0:0|0:0,0:0:0:0:
256,356,52918,6,0,L|256:220,1,112.500004291535,10|8,0:0|0:0,0:0:0:0:
413,167,53550,2,0,L|433:89,1,56.2500021457673,10|0,0:0|0:0,0:0:0:0:
334,205,53866,2,0,L|313:127,1,56.2500021457673,8|0,0:0|0:0,0:0:0:0:
467,265,54182,6,0,L|502:133,1,112.500004291535,10|0,0:0|0:0,0:0:0:0:
413,167,54655,1,10,0:0:0:0:
363,313,54813,6,0,L|330:192,1,112.500004291535,10|8,0:0|0:0,0:0:0:0:
147,129,55445,2,0,L|167:51,1,56.2500021457673,10|0,0:0|0:0,0:0:0:0:
255,167,55761,2,0,L|234:89,1,56.2500021457673,8|0,0:0|0:0,0:0:0:0:
126,205,56076,6,0,P|80:174|69:119,1,112.500004291535,10|0,0:0|0:0,0:0:0:0:
147,129,56550,1,10,0:0:0:0:
147,282,56708,6,0,P|192:251|204:195,1,112.500004291535,10|8,0:0|0:0,0:0:0:0:
359,223,57340,2,0,P|357:195|346:169,1,56.2500021457673,10|0,0:0|0:0,0:0:0:0:
416,269,57655,2,0,P|428:244|431:216,1,56.2500021457673,8|0,0:0|0:0,0:0:0:0:
435,340,57971,6,0,P|477:309|502:237,1,112.500004291535,10|0,0:0|0:0,0:0:0:0:
495,177,58445,1,10,0:0:0:0:
416,269,58603,6,0,L|394:205,1,56.2500021457673,10|0,0:0|0:0,0:0:0:0:
349,303,58918,2,0,L|326:238,1,56.2500021457673,8|0,0:0|0:0,0:0:0:0:
177,314,59234,6,0,L|199:249,1,65.6250006258488,10|0,0:0|0:0,0:0:0:0:
243,348,59550,2,0,L|265:283,1,65.6250006258488,8|0,0:0|0:0,0:0:0:0:
105,347,59866,6,0,L|77:268,1,75,10|0,0:0|0:0,0:0:0:0:
38,381,60182,2,0,L|10:302,1,75,10|0,0:0|0:0,0:0:0:0:
198,250,60497,6,0,P|208:225|209:197,1,56.2500021457673,10|0,0:0|0:0,0:0:0:0:
306,228,60813,2,0,P|302:200|288:175,1,56.2500021457673,8|0,0:0|0:0,0:0:0:0:
407,205,61129,2,0,P|390:152|347:117,1,112.500004291535,10|8,0:0|0:0,0:0:0:0:
104,205,61761,6,0,P|121:152|164:117,1,112.500004291535,10|0,0:0|0:0,0:0:0:0:
236,150,62234,1,10,0:0:0:0:
293,235,62392,6,0,L|305:180,1,56.2500021457673,10|0,0:0|0:0,0:0:0:0:
198,264,62708,2,0,L|186:210,1,56.2500021457673,8|0,0:0|0:0,0:0:0:0:
301,316,63024,2,0,P|339:300|373:230,1,112.500004291535,10|8,0:0|0:0,0:0:0:0:
186,210,63655,6,0,L|159:96,1,112.500004291535,10|0,0:0|0:0,0:0:0:0:
242,124,64129,1,10,0:0:0:0:
259,256,64287,6,0,L|272:202,1,56.2500021457673,10|0,0:0|0:0,0:0:0:0:
353,220,64603,2,0,L|340:165,1,56.2500021457673,8|0,0:0|0:0,0:0:0:0:
328,330,64918,2,0,L|354:216,1,112.500004291535,10|8,0:0|0:0,0:0:0:0:
140,245,65550,6,0,P|121:191|147:133,1,112.500004291535,10|0,0:0|0:0,0:0:0:0:
201,192,66024,1,10,0:0:0:0:
262,244,66182,6,0,P|275:220|280:192,1,56.2500021457673,10|0,0:0|0:0,0:0:0:0:
307,301,66497,2,0,P|326:280|338:255,1,56.2500021457673,8|0,0:0|0:0,0:0:0:0:
162,305,66813,6,0,P|145:275|139:243,1,65.6250006258488,10|0,0:0|0:0,0:0:0:0:
121,364,67129,2,0,P|97:339|83:310,1,65.6250006258488,8|0,0:0|0:0,0:0:0:0:
244,325,67445,6,0,P|260:295|268:251,1,75,10|0,0:0|0:0,0:0:0:0:
285,384,67761,2,0,P|308:359|328:316,1,75,10|0,0:0|0:0,0:0:0:0:
121,364,68076,6,0,L|112:232,1,112.500004291535,10|8,0:0|0:0,0:0:0:0:
314,83,68708,2,0,L|309:16,1,56.2500021457673,10|0,0:0|0:0,0:0:0:0:
239,122,69024,2,0,L|234:55,1,56.2500021457673,8|0,0:0|0:0,0:0:0:0:
321,195,69340,6,0,L|312:63,1,112.500004291535,10|0,0:0|0:0,0:0:0:0:
243,202,69813,1,10,0:0:0:0:
367,260,69971,6,0,B|395:227|395:227|389:134,1,112.500004291535,10|8,0:0|0:0,0:0:0:0:
165,209,70603,2,0,L|160:137,1,56.2500021457673,10|0,0:0|0:0,0:0:0:0:
109,270,70918,2,0,L|80:204,1,56.2500021457673,8|0,0:0|0:0,0:0:0:0:
77,346,71234,6,0,L|-1:264,1,112.500004291535,10|0,0:0|0:0,0:0:0:0:
109,270,71708,1,10,0:0:0:0:
158,335,71866,6,0,P|186:294|176:224,1,112.500004291535,10|8,0:0|0:0,0:0:0:0:
409,233,72497,2,0,P|394:209|390:177,1,56.2500021457673,10|0,0:0|0:0,0:0:0:0:
315,198,72813,2,0,P|313:170|326:140,1,56.2500021457673,8|0,0:0|0:0,0:0:0:0:
241,141,73129,6,0,P|265:91|314:65,1,112.500004291535,10|0,0:0|0:0,0:0:0:0:
389,95,73603,1,10,0:0:0:0:
449,206,73761,6,0,L|446:149,1,56.2500021457673,10|0,0:0|0:0,0:0:0:0:
370,232,74076,2,0,L|367:175,1,56.2500021457673,8|0,0:0|0:0,0:0:0:0:
206,255,74392,6,0,L|209:168,1,65.6250006258488,10|0,0:0|0:0,0:0:0:0:
285,281,74708,2,0,L|287:214,1,65.6250006258488,8|0,0:0|0:0,0:0:0:0:
452,280,75024,6,0,L|448:205,1,75,10|0,0:0|0:0,0:0:0:0:
373,306,75339,2,0,L|369:220,1,75,10|0,0:0|0:0,0:0:0:0:
307,363,75655,6,0,L|242:152,1,209.999993591309,10|0,0:0|0:0,0:0:0:0:
164,244,76607,1,0,0:0:0:0:
82,325,76924,2,0,L|48:215,1,104.999996795654
245,162,77559,6,0,P|260:112|243:63,1,104.999996795654,10|0,0:0|0:0,0:0:0:0:
332,222,78207,2,0,P|326:120|242:63,1,209.999993591309,10|0,0:0|0:0,0:0:0:0:
137,109,79164,1,10,0:0:0:0:
156,224,79483,6,0,P|239:165|244:64,1,209.999993591309,10|0,0:0|0:0,0:0:0:0:
137,109,80441,1,0,0:0:0:0:
46,183,80760,2,0,P|19:117|28:64,1,104.999996795654
156,224,81359,6,0,L|189:110,1,104.999996795654,10|0,0:0|0:0,0:0:0:0:
356,224,81997,2,0,L|323:110,1,104.999996795654
256,288,82635,2,0,L|256:176,1,104.999996795654
406,355,83263,6,0,L|465:150,1,209.999993591309,10|0,0:0|0:0,0:0:0:0:
360,203,84210,1,0,0:0:0:0:
255,153,84526,2,0,L|226:52,1,104.999996795654
152,203,85157,6,0,P|125:168|54:146,1,104.999996795654,10|0,0:0|0:0,0:0:0:0:
48,326,85789,2,0,P|21:285|81:140,1,209.999993591309,10|0,0:0|0:0,0:0:0:0:
122,244,86726,1,10,0:0:0:0:
197,325,87041,6,0,P|226:284|227:207,1,104.999996795654,10|0,0:0|0:0,0:0:0:0:
344,261,87673,2,0,P|348:210|310:143,1,104.999996795654
439,132,88304,2,0,P|417:86|351:47,1,104.999996795654
209,173,88936,6,0,P|215:121|245:79,1,104.999996795654,10|0,0:0|0:0,0:0:0:0:
125,240,89568,2,0,P|104:192|108:140,1,104.999996795654
85,339,90199,2,0,P|43:307|21:260,1,104.999996795654
190,331,90841,6,0,L|247:253,1,82.5000025177003,10|0,0:0|0:0,0:0:0:0:
445,352,91472,2,0,L|405:263,1,82.5000025177003
315,376,92104,2,0,L|325:279,1,82.5000025177003
472,208,92715,6,0,P|483:169|476:128,1,82.5000025177003,10|0,0:0|0:0,0:0:0:0:
376,240,93363,2,0,P|354:202|365:82,1,165.000005035401,10|0,0:0|0:0,0:0:0:0:
256,192,94315,1,10,0:0:0:0:
362,321,94637,6,0,L|377:232,1,82.5000025177003,10|0,0:0|0:0,0:0:0:0:
256,362,95266,2,0,L|256:280,1,82.5000025177003
150,321,95896,2,0,L|135:232,1,82.5000025177003
304,184,96526,6,0,L|319:95,1,82.5000025177003,10|0,0:0|0:0,0:0:0:0:
221,265,97157,2,0,L|194:102,1,165.000005035401,10|0,0:0|0:0,0:0:0:0:
479,320,98420,6,0,P|512:296|531:260,1,82.5000025177003,10|0,0:0|0:0,0:0:0:0:
431,225,99052,2,0,P|448:187|446:147,1,82.5000025177003
341,166,99683,2,0,P|337:125|315:90,1,82.5000025177003,0|8,0:0|0:0,0:0:0:0:
232,230,100315,6,0,P|235:189|257:154,1,82.5000025177003,10|0,0:0|0:0,0:0:0:0:
285,290,100947,2,0,P|308:214|256:154,1,165.000005035401,10|0,0:0|0:0,0:0:0:0:
207,307,101894,1,10,0:0:0:0:
152,364,102210,6,0,P|129:329|128:288,1,82.5000025177003,10|0,0:0|0:0,0:0:0:0:
360,364,102841,2,0,P|382:329|383:288,1,82.5000025177003
169,222,103473,6,0,P|146:187|145:146,1,82.5000025177003
343,222,104104,2,0,P|365:187|366:146,1,82.5000025177003,10|0,0:0|0:0,0:0:0:0:
186,80,104736,6,0,P|163:45|162:4,1,82.5000025177003
326,80,105368,2,0,P|348:45|349:4,1,82.5000025177003
256,17,105979,5,10,0:0:0:0:
50,350,109716,6,0,P|38:331|34:267,1,75,14|8,0:0|0:0,0:0:0:0:
123,384,110631,2,0,P|127:362|170:314,1,75,8|8,0:0|0:0,0:0:0:0:
314,347,111628,2,0,P|316:284|289:229,1,112.5,10|8,0:0|0:0,0:0:0:0:
393,267,112603,6,0,P|415:238|423:201,1,75,14|8,0:0|0:0,0:0:0:0:
385,349,113528,2,0,P|421:343|453:323,1,75,8|8,0:0|0:0,0:0:0:0:
317,303,114503,2,0,P|290:253|294:198,1,112.5,10|8,0:0|0:0,0:0:0:0:
211,254,115506,6,0,P|206:217|182:189,1,75,14|8,0:0|0:0,0:0:0:0:
107,315,116440,2,0,P|131:286|136:250,1,75,8|8,0:0|0:0,0:0:0:0:
53,378,117519,2,0,P|27:331|40:267,1,112.5,10|8,0:0|0:0,0:0:0:0:
255,384,120548,6,0,P|381:280|256:128,1,400.312483507634,14|0,0:0|0:0,0:0:0:0:
255,255,123422,6,0,P|128:127|256:0,1,400.312483507634,10|0,0:0|0:0,0:0:0:0:
