osu file format v14

[General]
AudioFilename: audio.mp3
AudioLeadIn: 1000
PreviewTime: 81
Countdown: 0
SampleSet: Soft
StackLeniency: 0.7
Mode: 0
LetterboxInBreaks: 0
WidescreenStoryboard: 1

[Editor]
Bookmarks: 128254
DistanceSpacing: 1.1
BeatDivisor: 4
GridSize: 8
TimelineZoom: 2

[Metadata]
Title:lit(var)
TitleUnicode:lit(var)
Artist:kensuke ushio
ArtistUnicode:kensuke ushio
Creator:Monstrata
Version:hard
Source:聲の形
Tags:koe no katachi shoko nishimiya shoya ishida shouko shouya the shape of voice piano ost soundtrack ending theme light original sound track lit extended full version
BeatmapID:1352963
BeatmapSetID:623972

[Difficulty]
HPDrainRate:4
CircleSize:4
OverallDifficulty:5
ApproachRate:7.5
SliderMultiplier:2.6
SliderTickRate:1

[Events]
//Background and Video events
0,0,"this background is lit.jpg",0,0
//Break Periods
2,106179,108891
//Storyboard Layer 0 (Background)
//Storyboard Layer 1 (Fail)
//Storyboard Layer 2 (Pass)
//Storyboard Layer 3 (Foreground)
//Storyboard Sound Samples

[TimingPoints]
189,857.142857142857,3,2,40,50,1,0
189,-200,3,2,40,50,0,0
617,-200,3,2,35,50,0,0
1046,-200,3,2,39,50,0,0
1474,-200,3,2,35,50,0,0
1903,-200,3,2,41,50,0,0
2546,-200,3,2,40,50,0,0
2760,-200,3,2,42,50,0,0
3188,-200,3,2,35,50,0,0
3617,-200,3,2,39,50,0,0
4046,-200,3,2,35,50,0,0
4474,-200,3,2,41,50,0,0
5117,-200,3,2,40,50,0,0
5331,-200,3,2,43,50,0,0
5760,-200,3,2,35,50,0,0
6188,-200,3,2,39,50,0,0
6617,-200,3,2,35,50,0,0
7046,-200,3,2,41,50,0,0
7688,-200,3,2,40,50,0,0
7903,-200,3,2,32,50,0,0
8760,-200,3,2,33,50,0,0
9617,-200,3,2,34,50,0,0
10474,-200,3,2,40,50,0,0
10903,-200,3,2,35,50,0,0
11331,-200,3,2,39,50,0,0
11760,-200,3,2,35,35,0,0
12188,-200,3,2,41,35,0,0
12831,-200,3,2,40,35,0,0
13046,-200,3,2,42,35,0,0
13474,-200,3,2,35,50,0,0
13903,-200,3,2,38,50,0,0
14331,-200,3,2,35,50,0,0
14760,-200,3,2,41,50,0,0
15403,-200,3,2,40,50,0,0
15617,-200,3,2,43,50,0,0
16046,-200,3,2,35,50,0,0
16474,-200,3,2,39,50,0,0
16903,-200,3,2,35,50,0,0
17331,-200,3,2,41,50,0,0
17974,-200,3,2,40,50,0,0
18188,-200,3,2,32,50,0,0
19046,-200,3,2,33,50,0,0
19903,-200,3,2,34,50,0,0
20760,-200,3,2,44,50,0,0
23331,-200,3,2,25,50,0,0
24188,-200,3,2,25,5,0,0
25903,-200,3,2,26,50,0,0
26331,-200,3,2,26,5,0,0
26760,-200,3,2,25,50,0,0
27188,-200,3,2,25,5,0,0
27617,-200,3,2,28,50,0,0
28046,-200,3,2,28,5,0,0
28474,-200,3,2,27,50,0,0
29331,-200,3,2,27,5,0,0
31046,-200,3,2,29,50,0,0
33617,-200,3,2,25,50,0,0
34474,-200,3,2,25,5,0,0
36188,-200,3,2,26,50,0,0
36617,-200,3,2,26,5,0,0
37046,-200,3,2,24,50,0,0
37903,-200,3,2,24,5,0,0
38331,-200,3,2,23,50,0,0
38760,-200,3,2,27,50,0,0
40474,-200,3,2,21,50,0,0
41331,-200,3,2,22,50,0,0
42831,857.142857142857,3,2,0,50,1,0
45340,631.578947368421,3,2,70,65,1,0
45340,-133.333333333333,3,2,70,65,0,0
45655,-133.333333333333,3,2,68,65,0,0
45971,-133.333333333333,3,2,69,65,0,0
46287,-133.333333333333,3,2,68,65,0,0
46603,-133.333333333333,3,2,71,65,0,0
47076,-133.333333333333,3,2,70,65,0,0
47550,-133.333333333333,3,2,68,65,0,0
47866,-133.333333333333,3,2,69,65,0,0
48182,-133.333333333333,3,2,68,65,0,0
48497,-133.333333333333,3,2,71,65,0,0
48971,-133.333333333333,3,2,70,65,0,0
49445,-133.333333333333,3,2,68,65,0,0
49761,-133.333333333333,3,2,69,65,0,0
50076,-133.333333333333,3,2,68,65,0,0
50392,-133.333333333333,3,2,71,65,0,0
50866,-133.333333333333,3,2,70,65,0,0
51024,-133.333333333333,3,2,69,65,0,0
51340,-133.333333333333,3,2,68,65,0,0
51655,-133.333333333333,3,2,67,65,0,0
51971,-133.333333333333,3,2,68,65,0,0
52287,-133.333333333333,3,2,66,65,0,0
52603,-133.333333333333,3,2,67,65,0,0
52918,-133.333333333333,3,2,70,65,0,0
53233,-133.333333333333,3,2,68,65,0,0
53549,-133.333333333333,3,2,69,65,0,0
53865,-133.333333333333,3,2,68,65,0,0
54181,-133.333333333333,3,2,71,65,0,0
54654,-133.333333333333,3,2,70,65,0,0
55128,-133.333333333333,3,2,68,65,0,0
55444,-133.333333333333,3,2,69,65,0,0
55760,-133.333333333333,3,2,68,65,0,0
56075,-133.333333333333,3,2,71,65,0,0
56549,-133.333333333333,3,2,70,65,0,0
57023,-133.333333333333,3,2,68,65,0,0
57339,-133.333333333333,3,2,69,65,0,0
57654,-133.333333333333,3,2,68,65,0,0
57970,-133.333333333333,3,2,71,65,0,0
58444,-133.333333333333,3,2,70,65,0,0
58602,-133.333333333333,3,2,69,65,0,0
58918,-133.333333333333,3,2,68,65,0,0
59233,-133.333333333333,3,2,67,65,0,0
59549,-133.333333333333,3,2,68,65,0,0
59865,-133.333333333333,3,2,66,65,0,0
60181,-133.333333333333,3,2,67,65,0,0
60496,-133.333333333333,3,2,70,65,0,0
60497,-133.333333333333,3,2,70,65,0,0
60811,-133.333333333333,3,2,68,65,0,0
61127,-133.333333333333,3,2,69,65,0,0
61443,-133.333333333333,3,2,68,65,0,0
61759,-133.333333333333,3,2,71,65,0,0
62232,-133.333333333333,3,2,70,65,0,0
62706,-133.333333333333,3,2,68,65,0,0
63022,-133.333333333333,3,2,69,65,0,0
63338,-133.333333333333,3,2,68,65,0,0
63653,-133.333333333333,3,2,71,65,0,0
64127,-133.333333333333,3,2,70,65,0,0
64601,-133.333333333333,3,2,68,65,0,0
64917,-133.333333333333,3,2,69,65,0,0
65232,-133.333333333333,3,2,68,65,0,0
65548,-133.333333333333,3,2,71,65,0,0
66022,-133.333333333333,3,2,70,65,0,0
66180,-133.333333333333,3,2,69,65,0,0
66496,-133.333333333333,3,2,68,65,0,0
66811,-133.333333333333,3,2,67,65,0,0
67127,-133.333333333333,3,2,68,65,0,0
67443,-133.333333333333,3,2,66,65,0,0
67759,-133.333333333333,3,2,67,65,0,0
68074,-133.333333333333,3,2,70,65,0,0
68076,-133.333333333333,3,2,70,65,0,0
68389,-133.333333333333,3,2,68,65,0,0
68705,-133.333333333333,3,2,69,65,0,0
69021,-133.333333333333,3,2,68,65,0,0
69337,-133.333333333333,3,2,71,65,0,0
69810,-133.333333333333,3,2,70,65,0,0
70284,-133.333333333333,3,2,68,65,0,0
70600,-133.333333333333,3,2,69,65,0,0
70916,-133.333333333333,3,2,68,65,0,0
71231,-133.333333333333,3,2,71,65,0,0
71705,-133.333333333333,3,2,70,65,0,0
72179,-133.333333333333,3,2,68,65,0,0
72495,-133.333333333333,3,2,69,65,0,0
72810,-133.333333333333,3,2,68,65,0,0
73126,-133.333333333333,3,2,71,65,0,0
73600,-133.333333333333,3,2,70,65,0,0
73758,-133.333333333333,3,2,69,65,0,0
74074,-133.333333333333,3,2,68,65,0,0
74389,-133.333333333333,3,2,67,65,0,0
74705,-133.333333333333,3,2,68,65,0,0
75021,-133.333333333333,3,2,66,65,0,0
75337,-133.333333333333,3,2,67,65,0,0
75655,634.920634920635,3,2,65,50,1,0
75655,-142.857142857143,3,2,65,50,0,0
77559,648.648648648649,3,2,66,50,1,0
77559,-142.857142857143,3,2,66,50,0,0
78207,638.297872340426,3,2,65,50,1,0
78207,-142.857142857143,3,2,65,50,0,0
79164,-142.857142857143,3,2,66,50,0,0
79483,-142.857142857143,3,2,67,50,0,0
81359,638.297872340426,3,2,67,50,1,0
81359,-142.857142857143,3,2,67,50,0,0
83263,631.578947368421,3,2,65,50,1,0
83263,-142.857142857143,3,2,65,50,0,0
85157,-142.857142857143,3,2,66,50,0,0
85789,-142.857142857143,3,2,65,50,0,0
86726,631.578947368421,3,2,69,50,1,0
86726,-142.857142857143,3,2,69,50,0,0
87041,631.578947368421,3,2,67,50,1,0
87041,-142.857142857143,3,2,67,50,0,0
90841,631.578947368421,3,2,65,50,1,0
90841,-181.818181818182,3,2,65,50,0,0
92715,648.648648648649,3,2,66,50,1,0
92715,-181.818181818182,3,2,66,50,0,0
93363,634.920634920635,3,2,65,50,1,0
93363,-181.818181818182,3,2,65,50,0,0
94315,645.161290322581,3,2,66,50,1,0
94637,629.92125984252,3,2,67,50,1,0
94637,-181.818181818182,3,2,67,50,0,0
96526,631.578947368421,3,2,70,50,1,0
96526,-181.818181818182,3,2,70,50,0,0
97157,-181.818181818182,3,2,69,50,0,0
98420,-181.818181818182,3,2,65,50,0,0
99999,-181.818181818182,3,2,64,50,0,0
100315,-181.818181818182,3,2,66,50,0,0
100947,-181.818181818182,3,2,65,50,0,0
101894,-181.818181818182,3,2,69,50,0,0
102210,-181.818181818182,3,2,67,50,0,0
105979,622.891253568648,3,2,72,50,1,0
109716,895.522388059701,3,2,80,45,1,0
109716,-200,3,2,80,45,0,0
110163,937.5,3,2,75,45,1,0
110631,952.380952380952,3,2,79,45,1,0
110631,-200,3,2,79,45,0,0
111107,1043.47826086957,3,2,75,45,1,0
111628,916.030534351145,3,2,81,45,1,0
111628,-200,3,2,81,45,0,0
112315,1153.84615384615,3,2,80,45,1,0
112603,952.380952380952,3,2,82,45,1,0
112603,-200,3,2,82,45,0,0
113079,898.876404494382,3,2,75,45,1,0
113528,916.030534351145,3,2,79,45,1,0
113528,-200,3,2,79,45,0,0
113986,888.888888888889,3,2,75,45,1,0
114503,888.888888888889,3,2,81,45,1,0
114503,-200,3,2,81,45,0,0
115169,1348.31460674157,3,2,80,45,1,0
115506,1000,3,2,83,45,1,0
115506,-200,3,2,83,45,0,0
116006,869.565217391304,3,2,75,45,1,0
116440,1016.94915254237,3,2,79,45,1,0
116440,-200,3,2,79,45,0,0
116948,1142.85714285714,3,2,75,45,1,0
117519,1384.0830449827,3,2,81,45,1,0
117519,-200,3,2,81,45,0,0
118557,995.850622406639,3,2,80,45,1,0
120548,1437.12574850299,3,2,78,45,1,0
120548,-181.818181818182,3,2,78,45,0,0
120907,-181.818181818182,3,2,78,5,0,0
123062,-100,3,2,78,5,0,0
123422,1610.73825503356,3,2,77,45,1,0
123422,-181.818181818182,3,2,77,45,0,0
123824,-181.818181818182,3,2,77,5,0,0
128254,-100,3,2,77,5,0,0

[Colours]
Combo1 : 255,255,128
Combo2 : 128,255,255
Combo3 : 255,168,255
Combo4 : 0,255,128

[HitObjects]
283,359,189,6,0,L|291:287,1,65,14|8,0:0|0:0,0:0:0:0:
356,384,1046,2,0,L|364:312,1,65,8|8,0:0|0:0,0:0:0:0:
446,340,1903,2,0,L|426:238,1,97.5,10|8,0:0|0:0,0:0:0:0:
427,244,2760,6,0,P|439:213|439:181,1,65,14|8,0:0|0:0,0:0:0:0:
360,291,3617,2,0,P|347:260|347:228,1,65,8|8,0:0|0:0,0:0:0:0:
278,366,4474,2,0,P|284:318|266:273,1,97.5,10|8,0:0|0:0,0:0:0:0:
266,273,5331,6,0,L|254:201,1,65,14|8,0:0|0:0,0:0:0:0:
169,295,6189,2,0,L|181:223,1,65,8|8,0:0|0:0,0:0:0:0:
103,353,7046,2,0,L|85:245,1,97.5,10|8,0:0|0:0,0:0:0:0:
87,257,7903,5,14,0:0:0:0:
161,235,8760,1,12,0:0:0:0:
235,213,9617,1,12,0:0:0:0:
477,318,10474,6,0,P|480:285|471:254,1,65,14|8,0:0|0:0,0:0:0:0:
400,355,11331,2,0,P|397:323|406:292,1,65,8|8,0:0|0:0,0:0:0:0:
327,383,12189,2,0,P|313:337|282:301,1,97.5,10|8,0:0|0:0,0:0:0:0:
282,301,13046,6,0,L|294:225,1,65,14|8,0:0|0:0,0:0:0:0:
194,349,13903,2,0,L|206:273,1,65,8|8,0:0|0:0,0:0:0:0:
115,384,14760,2,0,L|99:285,1,97.5,10|8,0:0|0:0,0:0:0:0:
99,287,15617,6,0,L|87:211,1,65,14|8,0:0|0:0,0:0:0:0:
173,316,16474,2,0,L|181:239,1,65,8|8,0:0|0:0,0:0:0:0:
236,363,17331,2,0,L|270:272,1,97.5,10|8,0:0|0:0,0:0:0:0:
270,271,18189,5,14,0:0:0:0:
346,251,19046,1,12,0:0:0:0:
421,230,19903,1,12,0:0:0:0:
365,175,20760,5,14,0:0:0:0:
207,384,23331,6,0,P|169:332|171:268,1,130,14|0,0:0|0:0,0:0:0:0:
376,335,25903,6,0,P|387:305|387:273,1,65,14|0,0:0|0:0,0:0:0:0:
310,384,26760,2,0,P|298:353|298:321,1,65,8|0,0:0|0:0,0:0:0:0:
202,384,27617,2,0,P|214:353|214:321,1,65,14|0,0:0|0:0,0:0:0:0:
136,335,28474,2,0,P|114:274|135:214,1,130,14|0,0:0|0:0,0:0:0:0:
256,384,31046,5,6,0:0:0:0:
24,352,33617,6,0,P|14:312|53:231,1,130,14|0,0:0|0:0,0:0:0:0:
273,353,36189,6,0,P|291:327|295:295,1,65,14|0,0:0|0:0,0:0:0:0:
359,360,37046,2,0,P|371:308|340:226,1,130,14|0,0:0|0:0,0:0:0:0:
271,221,38331,1,14,0:0:0:0:
295,294,38760,5,14,0:0:0:0:
214,235,40474,1,10,0:0:0:0:
256,80,41331,5,10,0:0:0:0:
256,192,42831,12,0,44973,0:0:0:0:
207,257,45340,5,10,0:0:0:0:
269,180,45655,1,8,0:0:0:0:
172,165,45971,2,0,L|130:56,1,97.50000371933,10|8,0:0|0:0,0:0:0:0:
269,180,46603,6,0,L|311:71,1,97.50000371933,10|0,0:0|0:0,0:0:0:0:
319,47,47076,1,10,0:0:0:0:
319,47,47234,5,10,0:0:0:0:
224,22,47550,1,8,0:0:0:0:
289,163,47866,1,10,0:0:0:0:
194,138,48182,1,8,0:0:0:0:
230,328,48497,6,0,P|261:291|268:244,1,97.50000371933,10|0,0:0|0:0,0:0:0:0:
229,223,48971,1,10,0:0:0:0:
229,223,49129,5,10,0:0:0:0:
134,198,49445,1,8,0:0:0:0:
39,173,49761,2,0,P|22:127|32:80,1,97.50000371933,10|8,0:0|0:0,0:0:0:0:
134,198,50392,6,0,P|150:152|140:105,1,97.50000371933,10|0,0:0|0:0,0:0:0:0:
109,67,50866,1,10,0:0:0:0:
109,67,51024,5,10,0:0:0:0:
201,34,51340,1,8,0:0:0:0:
303,100,51655,5,10,0:0:0:0:
211,67,51971,1,8,0:0:0:0:
109,133,52287,5,10,0:0:0:0:
201,100,52603,1,10,0:0:0:0:
313,196,52918,6,0,L|302:95,1,97.50000371933,10|8,0:0|0:0,0:0:0:0:
235,254,53550,1,10,0:0:0:0:
324,293,53866,1,8,0:0:0:0:
157,312,54182,6,0,P|139:262|147:213,1,97.50000371933,10|0,0:0|0:0,0:0:0:0:
175,180,54655,1,10,0:0:0:0:
175,180,54813,5,10,0:0:0:0:
140,88,55129,1,8,0:0:0:0:
253,206,55445,1,10,0:0:0:0:
253,108,55761,1,8,0:0:0:0:
274,286,56076,6,0,P|315:257|335:197,1,97.50000371933,10|0,0:0|0:0,0:0:0:0:
322,167,56550,1,10,0:0:0:0:
322,167,56708,5,10,0:0:0:0:
339,71,57024,1,8,0:0:0:0:
226,150,57340,2,0,L|247:38,1,97.50000371933,10|8,0:0|0:0,0:0:0:0:
134,182,57971,6,0,L|101:90,1,97.50000371933,10|0,0:0|0:0,0:0:0:0:
84,44,58445,1,10,0:0:0:0:
84,44,58603,5,10,0:0:0:0:
178,66,58918,1,8,0:0:0:0:
300,137,59234,5,10,0:0:0:0:
206,159,59549,1,8,0:0:0:0:
84,230,59866,5,10,0:0:0:0:
178,252,60181,1,10,0:0:0:0:
281,384,60497,6,0,P|287:341|263:285,1,97.50000371933,10|8,0:0|0:0,0:0:0:0:
178,252,61129,1,10,0:0:0:0:
256,191,61445,1,8,0:0:0:0:
164,151,61761,6,0,P|146:106|153:59,1,97.50000371933,10|0,0:0|0:0,0:0:0:0:
176,16,62234,1,10,0:0:0:0:
176,16,62392,5,10,0:0:0:0:
275,0,62708,1,8,0:0:0:0:
220,102,63024,1,10,0:0:0:0:
319,86,63340,1,8,0:0:0:0:
382,163,63655,6,0,P|417:111|415:60,1,97.50000371933,10|0,0:0|0:0,0:0:0:0:
399,32,64129,1,10,0:0:0:0:
399,32,64287,5,10,0:0:0:0:
306,1,64603,1,8,0:0:0:0:
382,163,64918,1,10,0:0:0:0:
300,108,65234,1,8,0:0:0:0:
331,284,65550,6,0,L|256:199,1,97.50000371933,10|0,0:0|0:0,0:0:0:0:
233,174,66024,1,10,0:0:0:0:
233,174,66182,5,10,0:0:0:0:
247,77,66497,1,8,0:0:0:0:
347,218,66813,5,10,0:0:0:0:
333,121,67128,1,8,0:0:0:0:
219,271,67445,5,10,0:0:0:0:
233,174,67760,1,10,0:0:0:0:
367,285,68076,6,0,P|385:243|380:186,1,97.50000371933,10|8,0:0|0:0,0:0:0:0:
314,120,68708,1,10,0:0:0:0:
233,174,69024,1,8,0:0:0:0:
152,228,69340,6,0,P|137:187|151:124,1,97.50000371933,10|0,0:0|0:0,0:0:0:0:
177,98,69813,1,10,0:0:0:0:
177,98,69971,5,10,0:0:0:0:
269,67,70287,1,8,0:0:0:0:
338,180,70603,1,10,0:0:0:0:
246,149,70918,1,8,0:0:0:0:
321,313,71234,6,0,P|350:274|358:226,1,97.50000371933,10|0,0:0|0:0,0:0:0:0:
338,180,71708,1,10,0:0:0:0:
338,180,71866,5,10,0:0:0:0:
246,149,72182,1,8,0:0:0:0:
177,262,72497,1,10,0:0:0:0:
269,231,72812,1,8,0:0:0:0:
157,357,73129,6,0,P|100:322|83:275,1,97.50000371933,10|0,0:0|0:0,0:0:0:0:
91,247,73603,1,10,0:0:0:0:
91,247,73761,5,10,0:0:0:0:
130,158,74076,1,8,0:0:0:0:
253,296,74392,5,10,0:0:0:0:
214,207,74707,1,8,0:0:0:0:
136,384,75024,5,10,0:0:0:0:
175,295,75339,1,10,0:0:0:0:
292,384,75655,6,0,L|267:197,1,181.999994445801,10|0,0:0|0:0,0:0:0:0:
349,243,76607,1,0,0:0:0:0:
430,282,76924,2,0,L|442:186,1,90.9999972229005,0|0,0:0|0:0,0:0:0:0:
361,333,77559,2,0,L|348:237,1,90.9999972229005,10|0,0:0|0:0,0:0:0:0:
274,363,78207,6,0,P|267:274|204:211,1,181.999994445801,10|0,0:0|0:0,0:0:0:0:
113,218,79164,1,10,0:0:0:0:
158,296,79483,2,0,L|176:101,1,181.999994445801,10|0,0:0|0:0,0:0:0:0:
256,75,80441,1,0,0:0:0:0:
337,114,80760,2,0,L|345:23,1,90.9999972229005,0|0,0:0|0:0,0:0:0:0:
418,152,81359,6,0,P|459:135|486:5,1,181.999994445801,10|0,0:0|0:0,0:0:0:0:
329,204,82635,2,0,L|337:113,1,90.9999972229005,0|0,0:0|0:0,0:0:0:0:
246,242,83263,6,0,P|204:224|178:94,1,181.999994445801,10|0,0:0|0:0,0:0:0:0:
263,144,84210,1,0,0:0:0:0:
352,102,84526,2,0,L|333:8,1,90.9999972229005,0|0,0:0|0:0,0:0:0:0:
419,162,85157,6,0,L|438:73,1,90.9999972229005,10|0,0:0|0:0,0:0:0:0:
332,190,85789,2,0,P|293:170|289:37,1,181.999994445801,10|0,0:0|0:0,0:0:0:0:
193,21,86726,1,10,0:0:0:0:
132,88,87041,6,0,P|110:50|69:32,1,90.9999972229005,10|0,0:0|0:0,0:0:0:0:
115,178,87673,2,0,L|135:74,1,90.9999972229005,0|0,0:0|0:0,0:0:0:0:
45,237,88304,2,0,L|26:132,1,90.9999972229005,0|0,0:0|0:0,0:0:0:0:
130,267,88936,6,0,P|217:252|252:172,1,181.999994445801,10|0,0:0|0:0,0:0:0:0:
161,177,89883,1,0,0:0:0:0:
69,180,90199,2,0,P|77:135|107:101,1,90.9999972229005,0|0,0:0|0:0,0:0:0:0:
252,172,90841,5,10,0:0:0:0:
252,172,91472,2,0,L|267:88,1,71.5000021820069,0|0,0:0|0:0,0:0:0:0:
329,207,92104,2,0,L|342:137,1,71.5000021820069,0|0,0:0|0:0,0:0:0:0:
406,242,92715,5,10,0:0:0:0:
405,242,93363,2,0,P|440:177|424:107,1,143.000004364014,10|0,0:0|0:0,0:0:0:0:
342,136,94315,1,10,0:0:0:0:
277,74,94637,5,10,0:0:0:0:
277,74,95266,2,0,P|257:44|250:9,1,71.5000021820069,0|0,0:0|0:0,0:0:0:0:
167,110,95896,2,0,P|165:74|176:40,1,71.5000021820069,0|0,0:0|0:0,0:0:0:0:
108,183,96526,5,10,0:0:0:0:
108,183,97157,2,0,P|118:113|88:49,1,143.000004364014,10|0,0:0|0:0,0:0:0:0:
194,228,98420,5,10,0:0:0:0:
194,228,99052,2,0,L|175:146,1,71.5000021820069,0|0,0:0|0:0,0:0:0:0:
272,257,99683,2,0,L|274:172,1,71.5000021820069,0|8,0:0|0:0,0:0:0:0:
340,305,100315,5,10,0:0:0:0:
340,305,100947,2,0,L|381:168,1,143.000004364014,10|0,0:0|0:0,0:0:0:0:
451,216,101894,1,10,0:0:0:0:
428,298,102210,5,10,0:0:0:0:
428,298,102841,6,0,L|452:215,1,71.5000021820069
363,241,103473,2,0,L|372:155,1,71.5000021820069
289,196,104104,2,0,L|284:110,1,71.5000021820069,10|0,0:0|0:0,0:0:0:0:
208,164,104736,2,0,L|188:80,1,71.5000021820069
123,147,105368,2,0,L|89:68,1,71.5000021820069
36,145,105979,5,10,0:0:0:0:
219,285,109716,6,0,P|220:252|232:222,1,65,14|8,0:0|0:0,0:0:0:0:
280,328,110631,2,0,P|291:297|293:265,1,65,8|8,0:0|0:0,0:0:0:0:
203,346,111628,2,0,L|187:238,1,97.5,10|8,0:0|0:0,0:0:0:0:
188,249,112603,6,0,L|176:170,1,65,14|8,0:0|0:0,0:0:0:0:
117,289,113528,2,0,L|105:210,1,65,8|8,0:0|0:0,0:0:0:0:
192,308,114503,2,0,P|233:278|247:232,1,97.5,10|8,0:0|0:0,0:0:0:0:
247,236,115506,6,0,P|243:204|250:173,1,65,14|8,0:0|0:0,0:0:0:0:
318,269,116440,2,0,P|325:238|321:206,1,65,8|8,0:0|0:0,0:0:0:0:
252,311,117519,2,0,P|217:279|206:233,1,97.5,10|8,0:0|0:0,0:0:0:0:
168,350,120548,6,0,P|106:266|110:161,1,214.49999345398,14|0,0:0|0:0,0:0:0:0:
344,349,123422,6,0,P|398:284|220:69,1,429.000013092041,10|0,0:0|0:0,0:0:0:0:
