osu file format v14

[General]
AudioFilename: audio.mp3
AudioLeadIn: 1000
PreviewTime: 81
Countdown: 0
SampleSet: Soft
StackLeniency: 0.7
Mode: 0
LetterboxInBreaks: 0
WidescreenStoryboard: 1

[Editor]
Bookmarks: 110631,128254
DistanceSpacing: 1
BeatDivisor: 4
GridSize: 8
TimelineZoom: 2

[Metadata]
Title:lit(var)
TitleUnicode:lit(var)
Artist:kensuke ushio
ArtistUnicode:kensuke ushio
Creator:Monstrata
Version:normal
Source:聲の形
Tags:koe no katachi shoko nishimiya shoya ishida shouko shouya the shape of voice piano ost soundtrack ending theme light original sound track lit extended full version
BeatmapID:1373163
BeatmapSetID:623972

[Difficulty]
HPDrainRate:4
CircleSize:4
OverallDifficulty:3
ApproachRate:5
SliderMultiplier:1.8
SliderTickRate:1

[Events]
//Background and Video events
0,0,"this background is lit.jpg",0,0
//Break Periods
2,41531,44140
2,106179,108516
//Storyboard Layer 0 (Background)
//Storyboard Layer 1 (Fail)
//Storyboard Layer 2 (Pass)
//Storyboard Layer 3 (Foreground)
//Storyboard Sound Samples

[TimingPoints]
189,857.142857142857,3,2,40,50,1,0
189,-100,3,2,40,50,0,0
617,-100,3,2,35,50,0,0
1046,-100,3,2,39,50,0,0
1474,-100,3,2,35,50,0,0
1903,-100,3,2,41,50,0,0
2546,-100,3,2,40,50,0,0
2760,-100,3,2,42,50,0,0
3188,-100,3,2,35,50,0,0
3617,-100,3,2,39,50,0,0
4046,-100,3,2,35,50,0,0
4474,-100,3,2,41,50,0,0
5117,-100,3,2,40,50,0,0
5331,-100,3,2,43,50,0,0
5760,-100,3,2,35,50,0,0
6188,-100,3,2,39,50,0,0
6617,-100,3,2,35,50,0,0
7046,-100,3,2,41,50,0,0
7688,-100,3,2,40,50,0,0
7903,-100,3,2,32,50,0,0
8760,-100,3,2,33,50,0,0
9617,-100,3,2,34,50,0,0
10474,-100,3,2,40,50,0,0
10903,-100,3,2,35,50,0,0
11331,-100,3,2,39,50,0,0
11760,-100,3,2,35,35,0,0
12188,-100,3,2,41,35,0,0
12831,-100,3,2,40,35,0,0
13046,-100,3,2,42,35,0,0
13474,-100,3,2,35,50,0,0
13903,-100,3,2,38,50,0,0
14331,-100,3,2,35,50,0,0
14760,-100,3,2,41,50,0,0
15403,-100,3,2,40,50,0,0
15617,-100,3,2,43,50,0,0
16046,-100,3,2,35,50,0,0
16474,-100,3,2,39,50,0,0
16903,-100,3,2,35,50,0,0
17331,-100,3,2,41,50,0,0
17974,-100,3,2,40,50,0,0
18188,-100,3,2,32,50,0,0
19046,-100,3,2,33,50,0,0
19903,-100,3,2,34,50,0,0
20760,-100,3,2,44,50,0,0
23331,-100,3,2,25,50,0,0
24188,-100,3,2,25,5,0,0
25903,-100,3,2,26,50,0,0
26760,-100,3,2,25,50,0,0
27617,-100,3,2,28,50,0,0
28474,-100,3,2,27,50,0,0
29331,-100,3,2,27,5,0,0
31046,-100,3,2,29,50,0,0
33617,-100,3,2,25,50,0,0
34474,-100,3,2,25,5,0,0
36188,-100,3,2,26,50,0,0
37046,-100,3,2,24,50,0,0
38331,-100,3,2,23,50,0,0
38760,-100,3,2,27,50,0,0
39617,-100,3,2,27,5,0,0
40474,-100,3,2,21,50,0,0
41331,-100,3,2,22,50,0,0
42831,857.142857142857,3,2,0,50,1,0
45340,631.578947368421,3,2,70,65,1,0
45340,-100,3,2,70,65,0,0
45655,-100,3,2,68,65,0,0
45971,-100,3,2,69,65,0,0
46287,-100,3,2,68,65,0,0
46603,-100,3,2,71,65,0,0
47076,-100,3,2,70,65,0,0
47550,-100,3,2,68,65,0,0
47866,-100,3,2,69,65,0,0
48182,-100,3,2,68,65,0,0
48497,-100,3,2,71,65,0,0
48971,-100,3,2,70,65,0,0
49445,-100,3,2,68,65,0,0
49761,-100,3,2,69,65,0,0
50076,-100,3,2,68,65,0,0
50392,-100,3,2,71,65,0,0
50866,-100,3,2,70,65,0,0
51024,-100,3,2,69,65,0,0
51340,-100,3,2,68,65,0,0
51655,-100,3,2,67,65,0,0
51971,-100,3,2,68,65,0,0
52287,-100,3,2,66,65,0,0
52603,-100,3,2,67,65,0,0
52918,-100,3,2,70,65,0,0
53233,-100,3,2,68,65,0,0
53549,-100,3,2,69,65,0,0
53865,-100,3,2,68,65,0,0
54181,-100,3,2,71,65,0,0
54654,-100,3,2,70,65,0,0
55128,-100,3,2,68,65,0,0
55444,-100,3,2,69,65,0,0
55760,-100,3,2,68,65,0,0
56075,-100,3,2,71,65,0,0
56549,-100,3,2,70,65,0,0
57023,-100,3,2,68,65,0,0
57339,-100,3,2,69,65,0,0
57654,-100,3,2,68,65,0,0
57970,-100,3,2,71,65,0,0
58444,-100,3,2,70,65,0,0
58602,-100,3,2,69,65,0,0
58918,-100,3,2,68,65,0,0
59233,-100,3,2,67,65,0,0
59549,-100,3,2,68,65,0,0
59865,-100,3,2,66,65,0,0
60181,-100,3,2,67,65,0,0
60496,-100,3,2,70,65,0,0
60497,-100,3,2,70,65,0,0
60811,-100,3,2,68,65,0,0
61127,-100,3,2,69,65,0,0
61443,-100,3,2,68,65,0,0
61759,-100,3,2,71,65,0,0
62232,-100,3,2,70,65,0,0
62706,-100,3,2,68,65,0,0
63022,-100,3,2,69,65,0,0
63338,-100,3,2,68,65,0,0
63653,-100,3,2,71,65,0,0
64127,-100,3,2,70,65,0,0
64601,-100,3,2,68,65,0,0
64917,-100,3,2,69,65,0,0
65232,-100,3,2,68,65,0,0
65548,-100,3,2,71,65,0,0
66022,-100,3,2,70,65,0,0
66180,-100,3,2,69,65,0,0
66496,-100,3,2,68,65,0,0
66811,-100,3,2,67,65,0,0
67127,-100,3,2,68,65,0,0
67443,-100,3,2,66,65,0,0
67759,-100,3,2,67,65,0,0
68074,-100,3,2,70,65,0,0
68076,-100,3,2,70,65,0,0
68389,-100,3,2,68,65,0,0
68705,-100,3,2,69,65,0,0
69021,-100,3,2,68,65,0,0
69337,-100,3,2,71,65,0,0
69810,-100,3,2,70,65,0,0
70284,-100,3,2,68,65,0,0
70600,-100,3,2,69,65,0,0
70916,-100,3,2,68,65,0,0
71231,-100,3,2,71,65,0,0
71705,-100,3,2,70,65,0,0
72179,-100,3,2,68,65,0,0
72495,-100,3,2,69,65,0,0
72810,-100,3,2,68,65,0,0
73126,-100,3,2,71,65,0,0
73600,-100,3,2,70,65,0,0
73758,-100,3,2,69,65,0,0
74074,-100,3,2,68,65,0,0
74389,-100,3,2,67,65,0,0
74705,-100,3,2,68,65,0,0
75021,-100,3,2,66,65,0,0
75337,-100,3,2,67,65,0,0
75655,634.920634920635,3,2,65,50,1,0
75655,-100,3,2,65,50,0,0
77559,648.648648648649,3,2,66,50,1,0
77559,-100,3,2,66,50,0,0
78207,638.297872340426,3,2,65,50,1,0
78207,-100,3,2,65,50,0,0
79164,-100,3,2,66,50,0,0
79483,-100,3,2,67,50,0,0
81359,638.297872340426,3,2,67,50,1,0
81359,-100,3,2,67,50,0,0
83263,631.578947368421,3,2,65,50,1,0
83263,-100,3,2,65,50,0,0
85157,-100,3,2,66,50,0,0
85789,-100,3,2,65,50,0,0
86726,631.578947368421,3,2,69,50,1,0
86726,-100,3,2,69,50,0,0
87041,631.578947368421,3,2,67,50,1,0
90841,631.578947368421,3,2,65,50,1,0
90841,-100,3,2,65,50,0,0
92715,648.648648648649,3,2,66,50,1,0
92715,-100,3,2,66,50,0,0
93363,634.920634920635,3,2,65,50,1,0
93363,-100,3,2,65,50,0,0
94315,645.161290322581,3,2,66,50,1,0
94637,629.92125984252,3,2,67,50,1,0
94637,-100,3,2,67,50,0,0
96526,631.578947368421,3,2,70,50,1,0
96526,-100,3,2,70,50,0,0
97157,-100,3,2,69,50,0,0
98420,-100,3,2,65,50,0,0
99999,-100,3,2,64,50,0,0
100315,-100,3,2,66,50,0,0
100947,-100,3,2,65,50,0,0
101894,-100,3,2,69,50,0,0
102210,-100,3,2,67,50,0,0
105979,622.891253568648,3,2,72,50,1,0
109716,895.522388059701,3,2,80,45,1,0
109716,-104.275286757039,3,2,80,45,0,0
110163,937.5,3,2,75,45,1,0
110397,-100,3,2,75,5,0,0
110631,952.380952380952,3,2,79,45,1,0
110631,-100,3,2,79,45,0,0
111107,1043.47826086957,3,2,75,45,1,0
111628,916.030534351145,3,2,81,45,1,0
111628,-100,3,2,81,45,0,0
112315,1153.84615384615,3,2,80,45,1,0
112603,952.380952380952,3,2,82,45,1,0
112603,-97.0873786407767,3,2,82,45,0,0
113079,898.876404494382,3,2,75,45,1,0
113528,916.030534351145,3,2,79,45,1,0
113528,-100,3,2,79,45,0,0
113986,888.888888888889,3,2,75,45,1,0
114503,888.888888888889,3,2,81,45,1,0
114503,-100,3,2,81,45,0,0
115169,1348.31460674157,3,2,80,45,1,0
115506,1000,3,2,83,45,1,0
115506,-93.4579439252336,3,2,83,45,0,0
116006,869.565217391304,3,2,75,45,1,0
116440,1016.94915254237,3,2,79,45,1,0
116440,-100,3,2,79,45,0,0
116948,1142.85714285714,3,2,75,45,1,0
117519,1384.0830449827,3,2,81,45,1,0
117519,-100,3,2,81,45,0,0
118557,995.850622406639,3,2,80,45,1,0
120548,1437.12574850299,3,2,78,45,1,0
120548,-100,3,2,78,45,0,0
123062,-100,3,2,78,5,0,0
123422,1610.73825503356,3,2,77,45,1,0
123422,-100,3,2,77,45,0,0
128254,-100,3,2,77,5,0,0

[Colours]
Combo1 : 255,255,128
Combo2 : 128,255,255
Combo3 : 255,168,255
Combo4 : 0,255,128

[HitObjects]
197,384,189,6,0,L|187:279,1,90,14|8,0:0|0:0,0:0:0:0:
265,247,1046,1,8,0:0:0:0:
431,312,1903,6,0,P|448:247|431:182,1,135,10|8,0:0|0:0,0:0:0:0:
400,147,2760,2,0,P|383:106|388:62,1,90,14|8,0:0|0:0,0:0:0:0:
472,94,3617,1,8,0:0:0:0:
335,210,4474,6,0,P|266:190|237:126,1,135,10|8,0:0|0:0,0:0:0:0:
237,92,5331,2,0,P|249:52|236:2,1,90,14|8,0:0|0:0,0:0:0:0:
158,48,6188,1,8,0:0:0:0:
117,222,7046,6,0,P|184:230|244:202,1,135,10|8,0:0|0:0,0:0:0:0:
275,170,7903,2,0,P|286:83|347:18,1,180,14|12,0:0|0:0,0:0:0:0:
453,163,9617,1,12,0:0:0:0:
372,323,10474,6,0,L|270:301,1,90,14|8,0:0|0:0,0:0:0:0:
235,228,11331,1,8,0:0:0:0:
68,298,12188,6,0,P|40:236|47:170,1,135,10|8,0:0|0:0,0:0:0:0:
82,140,13046,2,0,P|94:98|84:55,1,90,14|8,0:0|0:0,0:0:0:0:
3,95,13903,1,8,0:0:0:0:
131,220,14760,6,0,L|287:185,1,135,10|8,0:0|0:0,0:0:0:0:
306,180,15617,2,0,P|283:141|280:96,1,90,14|8,0:0|0:0,0:0:0:0:
368,115,16474,1,8,0:0:0:0:
269,265,17331,6,0,L|113:230,1,135,10|8,0:0|0:0,0:0:0:0:
93,224,18188,2,0,P|71:140|126:72,1,180,14|12,0:0|0:0,0:0:0:0:
256,197,19903,1,12,0:0:0:0:
387,72,20760,5,14,0:0:0:0:
416,376,23331,6,0,P|467:306|433:227,1,180,14|0,0:0|0:0,0:0:0:0:
96,376,25903,6,0,P|44:306|78:227,1,180,14|8,0:0|0:0,0:0:0:0:
256,192,27617,1,14,0:0:0:0:
433,156,28474,2,0,P|467:77|416:8,1,180,14|0,0:0|0:0,0:0:0:0:
256,336,31046,5,6,0:0:0:0:
96,376,33617,6,0,P|45:306|79:227,1,180,14|0,0:0|0:0,0:0:0:0:
416,376,36189,6,0,P|468:306|434:227,1,180,14|14,0:0|0:0,0:0:0:0:
185,329,38331,1,14,0:0:0:0:
96,301,38760,2,0,L|84:115,1,180,14|0,0:0|0:0,0:0:0:0:
256,173,40474,5,10,0:0:0:0:
428,121,41331,1,10,0:0:0:0:
345,384,45340,6,0,L|363:277,1,90,10|8,0:0|0:0,0:0:0:0:
289,237,45971,1,10,0:0:0:0:
120,300,46603,6,0,P|82:253|94:170,1,135,10|10,0:0|0:0,0:0:0:0:
99,138,47234,2,0,L|121:33,1,90,10|8,0:0|0:0,0:0:0:0:
202,21,47866,1,10,0:0:0:0:
284,180,48497,6,0,P|350:174|399:130,1,135,10|10,0:0|0:0,0:0:0:0:
389,85,49129,2,0,P|379:42|392:0,1,90,10|8,0:0|0:0,0:0:0:0:
470,44,49761,1,10,0:0:0:0:
404,211,50392,6,0,P|337:205|288:161,1,135,10|10,0:0|0:0,0:0:0:0:
243,169,51024,2,0,P|253:125|240:82,1,90,10|8,0:0|0:0,0:0:0:0:
162,126,51655,2,0,P|129:95|86:84,1,90,10|8,0:0|0:0,0:0:0:0:
87,174,52287,1,10,0:0:0:0:
91,262,52603,1,10,0:0:0:0:
95,349,52918,6,0,P|138:335|171:298,1,90,10|8,0:0|0:0,0:0:0:0:
166,211,53550,1,10,0:0:0:0:
15,310,54182,6,0,P|-11:249|3:184,1,135,10|10,0:0|0:0,0:0:0:0:
20,143,54813,2,0,L|57:52,1,90,10|8,0:0|0:0,0:0:0:0:
138,27,55445,1,10,0:0:0:0:
245,169,56076,6,0,P|312:174|369:140,1,135,10|10,0:0|0:0,0:0:0:0:
376,95,56708,2,0,L|384:5,1,90,10|8,0:0|0:0,0:0:0:0:
302,42,57340,1,10,0:0:0:0:
252,214,57971,6,0,P|185:218|128:184,1,135,10|10,0:0|0:0,0:0:0:0:
121,139,58603,2,0,L|112:49,1,90,10|8,0:0|0:0,0:0:0:0:
200,67,59234,2,0,L|273:14,1,90,10|8,0:0|0:0,0:0:0:0:
354,51,59866,1,10,0:0:0:0:
362,140,60182,1,10,0:0:0:0:
370,229,60497,6,0,P|415:210|445:170,1,90,10|8,0:0|0:0,0:0:0:0:
436,89,61129,1,10,0:0:0:0:
282,183,61761,6,0,L|138:153,1,135,10|10,0:0|0:0,0:0:0:0:
109,134,62392,2,0,P|87:98|86:41,1,90,10|8,0:0|0:0,0:0:0:0:
172,69,63024,1,10,0:0:0:0:
261,225,63655,6,0,L|405:195,1,135,10|10,0:0|0:0,0:0:0:0:
434,176,64287,2,0,P|455:140|456:83,1,90,10|8,0:0|0:0,0:0:0:0:
371,111,64918,1,10,0:0:0:0:
282,267,65550,6,0,L|138:237,1,135,10|10,0:0|0:0,0:0:0:0:
109,218,66181,2,0,P|87:182|86:125,1,90,10|8,0:0|0:0,0:0:0:0:
172,153,66813,2,0,P|181:111|221:70,1,90,10|8,0:0|0:0,0:0:0:0:
262,151,67445,1,10,0:0:0:0:
218,229,67761,1,10,0:0:0:0:
263,306,68076,6,0,L|370:288,1,90,10|8,0:0|0:0,0:0:0:0:
363,201,68708,1,10,0:0:0:0:
188,247,69340,6,0,P|115:234|79:183,1,135,10|10,0:0|0:0,0:0:0:0:
79,143,69971,2,0,P|107:93|139:75,1,90,10|8,0:0|0:0,0:0:0:0:
167,161,70603,1,10,0:0:0:0:
324,247,71234,6,0,P|396:234|432:183,1,135,10|10,0:0|0:0,0:0:0:0:
433,143,71866,2,0,P|404:93|372:75,1,90,10|8,0:0|0:0,0:0:0:0:
345,161,72497,1,10,0:0:0:0:
188,247,73129,6,0,P|115:234|79:183,1,135,10|10,0:0|0:0,0:0:0:0:
75,142,73761,2,0,L|92:44,1,90,10|8,0:0|0:0,0:0:0:0:
169,96,74392,2,0,L|262:61,1,90,10|8,0:0|0:0,0:0:0:0:
322,121,75024,1,10,0:0:0:0:
306,209,75340,1,10,0:0:0:0:
290,297,75655,6,0,P|357:282|389:177,1,180,10|0,0:0|0:0,0:0:0:0:
41,142,77559,1,10,0:0:0:0:
11,321,78207,2,0,P|100:317|170:262,1,180,10|0,0:0|0:0,0:0:0:0:
194,175,79164,1,10,0:0:0:0:
218,88,79483,6,0,P|288:33|377:29,1,180,10|0,0:0|0:0,0:0:0:0:
500,321,81359,2,0,P|411:317|341:262,1,180,10|0,0:0|0:0,0:0:0:0:
105,319,83263,6,0,L|79:120,1,180,10|0,0:0|0:0,0:0:0:0:
437,196,85157,1,10,0:0:0:0:
466,376,85789,2,0,P|377:371|307:316,1,180,10|0,0:0|0:0,0:0:0:0:
256,251,86726,1,10,0:0:0:0:
204,185,87041,6,0,P|134:130|46:126,1,180,10|0,0:0|0:0,0:0:0:0:
313,367,88935,2,0,P|401:362|471:308,1,180,10|0,0:0|0:0,0:0:0:0:
108,284,90841,6,0,L|82:98,1,180,10|0,0:0|0:0,0:0:0:0:
406,225,92715,1,10,0:0:0:0:
256,331,93363,2,0,P|217:251|233:164,1,180,10|0,0:0|0:0,0:0:0:0:
315,131,94315,1,10,0:0:0:0:
400,166,94637,6,0,P|438:86|422:0,1,180,10|0,0:0|0:0,0:0:0:0:
164,249,96526,5,10,0:0:0:0:
22,358,97157,2,0,P|-16:278|0:191,1,180,10|0,0:0|0:0,0:0:0:0:
164,249,98420,6,0,P|202:169|186:82,1,180,10|0,0:0|0:0,0:0:0:0:
455,339,100315,1,10,0:0:0:0:
280,384,100947,2,0,L|249:198,1,180,10|0,0:0|0:0,0:0:0:0:
165,176,101894,1,10,0:0:0:0:
78,201,102210,6,0,P|81:144|180:86,1,180,10|0,0:0|0:0,0:0:0:0:
256,247,103473,1,0,0:0:0:0:
434,201,104104,2,0,P|431:144|332:86,1,180,10|0,0:0|0:0,0:0:0:0:
256,247,105368,1,0,0:0:0:0:
256,72,105979,5,10,0:0:0:0:
257,383,109716,5,14,0:0:0:0:
380,261,110631,1,8,0:0:0:0:
214,317,111628,2,0,P|150:298|107:247,1,135,10|8,0:0|0:0,0:0:0:0:
106,191,112603,6,0,P|172:132|259:118,1,180,14|8,0:0|0:0,0:0:0:0:
392,254,114503,2,0,P|414:192|393:130,1,135,10|8,0:0|0:0,0:0:0:0:
358,86,115506,6,0,P|278:46|190:54,1,180,14|8,0:0|0:0,0:0:0:0:
141,178,117519,2,0,P|232:179|293:135,1,135,10|8,0:0|0:0,0:0:0:0:
256,272,120548,5,14,0:0:0:0:
256,384,123422,5,10,0:0:0:0:
