osu file format v14

[General]
AudioFilename: audio.mp3
AudioLeadIn: 0
PreviewTime: 61223
Countdown: 1
SampleSet: Normal
StackLeniency: 0.7
Mode: 0
LetterboxInBreaks: 0
WidescreenStoryboard: 0

[Editor]
DistanceSpacing: 1.1
BeatDivisor: 8
GridSize: 4
TimelineZoom: 3.899999

[Metadata]
Title:Loser
TitleUnicode:Loser
Artist:Kenshi Yonezu
ArtistUnicode:米津玄師
Creator:qwertyuio621
Version:Normal
Source:
Tags:
BeatmapID:2032712
BeatmapSetID:970721

[Difficulty]
HPDrainRate:6
CircleSize:4.5
OverallDifficulty:6
ApproachRate:7
SliderMultiplier:1.4
SliderTickRate:1

[Events]
//Background and Video events
0,0,"back.jpg",0,0
//Break Periods
//Storyboard Layer 0 (Background)
//Storyboard Layer 1 (Fail)
//Storyboard Layer 2 (Pass)
//Storyboard Layer 3 (Foreground)
//Storyboard Sound Samples

[TimingPoints]
9223.01956051823,500,4,1,0,100,1,0

[Colours]
Combo1 : 223,196,0
Combo2 : 3,1,97
Combo3 : 3,150,6
Combo4 : 99,99,99

[HitObjects]
256,192,7223,12,0,9473,0:0:0:0:
256,192,9723,5,0,0:0:0:0:
100,72,10973,5,0,0:0:0:0:
256,64,11348,1,0,0:0:0:0:
188,192,11723,1,0,0:0:0:0:
276,196,12973,5,0,0:0:0:0:
444,220,13348,1,0,0:0:0:0:
312,324,13723,1,0,0:0:0:0:
164,108,14973,5,0,0:0:0:0:
324,128,15348,1,0,0:0:0:0:
184,224,15723,1,0,0:0:0:0:
324,288,16848,5,0,0:0:0:0:
256,212,17348,1,0,0:0:0:0:
372,128,17723,1,0,0:0:0:0:
184,100,18848,5,0,0:0:0:0:
88,188,19223,1,0,0:0:0:0:
204,224,19598,1,0,0:0:0:0:
304,144,20973,5,0,0:0:0:0:
192,224,21348,1,0,0:0:0:0:
120,112,21723,1,0,0:0:0:0:
144,232,22973,5,0,0:0:0:0:
252,176,23348,1,0,0:0:0:0:
336,76,23598,1,0,0:0:0:0:
208,148,24723,5,0,0:0:0:0:
352,160,25223,1,0,0:0:0:0:
382,278,29598,5,0,0:0:0:0:
345,174,29848,1,0,0:0:0:0:
309,214,29973,1,0,0:0:0:0:
272,236,30098,2,0,B|236:256|187:253|176:248,1,70
160,92,30473,2,0,L|216:120,1,35
273,81,30785,1,0,0:0:0:0:
220,168,30910,2,0,B|256:192|289:178|314:157,1,87.5
377,164,31473,6,0,L|377:216,1,35
373,256,31723,2,0,L|333:252,1,35
263,249,31973,2,0,P|239:211|238:209,1,35
211,166,32223,2,0,P|242:140|246:127,1,35
296,107,32473,1,0,0:0:0:0:
321,197,32723,1,0,0:0:0:0:
322,202,32848,1,0,0:0:0:0:
325,208,32973,2,0,L|297:280,1,70
167,49,33598,5,0,0:0:0:0:
194,77,33723,2,0,P|209:88|208:100,1,17.5
262,134,33973,2,0,L|262:158,1,17.5
239,218,34223,2,0,L|258:232,1,17.5
330,272,34535,1,0,0:0:0:0:
371,197,34848,1,0,0:0:0:0:
328,160,34973,1,0,0:0:0:0:
259,120,35223,6,0,L|300:85,2,35
187,193,35598,1,0,0:0:0:0:
109,261,35785,1,0,0:0:0:0:
200,308,36035,1,0,0:0:0:0:
212,256,36285,1,0,0:0:0:0:
242,205,36473,2,0,B|198:180|227:132|283:153|279:215|272:249,1,140
276,149,37535,5,0,0:0:0:0:
216,152,37785,1,0,0:0:0:0:
208,160,37910,1,0,0:0:0:0:
200,168,38035,1,0,0:0:0:0:
129,169,38223,2,0,P|126:119|129:110,2,35
217,240,38785,1,0,0:0:0:0:
154,274,38910,1,0,0:0:0:0:
85,184,39160,1,0,0:0:0:0:
180,92,39348,5,0,0:0:0:0:
204,128,39473,1,0,0:0:0:0:
236,148,39598,1,0,0:0:0:0:
280,160,39723,1,0,0:0:0:0:
314,150,39848,1,0,0:0:0:0:
344,128,39973,1,0,0:0:0:0:
405,168,40223,2,0,B|422:195|416:216|416:216|413:226,1,52.5
341,246,40598,2,0,P|312:259|297:255,1,35
235,203,40973,1,0,0:0:0:0:
169,191,41223,5,0,0:0:0:0:
113,122,41410,1,0,0:0:0:0:
192,84,41660,1,0,0:0:0:0:
220,116,41723,1,0,0:0:0:0:
301,84,41910,2,0,P|324:108|334:115,1,35
365,144,42223,1,0,0:0:0:0:
333,227,42410,1,0,0:0:0:0:
247,255,42660,2,0,P|212:263|193:245,1,52.5
156,68,43160,5,0,0:0:0:0:
172,80,43223,1,0,0:0:0:0:
204,108,43348,1,0,0:0:0:0:
231,127,43473,2,0,P|271:152|290:172,1,70
287,169,43973,2,0,P|274:207|288:233,1,70
381,229,44473,1,0,0:0:0:0:
365,129,44973,2,0,P|345:103|339:113,1,52.5
196,112,45910,5,0,0:0:0:0:
228,156,46035,1,0,0:0:0:0:
264,204,46160,1,0,0:0:0:0:
324,168,46348,2,0,P|360:140|404:176,1,105
392,256,46910,1,0,0:0:0:0:
312,260,47160,1,0,0:0:0:0:
236,224,47348,1,0,0:0:0:0:
208,200,47410,1,0,0:0:0:0:
168,160,47535,1,0,0:0:0:0:
216,96,47910,6,0,P|248:100|260:112,1,35
284,152,48160,2,0,L|272:188,2,35
220,228,48660,1,0,0:0:0:0:
176,116,48910,1,0,0:0:0:0:
260,88,49160,2,0,L|296:60,1,35
324,124,49535,1,0,0:0:0:0:
216,224,49910,2,0,L|256:224,2,35
144,208,50285,2,0,B|120:180|116:140|148:112,1,105
240,88,50910,2,0,B|276:72|312:88|312:88,1,70
352,144,51285,1,0,0:0:0:0:
320,224,51535,1,0,0:0:0:0:
228,216,51660,2,0,B|200:192|148:188|116:244|156:308|197:337|280:272,1,262.5
