osu file format v14

[General]
AudioFilename: audio.mp3
AudioLeadIn: 0
PreviewTime: -1
Countdown: 0
SampleSet: Normal
StackLeniency: 0.7
Mode: 0
LetterboxInBreaks: 0
WidescreenStoryboard: 0

[Editor]
DistanceSpacing: 1.2
BeatDivisor: 4
GridSize: 32
TimelineZoom: 1

[Metadata]
Title:Your mind
TitleUnicode:Your mind
Artist:kennykarter
ArtistUnicode:kennykarter
Creator:Megidoraaa
Version:Normal
Source:idk
Tags:kennykarter your mind
BeatmapID:4507838
BeatmapSetID:2141713

[Difficulty]
HPDrainRate:5
CircleSize:4
OverallDifficulty:4
ApproachRate:9
SliderMultiplier:2.49999990463257
SliderTickRate:1

[Events]
//Background and Video events
0,0,"maxresdefault.jpg",0,0
//Break Periods
//Storyboard Layer 0 (Background)
//Storyboard Layer 1 (Fail)
//Storyboard Layer 2 (Pass)
//Storyboard Layer 3 (Foreground)
//Storyboard Layer 4 (Overlay)
//Storyboard Sound Samples

[TimingPoints]
0,612.244897959184,4,1,0,100,1,0
48979,-153.846153846153,4,1,0,100,0,0
58775,-83.3333333333333,4,1,0,100,0,0
63673,-100,4,1,0,100,0,0

[Colours]
Combo1 : 130,130,130
Combo2 : 39,39,39
Combo3 : 255,255,255
Combo4 : 69,69,69

[HitObjects]
58,49,19591,5,0,0:0:0:0:
119,122,19897,2,0,B|162:175|195:168|237:125,1,124.999995231629
275,57,20510,1,0,0:0:0:0:
398,154,20816,1,0,0:0:0:0:
312,149,21122,2,0,P|238:197|261:222,1,124.999995231629
293,288,21734,1,0,0:0:0:0:
107,182,22040,1,0,0:0:0:0:
221,185,22346,2,0,P|268:114|296:126,1,124.999995231629
406,215,22959,5,0,0:0:0:0:
287,87,23265,1,0,0:0:0:0:
211,210,23571,2,0,P|148:239|124:195,1,124.999995231629
110,146,24183,2,0,P|134:76|199:92,1,124.999995231629
313,85,24795,1,0,0:0:0:0:
406,225,25102,1,0,0:0:0:0:
260,281,25408,1,0,0:0:0:0:
306,198,25714,2,0,P|340:143|281:131,1,124.999995231629
194,113,26326,5,0,0:0:0:0:
163,197,26632,1,0,0:0:0:0:
341,207,26938,1,0,0:0:0:0:
298,129,27244,2,0,P|245:69|214:106,1,124.999995231629
162,218,27857,1,0,0:0:0:0:
268,260,28163,1,0,0:0:0:0:
342,187,28469,2,0,P|352:125|294:123,1,124.999995231629
161,184,29081,5,0,0:0:0:0:
243,257,29387,1,0,0:0:0:0:
326,149,29693,1,0,0:0:0:0:
218,79,30000,1,0,0:0:0:0:
333,226,30306,1,0,0:0:0:0:
176,232,30612,1,0,0:0:0:0:
308,162,30918,1,0,0:0:0:0:
151,114,31224,1,0,0:0:0:0:
260,220,31530,1,0,0:0:0:0:
313,123,31836,6,0,P|266:65|98:151,1,249.999990463257
112,177,32755,2,0,B|184:198|224:175|213:161|212:157|216:173|223:225|221:258|255:234|331:211,1,249.999990463257
382,112,33673,1,0,0:0:0:0:
235,106,33979,1,0,0:0:0:0:
218,271,34285,1,0,0:0:0:0:
361,239,34591,2,0,P|373:177|329:176,1,124.999995231629
190,241,35204,1,0,0:0:0:0:
218,123,35510,1,0,0:0:0:0:
367,171,35816,1,0,0:0:0:0:
297,221,36122,6,0,P|248:272|198:246,1,124.999995231629
284,107,36734,2,0,P|198:67|182:108,1,124.999995231629
117,167,37346,1,0,0:0:0:0:
236,265,37653,1,0,0:0:0:0:
387,126,37959,1,0,0:0:0:0:
316,179,38265,2,0,P|251:163|280:140,1,124.999995231629
268,66,38877,1,0,0:0:0:0:
121,151,39183,5,0,0:0:0:0:
247,205,39489,1,0,0:0:0:0:
133,252,39795,1,0,0:0:0:0:
241,104,40102,1,0,0:0:0:0:
280,234,40408,1,0,0:0:0:0:
331,162,40714,1,0,0:0:0:0:
187,259,41020,1,0,0:0:0:0:
134,152,41326,1,0,0:0:0:0:
221,97,41632,6,0,B|272:60|291:87|292:94|294:105|298:126|300:141|302:147|289:169|307:177|341:168|355:144|355:131|310:233,1,249.999990463257
234,181,42551,2,0,B|171:149|139:178|127:201|129:216|148:240|164:263|194:267|236:273|262:273|290:262,1,249.999990463257
394,212,43469,2,0,B|375:140|361:128|356:131|340:137|286:164|148:95,1,249.999990463257
141,77,44387,1,0,0:0:0:0:
171,226,44693,1,0,0:0:0:0:
328,94,45000,1,0,0:0:0:0:
374,236,45306,1,0,0:0:0:0:
294,168,45612,2,0,P|215:201|207:171,1,124.999995231629
171,85,46224,5,0,0:0:0:0:
79,174,46530,1,0,0:0:0:0:
201,228,46836,2,0,P|280:209|280:167,1,124.999995231629
267,91,47448,1,0,0:0:0:0:
177,86,47755,2,0,B|120:113|120:113|138:156|138:156|119:112|119:112|139:160|139:160|121:117|121:117|149:185|149:185|138:159|138:159|160:210|160:210,1,374.999985694885
394,78,48979,6,0,P|326:70|310:75,1,81.249993181229
93,148,49591,2,0,P|153:153|172:169,1,81.249993181229
363,165,50204,1,0,0:0:0:0:
363,165,50510,2,0,P|298:199|275:209,1,81.249993181229
245,289,51122,1,0,0:0:0:0:
115,197,51428,1,0,0:0:0:0:
207,143,51734,2,0,P|241:84|267:94,1,81.249993181229
350,115,52346,1,0,0:0:0:0:
322,204,52653,2,0,P|308:284|219:279,1,162.499986362458
84,70,53877,5,0,0:0:0:0:
94,152,54183,2,0,P|167:166|180:156,1,81.249993181229
366,132,54795,2,0,P|311:152|286:140,1,81.249993181229
188,109,55408,1,0,0:0:0:0:
274,229,55714,1,0,0:0:0:0:
442,120,56020,1,0,0:0:0:0:
347,68,56326,2,0,P|252:73|231:145,1,162.499986362458
136,229,57244,2,0,B|195:257|226:254|305:225,1,162.499986362458
347,73,58775,6,0,P|239:58|233:84,1,149.999989700318
207,160,59387,1,0,0:0:0:0:
387,308,60000,2,0,P|305:328|275:280,1,149.999989700318
237,194,60612,1,0,0:0:0:0:
87,75,61224,1,0,0:0:0:0:
109,156,61530,1,0,0:0:0:0:
175,82,61836,2,0,P|263:75|275:131,1,149.999989700318
294,223,62448,5,0,0:0:0:0:
391,149,62755,2,0,P|322:114|247:124,1,149.999989700318
62,134,63673,6,0,L|140:184,1,74.9999948501589
261,195,64285,1,0,0:0:0:0:
394,110,64591,2,0,L|375:199,1,62.4999976158143
318,262,65204,1,0,0:0:0:0:
190,210,65510,1,0,0:0:0:0:
323,160,66122,6,0,P|292:96|120:154,1,249.999990463257
124,224,67040,1,0,0:0:0:0:
268,270,67346,1,0,0:0:0:0:
371,142,67653,1,0,0:0:0:0:
238,77,67959,2,0,P|165:88|171:120,1,124.999995231629
74,245,68571,6,0,P|128:294|197:279,1,124.999995231629
410,112,69183,2,0,P|314:138|329:172,1,124.999995231629
139,136,69795,2,0,P|210:200|262:203,1,124.999995231629
335,222,70408,1,0,0:0:0:0:
422,125,70714,1,0,0:0:0:0:
293,73,71020,2,0,P|184:96|183:130,1,124.999995231629
197,216,71632,1,0,0:0:0:0:
307,262,71938,1,0,0:0:0:0:
367,175,72244,6,0,P|361:109|300:120,1,124.999995231629
179,183,72857,1,0,0:0:0:0:
130,102,73163,2,0,P|57:116|71:184,1,124.999995231629
127,269,73775,1,0,0:0:0:0:
285,167,74081,1,0,0:0:0:0:
356,240,74387,1,0,0:0:0:0:
414,150,74693,2,0,P|354:79|317:91,1,124.999995231629
216,199,75306,1,0,0:0:0:0:
335,276,75612,1,0,0:0:0:0:
398,175,75918,6,0,P|374:109|324:120,1,124.999995231629
209,181,76530,2,0,P|204:268|257:273,1,124.999995231629
375,259,77142,1,0,0:0:0:0:
388,121,77448,1,0,0:0:0:0:
247,84,77755,2,0,P|178:103|187:151,1,124.999995231629
72,107,78367,5,0,0:0:0:0:
207,292,78673,1,0,0:0:0:0:
338,117,78979,1,0,0:0:0:0:
160,181,79285,1,0,0:0:0:0:
314,236,79591,1,0,0:0:0:0:
378,84,79897,1,0,0:0:0:0:
180,268,80204,1,0,0:0:0:0:
362,166,80510,1,0,0:0:0:0:
148,139,80816,6,0,P|198:96|260:113,1,124.999995231629
360,155,81428,1,0,0:0:0:0:
195,280,81734,1,0,0:0:0:0:
386,268,82040,1,0,0:0:0:0:
190,177,82346,1,0,0:0:0:0:
345,80,82653,1,0,0:0:0:0:
174,272,82959,1,0,0:0:0:0:
238,117,83265,6,0,B|327:89|329:90|325:153,1,124.999995231629
345,249,83877,1,0,0:0:0:0:
241,324,84183,1,0,0:0:0:0:
88,208,84795,1,0,0:0:0:0:
127,122,85102,1,0,0:0:0:0:
190,177,85408,2,0,P|256:180|265:115,1,124.999995231629
426,142,86326,2,0,P|366:88|337:110,1,124.999995231629
127,216,87244,1,0,0:0:0:0:
125,108,87551,1,0,0:0:0:0:
243,51,87857,1,0,0:0:0:0:
74,245,88163,6,0,P|128:294|197:279,1,124.999995231629
410,112,88775,2,0,P|314:138|329:172,1,124.999995231629
139,136,89387,2,0,P|210:200|262:203,1,124.999995231629
335,222,90000,1,0,0:0:0:0:
422,125,90306,1,0,0:0:0:0:
293,73,90612,2,0,P|184:96|183:130,1,124.999995231629
197,216,91224,1,0,0:0:0:0:
307,262,91530,1,0,0:0:0:0:
367,175,91836,6,0,P|361:109|300:120,1,124.999995231629
179,183,92449,1,0,0:0:0:0:
130,102,92755,2,0,P|57:116|71:184,1,124.999995231629
127,269,93367,1,0,0:0:0:0:
285,167,93673,1,0,0:0:0:0:
356,240,93979,1,0,0:0:0:0:
414,150,94285,2,0,P|354:79|317:91,1,124.999995231629
216,199,94898,1,0,0:0:0:0:
335,276,95204,1,0,0:0:0:0:
390,154,95510,6,0,P|351:91|313:103,1,124.999995231629
159,165,96122,2,0,P|203:262|224:267,1,124.999995231629
314,291,96734,1,0,0:0:0:0:
380,163,97040,1,0,0:0:0:0:
264,53,97346,1,0,0:0:0:0:
257,145,97653,2,0,P|256:212|200:212,1,124.999995231629
89,147,98571,5,0,0:0:0:0:
302,102,99489,1,0,0:0:0:0:
365,217,99795,1,0,0:0:0:0:
200,236,100408,2,0,P|105:183|110:172,1,124.999995231629
100,132,101020,1,0,0:0:0:0:
256,70,101326,1,0,0:0:0:0:
312,190,101632,1,0,0:0:0:0:
358,118,101938,2,0,P|267:109|240:140,1,124.999995231629
89,147,102857,5,0,0:0:0:0:
302,102,103469,1,0,0:0:0:0:
365,217,104387,1,0,0:0:0:0:
389,136,104693,1,0,0:0:0:0:
156,60,105306,1,0,0:0:0:0:
119,248,105612,1,0,0:0:0:0:
289,251,105918,1,0,0:0:0:0:
332,192,106224,1,0,0:0:0:0:
115,159,106836,6,0,P|131:93|175:102,1,124.999995231629
243,257,107755,1,0,0:0:0:0:
326,149,108061,1,0,0:0:0:0:
218,79,108368,1,0,0:0:0:0:
333,226,108674,1,0,0:0:0:0:
176,232,108980,1,0,0:0:0:0:
308,162,109286,1,0,0:0:0:0:
151,114,109592,1,0,0:0:0:0:
260,220,109898,1,0,0:0:0:0:
313,123,110204,6,0,P|266:65|98:151,1,249.999990463257
112,177,111123,2,0,B|184:198|224:175|213:161|212:157|216:173|223:225|221:258|255:234|331:211,1,249.999990463257
382,112,112041,1,0,0:0:0:0:
235,106,112347,1,0,0:0:0:0:
218,271,112653,1,0,0:0:0:0:
361,239,112959,2,0,P|373:177|329:176,1,124.999995231629
190,241,113572,1,0,0:0:0:0:
218,123,113878,1,0,0:0:0:0:
367,171,114184,1,0,0:0:0:0:
297,221,114490,6,0,P|248:272|198:246,1,124.999995231629
284,107,115102,2,0,P|198:67|182:108,1,124.999995231629
117,167,115714,1,0,0:0:0:0:
236,265,116021,1,0,0:0:0:0:
387,126,116327,1,0,0:0:0:0:
316,179,116633,2,0,P|251:163|280:140,1,124.999995231629
268,66,117245,1,0,0:0:0:0:
121,151,117551,5,0,0:0:0:0:
247,205,117857,1,0,0:0:0:0:
133,252,118163,1,0,0:0:0:0:
241,104,118470,1,0,0:0:0:0:
280,234,118776,1,0,0:0:0:0:
331,162,119082,1,0,0:0:0:0:
187,259,119388,1,0,0:0:0:0:
134,152,119694,1,0,0:0:0:0:
221,97,120000,6,0,B|272:60|291:87|292:94|294:105|298:126|300:141|302:147|289:169|307:177|341:168|355:144|355:131|310:233,1,249.999990463257
234,181,120919,2,0,B|171:149|139:178|127:201|129:216|148:240|164:263|194:267|236:273|262:273|290:262,1,249.999990463257
394,212,121837,2,0,B|375:140|361:128|356:131|340:137|286:164|148:95,1,249.999990463257
141,77,122755,1,0,0:0:0:0:
171,226,123061,1,0,0:0:0:0:
328,94,123368,1,0,0:0:0:0:
374,236,123674,1,0,0:0:0:0:
294,168,123980,2,0,P|215:201|207:171,1,124.999995231629
171,85,124592,5,0,0:0:0:0:
79,174,124898,1,0,0:0:0:0:
201,228,125204,2,0,P|280:209|280:167,1,124.999995231629
267,91,125816,1,0,0:0:0:0:
177,86,126123,2,0,B|120:113|120:113|138:156|138:156|119:112|119:112|139:160|139:160|121:117|121:117|149:185|149:185|138:159|138:159|160:210|160:210,1,374.999985694885
