osu file format v14

[General]
AudioFilename: audio.mp3
AudioLeadIn: 0
PreviewTime: 49281
Countdown: 0
SampleSet: None
StackLeniency: 0.7
Mode: 3
LetterboxInBreaks: 0
SpecialStyle: 0
WidescreenStoryboard: 0

[Editor]
Bookmarks: 1281,20481,49281,68481,78081,87681,106881,126081,151581,171381,188181,207381,216981,227781
DistanceSpacing: 1.1
BeatDivisor: 4
GridSize: 4
TimelineZoom: 3.199998

[Metadata]
Title:Life Reset Button
TitleUnicode:人生リセットボタン
Artist:kemu feat.GUMI
ArtistUnicode:kemu feat.GUMI
Creator:Kamikaze
Version:New Game Plus w/ Raveille
Source:
Tags:raveille スズム ハツ子 ke-sanβ PANDORA VOXX complete ln streams
BeatmapID:2734396
BeatmapSetID:1320027

[Difficulty]
HPDrainRate:8
CircleSize:4
OverallDifficulty:7.3
ApproachRate:5
SliderMultiplier:1.4
SliderTickRate:1

[Events]
//Background and Video events
0,0,"LRB.jpg",0,0
//Break Periods
//Storyboard Layer 0 (Background)
//Storyboard Layer 1 (Fail)
//Storyboard Layer 2 (Pass)
//Storyboard Layer 3 (Foreground)
//Storyboard Layer 4 (Overlay)
//Storyboard Sound Samples

[TimingPoints]
1281,300,4,2,0,20,1,0
49281,-100,4,2,0,20,0,1
68481,-100,4,2,0,20,0,0
106881,-100,4,2,0,20,0,1
126081,-100,3,2,0,20,0,0
151581,300,4,2,0,20,1,0
161781,300,4,2,0,20,1,0
171381,-100,4,2,0,20,0,1
187581,-100,4,2,0,20,0,0
188181,-100,4,2,0,20,0,1
207381,-100,4,2,0,20,0,0

[HitObjects]
448,192,1281,5,0,0:0:0:0:
64,192,1281,128,0,1431:0:0:0:0:
192,192,1431,1,0,0:0:0:0:
64,192,1581,1,0,0:0:0:0:
320,192,1581,128,0,1731:0:0:0:0:
192,192,1731,1,0,0:0:0:0:
64,192,1881,1,0,0:0:0:0:
448,192,1881,128,0,2031:0:0:0:0:
320,192,2031,128,0,2106:0:0:0:0:
192,192,2106,128,0,2181:0:0:0:0:
448,192,2181,1,0,0:0:0:0:
64,192,2181,128,0,2331:0:0:0:0:
320,192,2331,1,0,0:0:0:0:
192,192,2481,128,0,2631:0:0:0:0:
448,192,2631,128,0,2781:0:0:0:0:
320,192,2631,1,0,0:0:0:0:
192,192,2781,128,0,2931:0:0:0:0:
64,192,2781,1,0,0:0:0:0:
320,192,2931,128,0,3081:0:0:0:0:
64,192,3081,128,0,3231:0:0:0:0:
192,192,3081,1,0,0:0:0:0:
320,192,3231,128,0,3381:0:0:0:0:
448,192,3231,1,0,0:0:0:0:
64,192,3381,128,0,3531:0:0:0:0:
192,192,3381,1,0,0:0:0:0:
192,192,3531,128,0,3681:0:0:0:0:
448,192,3531,1,0,0:0:0:0:
320,192,3681,1,0,0:0:0:0:
448,192,3831,1,0,0:0:0:0:
64,192,3831,128,0,3981:0:0:0:0:
448,192,3981,1,0,0:0:0:0:
192,192,3981,128,0,4131:0:0:0:0:
320,192,4131,128,0,4281:0:0:0:0:
448,192,4281,1,0,0:0:0:0:
192,192,4281,128,0,4431:0:0:0:0:
320,192,4431,128,0,4581:0:0:0:0:
64,192,4581,1,0,0:0:0:0:
448,192,4581,128,0,4731:0:0:0:0:
64,192,4731,1,0,0:0:0:0:
320,192,4731,128,0,4881:0:0:0:0:
448,192,4881,128,0,5031:0:0:0:0:
320,192,5031,1,0,0:0:0:0:
64,192,5031,128,0,5181:0:0:0:0:
320,192,5181,1,0,0:0:0:0:
448,192,5181,128,0,5331:0:0:0:0:
64,192,5331,128,0,5481:0:0:0:0:
320,192,5481,1,0,0:0:0:0:
192,192,5481,128,0,5631:0:0:0:0:
448,192,5631,128,0,5781:0:0:0:0:
320,192,5781,128,0,6081:0:0:0:0:
192,192,5781,128,0,6081:0:0:0:0:
64,192,5931,1,0,0:0:0:0:
448,192,6081,1,0,0:0:0:0:
64,192,6081,128,0,6231:0:0:0:0:
192,192,6231,1,0,0:0:0:0:
64,192,6381,1,0,0:0:0:0:
320,192,6381,128,0,6531:0:0:0:0:
192,192,6531,1,0,0:0:0:0:
64,192,6681,1,0,0:0:0:0:
448,192,6681,128,0,6831:0:0:0:0:
320,192,6831,128,0,6906:0:0:0:0:
192,192,6906,128,0,6981:0:0:0:0:
448,192,6981,1,0,0:0:0:0:
64,192,6981,128,0,7131:0:0:0:0:
320,192,7131,1,0,0:0:0:0:
192,192,7281,128,0,7431:0:0:0:0:
448,192,7431,128,0,7581:0:0:0:0:
320,192,7431,1,0,0:0:0:0:
192,192,7581,128,0,7731:0:0:0:0:
64,192,7581,1,0,0:0:0:0:
320,192,7731,128,0,7881:0:0:0:0:
64,192,7881,128,0,8031:0:0:0:0:
192,192,7881,1,0,0:0:0:0:
320,192,8031,128,0,8181:0:0:0:0:
448,192,8031,1,0,0:0:0:0:
64,192,8181,128,0,8331:0:0:0:0:
192,192,8181,1,0,0:0:0:0:
192,192,8331,128,0,8481:0:0:0:0:
448,192,8331,1,0,0:0:0:0:
320,192,8481,1,0,0:0:0:0:
448,192,8631,1,0,0:0:0:0:
64,192,8631,128,0,8781:0:0:0:0:
448,192,8781,1,0,0:0:0:0:
192,192,8781,128,0,8931:0:0:0:0:
320,192,8931,128,0,9081:0:0:0:0:
448,192,9081,1,0,0:0:0:0:
192,192,9081,128,0,9231:0:0:0:0:
320,192,9231,128,0,9381:0:0:0:0:
64,192,9381,1,0,0:0:0:0:
448,192,9381,128,0,9531:0:0:0:0:
64,192,9531,1,0,0:0:0:0:
320,192,9531,128,0,9681:0:0:0:0:
448,192,9681,128,0,9831:0:0:0:0:
320,192,9831,1,0,0:0:0:0:
64,192,9831,128,0,9981:0:0:0:0:
320,192,9981,1,0,0:0:0:0:
448,192,9981,128,0,10131:0:0:0:0:
64,192,10131,128,0,10281:0:0:0:0:
192,192,10131,1,0,0:0:0:0:
320,192,10281,1,0,0:0:0:0:
192,192,10281,128,0,10431:0:0:0:0:
448,192,10431,128,0,10581:0:0:0:0:
64,192,10581,128,0,10656:0:0:0:0:
320,192,10581,128,0,10656:0:0:0:0:
192,192,10656,128,0,10731:0:0:0:0:
448,192,10731,128,0,10806:0:0:0:0:
320,192,10731,128,0,10806:0:0:0:0:
64,192,10806,128,0,10881:0:0:0:0:
448,192,10881,1,0,0:0:0:0:
320,192,10881,1,0,0:0:0:0:
192,192,10881,128,0,11181:0:0:0:0:
320,192,11031,128,0,11181:0:0:0:0:
448,192,11181,128,0,11481:0:0:0:0:
64,192,11181,1,0,0:0:0:0:
320,192,11331,128,0,11481:0:0:0:0:
64,192,11481,128,0,11781:0:0:0:0:
192,192,11481,128,0,11631:0:0:0:0:
448,192,11631,128,0,11706:0:0:0:0:
320,192,11706,128,0,11781:0:0:0:0:
192,192,11781,128,0,11931:0:0:0:0:
448,192,11781,1,0,0:0:0:0:
64,192,11931,128,0,12081:0:0:0:0:
192,192,12081,128,0,12231:0:0:0:0:
320,192,12081,128,0,12231:0:0:0:0:
448,192,12231,128,0,12381:0:0:0:0:
192,192,12381,128,0,12531:0:0:0:0:
64,192,12381,128,0,12531:0:0:0:0:
320,192,12381,1,0,0:0:0:0:
320,192,12531,128,0,12681:0:0:0:0:
64,192,12681,128,0,12831:0:0:0:0:
448,192,12681,128,0,12831:0:0:0:0:
320,192,12831,128,0,12981:0:0:0:0:
64,192,12981,128,0,13131:0:0:0:0:
192,192,12981,1,0,0:0:0:0:
448,192,12981,1,0,0:0:0:0:
192,192,13131,128,0,13281:0:0:0:0:
320,192,13131,128,0,13281:0:0:0:0:
64,192,13431,128,0,13581:0:0:0:0:
192,192,13431,1,0,0:0:0:0:
320,192,13506,1,0,0:0:0:0:
192,192,13581,128,0,13731:0:0:0:0:
448,192,13581,1,0,0:0:0:0:
320,192,13731,128,0,13881:0:0:0:0:
192,192,13881,128,0,14031:0:0:0:0:
64,192,13881,1,0,0:0:0:0:
320,192,14031,128,0,14181:0:0:0:0:
448,192,14031,1,0,0:0:0:0:
192,192,14106,1,0,0:0:0:0:
448,192,14181,128,0,14331:0:0:0:0:
64,192,14181,1,0,0:0:0:0:
320,192,14331,128,0,14481:0:0:0:0:
448,192,14481,128,0,14631:0:0:0:0:
64,192,14481,1,0,0:0:0:0:
64,192,14631,128,0,14781:0:0:0:0:
320,192,14631,1,0,0:0:0:0:
192,192,14706,1,0,0:0:0:0:
448,192,14781,128,0,14931:0:0:0:0:
320,192,14781,1,0,0:0:0:0:
64,192,14931,128,0,15081:0:0:0:0:
320,192,15081,128,0,15231:0:0:0:0:
192,192,15081,1,0,0:0:0:0:
192,192,15231,128,0,15381:0:0:0:0:
448,192,15231,1,0,0:0:0:0:
64,192,15306,1,0,0:0:0:0:
320,192,15381,128,0,15531:0:0:0:0:
448,192,15381,1,0,0:0:0:0:
64,192,15531,128,0,15606:0:0:0:0:
320,192,15606,1,0,0:0:0:0:
448,192,15606,1,0,0:0:0:0:
64,192,15681,1,0,0:0:0:0:
448,192,15681,1,0,0:0:0:0:
192,192,15681,128,0,15981:0:0:0:0:
320,192,15831,128,0,15981:0:0:0:0:
448,192,15981,128,0,16281:0:0:0:0:
64,192,15981,1,0,0:0:0:0:
320,192,16131,128,0,16281:0:0:0:0:
64,192,16281,128,0,16581:0:0:0:0:
192,192,16281,128,0,16431:0:0:0:0:
448,192,16431,128,0,16506:0:0:0:0:
320,192,16506,128,0,16581:0:0:0:0:
192,192,16581,128,0,16731:0:0:0:0:
448,192,16581,1,0,0:0:0:0:
64,192,16731,128,0,16881:0:0:0:0:
192,192,16881,128,0,17031:0:0:0:0:
320,192,16881,128,0,17031:0:0:0:0:
448,192,17031,128,0,17181:0:0:0:0:
192,192,17181,128,0,17331:0:0:0:0:
64,192,17181,128,0,17331:0:0:0:0:
320,192,17181,1,0,0:0:0:0:
320,192,17331,128,0,17481:0:0:0:0:
64,192,17481,128,0,17631:0:0:0:0:
448,192,17481,128,0,17631:0:0:0:0:
320,192,17631,128,0,17781:0:0:0:0:
64,192,17781,128,0,17931:0:0:0:0:
192,192,17781,1,0,0:0:0:0:
448,192,17781,1,0,0:0:0:0:
192,192,17931,128,0,18081:0:0:0:0:
320,192,17931,128,0,18081:0:0:0:0:
64,192,18231,128,0,18381:0:0:0:0:
192,192,18231,1,0,0:0:0:0:
320,192,18306,1,0,0:0:0:0:
192,192,18381,128,0,18531:0:0:0:0:
448,192,18381,1,0,0:0:0:0:
320,192,18531,128,0,18681:0:0:0:0:
192,192,18681,128,0,18831:0:0:0:0:
64,192,18681,1,0,0:0:0:0:
320,192,18831,128,0,18981:0:0:0:0:
448,192,18831,1,0,0:0:0:0:
192,192,18906,1,0,0:0:0:0:
448,192,18981,128,0,19131:0:0:0:0:
64,192,18981,1,0,0:0:0:0:
320,192,19131,128,0,19281:0:0:0:0:
448,192,19281,128,0,19431:0:0:0:0:
64,192,19281,1,0,0:0:0:0:
64,192,19431,128,0,19581:0:0:0:0:
320,192,19431,1,0,0:0:0:0:
192,192,19506,1,0,0:0:0:0:
448,192,19581,128,0,19731:0:0:0:0:
320,192,19581,1,0,0:0:0:0:
64,192,19731,128,0,19881:0:0:0:0:
320,192,19881,128,0,20031:0:0:0:0:
192,192,19881,1,0,0:0:0:0:
448,192,19881,1,0,0:0:0:0:
192,192,20031,128,0,20181:0:0:0:0:
64,192,20031,1,0,0:0:0:0:
448,192,20031,1,0,0:0:0:0:
320,192,20181,128,0,20331:0:0:0:0:
64,192,20181,1,0,0:0:0:0:
448,192,20181,1,0,0:0:0:0:
64,192,20331,1,0,0:0:0:0:
192,192,20331,1,0,0:0:0:0:
448,192,20331,1,0,0:0:0:0:
64,192,20481,128,0,20631:0:0:0:0:
192,192,20481,128,0,20781:0:0:0:0:
320,192,20481,1,0,0:0:0:0:
448,192,20481,1,0,0:0:0:0:
320,192,20631,128,0,20781:0:0:0:0:
64,192,20781,128,0,20931:0:0:0:0:
448,192,20781,128,0,20931:0:0:0:0:
192,192,20931,128,0,21081:0:0:0:0:
64,192,21081,128,0,21231:0:0:0:0:
320,192,21081,128,0,21381:0:0:0:0:
192,192,21231,128,0,21381:0:0:0:0:
64,192,21381,128,0,21531:0:0:0:0:
448,192,21381,128,0,21531:0:0:0:0:
192,192,21531,128,0,21681:0:0:0:0:
320,192,21681,128,0,21981:0:0:0:0:
448,192,21681,128,0,21831:0:0:0:0:
192,192,21831,128,0,21981:0:0:0:0:
64,192,21981,128,0,22131:0:0:0:0:
448,192,21981,128,0,22131:0:0:0:0:
320,192,22131,128,0,22281:0:0:0:0:
192,192,22281,128,0,22581:0:0:0:0:
448,192,22281,128,0,22431:0:0:0:0:
320,192,22431,128,0,22581:0:0:0:0:
64,192,22581,128,0,22731:0:0:0:0:
448,192,22581,128,0,22731:0:0:0:0:
320,192,22731,128,0,22881:0:0:0:0:
64,192,22881,128,0,23181:0:0:0:0:
192,192,22881,128,0,23031:0:0:0:0:
448,192,23031,128,0,23181:0:0:0:0:
192,192,23181,128,0,23331:0:0:0:0:
320,192,23181,128,0,23331:0:0:0:0:
448,192,23331,128,0,23481:0:0:0:0:
64,192,23481,128,0,23781:0:0:0:0:
192,192,23481,128,0,23631:0:0:0:0:
448,192,23631,128,0,23781:0:0:0:0:
192,192,23781,128,0,23931:0:0:0:0:
320,192,23781,128,0,23931:0:0:0:0:
64,192,23931,128,0,24081:0:0:0:0:
320,192,24081,128,0,24231:0:0:0:0:
448,192,24081,128,0,24231:0:0:0:0:
64,192,24231,128,0,24381:0:0:0:0:
192,192,24381,128,0,24531:0:0:0:0:
320,192,24381,128,0,24531:0:0:0:0:
64,192,24531,128,0,24831:0:0:0:0:
320,192,24681,128,0,24831:0:0:0:0:
448,192,24681,128,0,24831:0:0:0:0:
192,192,24831,128,0,24981:0:0:0:0:
320,192,24981,128,0,25131:0:0:0:0:
448,192,24981,128,0,25131:0:0:0:0:
64,192,25131,128,0,25206:0:0:0:0:
192,192,25131,128,0,25206:0:0:0:0:
320,192,25206,128,0,25281:0:0:0:0:
448,192,25206,128,0,25281:0:0:0:0:
64,192,25281,128,0,25581:0:0:0:0:
192,192,25281,128,0,25431:0:0:0:0:
320,192,25431,128,0,25581:0:0:0:0:
192,192,25581,128,0,25731:0:0:0:0:
448,192,25581,128,0,25881:0:0:0:0:
320,192,25731,128,0,25881:0:0:0:0:
64,192,25881,128,0,26181:0:0:0:0:
192,192,25881,128,0,26031:0:0:0:0:
320,192,26031,128,0,26181:0:0:0:0:
192,192,26181,128,0,26331:0:0:0:0:
448,192,26181,128,0,26481:0:0:0:0:
320,192,26331,128,0,26481:0:0:0:0:
64,192,26481,128,0,26631:0:0:0:0:
192,192,26481,128,0,26631:0:0:0:0:
320,192,26631,128,0,26781:0:0:0:0:
192,192,26781,128,0,26931:0:0:0:0:
448,192,26781,128,0,26931:0:0:0:0:
320,192,26931,128,0,27231:0:0:0:0:
64,192,27081,128,0,27231:0:0:0:0:
192,192,27081,128,0,27231:0:0:0:0:
448,192,27231,128,0,27381:0:0:0:0:
64,192,27381,128,0,27531:0:0:0:0:
192,192,27381,128,0,27531:0:0:0:0:
448,192,27531,128,0,27681:0:0:0:0:
192,192,27681,128,0,27831:0:0:0:0:
320,192,27681,128,0,27831:0:0:0:0:
64,192,27831,128,0,27981:0:0:0:0:
320,192,27981,128,0,28131:0:0:0:0:
448,192,27981,128,0,28131:0:0:0:0:
64,192,28131,128,0,28281:0:0:0:0:
192,192,28281,128,0,28431:0:0:0:0:
320,192,28281,128,0,28431:0:0:0:0:
64,192,28431,128,0,28581:0:0:0:0:
320,192,28581,128,0,28731:0:0:0:0:
448,192,28581,128,0,28731:0:0:0:0:
64,192,28731,128,0,28881:0:0:0:0:
192,192,28881,128,0,28956:0:0:0:0:
320,192,28881,128,0,28956:0:0:0:0:
64,192,29031,128,0,29106:0:0:0:0:
320,192,29031,128,0,29106:0:0:0:0:
448,192,29031,1,0,0:0:0:0:
64,192,29181,128,0,29256:0:0:0:0:
448,192,29181,128,0,29256:0:0:0:0:
192,192,29181,1,0,0:0:0:0:
192,192,29331,128,0,29406:0:0:0:0:
448,192,29331,128,0,29406:0:0:0:0:
320,192,29331,1,0,0:0:0:0:
64,192,29481,128,0,29631:0:0:0:0:
320,192,29481,128,0,29631:0:0:0:0:
448,192,29481,1,0,0:0:0:0:
192,192,29481,1,0,0:0:0:0:
192,192,29631,128,0,29781:0:0:0:0:
448,192,29631,128,0,29706:0:0:0:0:
320,192,29706,128,0,29781:0:0:0:0:
64,192,29781,128,0,29856:0:0:0:0:
448,192,29781,128,0,29856:0:0:0:0:
192,192,29856,128,0,29931:0:0:0:0:
64,192,29931,128,0,30006:0:0:0:0:
448,192,29931,128,0,30006:0:0:0:0:
320,192,30006,128,0,30081:0:0:0:0:
64,192,30081,128,0,30381:0:0:0:0:
192,192,30081,128,0,30231:0:0:0:0:
448,192,30081,128,0,30231:0:0:0:0:
320,192,30231,128,0,30381:0:0:0:0:
448,192,30381,128,0,30531:0:0:0:0:
192,192,30381,128,0,30531:0:0:0:0:
64,192,30531,128,0,30681:0:0:0:0:
320,192,30681,128,0,30831:0:0:0:0:
448,192,30681,128,0,30981:0:0:0:0:
192,192,30831,128,0,30906:0:0:0:0:
64,192,30906,128,0,30981:0:0:0:0:
192,192,30981,128,0,31131:0:0:0:0:
320,192,30981,128,0,31131:0:0:0:0:
448,192,31131,128,0,31281:0:0:0:0:
64,192,31281,128,0,31581:0:0:0:0:
192,192,31281,128,0,31431:0:0:0:0:
320,192,31431,128,0,31581:0:0:0:0:
192,192,31581,128,0,31731:0:0:0:0:
448,192,31581,128,0,31731:0:0:0:0:
64,192,31731,128,0,31881:0:0:0:0:
448,192,31881,128,0,32181:0:0:0:0:
320,192,31881,128,0,32031:0:0:0:0:
192,192,32031,128,0,32181:0:0:0:0:
64,192,32181,128,0,32331:0:0:0:0:
320,192,32181,128,0,32331:0:0:0:0:
448,192,32331,128,0,32481:0:0:0:0:
64,192,32481,128,0,32781:0:0:0:0:
192,192,32481,128,0,32631:0:0:0:0:
320,192,32631,128,0,32781:0:0:0:0:
192,192,32781,128,0,32931:0:0:0:0:
448,192,32781,128,0,32931:0:0:0:0:
64,192,32931,128,0,33081:0:0:0:0:
320,192,33081,128,0,33231:0:0:0:0:
448,192,33081,128,0,33381:0:0:0:0:
192,192,33231,128,0,33381:0:0:0:0:
64,192,33381,128,0,33531:0:0:0:0:
320,192,33381,128,0,33531:0:0:0:0:
448,192,33531,128,0,33681:0:0:0:0:
64,192,33681,128,0,33981:0:0:0:0:
320,192,33681,128,0,33831:0:0:0:0:
192,192,33831,128,0,33981:0:0:0:0:
320,192,33981,128,0,34131:0:0:0:0:
448,192,33981,128,0,34131:0:0:0:0:
192,192,34131,128,0,34281:0:0:0:0:
64,192,34281,128,0,34356:0:0:0:0:
448,192,34281,128,0,34356:0:0:0:0:
192,192,34356,128,0,34431:0:0:0:0:
320,192,34356,128,0,34431:0:0:0:0:
64,192,34431,128,0,34506:0:0:0:0:
448,192,34431,128,0,34506:0:0:0:0:
64,192,34581,128,0,34731:0:0:0:0:
192,192,34581,128,0,34656:0:0:0:0:
192,192,34731,128,0,34881:0:0:0:0:
320,192,34731,128,0,34806:0:0:0:0:
64,192,34881,128,0,35031:0:0:0:0:
320,192,34881,128,0,35181:0:0:0:0:
448,192,34881,128,0,35031:0:0:0:0:
192,192,35031,128,0,35181:0:0:0:0:
64,192,35181,128,0,35331:0:0:0:0:
448,192,35181,128,0,35331:0:0:0:0:
320,192,35331,128,0,35481:0:0:0:0:
192,192,35481,128,0,35631:0:0:0:0:
448,192,35481,128,0,35781:0:0:0:0:
320,192,35631,128,0,35706:0:0:0:0:
192,192,35706,128,0,35781:0:0:0:0:
64,192,35781,128,0,35931:0:0:0:0:
320,192,35781,128,0,35931:0:0:0:0:
192,192,35931,128,0,36081:0:0:0:0:
320,192,36081,128,0,36156:0:0:0:0:
64,192,36081,128,0,36231:0:0:0:0:
448,192,36231,128,0,36306:0:0:0:0:
320,192,36231,128,0,36306:0:0:0:0:
192,192,36306,128,0,36381:0:0:0:0:
64,192,36381,128,0,36456:0:0:0:0:
448,192,36381,128,0,36456:0:0:0:0:
192,192,36531,128,0,36606:0:0:0:0:
64,192,36531,128,0,36606:0:0:0:0:
320,192,36606,128,0,36681:0:0:0:0:
192,192,36681,128,0,36756:0:0:0:0:
448,192,36681,128,0,36756:0:0:0:0:
64,192,36831,128,0,36906:0:0:0:0:
320,192,36831,128,0,36981:0:0:0:0:
64,192,36981,128,0,37131:0:0:0:0:
192,192,36981,128,0,37056:0:0:0:0:
320,192,37131,128,0,37206:0:0:0:0:
448,192,37131,128,0,37281:0:0:0:0:
64,192,37281,128,0,37431:0:0:0:0:
192,192,37281,128,0,37581:0:0:0:0:
320,192,37431,128,0,37581:0:0:0:0:
64,192,37581,128,0,37731:0:0:0:0:
448,192,37581,128,0,37881:0:0:0:0:
192,192,37731,128,0,37881:0:0:0:0:
64,192,37881,128,0,38181:0:0:0:0:
320,192,37881,128,0,38031:0:0:0:0:
448,192,38031,128,0,38181:0:0:0:0:
192,192,38181,128,0,38481:0:0:0:0:
320,192,38181,128,0,38331:0:0:0:0:
64,192,38331,128,0,38481:0:0:0:0:
320,192,38481,128,0,38781:0:0:0:0:
448,192,38481,128,0,38631:0:0:0:0:
64,192,38631,128,0,38781:0:0:0:0:
192,192,38781,128,0,38856:0:0:0:0:
448,192,38781,128,0,38931:0:0:0:0:
64,192,38931,128,0,39006:0:0:0:0:
192,192,38931,128,0,39006:0:0:0:0:
320,192,39006,128,0,39081:0:0:0:0:
64,192,39081,128,0,39156:0:0:0:0:
448,192,39081,128,0,39156:0:0:0:0:
192,192,39081,1,0,0:0:0:0:
64,192,39231,128,0,39306:0:0:0:0:
448,192,39231,128,0,39306:0:0:0:0:
192,192,39231,1,0,0:0:0:0:
64,192,39381,128,0,39456:0:0:0:0:
448,192,39381,128,0,39456:0:0:0:0:
192,192,39381,1,0,0:0:0:0:
64,192,39531,128,0,39681:0:0:0:0:
192,192,39531,128,0,39831:0:0:0:0:
320,192,39531,128,0,39981:0:0:0:0:
64,192,39831,128,0,40131:0:0:0:0:
192,192,39981,128,0,40131:0:0:0:0:
320,192,40131,1,0,0:0:0:0:
64,192,40281,128,0,40431:0:0:0:0:
192,192,40281,128,0,40431:0:0:0:0:
320,192,40281,128,0,40431:0:0:0:0:
448,192,40431,128,0,40581:0:0:0:0:
320,192,40506,128,0,40581:0:0:0:0:
64,192,40581,128,0,40656:0:0:0:0:
192,192,40581,128,0,40656:0:0:0:0:
64,192,40731,128,0,40881:0:0:0:0:
320,192,40881,128,0,41106:0:0:0:0:
448,192,40881,128,0,41106:0:0:0:0:
192,192,41031,128,0,41106:0:0:0:0:
320,192,41181,128,0,41331:0:0:0:0:
448,192,41181,128,0,41406:0:0:0:0:
192,192,41331,128,0,41406:0:0:0:0:
320,192,41406,128,0,41481:0:0:0:0:
64,192,41481,128,0,41556:0:0:0:0:
192,192,41481,128,0,41556:0:0:0:0:
448,192,41481,128,0,41556:0:0:0:0:
64,192,41631,128,0,41706:0:0:0:0:
320,192,41631,128,0,41706:0:0:0:0:
448,192,41631,128,0,41706:0:0:0:0:
192,192,41781,128,0,41856:0:0:0:0:
320,192,41781,128,0,41856:0:0:0:0:
64,192,41931,128,0,42081:0:0:0:0:
320,192,41931,128,0,42231:0:0:0:0:
448,192,41931,128,0,42381:0:0:0:0:
64,192,42231,128,0,42531:0:0:0:0:
320,192,42381,128,0,42531:0:0:0:0:
448,192,42531,1,0,0:0:0:0:
64,192,42681,128,0,42906:0:0:0:0:
320,192,42681,128,0,42756:0:0:0:0:
448,192,42681,128,0,42906:0:0:0:0:
320,192,42831,128,0,42981:0:0:0:0:
192,192,42906,128,0,42981:0:0:0:0:
64,192,42981,128,0,43131:0:0:0:0:
448,192,42981,128,0,43131:0:0:0:0:
320,192,43131,128,0,43281:0:0:0:0:
64,192,43281,128,0,43431:0:0:0:0:
192,192,43281,128,0,43431:0:0:0:0:
192,192,43506,128,0,43581:0:0:0:0:
320,192,43506,128,0,43581:0:0:0:0:
64,192,43581,128,0,43731:0:0:0:0:
448,192,43581,128,0,43731:0:0:0:0:
192,192,43731,128,0,43881:0:0:0:0:
64,192,43806,128,0,43881:0:0:0:0:
320,192,43881,128,0,43956:0:0:0:0:
448,192,43881,128,0,43956:0:0:0:0:
320,192,44031,128,0,44106:0:0:0:0:
448,192,44031,128,0,44106:0:0:0:0:
320,192,44181,128,0,44256:0:0:0:0:
192,192,44181,128,0,44256:0:0:0:0:
192,192,44331,128,0,44631:0:0:0:0:
64,192,44331,128,0,44481:0:0:0:0:
448,192,44331,128,0,44781:0:0:0:0:
64,192,44631,128,0,44706:0:0:0:0:
64,192,44781,128,0,44931:0:0:0:0:
192,192,44781,128,0,44931:0:0:0:0:
448,192,44931,128,0,45006:0:0:0:0:
64,192,45081,128,0,45306:0:0:0:0:
192,192,45081,128,0,45231:0:0:0:0:
448,192,45081,128,0,45306:0:0:0:0:
320,192,45231,128,0,45306:0:0:0:0:
192,192,45306,128,0,45381:0:0:0:0:
64,192,45381,128,0,45456:0:0:0:0:
320,192,45381,128,0,45456:0:0:0:0:
448,192,45381,128,0,45456:0:0:0:0:
64,192,45531,128,0,45681:0:0:0:0:
448,192,45531,128,0,45681:0:0:0:0:
192,192,45681,128,0,45906:0:0:0:0:
320,192,45681,128,0,45906:0:0:0:0:
64,192,45831,128,0,45906:0:0:0:0:
192,192,45981,128,0,46131:0:0:0:0:
320,192,45981,128,0,46131:0:0:0:0:
448,192,46131,128,0,46206:0:0:0:0:
320,192,46206,128,0,46281:0:0:0:0:
192,192,46206,128,0,46281:0:0:0:0:
448,192,46281,128,0,46431:0:0:0:0:
64,192,46281,128,0,46581:0:0:0:0:
192,192,46431,128,0,46581:0:0:0:0:
320,192,46581,1,0,0:0:0:0:
448,192,46581,128,0,46881:0:0:0:0:
320,192,46731,128,0,46881:0:0:0:0:
192,192,46731,128,0,46881:0:0:0:0:
64,192,46731,128,0,46881:0:0:0:0:
192,192,47031,128,0,47106:0:0:0:0:
320,192,47106,128,0,47181:0:0:0:0:
64,192,47181,128,0,47256:0:0:0:0:
192,192,47181,128,0,47256:0:0:0:0:
320,192,47256,128,0,47331:0:0:0:0:
192,192,47331,128,0,47406:0:0:0:0:
320,192,47406,128,0,47481:0:0:0:0:
448,192,47481,128,0,47556:0:0:0:0:
64,192,47481,128,0,47556:0:0:0:0:
192,192,47556,128,0,47631:0:0:0:0:
448,192,47631,128,0,47706:0:0:0:0:
320,192,47706,128,0,47781:0:0:0:0:
448,192,47781,128,0,47856:0:0:0:0:
64,192,47781,128,0,47856:0:0:0:0:
192,192,47856,128,0,47931:0:0:0:0:
64,192,47931,128,0,48006:0:0:0:0:
448,192,47931,128,0,48006:0:0:0:0:
320,192,48006,128,0,48081:0:0:0:0:
64,192,48081,128,0,48381:0:0:0:0:
448,192,48081,128,0,48381:0:0:0:0:
192,192,48231,128,0,48381:0:0:0:0:
64,192,48681,128,0,48756:0:0:0:0:
192,192,48681,1,0,0:0:0:0:
192,192,48831,1,0,0:0:0:0:
64,192,48831,128,0,48906:0:0:0:0:
192,192,48981,1,0,0:0:0:0:
64,192,48981,128,0,49056:0:0:0:0:
192,192,49131,1,0,0:0:0:0:
64,192,49131,128,0,49206:0:0:0:0:
64,192,49281,1,0,0:0:0:0:
320,192,49281,128,0,49581:0:0:0:0:
448,192,49281,128,0,49356:0:0:0:0:
192,192,49356,128,0,49431:0:0:0:0:
64,192,49431,128,0,49506:0:0:0:0:
448,192,49506,128,0,49581:0:0:0:0:
64,192,49581,128,0,49881:0:0:0:0:
192,192,49581,128,0,49656:0:0:0:0:
448,192,49656,128,0,49731:0:0:0:0:
320,192,49731,128,0,49806:0:0:0:0:
448,192,49806,128,0,49881:0:0:0:0:
192,192,49881,128,0,50181:0:0:0:0:
320,192,49881,128,0,49956:0:0:0:0:
64,192,49956,128,0,50031:0:0:0:0:
448,192,50031,128,0,50106:0:0:0:0:
320,192,50106,128,0,50181:0:0:0:0:
448,192,50181,128,0,50481:0:0:0:0:
64,192,50181,128,0,50256:0:0:0:0:
320,192,50256,128,0,50331:0:0:0:0:
192,192,50331,128,0,50406:0:0:0:0:
64,192,50406,128,0,50481:0:0:0:0:
192,192,50481,128,0,50781:0:0:0:0:
320,192,50481,128,0,50556:0:0:0:0:
448,192,50556,128,0,50631:0:0:0:0:
64,192,50631,128,0,50706:0:0:0:0:
320,192,50781,128,0,51081:0:0:0:0:
448,192,50781,128,0,50856:0:0:0:0:
64,192,50856,128,0,50931:0:0:0:0:
192,192,50931,128,0,51006:0:0:0:0:
448,192,51006,128,0,51081:0:0:0:0:
64,192,51081,128,0,51381:0:0:0:0:
192,192,51081,128,0,51156:0:0:0:0:
320,192,51156,128,0,51231:0:0:0:0:
192,192,51231,128,0,51306:0:0:0:0:
448,192,51306,128,0,51381:0:0:0:0:
192,192,51381,128,0,51681:0:0:0:0:
320,192,51381,128,0,51456:0:0:0:0:
64,192,51456,128,0,51531:0:0:0:0:
448,192,51531,128,0,51606:0:0:0:0:
64,192,51606,128,0,51681:0:0:0:0:
320,192,51681,128,0,51981:0:0:0:0:
448,192,51681,128,0,51756:0:0:0:0:
192,192,51756,128,0,51831:0:0:0:0:
64,192,51831,128,0,51906:0:0:0:0:
192,192,51906,128,0,51981:0:0:0:0:
448,192,51981,128,0,52281:0:0:0:0:
64,192,51981,128,0,52056:0:0:0:0:
320,192,52056,128,0,52131:0:0:0:0:
192,192,52131,128,0,52206:0:0:0:0:
320,192,52206,128,0,52281:0:0:0:0:
64,192,52281,128,0,52581:0:0:0:0:
192,192,52281,128,0,52356:0:0:0:0:
448,192,52356,128,0,52431:0:0:0:0:
320,192,52431,128,0,52506:0:0:0:0:
192,192,52506,128,0,52581:0:0:0:0:
448,192,52581,128,0,52881:0:0:0:0:
320,192,52581,128,0,52656:0:0:0:0:
64,192,52656,128,0,52731:0:0:0:0:
192,192,52731,128,0,52806:0:0:0:0:
320,192,52806,128,0,52881:0:0:0:0:
192,192,52881,128,0,52956:0:0:0:0:
64,192,52881,128,0,52956:0:0:0:0:
320,192,53031,128,0,53106:0:0:0:0:
64,192,53031,128,0,53106:0:0:0:0:
192,192,53106,128,0,53181:0:0:0:0:
320,192,53181,128,0,53256:0:0:0:0:
448,192,53181,128,0,53256:0:0:0:0:
64,192,53331,128,0,53406:0:0:0:0:
192,192,53331,128,0,53406:0:0:0:0:
320,192,53406,128,0,53481:0:0:0:0:
448,192,53481,128,0,53556:0:0:0:0:
64,192,53481,128,0,53556:0:0:0:0:
320,192,53631,128,0,53706:0:0:0:0:
64,192,53631,128,0,53706:0:0:0:0:
192,192,53706,128,0,53781:0:0:0:0:
64,192,53781,128,0,53856:0:0:0:0:
448,192,53781,128,0,53856:0:0:0:0:
192,192,53931,128,0,54006:0:0:0:0:
448,192,53931,128,0,54006:0:0:0:0:
320,192,54006,128,0,54081:0:0:0:0:
448,192,54081,1,0,0:0:0:0:
64,192,54081,128,0,54381:0:0:0:0:
192,192,54081,128,0,54156:0:0:0:0:
320,192,54156,128,0,54231:0:0:0:0:
448,192,54231,128,0,54306:0:0:0:0:
192,192,54306,128,0,54381:0:0:0:0:
448,192,54381,128,0,54681:0:0:0:0:
320,192,54381,128,0,54456:0:0:0:0:
64,192,54456,128,0,54531:0:0:0:0:
192,192,54531,128,0,54606:0:0:0:0:
320,192,54606,128,0,54681:0:0:0:0:
192,192,54681,128,0,54981:0:0:0:0:
64,192,54681,128,0,54756:0:0:0:0:
448,192,54756,128,0,54831:0:0:0:0:
320,192,54831,128,0,54906:0:0:0:0:
448,192,54906,128,0,54981:0:0:0:0:
64,192,54981,128,0,55281:0:0:0:0:
320,192,54981,128,0,55056:0:0:0:0:
192,192,55056,128,0,55131:0:0:0:0:
448,192,55131,128,0,55206:0:0:0:0:
192,192,55206,128,0,55281:0:0:0:0:
320,192,55281,128,0,55581:0:0:0:0:
448,192,55281,128,0,55356:0:0:0:0:
64,192,55356,128,0,55431:0:0:0:0:
192,192,55431,128,0,55506:0:0:0:0:
448,192,55506,128,0,55581:0:0:0:0:
64,192,55581,128,0,55881:0:0:0:0:
192,192,55581,128,0,55656:0:0:0:0:
320,192,55656,128,0,55731:0:0:0:0:
448,192,55731,128,0,55806:0:0:0:0:
320,192,55806,128,0,55881:0:0:0:0:
448,192,55881,128,0,56181:0:0:0:0:
192,192,55881,128,0,55956:0:0:0:0:
64,192,55956,128,0,56031:0:0:0:0:
320,192,56031,128,0,56106:0:0:0:0:
192,192,56106,128,0,56181:0:0:0:0:
320,192,56181,128,0,56481:0:0:0:0:
64,192,56181,128,0,56256:0:0:0:0:
448,192,56256,128,0,56331:0:0:0:0:
192,192,56331,128,0,56406:0:0:0:0:
448,192,56406,128,0,56481:0:0:0:0:
64,192,56481,128,0,56556:0:0:0:0:
192,192,56481,128,0,56556:0:0:0:0:
320,192,56556,128,0,56631:0:0:0:0:
448,192,56556,128,0,56631:0:0:0:0:
192,192,56631,128,0,56706:0:0:0:0:
64,192,56631,128,0,56706:0:0:0:0:
320,192,56706,128,0,56781:0:0:0:0:
64,192,56781,128,0,56931:0:0:0:0:
192,192,56781,128,0,56931:0:0:0:0:
448,192,56781,128,0,56931:0:0:0:0:
448,192,57081,128,0,57156:0:0:0:0:
64,192,57081,128,0,57156:0:0:0:0:
320,192,57156,128,0,57231:0:0:0:0:
192,192,57156,128,0,57231:0:0:0:0:
64,192,57231,128,0,57306:0:0:0:0:
448,192,57231,128,0,57306:0:0:0:0:
320,192,57306,128,0,57381:0:0:0:0:
192,192,57381,128,0,57531:0:0:0:0:
64,192,57381,128,0,57531:0:0:0:0:
448,192,57381,128,0,57531:0:0:0:0:
192,192,57681,1,0,0:0:0:0:
64,192,57681,128,0,57756:0:0:0:0:
320,192,57831,1,0,0:0:0:0:
64,192,57831,128,0,57906:0:0:0:0:
448,192,57831,128,0,57906:0:0:0:0:
320,192,57981,1,0,0:0:0:0:
64,192,57981,128,0,58131:0:0:0:0:
448,192,57981,128,0,58131:0:0:0:0:
320,192,58281,128,0,58431:0:0:0:0:
64,192,58281,128,0,58431:0:0:0:0:
192,192,58581,128,0,58656:0:0:0:0:
448,192,58581,128,0,58656:0:0:0:0:
64,192,58656,128,0,58731:0:0:0:0:
320,192,58656,128,0,58731:0:0:0:0:
192,192,58731,128,0,58806:0:0:0:0:
448,192,58731,128,0,58806:0:0:0:0:
320,192,58806,128,0,58881:0:0:0:0:
448,192,58881,128,0,59181:0:0:0:0:
64,192,58881,128,0,58956:0:0:0:0:
192,192,58881,1,0,0:0:0:0:
320,192,58956,128,0,59031:0:0:0:0:
192,192,59031,128,0,59106:0:0:0:0:
64,192,59106,128,0,59181:0:0:0:0:
192,192,59181,128,0,59481:0:0:0:0:
320,192,59181,128,0,59256:0:0:0:0:
448,192,59256,128,0,59331:0:0:0:0:
64,192,59331,128,0,59406:0:0:0:0:
320,192,59406,128,0,59481:0:0:0:0:
64,192,59481,128,0,59781:0:0:0:0:
448,192,59481,128,0,59556:0:0:0:0:
192,192,59556,128,0,59631:0:0:0:0:
320,192,59631,128,0,59706:0:0:0:0:
448,192,59706,128,0,59781:0:0:0:0:
320,192,59781,128,0,60081:0:0:0:0:
192,192,59781,128,0,59856:0:0:0:0:
64,192,59856,128,0,59931:0:0:0:0:
448,192,59931,128,0,60006:0:0:0:0:
192,192,60006,128,0,60081:0:0:0:0:
448,192,60081,128,0,60381:0:0:0:0:
64,192,60081,128,0,60156:0:0:0:0:
320,192,60156,128,0,60231:0:0:0:0:
192,192,60231,128,0,60306:0:0:0:0:
64,192,60306,128,0,60381:0:0:0:0:
192,192,60381,128,0,60681:0:0:0:0:
320,192,60381,128,0,60456:0:0:0:0:
448,192,60456,128,0,60531:0:0:0:0:
64,192,60531,128,0,60606:0:0:0:0:
320,192,60606,128,0,60681:0:0:0:0:
448,192,60681,128,0,60981:0:0:0:0:
64,192,60681,128,0,60756:0:0:0:0:
192,192,60756,128,0,60831:0:0:0:0:
320,192,60831,128,0,60906:0:0:0:0:
64,192,60906,128,0,60981:0:0:0:0:
320,192,60981,128,0,61281:0:0:0:0:
192,192,60981,128,0,61056:0:0:0:0:
64,192,61056,128,0,61131:0:0:0:0:
448,192,61131,128,0,61206:0:0:0:0:
192,192,61206,128,0,61281:0:0:0:0:
64,192,61281,128,0,61581:0:0:0:0:
448,192,61281,128,0,61356:0:0:0:0:
320,192,61356,128,0,61431:0:0:0:0:
192,192,61431,128,0,61506:0:0:0:0:
448,192,61506,128,0,61581:0:0:0:0:
320,192,61581,128,0,61881:0:0:0:0:
192,192,61581,128,0,61656:0:0:0:0:
448,192,61656,128,0,61731:0:0:0:0:
64,192,61731,128,0,61806:0:0:0:0:
448,192,61806,128,0,61881:0:0:0:0:
192,192,61881,128,0,62181:0:0:0:0:
64,192,61881,128,0,61956:0:0:0:0:
320,192,61956,128,0,62031:0:0:0:0:
448,192,62031,128,0,62106:0:0:0:0:
64,192,62106,128,0,62181:0:0:0:0:
448,192,62181,128,0,62481:0:0:0:0:
320,192,62181,128,0,62256:0:0:0:0:
192,192,62256,128,0,62331:0:0:0:0:
64,192,62331,128,0,62406:0:0:0:0:
320,192,62406,128,0,62481:0:0:0:0:
192,192,62481,128,0,62781:0:0:0:0:
64,192,62481,128,0,62556:0:0:0:0:
448,192,62556,128,0,62631:0:0:0:0:
320,192,62631,128,0,62706:0:0:0:0:
448,192,62706,128,0,62781:0:0:0:0:
64,192,62781,128,0,63081:0:0:0:0:
320,192,62781,128,0,62856:0:0:0:0:
192,192,62856,128,0,62931:0:0:0:0:
448,192,62931,128,0,63006:0:0:0:0:
320,192,63006,128,0,63081:0:0:0:0:
192,192,63081,128,0,63381:0:0:0:0:
448,192,63081,128,0,63156:0:0:0:0:
320,192,63156,128,0,63231:0:0:0:0:
64,192,63231,128,0,63306:0:0:0:0:
320,192,63306,128,0,63381:0:0:0:0:
64,192,63381,128,0,63456:0:0:0:0:
448,192,63381,128,0,63456:0:0:0:0:
192,192,63456,128,0,63531:0:0:0:0:
320,192,63456,128,0,63531:0:0:0:0:
64,192,63531,128,0,63606:0:0:0:0:
448,192,63531,128,0,63606:0:0:0:0:
320,192,63606,128,0,63681:0:0:0:0:
448,192,63681,128,0,63981:0:0:0:0:
192,192,63681,128,0,63756:0:0:0:0:
64,192,63681,128,0,63756:0:0:0:0:
320,192,63756,128,0,63831:0:0:0:0:
64,192,63831,128,0,63906:0:0:0:0:
320,192,63906,128,0,63981:0:0:0:0:
192,192,63981,128,0,64281:0:0:0:0:
64,192,63981,128,0,64056:0:0:0:0:
448,192,64056,128,0,64131:0:0:0:0:
320,192,64131,128,0,64206:0:0:0:0:
64,192,64206,128,0,64281:0:0:0:0:
448,192,64281,128,0,64581:0:0:0:0:
320,192,64281,128,0,64356:0:0:0:0:
64,192,64356,128,0,64431:0:0:0:0:
192,192,64431,128,0,64506:0:0:0:0:
320,192,64506,128,0,64581:0:0:0:0:
64,192,64581,128,0,64881:0:0:0:0:
192,192,64581,128,0,64656:0:0:0:0:
448,192,64656,128,0,64731:0:0:0:0:
320,192,64731,128,0,64806:0:0:0:0:
192,192,64806,128,0,64881:0:0:0:0:
448,192,64881,128,0,65181:0:0:0:0:
320,192,64881,128,0,64956:0:0:0:0:
64,192,64956,128,0,65031:0:0:0:0:
192,192,65031,128,0,65106:0:0:0:0:
320,192,65106,128,0,65181:0:0:0:0:
192,192,65181,128,0,65481:0:0:0:0:
64,192,65181,128,0,65256:0:0:0:0:
448,192,65256,128,0,65331:0:0:0:0:
320,192,65331,128,0,65406:0:0:0:0:
64,192,65406,128,0,65481:0:0:0:0:
320,192,65481,128,0,65556:0:0:0:0:
448,192,65481,128,0,65556:0:0:0:0:
192,192,65556,128,0,65631:0:0:0:0:
64,192,65556,128,0,65631:0:0:0:0:
320,192,65631,128,0,65706:0:0:0:0:
448,192,65631,128,0,65706:0:0:0:0:
192,192,65706,128,0,65781:0:0:0:0:
64,192,65781,128,0,65856:0:0:0:0:
448,192,65781,128,0,65856:0:0:0:0:
320,192,65856,128,0,65931:0:0:0:0:
192,192,65856,128,0,65931:0:0:0:0:
64,192,65931,128,0,66006:0:0:0:0:
448,192,65931,128,0,66006:0:0:0:0:
192,192,66006,128,0,66081:0:0:0:0:
64,192,66081,128,0,66531:0:0:0:0:
320,192,66081,128,0,66512:0:0:0:0:
448,192,66081,128,0,66493:0:0:0:0:
64,192,67581,5,0,0:0:0:0:
192,192,67581,1,0,0:0:0:0:
320,192,67656,1,0,0:0:0:0:
448,192,67656,1,0,0:0:0:0:
192,192,67731,1,0,0:0:0:0:
64,192,67731,1,0,0:0:0:0:
448,192,67806,1,0,0:0:0:0:
320,192,67806,1,0,0:0:0:0:
64,192,67881,1,0,0:0:0:0:
192,192,67881,1,0,0:0:0:0:
320,192,67881,1,0,0:0:0:0:
64,192,68031,1,0,0:0:0:0:
192,192,68031,1,0,0:0:0:0:
192,192,68106,1,0,0:0:0:0:
64,192,68106,1,0,0:0:0:0:
320,192,68181,1,0,0:0:0:0:
448,192,68181,1,0,0:0:0:0:
64,192,68181,1,0,0:0:0:0:
192,192,68181,1,0,0:0:0:0:
448,192,68331,1,0,0:0:0:0:
320,192,68331,1,0,0:0:0:0:
320,192,68406,1,0,0:0:0:0:
448,192,68406,1,0,0:0:0:0:
192,192,68481,5,0,0:0:0:0:
64,192,68481,128,0,68631:0:0:0:0:
320,192,68481,128,0,68631:0:0:0:0:
448,192,68481,128,0,68631:0:0:0:0:
192,192,68631,1,0,0:0:0:0:
64,192,68781,128,0,68931:0:0:0:0:
448,192,68781,128,0,68931:0:0:0:0:
192,192,68781,128,0,68931:0:0:0:0:
320,192,68931,1,0,0:0:0:0:
64,192,69081,128,0,69231:0:0:0:0:
448,192,69081,128,0,69231:0:0:0:0:
320,192,69231,128,0,69306:0:0:0:0:
192,192,69306,128,0,69381:0:0:0:0:
64,192,69381,128,0,69531:0:0:0:0:
320,192,69381,128,0,69531:0:0:0:0:
448,192,69381,128,0,69531:0:0:0:0:
192,192,69531,1,0,0:0:0:0:
64,192,69681,128,0,69831:0:0:0:0:
320,192,69681,128,0,69831:0:0:0:0:
448,192,69831,128,0,69906:0:0:0:0:
320,192,69906,128,0,69981:0:0:0:0:
64,192,69981,128,0,70206:0:0:0:0:
192,192,69981,128,0,70131:0:0:0:0:
448,192,69981,128,0,70131:0:0:0:0:
320,192,70131,128,0,70206:0:0:0:0:
192,192,70206,128,0,70281:0:0:0:0:
320,192,70281,128,0,70506:0:0:0:0:
448,192,70281,128,0,70506:0:0:0:0:
192,192,70431,128,0,70506:0:0:0:0:
64,192,70506,128,0,70581:0:0:0:0:
192,192,70581,128,0,70731:0:0:0:0:
320,192,70581,128,0,70806:0:0:0:0:
448,192,70581,128,0,70806:0:0:0:0:
64,192,70731,128,0,70881:0:0:0:0:
192,192,70806,128,0,70881:0:0:0:0:
320,192,70881,128,0,71031:0:0:0:0:
448,192,70881,128,0,71031:0:0:0:0:
64,192,71031,128,0,71181:0:0:0:0:
192,192,71181,128,0,71481:0:0:0:0:
320,192,71181,128,0,71331:0:0:0:0:
448,192,71181,128,0,71331:0:0:0:0:
64,192,71331,128,0,71481:0:0:0:0:
320,192,71481,128,0,71631:0:0:0:0:
448,192,71481,128,0,71631:0:0:0:0:
192,192,71631,128,0,71781:0:0:0:0:
320,192,71781,128,0,72081:0:0:0:0:
64,192,71781,128,0,71931:0:0:0:0:
448,192,71781,128,0,71931:0:0:0:0:
192,192,71931,128,0,72081:0:0:0:0:
64,192,72081,128,0,72231:0:0:0:0:
448,192,72081,128,0,72231:0:0:0:0:
320,192,72231,128,0,72381:0:0:0:0:
192,192,72381,128,0,72531:0:0:0:0:
448,192,72381,128,0,72681:0:0:0:0:
64,192,72381,128,0,72531:0:0:0:0:
320,192,72531,128,0,72681:0:0:0:0:
64,192,72681,128,0,72831:0:0:0:0:
192,192,72681,128,0,72831:0:0:0:0:
448,192,72831,128,0,72981:0:0:0:0:
64,192,72981,128,0,73131:0:0:0:0:
192,192,72981,128,0,73131:0:0:0:0:
320,192,72981,128,0,73131:0:0:0:0:
448,192,73131,128,0,73281:0:0:0:0:
64,192,73281,128,0,73581:0:0:0:0:
320,192,73281,128,0,73431:0:0:0:0:
192,192,73281,128,0,73431:0:0:0:0:
448,192,73431,1,0,0:0:0:0:
192,192,73581,128,0,73731:0:0:0:0:
320,192,73581,128,0,73881:0:0:0:0:
448,192,73581,128,0,73731:0:0:0:0:
64,192,73731,1,0,0:0:0:0:
64,192,73881,128,0,74031:0:0:0:0:
448,192,73881,128,0,74031:0:0:0:0:
320,192,74031,128,0,74106:0:0:0:0:
192,192,74106,128,0,74181:0:0:0:0:
64,192,74181,128,0,74331:0:0:0:0:
320,192,74181,128,0,74331:0:0:0:0:
448,192,74181,128,0,74331:0:0:0:0:
192,192,74331,1,0,0:0:0:0:
192,192,74481,128,0,74631:0:0:0:0:
320,192,74481,128,0,74706:0:0:0:0:
64,192,74631,128,0,74706:0:0:0:0:
192,192,74706,128,0,74781:0:0:0:0:
64,192,74781,128,0,74931:0:0:0:0:
320,192,74781,128,0,74931:0:0:0:0:
448,192,74781,128,0,74931:0:0:0:0:
192,192,74931,128,0,75006:0:0:0:0:
320,192,75006,128,0,75081:0:0:0:0:
64,192,75081,128,0,75306:0:0:0:0:
192,192,75081,128,0,75306:0:0:0:0:
320,192,75231,128,0,75306:0:0:0:0:
448,192,75306,128,0,75381:0:0:0:0:
320,192,75381,128,0,75531:0:0:0:0:
192,192,75381,128,0,75606:0:0:0:0:
64,192,75381,128,0,75681:0:0:0:0:
448,192,75531,128,0,75606:0:0:0:0:
320,192,75606,128,0,75681:0:0:0:0:
192,192,75681,128,0,75831:0:0:0:0:
448,192,75681,128,0,75831:0:0:0:0:
64,192,75831,128,0,75981:0:0:0:0:
192,192,75981,128,0,76131:0:0:0:0:
320,192,75981,128,0,76281:0:0:0:0:
448,192,75981,128,0,76131:0:0:0:0:
64,192,76131,128,0,76281:0:0:0:0:
192,192,76281,128,0,76431:0:0:0:0:
448,192,76281,128,0,76431:0:0:0:0:
320,192,76431,128,0,76581:0:0:0:0:
64,192,76581,128,0,76731:0:0:0:0:
192,192,76581,128,0,76881:0:0:0:0:
448,192,76581,128,0,76731:0:0:0:0:
320,192,76731,128,0,76881:0:0:0:0:
64,192,76881,128,0,77031:0:0:0:0:
448,192,76881,128,0,77031:0:0:0:0:
192,192,77031,128,0,77181:0:0:0:0:
64,192,77181,128,0,77331:0:0:0:0:
320,192,77181,128,0,77331:0:0:0:0:
448,192,77181,128,0,77406:0:0:0:0:
192,192,77331,128,0,77481:0:0:0:0:
320,192,77406,128,0,77481:0:0:0:0:
64,192,77481,128,0,77556:0:0:0:0:
448,192,77481,128,0,77556:0:0:0:0:
192,192,77556,128,0,77631:0:0:0:0:
64,192,77631,128,0,77706:0:0:0:0:
448,192,77631,128,0,77706:0:0:0:0:
320,192,77706,128,0,77781:0:0:0:0:
192,192,77781,128,0,77856:0:0:0:0:
64,192,77781,128,0,77856:0:0:0:0:
448,192,77856,128,0,77931:0:0:0:0:
320,192,77931,128,0,78006:0:0:0:0:
64,192,77931,128,0,78006:0:0:0:0:
192,192,78006,128,0,78081:0:0:0:0:
64,192,78081,1,0,0:0:0:0:
320,192,78081,1,0,0:0:0:0:
448,192,78081,128,0,78231:0:0:0:0:
64,192,78381,1,0,0:0:0:0:
320,192,78381,1,0,0:0:0:0:
192,192,78531,128,0,78681:0:0:0:0:
320,192,78681,128,0,78831:0:0:0:0:
64,192,78681,1,0,0:0:0:0:
448,192,78681,1,0,0:0:0:0:
64,192,78981,1,0,0:0:0:0:
320,192,78981,1,0,0:0:0:0:
192,192,79131,128,0,79281:0:0:0:0:
448,192,79281,128,0,79431:0:0:0:0:
64,192,79281,1,0,0:0:0:0:
320,192,79281,1,0,0:0:0:0:
320,192,79581,1,0,0:0:0:0:
192,192,79581,1,0,0:0:0:0:
64,192,79731,128,0,79881:0:0:0:0:
192,192,79881,128,0,80031:0:0:0:0:
448,192,79881,1,0,0:0:0:0:
320,192,79881,1,0,0:0:0:0:
64,192,80181,1,0,0:0:0:0:
448,192,80181,1,0,0:0:0:0:
320,192,80331,128,0,80481:0:0:0:0:
448,192,80481,128,0,80631:0:0:0:0:
64,192,80481,1,0,0:0:0:0:
192,192,80481,1,0,0:0:0:0:
64,192,80781,1,0,0:0:0:0:
448,192,80781,1,0,0:0:0:0:
320,192,80931,128,0,81081:0:0:0:0:
192,192,81081,128,0,81231:0:0:0:0:
64,192,81081,1,0,0:0:0:0:
448,192,81081,1,0,0:0:0:0:
64,192,81381,1,0,0:0:0:0:
192,192,81381,1,0,0:0:0:0:
320,192,81531,128,0,81681:0:0:0:0:
192,192,81681,128,0,81831:0:0:0:0:
448,192,81681,1,0,0:0:0:0:
64,192,81681,1,0,0:0:0:0:
448,192,81831,128,0,82131:0:0:0:0:
64,192,81981,128,0,82131:0:0:0:0:
320,192,81981,1,0,0:0:0:0:
192,192,81981,1,0,0:0:0:0:
192,192,82131,128,0,82281:0:0:0:0:
448,192,82281,1,0,0:0:0:0:
64,192,82281,1,0,0:0:0:0:
320,192,82431,128,0,82581:0:0:0:0:
64,192,82581,128,0,82731:0:0:0:0:
192,192,82581,1,0,0:0:0:0:
448,192,82581,1,0,0:0:0:0:
192,192,82731,128,0,82881:0:0:0:0:
448,192,82806,1,0,0:0:0:0:
320,192,82806,1,0,0:0:0:0:
448,192,82881,1,0,0:0:0:0:
64,192,82881,128,0,83481:0:0:0:0:
320,192,82881,1,0,0:0:0:0:
192,192,83181,1,0,0:0:0:0:
320,192,83181,1,0,0:0:0:0:
192,192,83481,128,0,83631:0:0:0:0:
320,192,83481,1,0,0:0:0:0:
64,192,83631,128,0,83781:0:0:0:0:
448,192,83631,1,0,0:0:0:0:
320,192,83631,1,0,0:0:0:0:
192,192,83781,128,0,83931:0:0:0:0:
448,192,83781,1,0,0:0:0:0:
64,192,83931,128,0,84081:0:0:0:0:
320,192,83931,1,0,0:0:0:0:
192,192,84081,128,0,84381:0:0:0:0:
320,192,84081,1,0,0:0:0:0:
448,192,84081,1,0,0:0:0:0:
320,192,84381,128,0,84531:0:0:0:0:
64,192,84381,1,0,0:0:0:0:
448,192,84531,128,0,84681:0:0:0:0:
64,192,84531,1,0,0:0:0:0:
192,192,84531,1,0,0:0:0:0:
320,192,84681,128,0,84831:0:0:0:0:
192,192,84681,1,0,0:0:0:0:
448,192,84831,128,0,84981:0:0:0:0:
64,192,84831,1,0,0:0:0:0:
320,192,84981,128,0,85131:0:0:0:0:
64,192,84981,1,0,0:0:0:0:
192,192,84981,1,0,0:0:0:0:
448,192,85131,128,0,85281:0:0:0:0:
320,192,85281,128,0,85356:0:0:0:0:
64,192,85281,1,0,0:0:0:0:
192,192,85356,128,0,85431:0:0:0:0:
64,192,85431,128,0,85506:0:0:0:0:
320,192,85431,1,0,0:0:0:0:
448,192,85506,128,0,85581:0:0:0:0:
192,192,85581,128,0,85656:0:0:0:0:
64,192,85581,1,0,0:0:0:0:
320,192,85656,128,0,85731:0:0:0:0:
64,192,85731,128,0,85806:0:0:0:0:
192,192,85806,128,0,85881:0:0:0:0:
448,192,85881,128,0,85956:0:0:0:0:
320,192,85881,1,0,0:0:0:0:
320,192,85956,128,0,86031:0:0:0:0:
64,192,86031,128,0,86106:0:0:0:0:
192,192,86031,1,0,0:0:0:0:
448,192,86106,128,0,86181:0:0:0:0:
192,192,86181,128,0,86256:0:0:0:0:
320,192,86181,1,0,0:0:0:0:
64,192,86256,128,0,86331:0:0:0:0:
448,192,86331,128,0,86406:0:0:0:0:
320,192,86406,128,0,86481:0:0:0:0:
64,192,86481,128,0,86556:0:0:0:0:
192,192,86481,1,0,0:0:0:0:
320,192,86631,128,0,86706:0:0:0:0:
448,192,86631,128,0,86706:0:0:0:0:
192,192,86706,128,0,86781:0:0:0:0:
320,192,86781,128,0,86856:0:0:0:0:
64,192,86781,128,0,86856:0:0:0:0:
448,192,86781,128,0,86856:0:0:0:0:
320,192,86931,128,0,87006:0:0:0:0:
192,192,86931,128,0,87006:0:0:0:0:
64,192,86931,128,0,87006:0:0:0:0:
64,192,87081,128,0,87156:0:0:0:0:
192,192,87081,128,0,87156:0:0:0:0:
448,192,87081,128,0,87156:0:0:0:0:
320,192,87156,128,0,87231:0:0:0:0:
192,192,87231,128,0,87306:0:0:0:0:
64,192,87231,128,0,87306:0:0:0:0:
320,192,87306,128,0,87381:0:0:0:0:
448,192,87381,128,0,87456:0:0:0:0:
64,192,87381,128,0,87456:0:0:0:0:
192,192,87456,128,0,87531:0:0:0:0:
320,192,87531,128,0,87606:0:0:0:0:
448,192,87531,128,0,87606:0:0:0:0:
64,192,87606,128,0,87681:0:0:0:0:
320,192,87681,128,0,87981:0:0:0:0:
192,192,87681,128,0,87831:0:0:0:0:
448,192,87681,128,0,87831:0:0:0:0:
64,192,87831,128,0,87981:0:0:0:0:
448,192,87981,128,0,88131:0:0:0:0:
192,192,87981,128,0,88131:0:0:0:0:
64,192,88131,128,0,88281:0:0:0:0:
320,192,88281,128,0,88431:0:0:0:0:
448,192,88281,128,0,88581:0:0:0:0:
192,192,88431,128,0,88506:0:0:0:0:
64,192,88506,128,0,88581:0:0:0:0:
192,192,88581,128,0,88731:0:0:0:0:
320,192,88581,128,0,88731:0:0:0:0:
448,192,88731,128,0,88881:0:0:0:0:
64,192,88881,128,0,89181:0:0:0:0:
192,192,88881,128,0,89031:0:0:0:0:
320,192,89031,128,0,89181:0:0:0:0:
192,192,89181,128,0,89331:0:0:0:0:
448,192,89181,128,0,89331:0:0:0:0:
64,192,89331,128,0,89481:0:0:0:0:
448,192,89481,128,0,89781:0:0:0:0:
320,192,89481,128,0,89631:0:0:0:0:
192,192,89631,128,0,89781:0:0:0:0:
64,192,89781,128,0,89931:0:0:0:0:
320,192,89781,128,0,89931:0:0:0:0:
448,192,89931,128,0,90081:0:0:0:0:
64,192,90081,128,0,90381:0:0:0:0:
192,192,90081,128,0,90231:0:0:0:0:
320,192,90231,128,0,90381:0:0:0:0:
192,192,90381,128,0,90531:0:0:0:0:
448,192,90381,128,0,90531:0:0:0:0:
64,192,90531,128,0,90681:0:0:0:0:
320,192,90681,128,0,90831:0:0:0:0:
448,192,90681,128,0,90981:0:0:0:0:
192,192,90831,128,0,90981:0:0:0:0:
64,192,90981,128,0,91131:0:0:0:0:
320,192,90981,128,0,91131:0:0:0:0:
448,192,91131,128,0,91281:0:0:0:0:
64,192,91281,128,0,91581:0:0:0:0:
320,192,91281,128,0,91431:0:0:0:0:
192,192,91431,128,0,91581:0:0:0:0:
320,192,91581,128,0,91731:0:0:0:0:
448,192,91581,128,0,91731:0:0:0:0:
192,192,91731,128,0,91881:0:0:0:0:
64,192,91881,128,0,91956:0:0:0:0:
320,192,91881,128,0,91956:0:0:0:0:
192,192,91956,128,0,92031:0:0:0:0:
448,192,91956,128,0,92031:0:0:0:0:
64,192,92031,128,0,92106:0:0:0:0:
320,192,92031,128,0,92106:0:0:0:0:
64,192,92181,128,0,92331:0:0:0:0:
192,192,92181,128,0,92256:0:0:0:0:
192,192,92331,128,0,92481:0:0:0:0:
320,192,92331,128,0,92406:0:0:0:0:
64,192,92481,128,0,92631:0:0:0:0:
320,192,92481,128,0,92781:0:0:0:0:
448,192,92481,128,0,92631:0:0:0:0:
192,192,92631,128,0,92781:0:0:0:0:
64,192,92781,128,0,92931:0:0:0:0:
448,192,92781,128,0,92931:0:0:0:0:
320,192,92931,128,0,93081:0:0:0:0:
192,192,93081,128,0,93231:0:0:0:0:
448,192,93081,128,0,93381:0:0:0:0:
320,192,93231,128,0,93306:0:0:0:0:
192,192,93306,128,0,93381:0:0:0:0:
64,192,93381,128,0,93531:0:0:0:0:
320,192,93381,128,0,93531:0:0:0:0:
192,192,93531,128,0,93681:0:0:0:0:
320,192,93681,128,0,93756:0:0:0:0:
64,192,93681,128,0,93831:0:0:0:0:
448,192,93831,128,0,93906:0:0:0:0:
320,192,93831,128,0,93906:0:0:0:0:
192,192,93906,128,0,93981:0:0:0:0:
64,192,93981,128,0,94056:0:0:0:0:
448,192,93981,128,0,94056:0:0:0:0:
192,192,94131,128,0,94206:0:0:0:0:
64,192,94131,128,0,94206:0:0:0:0:
320,192,94206,128,0,94281:0:0:0:0:
192,192,94281,128,0,94356:0:0:0:0:
448,192,94281,128,0,94356:0:0:0:0:
64,192,94431,128,0,94506:0:0:0:0:
320,192,94431,128,0,94581:0:0:0:0:
64,192,94581,128,0,94731:0:0:0:0:
192,192,94581,128,0,94656:0:0:0:0:
320,192,94731,128,0,94806:0:0:0:0:
448,192,94731,128,0,94881:0:0:0:0:
64,192,94881,128,0,95031:0:0:0:0:
192,192,94881,128,0,95181:0:0:0:0:
320,192,95031,128,0,95181:0:0:0:0:
64,192,95181,128,0,95331:0:0:0:0:
448,192,95181,128,0,95481:0:0:0:0:
192,192,95331,128,0,95481:0:0:0:0:
64,192,95481,128,0,95781:0:0:0:0:
320,192,95481,128,0,95631:0:0:0:0:
448,192,95631,128,0,95781:0:0:0:0:
192,192,95781,128,0,96081:0:0:0:0:
320,192,95781,128,0,95931:0:0:0:0:
64,192,95931,128,0,96081:0:0:0:0:
320,192,96081,128,0,96156:0:0:0:0:
448,192,96081,128,0,96231:0:0:0:0:
192,192,96156,128,0,96231:0:0:0:0:
64,192,96231,128,0,96381:0:0:0:0:
320,192,96231,128,0,96306:0:0:0:0:
192,192,96306,128,0,96381:0:0:0:0:
320,192,96381,128,0,96531:0:0:0:0:
448,192,96381,128,0,96456:0:0:0:0:
64,192,96456,128,0,96531:0:0:0:0:
448,192,96531,128,0,96606:0:0:0:0:
192,192,96531,128,0,96606:0:0:0:0:
64,192,96606,128,0,96681:0:0:0:0:
448,192,96681,128,0,96756:0:0:0:0:
320,192,96681,128,0,96756:0:0:0:0:
192,192,96681,1,0,0:0:0:0:
448,192,96831,128,0,96906:0:0:0:0:
320,192,96831,128,0,96906:0:0:0:0:
192,192,96831,1,0,0:0:0:0:
320,192,96981,128,0,97056:0:0:0:0:
448,192,96981,128,0,97056:0:0:0:0:
192,192,96981,1,0,0:0:0:0:
448,192,97131,128,0,97581:0:0:0:0:
64,192,97131,1,0,0:0:0:0:
320,192,97131,1,0,0:0:0:0:
192,192,97131,1,0,0:0:0:0:
320,192,97431,128,0,97581:0:0:0:0:
192,192,97431,1,0,0:0:0:0:
64,192,97506,1,0,0:0:0:0:
192,192,97581,128,0,97881:0:0:0:0:
64,192,97581,1,0,0:0:0:0:
448,192,97731,128,0,98031:0:0:0:0:
320,192,97881,128,0,98031:0:0:0:0:
64,192,97881,1,0,0:0:0:0:
64,192,98031,128,0,98331:0:0:0:0:
192,192,98031,1,0,0:0:0:0:
320,192,98181,128,0,98481:0:0:0:0:
192,192,98181,1,0,0:0:0:0:
448,192,98181,1,0,0:0:0:0:
192,192,98331,128,0,98481:0:0:0:0:
448,192,98331,1,0,0:0:0:0:
448,192,98481,128,0,98556:0:0:0:0:
64,192,98481,128,0,98556:0:0:0:0:
320,192,98631,128,0,98706:0:0:0:0:
448,192,98631,128,0,98706:0:0:0:0:
64,192,98781,128,0,98856:0:0:0:0:
320,192,98781,128,0,98856:0:0:0:0:
192,192,98781,1,0,0:0:0:0:
192,192,98931,128,0,99006:0:0:0:0:
448,192,98931,128,0,99006:0:0:0:0:
64,192,99081,128,0,99156:0:0:0:0:
192,192,99081,128,0,99156:0:0:0:0:
320,192,99081,1,0,0:0:0:0:
320,192,99231,1,0,0:0:0:0:
192,192,99381,1,0,0:0:0:0:
448,192,99381,1,0,0:0:0:0:
64,192,99531,128,0,99831:0:0:0:0:
448,192,99531,128,0,99981:0:0:0:0:
192,192,99531,128,0,99681:0:0:0:0:
320,192,99531,1,0,0:0:0:0:
320,192,99831,128,0,99981:0:0:0:0:
192,192,99831,1,0,0:0:0:0:
64,192,99906,1,0,0:0:0:0:
192,192,99981,128,0,100281:0:0:0:0:
64,192,99981,1,0,0:0:0:0:
448,192,100131,128,0,100281:0:0:0:0:
64,192,100281,128,0,100581:0:0:0:0:
320,192,100281,1,0,0:0:0:0:
192,192,100356,5,0,0:0:0:0:
320,192,100431,128,0,100581:0:0:0:0:
448,192,100431,1,0,0:0:0:0:
192,192,100581,128,0,100881:0:0:0:0:
448,192,100581,1,0,0:0:0:0:
64,192,100731,128,0,100881:0:0:0:0:
448,192,100881,128,0,100956:0:0:0:0:
320,192,100881,128,0,100956:0:0:0:0:
64,192,101031,128,0,101106:0:0:0:0:
320,192,101031,128,0,101106:0:0:0:0:
448,192,101031,1,0,0:0:0:0:
192,192,101106,1,0,0:0:0:0:
64,192,101181,128,0,101256:0:0:0:0:
448,192,101181,128,0,101256:0:0:0:0:
320,192,101181,1,0,0:0:0:0:
192,192,101256,1,0,0:0:0:0:
448,192,101331,128,0,101406:0:0:0:0:
320,192,101331,128,0,101406:0:0:0:0:
64,192,101331,1,0,0:0:0:0:
192,192,101406,1,0,0:0:0:0:
64,192,101481,128,0,101556:0:0:0:0:
320,192,101481,128,0,101556:0:0:0:0:
448,192,101481,1,0,0:0:0:0:
192,192,101556,1,0,0:0:0:0:
64,192,101631,1,0,0:0:0:0:
320,192,101631,1,0,0:0:0:0:
448,192,101706,1,0,0:0:0:0:
192,192,101781,1,0,0:0:0:0:
320,192,101781,1,0,0:0:0:0:
64,192,101856,1,0,0:0:0:0:
448,192,101931,128,0,102231:0:0:0:0:
320,192,101931,128,0,102081:0:0:0:0:
192,192,101931,128,0,102381:0:0:0:0:
320,192,102231,128,0,102381:0:0:0:0:
64,192,102306,1,0,0:0:0:0:
64,192,102381,1,0,0:0:0:0:
448,192,102381,128,0,102531:0:0:0:0:
64,192,102681,128,0,102981:0:0:0:0:
320,192,102681,1,0,0:0:0:0:
192,192,102756,1,0,0:0:0:0:
320,192,102831,128,0,102981:0:0:0:0:
448,192,102831,1,0,0:0:0:0:
192,192,102981,128,0,103281:0:0:0:0:
448,192,103131,128,0,103281:0:0:0:0:
320,192,103131,1,0,0:0:0:0:
64,192,103281,128,0,103356:0:0:0:0:
320,192,103281,128,0,103356:0:0:0:0:
448,192,103431,128,0,103506:0:0:0:0:
320,192,103431,128,0,103506:0:0:0:0:
64,192,103581,128,0,103656:0:0:0:0:
448,192,103581,128,0,103656:0:0:0:0:
192,192,103581,1,0,0:0:0:0:
320,192,103656,1,0,0:0:0:0:
192,192,103731,128,0,103806:0:0:0:0:
64,192,103731,128,0,103806:0:0:0:0:
448,192,103731,1,0,0:0:0:0:
448,192,103881,128,0,103956:0:0:0:0:
192,192,103881,128,0,103956:0:0:0:0:
320,192,103881,1,0,0:0:0:0:
64,192,104031,128,0,104081:0:0:0:0:
320,192,104031,128,0,104081:0:0:0:0:
448,192,104031,1,0,0:0:0:0:
192,192,104106,1,0,0:0:0:0:
64,192,104181,128,0,104231:0:0:0:0:
320,192,104181,128,0,104231:0:0:0:0:
448,192,104181,1,0,0:0:0:0:
64,192,104331,128,0,104406:0:0:0:0:
192,192,104331,128,0,104406:0:0:0:0:
448,192,104331,128,0,104406:0:0:0:0:
320,192,104406,128,0,104481:0:0:0:0:
192,192,104481,128,0,104556:0:0:0:0:
448,192,104481,128,0,104556:0:0:0:0:
64,192,104556,128,0,104631:0:0:0:0:
192,192,104631,128,0,104706:0:0:0:0:
320,192,104631,128,0,104706:0:0:0:0:
448,192,104706,128,0,104781:0:0:0:0:
64,192,104781,128,0,104856:0:0:0:0:
192,192,104856,128,0,104931:0:0:0:0:
448,192,104856,128,0,104931:0:0:0:0:
320,192,104931,128,0,105006:0:0:0:0:
192,192,105006,128,0,105081:0:0:0:0:
448,192,105081,128,0,105156:0:0:0:0:
64,192,105081,128,0,105156:0:0:0:0:
192,192,105156,128,0,105231:0:0:0:0:
320,192,105156,128,0,105231:0:0:0:0:
448,192,105231,128,0,105306:0:0:0:0:
64,192,105231,128,0,105306:0:0:0:0:
320,192,105306,128,0,105381:0:0:0:0:
64,192,105381,128,0,105456:0:0:0:0:
192,192,105381,128,0,105456:0:0:0:0:
320,192,105456,128,0,105531:0:0:0:0:
448,192,105456,128,0,105531:0:0:0:0:
192,192,105531,128,0,105606:0:0:0:0:
64,192,105531,128,0,105606:0:0:0:0:
320,192,105606,1,0,0:0:0:0:
448,192,105606,1,0,0:0:0:0:
64,192,105681,128,0,106581:0:0:0:0:
192,192,105681,128,0,106281:0:0:0:0:
448,192,105681,128,0,105981:0:0:0:0:
64,192,106881,128,0,107106:0:0:0:0:
192,192,106881,128,0,107031:0:0:0:0:
320,192,106881,128,0,106956:0:0:0:0:
448,192,106956,128,0,107106:0:0:0:0:
320,192,107031,128,0,107106:0:0:0:0:
192,192,107106,128,0,107181:0:0:0:0:
64,192,107181,128,0,107481:0:0:0:0:
448,192,107181,128,0,107331:0:0:0:0:
192,192,107256,128,0,107331:0:0:0:0:
320,192,107331,128,0,107406:0:0:0:0:
448,192,107406,128,0,107481:0:0:0:0:
192,192,107481,128,0,107556:0:0:0:0:
320,192,107481,128,0,107631:0:0:0:0:
64,192,107556,128,0,107631:0:0:0:0:
192,192,107631,128,0,107706:0:0:0:0:
320,192,107706,128,0,107781:0:0:0:0:
64,192,107781,128,0,108006:0:0:0:0:
448,192,107781,128,0,108006:0:0:0:0:
192,192,107856,128,0,107931:0:0:0:0:
320,192,107931,128,0,108006:0:0:0:0:
192,192,108006,128,0,108081:0:0:0:0:
64,192,108081,128,0,108231:0:0:0:0:
448,192,108081,128,0,108306:0:0:0:0:
320,192,108156,128,0,108231:0:0:0:0:
192,192,108231,128,0,108306:0:0:0:0:
64,192,108306,128,0,108381:0:0:0:0:
320,192,108381,128,0,108456:0:0:0:0:
448,192,108381,128,0,108531:0:0:0:0:
192,192,108456,128,0,108531:0:0:0:0:
320,192,108531,128,0,108606:0:0:0:0:
448,192,108606,128,0,108681:0:0:0:0:
192,192,108681,128,0,108906:0:0:0:0:
320,192,108681,128,0,108831:0:0:0:0:
64,192,108756,128,0,108831:0:0:0:0:
448,192,108831,128,0,108906:0:0:0:0:
320,192,108906,128,0,108981:0:0:0:0:
64,192,108981,128,0,109206:0:0:0:0:
192,192,108981,128,0,109131:0:0:0:0:
448,192,109056,128,0,109131:0:0:0:0:
320,192,109131,128,0,109206:0:0:0:0:
192,192,109206,128,0,109281:0:0:0:0:
64,192,109281,128,0,109356:0:0:0:0:
448,192,109281,128,0,109506:0:0:0:0:
320,192,109356,128,0,109431:0:0:0:0:
64,192,109431,128,0,109506:0:0:0:0:
192,192,109506,128,0,109581:0:0:0:0:
64,192,109581,128,0,109806:0:0:0:0:
320,192,109581,128,0,109656:0:0:0:0:
448,192,109656,128,0,109731:0:0:0:0:
320,192,109731,128,0,109806:0:0:0:0:
192,192,109806,128,0,109881:0:0:0:0:
64,192,109881,128,0,109956:0:0:0:0:
320,192,109881,128,0,109956:0:0:0:0:
448,192,109956,128,0,110031:0:0:0:0:
64,192,110031,128,0,110106:0:0:0:0:
192,192,110031,128,0,110106:0:0:0:0:
320,192,110106,128,0,110181:0:0:0:0:
192,192,110181,128,0,110256:0:0:0:0:
448,192,110181,128,0,110256:0:0:0:0:
64,192,110256,128,0,110331:0:0:0:0:
192,192,110331,128,0,110406:0:0:0:0:
320,192,110331,128,0,110406:0:0:0:0:
448,192,110406,128,0,110481:0:0:0:0:
64,192,110481,128,0,110706:0:0:0:0:
192,192,110481,128,0,110631:0:0:0:0:
320,192,110556,128,0,110631:0:0:0:0:
448,192,110631,128,0,110706:0:0:0:0:
192,192,110706,128,0,110781:0:0:0:0:
320,192,110781,128,0,110931:0:0:0:0:
448,192,110781,128,0,111006:0:0:0:0:
64,192,110856,128,0,110931:0:0:0:0:
192,192,110931,128,0,111006:0:0:0:0:
320,192,111006,128,0,111081:0:0:0:0:
64,192,111081,128,0,111231:0:0:0:0:
448,192,111081,128,0,111306:0:0:0:0:
192,192,111156,128,0,111231:0:0:0:0:
320,192,111231,128,0,111306:0:0:0:0:
64,192,111306,128,0,111381:0:0:0:0:
192,192,111381,128,0,111456:0:0:0:0:
448,192,111381,128,0,111606:0:0:0:0:
320,192,111456,128,0,111531:0:0:0:0:
192,192,111531,128,0,111606:0:0:0:0:
64,192,111606,128,0,111681:0:0:0:0:
192,192,111681,128,0,111831:0:0:0:0:
320,192,111681,128,0,111756:0:0:0:0:
448,192,111681,128,0,111906:0:0:0:0:
64,192,111756,128,0,111831:0:0:0:0:
320,192,111831,128,0,111906:0:0:0:0:
192,192,111906,128,0,111981:0:0:0:0:
64,192,111981,128,0,112206:0:0:0:0:
448,192,111981,128,0,112206:0:0:0:0:
320,192,112056,128,0,112131:0:0:0:0:
192,192,112131,128,0,112206:0:0:0:0:
320,192,112206,128,0,112281:0:0:0:0:
64,192,112281,128,0,112506:0:0:0:0:
192,192,112281,128,0,112431:0:0:0:0:
448,192,112356,128,0,112431:0:0:0:0:
320,192,112431,128,0,112506:0:0:0:0:
192,192,112506,128,0,112581:0:0:0:0:
64,192,112581,128,0,112656:0:0:0:0:
448,192,112581,128,0,112656:0:0:0:0:
320,192,112656,128,0,112731:0:0:0:0:
192,192,112731,128,0,112806:0:0:0:0:
64,192,112731,128,0,112806:0:0:0:0:
448,192,112806,128,0,112881:0:0:0:0:
320,192,112881,128,0,113031:0:0:0:0:
192,192,112881,128,0,113106:0:0:0:0:
64,192,112956,128,0,113031:0:0:0:0:
448,192,113031,128,0,113106:0:0:0:0:
320,192,113106,128,0,113181:0:0:0:0:
64,192,113181,128,0,113256:0:0:0:0:
192,192,113181,128,0,113331:0:0:0:0:
448,192,113256,128,0,113331:0:0:0:0:
64,192,113331,128,0,113406:0:0:0:0:
192,192,113406,128,0,113481:0:0:0:0:
320,192,113481,128,0,113631:0:0:0:0:
448,192,113481,128,0,113706:0:0:0:0:
64,192,113556,128,0,113631:0:0:0:0:
192,192,113631,128,0,113706:0:0:0:0:
320,192,113706,128,0,113781:0:0:0:0:
64,192,113781,128,0,113931:0:0:0:0:
448,192,113781,128,0,113931:0:0:0:0:
192,192,113931,128,0,114006:0:0:0:0:
320,192,113931,128,0,114006:0:0:0:0:
64,192,114081,128,0,114156:0:0:0:0:
192,192,114081,128,0,114156:0:0:0:0:
320,192,114156,128,0,114231:0:0:0:0:
448,192,114156,128,0,114231:0:0:0:0:
64,192,114231,128,0,114306:0:0:0:0:
192,192,114231,128,0,114306:0:0:0:0:
320,192,114306,128,0,114381:0:0:0:0:
448,192,114306,128,0,114381:0:0:0:0:
64,192,114381,128,0,114681:0:0:0:0:
192,192,114381,128,0,114681:0:0:0:0:
448,192,114531,128,0,114606:0:0:0:0:
320,192,114681,128,0,114756:0:0:0:0:
448,192,114681,128,0,114756:0:0:0:0:
64,192,114756,128,0,114831:0:0:0:0:
192,192,114756,128,0,114831:0:0:0:0:
320,192,114831,128,0,114906:0:0:0:0:
448,192,114831,128,0,114906:0:0:0:0:
64,192,114906,128,0,114981:0:0:0:0:
192,192,114906,128,0,114981:0:0:0:0:
320,192,114981,128,0,115281:0:0:0:0:
448,192,114981,128,0,115281:0:0:0:0:
64,192,115131,128,0,115206:0:0:0:0:
64,192,115281,128,0,115356:0:0:0:0:
192,192,115281,128,0,115356:0:0:0:0:
64,192,115431,128,0,115581:0:0:0:0:
192,192,115431,128,0,115506:0:0:0:0:
320,192,115431,128,0,115506:0:0:0:0:
192,192,115581,128,0,115806:0:0:0:0:
320,192,115581,128,0,115806:0:0:0:0:
448,192,115581,128,0,115881:0:0:0:0:
64,192,115881,128,0,116031:0:0:0:0:
192,192,115881,128,0,116031:0:0:0:0:
320,192,115881,128,0,115956:0:0:0:0:
320,192,116031,128,0,116106:0:0:0:0:
448,192,116031,128,0,116106:0:0:0:0:
192,192,116106,128,0,116181:0:0:0:0:
64,192,116181,128,0,116256:0:0:0:0:
448,192,116181,128,0,116256:0:0:0:0:
192,192,116256,128,0,116331:0:0:0:0:
320,192,116256,128,0,116331:0:0:0:0:
64,192,116331,128,0,116406:0:0:0:0:
448,192,116331,128,0,116406:0:0:0:0:
320,192,116406,128,0,116481:0:0:0:0:
64,192,116481,128,0,116631:0:0:0:0:
192,192,116481,128,0,116556:0:0:0:0:
448,192,116481,128,0,116706:0:0:0:0:
320,192,116556,128,0,116631:0:0:0:0:
192,192,116631,128,0,116706:0:0:0:0:
64,192,116706,128,0,116781:0:0:0:0:
192,192,116781,128,0,116931:0:0:0:0:
448,192,116781,128,0,116856:0:0:0:0:
320,192,116856,128,0,116931:0:0:0:0:
448,192,116931,128,0,117006:0:0:0:0:
192,192,117006,128,0,117081:0:0:0:0:
64,192,117081,128,0,117306:0:0:0:0:
320,192,117081,128,0,117231:0:0:0:0:
448,192,117156,128,0,117231:0:0:0:0:
192,192,117231,128,0,117306:0:0:0:0:
320,192,117306,128,0,117381:0:0:0:0:
64,192,117381,128,0,117606:0:0:0:0:
192,192,117381,128,0,117531:0:0:0:0:
448,192,117456,128,0,117531:0:0:0:0:
320,192,117531,128,0,117606:0:0:0:0:
192,192,117606,128,0,117681:0:0:0:0:
64,192,117681,128,0,117756:0:0:0:0:
448,192,117681,128,0,117906:0:0:0:0:
320,192,117756,128,0,117831:0:0:0:0:
64,192,117831,128,0,117906:0:0:0:0:
192,192,117906,128,0,117981:0:0:0:0:
320,192,117981,128,0,118206:0:0:0:0:
448,192,117981,128,0,118131:0:0:0:0:
64,192,118056,128,0,118131:0:0:0:0:
192,192,118131,128,0,118206:0:0:0:0:
448,192,118206,128,0,118281:0:0:0:0:
192,192,118281,128,0,118356:0:0:0:0:
320,192,118281,128,0,118506:0:0:0:0:
64,192,118356,128,0,118431:0:0:0:0:
192,192,118431,128,0,118506:0:0:0:0:
448,192,118506,128,0,118581:0:0:0:0:
320,192,118581,128,0,118656:0:0:0:0:
64,192,118581,128,0,118806:0:0:0:0:
448,192,118656,128,0,118731:0:0:0:0:
320,192,118731,128,0,118806:0:0:0:0:
192,192,118806,128,0,118881:0:0:0:0:
64,192,118881,128,0,119031:0:0:0:0:
320,192,118881,128,0,118956:0:0:0:0:
448,192,118881,128,0,119106:0:0:0:0:
192,192,118956,128,0,119031:0:0:0:0:
320,192,119031,128,0,119106:0:0:0:0:
64,192,119106,128,0,119181:0:0:0:0:
192,192,119181,128,0,119331:0:0:0:0:
448,192,119181,128,0,119406:0:0:0:0:
320,192,119256,128,0,119331:0:0:0:0:
64,192,119331,128,0,119406:0:0:0:0:
192,192,119406,128,0,119481:0:0:0:0:
448,192,119481,128,0,119706:0:0:0:0:
320,192,119481,128,0,119631:0:0:0:0:
64,192,119556,128,0,119631:0:0:0:0:
192,192,119631,128,0,119706:0:0:0:0:
320,192,119706,128,0,119781:0:0:0:0:
64,192,119781,128,0,120006:0:0:0:0:
448,192,119781,128,0,119856:0:0:0:0:
192,192,119856,128,0,119931:0:0:0:0:
448,192,119931,128,0,120006:0:0:0:0:
320,192,120006,128,0,120081:0:0:0:0:
64,192,120081,128,0,120306:0:0:0:0:
192,192,120081,128,0,120156:0:0:0:0:
448,192,120081,128,0,120231:0:0:0:0:
320,192,120156,128,0,120231:0:0:0:0:
192,192,120231,128,0,120306:0:0:0:0:
448,192,120306,128,0,120381:0:0:0:0:
64,192,120381,128,0,120606:0:0:0:0:
320,192,120381,128,0,120531:0:0:0:0:
192,192,120456,128,0,120531:0:0:0:0:
448,192,120531,128,0,120606:0:0:0:0:
320,192,120606,128,0,120681:0:0:0:0:
64,192,120681,128,0,120906:0:0:0:0:
192,192,120681,128,0,120831:0:0:0:0:
448,192,120756,128,0,120831:0:0:0:0:
320,192,120831,128,0,120906:0:0:0:0:
192,192,120906,128,0,120981:0:0:0:0:
64,192,120981,128,0,121056:0:0:0:0:
448,192,120981,128,0,121131:0:0:0:0:
320,192,121056,128,0,121131:0:0:0:0:
64,192,121131,128,0,121206:0:0:0:0:
192,192,121131,128,0,121206:0:0:0:0:
320,192,121206,128,0,121281:0:0:0:0:
448,192,121206,128,0,121281:0:0:0:0:
192,192,121281,128,0,121431:0:0:0:0:
64,192,121281,128,0,121506:0:0:0:0:
448,192,121356,128,0,121431:0:0:0:0:
320,192,121431,128,0,121506:0:0:0:0:
192,192,121506,128,0,121581:0:0:0:0:
320,192,121581,128,0,121731:0:0:0:0:
448,192,121581,128,0,121806:0:0:0:0:
64,192,121656,128,0,121731:0:0:0:0:
192,192,121731,128,0,121806:0:0:0:0:
320,192,121806,128,0,121881:0:0:0:0:
64,192,121881,128,0,122106:0:0:0:0:
192,192,121881,128,0,122031:0:0:0:0:
448,192,121956,128,0,122031:0:0:0:0:
320,192,122031,128,0,122106:0:0:0:0:
192,192,122106,128,0,122181:0:0:0:0:
448,192,122181,128,0,122406:0:0:0:0:
64,192,122181,128,0,122256:0:0:0:0:
192,192,122256,128,0,122331:0:0:0:0:
320,192,122331,128,0,122406:0:0:0:0:
192,192,122406,128,0,122481:0:0:0:0:
64,192,122481,128,0,122706:0:0:0:0:
448,192,122481,128,0,122706:0:0:0:0:
320,192,122556,128,0,122631:0:0:0:0:
192,192,122631,128,0,122706:0:0:0:0:
320,192,122706,128,0,122781:0:0:0:0:
64,192,122781,128,0,122931:0:0:0:0:
192,192,122781,128,0,122856:0:0:0:0:
448,192,122781,128,0,123006:0:0:0:0:
320,192,122856,128,0,122931:0:0:0:0:
192,192,122931,128,0,123006:0:0:0:0:
64,192,123006,128,0,123081:0:0:0:0:
192,192,123081,128,0,123156:0:0:0:0:
320,192,123081,128,0,123156:0:0:0:0:
448,192,123081,128,0,123156:0:0:0:0:
64,192,123156,128,0,123231:0:0:0:0:
320,192,123231,128,0,123306:0:0:0:0:
448,192,123231,128,0,123306:0:0:0:0:
64,192,123306,128,0,123381:0:0:0:0:
192,192,123306,128,0,123381:0:0:0:0:
320,192,123381,128,0,123456:0:0:0:0:
448,192,123381,128,0,123456:0:0:0:0:
64,192,123456,128,0,123531:0:0:0:0:
192,192,123456,128,0,123531:0:0:0:0:
320,192,123531,1,0,0:0:0:0:
448,192,123531,1,0,0:0:0:0:
192,192,123606,1,0,0:0:0:0:
320,192,123606,1,0,0:0:0:0:
192,192,123681,128,0,124056:0:0:0:0:
64,192,123681,128,0,124206:0:0:0:0:
448,192,123681,128,0,124206:0:0:0:0:
192,192,124131,128,0,124581:0:0:0:0:
320,192,124281,128,0,124731:0:0:0:0:
192,192,124731,128,0,124956:0:0:0:0:
320,192,124881,128,0,125106:0:0:0:0:
192,192,125031,128,0,125256:0:0:0:0:
320,192,125181,128,0,125406:0:0:0:0:
192,192,125331,128,0,125481:0:0:0:0:
320,192,125481,128,0,125706:0:0:0:0:
320,192,125781,128,0,126006:0:0:0:0:
64,192,126081,128,0,126306:0:0:0:0:
192,192,126081,128,0,126306:0:0:0:0:
320,192,126081,128,0,126306:0:0:0:0:
448,192,126081,128,0,126306:0:0:0:0:
192,192,126381,128,0,126456:0:0:0:0:
320,192,126381,128,0,126456:0:0:0:0:
448,192,126381,128,0,126456:0:0:0:0:
320,192,126531,128,0,126606:0:0:0:0:
192,192,126531,128,0,126606:0:0:0:0:
64,192,126531,128,0,126606:0:0:0:0:
320,192,126681,128,0,126756:0:0:0:0:
192,192,126756,128,0,126831:0:0:0:0:
64,192,126831,128,0,127056:0:0:0:0:
320,192,126831,128,0,127056:0:0:0:0:
448,192,126831,128,0,127056:0:0:0:0:
448,192,127131,128,0,127356:0:0:0:0:
192,192,127131,128,0,127356:0:0:0:0:
64,192,127131,128,0,127356:0:0:0:0:
64,192,127431,128,0,127506:0:0:0:0:
192,192,127431,128,0,127506:0:0:0:0:
320,192,127431,128,0,127506:0:0:0:0:
192,192,127581,128,0,127731:0:0:0:0:
320,192,127581,128,0,127731:0:0:0:0:
448,192,127581,128,0,127731:0:0:0:0:
64,192,127731,128,0,127806:0:0:0:0:
192,192,127806,128,0,127881:0:0:0:0:
320,192,127881,128,0,128106:0:0:0:0:
448,192,127881,128,0,128106:0:0:0:0:
64,192,127881,128,0,128106:0:0:0:0:
192,192,128181,128,0,128406:0:0:0:0:
64,192,128181,128,0,128406:0:0:0:0:
448,192,128181,128,0,128406:0:0:0:0:
448,192,128481,128,0,128556:0:0:0:0:
320,192,128481,128,0,128556:0:0:0:0:
192,192,128481,128,0,128556:0:0:0:0:
192,192,128631,128,0,128706:0:0:0:0:
64,192,128631,128,0,128706:0:0:0:0:
320,192,128631,128,0,128706:0:0:0:0:
320,192,128781,128,0,128856:0:0:0:0:
192,192,128856,128,0,128931:0:0:0:0:
64,192,128931,128,0,129156:0:0:0:0:
320,192,128931,128,0,129156:0:0:0:0:
448,192,128931,128,0,129156:0:0:0:0:
448,192,129231,128,0,129456:0:0:0:0:
192,192,129231,128,0,129456:0:0:0:0:
64,192,129231,128,0,129456:0:0:0:0:
64,192,129531,128,0,129606:0:0:0:0:
192,192,129531,128,0,129606:0:0:0:0:
320,192,129531,128,0,129606:0:0:0:0:
320,192,129681,128,0,129756:0:0:0:0:
192,192,129681,128,0,129756:0:0:0:0:
448,192,129681,128,0,129756:0:0:0:0:
448,192,129831,128,0,129906:0:0:0:0:
320,192,129906,128,0,129981:0:0:0:0:
192,192,129981,128,0,130056:0:0:0:0:
64,192,129981,128,0,130056:0:0:0:0:
320,192,130056,128,0,130131:0:0:0:0:
448,192,130056,128,0,130131:0:0:0:0:
192,192,130131,128,0,130206:0:0:0:0:
64,192,130131,128,0,130206:0:0:0:0:
320,192,130206,1,0,0:0:0:0:
448,192,130206,1,0,0:0:0:0:
64,192,130281,128,0,130506:0:0:0:0:
192,192,130281,128,0,130506:0:0:0:0:
448,192,130281,128,0,130506:0:0:0:0:
192,192,130581,128,0,130656:0:0:0:0:
320,192,130581,128,0,130656:0:0:0:0:
448,192,130581,128,0,130656:0:0:0:0:
320,192,130731,128,0,130806:0:0:0:0:
192,192,130731,128,0,130806:0:0:0:0:
64,192,130731,128,0,130806:0:0:0:0:
448,192,130881,128,0,130956:0:0:0:0:
64,192,131031,128,0,131106:0:0:0:0:
320,192,131031,128,0,131106:0:0:0:0:
448,192,131031,128,0,131106:0:0:0:0:
64,192,131181,128,0,131256:0:0:0:0:
64,192,131331,128,0,131556:0:0:0:0:
192,192,131331,128,0,131556:0:0:0:0:
448,192,131331,128,0,131556:0:0:0:0:
320,192,131631,128,0,131706:0:0:0:0:
448,192,131631,128,0,131706:0:0:0:0:
64,192,131631,128,0,131706:0:0:0:0:
192,192,131781,128,0,131856:0:0:0:0:
320,192,131781,128,0,131856:0:0:0:0:
448,192,131781,128,0,131856:0:0:0:0:
192,192,131931,128,0,132006:0:0:0:0:
320,192,132006,128,0,132081:0:0:0:0:
448,192,132081,128,0,132156:0:0:0:0:
192,192,132081,128,0,132156:0:0:0:0:
64,192,132081,128,0,132156:0:0:0:0:
448,192,132231,128,0,132306:0:0:0:0:
320,192,132381,128,0,132456:0:0:0:0:
192,192,132381,128,0,132456:0:0:0:0:
64,192,132381,128,0,132456:0:0:0:0:
192,192,132531,128,0,132606:0:0:0:0:
64,192,132681,128,0,132756:0:0:0:0:
320,192,132681,128,0,132756:0:0:0:0:
448,192,132681,128,0,132756:0:0:0:0:
192,192,132831,128,0,132906:0:0:0:0:
320,192,132831,128,0,132906:0:0:0:0:
448,192,132831,128,0,132906:0:0:0:0:
64,192,132981,128,0,133056:0:0:0:0:
192,192,133056,128,0,133131:0:0:0:0:
64,192,133131,128,0,133356:0:0:0:0:
320,192,133131,128,0,133356:0:0:0:0:
448,192,133131,128,0,133356:0:0:0:0:
192,192,133431,128,0,133731:0:0:0:0:
64,192,133431,128,0,133581:0:0:0:0:
320,192,133431,128,0,133581:0:0:0:0:
320,192,133731,128,0,133806:0:0:0:0:
448,192,133731,128,0,133806:0:0:0:0:
64,192,133731,128,0,133806:0:0:0:0:
320,192,133881,128,0,133956:0:0:0:0:
448,192,133881,128,0,133956:0:0:0:0:
192,192,133881,128,0,133956:0:0:0:0:
64,192,133881,128,0,133956:0:0:0:0:
320,192,134031,128,0,134106:0:0:0:0:
448,192,134031,128,0,134106:0:0:0:0:
64,192,134106,128,0,134181:0:0:0:0:
320,192,134181,128,0,134256:0:0:0:0:
192,192,134181,128,0,134256:0:0:0:0:
448,192,134256,128,0,134331:0:0:0:0:
192,192,134331,128,0,134406:0:0:0:0:
64,192,134331,128,0,134406:0:0:0:0:
320,192,134406,128,0,134481:0:0:0:0:
448,192,134481,128,0,134531:0:0:0:0:
64,192,134481,128,0,134531:0:0:0:0:
192,192,134531,128,0,134581:0:0:0:0:
320,192,134581,128,0,134631:0:0:0:0:
448,192,134631,128,0,134681:0:0:0:0:
64,192,134681,128,0,134731:0:0:0:0:
192,192,134731,128,0,134781:0:0:0:0:
448,192,134781,128,0,134831:0:0:0:0:
320,192,134781,128,0,134831:0:0:0:0:
64,192,134831,128,0,134881:0:0:0:0:
192,192,134881,128,0,134931:0:0:0:0:
320,192,134931,128,0,134981:0:0:0:0:
448,192,134931,128,0,134981:0:0:0:0:
64,192,134981,128,0,135031:0:0:0:0:
192,192,135031,128,0,135081:0:0:0:0:
448,192,135081,128,0,135131:0:0:0:0:
320,192,135131,128,0,135181:0:0:0:0:
192,192,135181,128,0,135231:0:0:0:0:
448,192,135231,128,0,135281:0:0:0:0:
64,192,135231,128,0,135281:0:0:0:0:
320,192,135281,128,0,135331:0:0:0:0:
192,192,135331,128,0,135381:0:0:0:0:
64,192,135381,128,0,135431:0:0:0:0:
448,192,135431,128,0,135481:0:0:0:0:
320,192,135481,128,0,135531:0:0:0:0:
192,192,135531,128,0,135581:0:0:0:0:
64,192,135531,128,0,135581:0:0:0:0:
448,192,135581,128,0,135631:0:0:0:0:
320,192,135631,128,0,135681:0:0:0:0:
64,192,135681,128,0,135731:0:0:0:0:
192,192,135731,128,0,135781:0:0:0:0:
320,192,135781,128,0,135831:0:0:0:0:
64,192,135831,128,0,135881:0:0:0:0:
448,192,135831,128,0,135881:0:0:0:0:
192,192,135881,128,0,135931:0:0:0:0:
320,192,135931,128,0,135981:0:0:0:0:
64,192,135981,128,0,136031:0:0:0:0:
448,192,135981,128,0,136031:0:0:0:0:
192,192,136031,128,0,136081:0:0:0:0:
320,192,136081,128,0,136131:0:0:0:0:
64,192,136131,128,0,136181:0:0:0:0:
448,192,136181,128,0,136231:0:0:0:0:
320,192,136231,128,0,136281:0:0:0:0:
192,192,136281,128,0,136331:0:0:0:0:
64,192,136281,128,0,136331:0:0:0:0:
448,192,136331,128,0,136381:0:0:0:0:
320,192,136381,128,0,136431:0:0:0:0:
64,192,136431,128,0,136481:0:0:0:0:
448,192,136481,128,0,136531:0:0:0:0:
192,192,136531,128,0,136581:0:0:0:0:
64,192,136581,128,0,136631:0:0:0:0:
448,192,136581,128,0,136631:0:0:0:0:
320,192,136631,128,0,136681:0:0:0:0:
192,192,136681,128,0,136731:0:0:0:0:
448,192,136731,128,0,136781:0:0:0:0:
64,192,136781,128,0,136831:0:0:0:0:
192,192,136831,128,0,136881:0:0:0:0:
320,192,136881,128,0,136931:0:0:0:0:
448,192,136881,128,0,136931:0:0:0:0:
64,192,136931,128,0,136981:0:0:0:0:
192,192,136981,128,0,137031:0:0:0:0:
320,192,137031,128,0,137081:0:0:0:0:
448,192,137031,128,0,137081:0:0:0:0:
64,192,137081,128,0,137131:0:0:0:0:
192,192,137131,128,0,137181:0:0:0:0:
448,192,137181,128,0,137231:0:0:0:0:
320,192,137231,128,0,137281:0:0:0:0:
192,192,137281,128,0,137331:0:0:0:0:
448,192,137331,128,0,137381:0:0:0:0:
64,192,137331,128,0,137381:0:0:0:0:
320,192,137381,128,0,137431:0:0:0:0:
192,192,137431,128,0,137481:0:0:0:0:
64,192,137481,128,0,137531:0:0:0:0:
320,192,137531,128,0,137581:0:0:0:0:
448,192,137581,128,0,137631:0:0:0:0:
192,192,137631,128,0,137681:0:0:0:0:
64,192,137631,128,0,137681:0:0:0:0:
320,192,137681,128,0,137731:0:0:0:0:
448,192,137731,128,0,137781:0:0:0:0:
64,192,137781,128,0,137831:0:0:0:0:
192,192,137831,128,0,137881:0:0:0:0:
320,192,137881,128,0,137931:0:0:0:0:
448,192,137931,128,0,137981:0:0:0:0:
64,192,137931,128,0,137981:0:0:0:0:
192,192,137981,128,0,138031:0:0:0:0:
320,192,138031,128,0,138081:0:0:0:0:
64,192,138081,128,0,138131:0:0:0:0:
448,192,138081,128,0,138131:0:0:0:0:
192,192,138131,128,0,138181:0:0:0:0:
320,192,138181,128,0,138231:0:0:0:0:
64,192,138231,128,0,138281:0:0:0:0:
448,192,138281,128,0,138331:0:0:0:0:
320,192,138331,128,0,138381:0:0:0:0:
192,192,138381,128,0,138456:0:0:0:0:
64,192,138381,128,0,138456:0:0:0:0:
320,192,138456,128,0,138531:0:0:0:0:
448,192,138456,128,0,138531:0:0:0:0:
192,192,138531,128,0,138606:0:0:0:0:
64,192,138531,128,0,138606:0:0:0:0:
320,192,138606,128,0,138681:0:0:0:0:
448,192,138606,128,0,138681:0:0:0:0:
192,192,138681,128,0,138731:0:0:0:0:
64,192,138681,128,0,138731:0:0:0:0:
320,192,138731,128,0,138781:0:0:0:0:
448,192,138781,128,0,138831:0:0:0:0:
64,192,138831,128,0,138881:0:0:0:0:
192,192,138881,128,0,138931:0:0:0:0:
320,192,138931,128,0,138981:0:0:0:0:
448,192,138981,128,0,139031:0:0:0:0:
64,192,138981,128,0,139031:0:0:0:0:
192,192,139031,128,0,139081:0:0:0:0:
448,192,139081,128,0,139131:0:0:0:0:
64,192,139131,128,0,139181:0:0:0:0:
192,192,139131,128,0,139181:0:0:0:0:
320,192,139181,128,0,139231:0:0:0:0:
448,192,139231,128,0,139281:0:0:0:0:
64,192,139281,128,0,139331:0:0:0:0:
192,192,139331,128,0,139381:0:0:0:0:
448,192,139381,128,0,139431:0:0:0:0:
192,192,139431,128,0,139481:0:0:0:0:
320,192,139431,128,0,139481:0:0:0:0:
64,192,139481,128,0,139531:0:0:0:0:
448,192,139531,128,0,139581:0:0:0:0:
320,192,139581,128,0,139631:0:0:0:0:
64,192,139631,128,0,139681:0:0:0:0:
192,192,139681,128,0,139731:0:0:0:0:
320,192,139731,128,0,139781:0:0:0:0:
448,192,139731,128,0,139781:0:0:0:0:
64,192,139781,128,0,139831:0:0:0:0:
192,192,139831,128,0,139881:0:0:0:0:
448,192,139881,128,0,139931:0:0:0:0:
320,192,139931,128,0,139981:0:0:0:0:
192,192,139981,128,0,140031:0:0:0:0:
64,192,140031,128,0,140081:0:0:0:0:
448,192,140031,128,0,140081:0:0:0:0:
320,192,140081,128,0,140131:0:0:0:0:
192,192,140131,128,0,140181:0:0:0:0:
64,192,140181,128,0,140231:0:0:0:0:
448,192,140181,128,0,140231:0:0:0:0:
320,192,140231,128,0,140281:0:0:0:0:
64,192,140281,128,0,140331:0:0:0:0:
192,192,140331,128,0,140381:0:0:0:0:
320,192,140381,128,0,140431:0:0:0:0:
448,192,140431,128,0,140481:0:0:0:0:
64,192,140481,128,0,140531:0:0:0:0:
192,192,140481,128,0,140531:0:0:0:0:
320,192,140531,128,0,140581:0:0:0:0:
448,192,140581,128,0,140631:0:0:0:0:
192,192,140631,128,0,140681:0:0:0:0:
64,192,140681,128,0,140731:0:0:0:0:
448,192,140731,128,0,140781:0:0:0:0:
320,192,140781,128,0,140831:0:0:0:0:
192,192,140781,128,0,140831:0:0:0:0:
64,192,140831,128,0,140881:0:0:0:0:
448,192,140881,128,0,140931:0:0:0:0:
320,192,140931,128,0,140981:0:0:0:0:
192,192,140981,128,0,141031:0:0:0:0:
64,192,141031,128,0,141081:0:0:0:0:
448,192,141081,128,0,141131:0:0:0:0:
320,192,141081,128,0,141131:0:0:0:0:
192,192,141131,128,0,141181:0:0:0:0:
64,192,141181,128,0,141231:0:0:0:0:
320,192,141231,128,0,141281:0:0:0:0:
448,192,141231,128,0,141281:0:0:0:0:
192,192,141281,128,0,141331:0:0:0:0:
64,192,141331,128,0,141381:0:0:0:0:
320,192,141381,128,0,141431:0:0:0:0:
448,192,141431,128,0,141481:0:0:0:0:
64,192,141481,128,0,141531:0:0:0:0:
192,192,141531,128,0,141581:0:0:0:0:
320,192,141531,128,0,141581:0:0:0:0:
448,192,141581,128,0,141631:0:0:0:0:
64,192,141631,128,0,141681:0:0:0:0:
192,192,141681,128,0,141731:0:0:0:0:
320,192,141731,128,0,141781:0:0:0:0:
64,192,141781,128,0,141831:0:0:0:0:
320,192,141831,128,0,141881:0:0:0:0:
448,192,141831,128,0,141881:0:0:0:0:
192,192,141881,128,0,141931:0:0:0:0:
64,192,141931,128,0,141981:0:0:0:0:
448,192,141981,128,0,142031:0:0:0:0:
320,192,142031,128,0,142081:0:0:0:0:
192,192,142081,128,0,142131:0:0:0:0:
448,192,142131,128,0,142181:0:0:0:0:
64,192,142131,128,0,142181:0:0:0:0:
320,192,142181,128,0,142231:0:0:0:0:
192,192,142231,128,0,142281:0:0:0:0:
64,192,142281,128,0,142331:0:0:0:0:
448,192,142281,128,0,142331:0:0:0:0:
320,192,142331,128,0,142381:0:0:0:0:
64,192,142381,128,0,142431:0:0:0:0:
192,192,142431,128,0,142481:0:0:0:0:
448,192,142481,128,0,142531:0:0:0:0:
64,192,142531,128,0,142581:0:0:0:0:
192,192,142581,128,0,142656:0:0:0:0:
320,192,142581,128,0,142656:0:0:0:0:
448,192,142656,128,0,142731:0:0:0:0:
64,192,142656,128,0,142731:0:0:0:0:
192,192,142731,128,0,142806:0:0:0:0:
320,192,142731,128,0,142806:0:0:0:0:
448,192,142806,128,0,142881:0:0:0:0:
64,192,142806,128,0,142881:0:0:0:0:
320,192,142881,128,0,142931:0:0:0:0:
192,192,142881,128,0,142931:0:0:0:0:
64,192,142931,128,0,142981:0:0:0:0:
448,192,142981,128,0,143031:0:0:0:0:
320,192,143031,128,0,143081:0:0:0:0:
192,192,143081,128,0,143131:0:0:0:0:
64,192,143131,128,0,143181:0:0:0:0:
320,192,143181,128,0,143231:0:0:0:0:
448,192,143181,128,0,143231:0:0:0:0:
64,192,143231,128,0,143281:0:0:0:0:
192,192,143281,128,0,143331:0:0:0:0:
320,192,143331,128,0,143381:0:0:0:0:
448,192,143331,128,0,143381:0:0:0:0:
64,192,143381,128,0,143431:0:0:0:0:
192,192,143431,128,0,143481:0:0:0:0:
320,192,143481,128,0,143531:0:0:0:0:
448,192,143531,128,0,143581:0:0:0:0:
64,192,143581,128,0,143631:0:0:0:0:
192,192,143631,128,0,143681:0:0:0:0:
320,192,143631,128,0,143681:0:0:0:0:
448,192,143681,128,0,143731:0:0:0:0:
64,192,143731,128,0,143781:0:0:0:0:
192,192,143781,128,0,143831:0:0:0:0:
448,192,143831,128,0,143881:0:0:0:0:
320,192,143881,128,0,143931:0:0:0:0:
192,192,143931,128,0,143981:0:0:0:0:
64,192,143931,128,0,143981:0:0:0:0:
448,192,143981,128,0,144031:0:0:0:0:
320,192,144031,128,0,144081:0:0:0:0:
192,192,144081,128,0,144131:0:0:0:0:
64,192,144131,128,0,144181:0:0:0:0:
320,192,144181,128,0,144231:0:0:0:0:
448,192,144231,128,0,144281:0:0:0:0:
64,192,144231,128,0,144281:0:0:0:0:
192,192,144281,128,0,144331:0:0:0:0:
320,192,144331,128,0,144381:0:0:0:0:
448,192,144381,128,0,144431:0:0:0:0:
64,192,144381,128,0,144431:0:0:0:0:
192,192,144431,128,0,144481:0:0:0:0:
320,192,144481,128,0,144531:0:0:0:0:
64,192,144531,128,0,144581:0:0:0:0:
320,192,144581,128,0,144631:0:0:0:0:
192,192,144631,128,0,144681:0:0:0:0:
64,192,144681,128,0,144731:0:0:0:0:
448,192,144681,128,0,144731:0:0:0:0:
320,192,144731,128,0,144781:0:0:0:0:
192,192,144781,128,0,144831:0:0:0:0:
448,192,144831,128,0,144881:0:0:0:0:
320,192,144881,128,0,144931:0:0:0:0:
192,192,144931,128,0,144981:0:0:0:0:
64,192,144981,128,0,145031:0:0:0:0:
448,192,144981,128,0,145031:0:0:0:0:
320,192,145031,128,0,145081:0:0:0:0:
64,192,145081,128,0,145131:0:0:0:0:
192,192,145131,128,0,145181:0:0:0:0:
320,192,145181,128,0,145231:0:0:0:0:
448,192,145231,128,0,145281:0:0:0:0:
192,192,145281,128,0,145331:0:0:0:0:
64,192,145281,128,0,145331:0:0:0:0:
320,192,145331,128,0,145381:0:0:0:0:
448,192,145381,128,0,145431:0:0:0:0:
192,192,145431,128,0,145481:0:0:0:0:
64,192,145431,128,0,145481:0:0:0:0:
320,192,145481,128,0,145531:0:0:0:0:
448,192,145531,128,0,145581:0:0:0:0:
64,192,145581,128,0,145631:0:0:0:0:
192,192,145631,128,0,145681:0:0:0:0:
448,192,145681,128,0,145731:0:0:0:0:
64,192,145731,128,0,145781:0:0:0:0:
320,192,145731,128,0,145781:0:0:0:0:
192,192,145781,128,0,145831:0:0:0:0:
448,192,145831,128,0,145881:0:0:0:0:
320,192,145881,128,0,145931:0:0:0:0:
192,192,145931,128,0,145981:0:0:0:0:
64,192,145981,128,0,146031:0:0:0:0:
320,192,146031,128,0,146081:0:0:0:0:
448,192,146031,128,0,146081:0:0:0:0:
192,192,146081,128,0,146131:0:0:0:0:
64,192,146131,128,0,146181:0:0:0:0:
320,192,146181,128,0,146231:0:0:0:0:
448,192,146231,128,0,146281:0:0:0:0:
64,192,146281,128,0,146331:0:0:0:0:
192,192,146331,128,0,146381:0:0:0:0:
320,192,146331,128,0,146381:0:0:0:0:
448,192,146381,128,0,146431:0:0:0:0:
64,192,146431,128,0,146481:0:0:0:0:
192,192,146481,128,0,146556:0:0:0:0:
448,192,146481,128,0,146556:0:0:0:0:
320,192,146556,128,0,146631:0:0:0:0:
64,192,146556,128,0,146631:0:0:0:0:
192,192,146631,128,0,146706:0:0:0:0:
448,192,146631,128,0,146706:0:0:0:0:
320,192,146706,128,0,146781:0:0:0:0:
192,192,146781,128,0,146856:0:0:0:0:
64,192,146781,128,0,146856:0:0:0:0:
320,192,146856,128,0,146931:0:0:0:0:
448,192,146856,128,0,146931:0:0:0:0:
192,192,146931,128,0,147006:0:0:0:0:
64,192,146931,128,0,147006:0:0:0:0:
320,192,147006,128,0,147081:0:0:0:0:
448,192,147006,128,0,147081:0:0:0:0:
64,192,147081,128,0,147131:0:0:0:0:
192,192,147081,128,0,147131:0:0:0:0:
320,192,147131,128,0,147181:0:0:0:0:
448,192,147181,128,0,147231:0:0:0:0:
64,192,147231,128,0,147281:0:0:0:0:
192,192,147281,128,0,147331:0:0:0:0:
320,192,147331,128,0,147381:0:0:0:0:
64,192,147381,128,0,147431:0:0:0:0:
448,192,147381,128,0,147431:0:0:0:0:
192,192,147431,128,0,147481:0:0:0:0:
320,192,147481,128,0,147531:0:0:0:0:
64,192,147531,128,0,147581:0:0:0:0:
448,192,147531,128,0,147581:0:0:0:0:
192,192,147581,128,0,147631:0:0:0:0:
448,192,147631,128,0,147681:0:0:0:0:
320,192,147681,128,0,147731:0:0:0:0:
192,192,147731,128,0,147781:0:0:0:0:
64,192,147781,128,0,147831:0:0:0:0:
320,192,147831,128,0,147881:0:0:0:0:
448,192,147831,128,0,147881:0:0:0:0:
64,192,147881,128,0,147931:0:0:0:0:
192,192,147931,128,0,147981:0:0:0:0:
320,192,147981,128,0,148031:0:0:0:0:
448,192,148031,128,0,148081:0:0:0:0:
192,192,148081,128,0,148131:0:0:0:0:
64,192,148131,128,0,148181:0:0:0:0:
448,192,148131,128,0,148181:0:0:0:0:
320,192,148181,128,0,148231:0:0:0:0:
192,192,148231,128,0,148281:0:0:0:0:
64,192,148281,128,0,148331:0:0:0:0:
448,192,148331,128,0,148381:0:0:0:0:
320,192,148381,128,0,148431:0:0:0:0:
64,192,148431,128,0,148481:0:0:0:0:
448,192,148431,128,0,148481:0:0:0:0:
192,192,148481,128,0,148531:0:0:0:0:
320,192,148531,128,0,148581:0:0:0:0:
64,192,148581,128,0,148631:0:0:0:0:
448,192,148631,128,0,148681:0:0:0:0:
320,192,148681,128,0,148731:0:0:0:0:
192,192,148731,128,0,148781:0:0:0:0:
64,192,148781,128,0,148831:0:0:0:0:
320,192,148831,128,0,148881:0:0:0:0:
448,192,148881,128,0,148931:0:0:0:0:
64,192,148881,128,0,148931:0:0:0:0:
320,192,148931,128,0,148981:0:0:0:0:
192,192,148981,128,0,149031:0:0:0:0:
64,192,149031,128,0,149081:0:0:0:0:
448,192,149081,128,0,149131:0:0:0:0:
320,192,149131,128,0,149181:0:0:0:0:
64,192,149181,128,0,149406:0:0:0:0:
192,192,149181,128,0,149406:0:0:0:0:
448,192,149181,128,0,149406:0:0:0:0:
320,192,149481,128,0,149631:0:0:0:0:
192,192,149481,128,0,149556:0:0:0:0:
64,192,149481,128,0,149556:0:0:0:0:
64,192,149631,128,0,149856:0:0:0:0:
192,192,149631,128,0,149856:0:0:0:0:
448,192,149631,128,0,149856:0:0:0:0:
64,192,149931,128,0,150156:0:0:0:0:
320,192,149931,128,0,150156:0:0:0:0:
448,192,149931,128,0,150156:0:0:0:0:
320,192,150231,128,0,150531:0:0:0:0:
192,192,150231,128,0,150531:0:0:0:0:
448,192,150231,128,0,150531:0:0:0:0:
320,192,150681,128,0,150831:0:0:0:0:
448,192,150681,128,0,150831:0:0:0:0:
192,192,150831,1,0,0:0:0:0:
320,192,150881,1,0,0:0:0:0:
192,192,150931,1,0,0:0:0:0:
320,192,150981,128,0,151056:0:0:0:0:
448,192,150981,128,0,151056:0:0:0:0:
320,192,151131,128,0,151206:0:0:0:0:
448,192,151131,128,0,151206:0:0:0:0:
320,192,151281,128,0,151356:0:0:0:0:
448,192,151281,128,0,151356:0:0:0:0:
64,192,151431,128,0,151731:0:0:0:0:
192,192,151431,128,0,151731:0:0:0:0:
320,192,151731,1,0,0:0:0:0:
448,192,151731,1,0,0:0:0:0:
320,192,151881,128,0,152031:0:0:0:0:
448,192,151881,128,0,152031:0:0:0:0:
64,192,152031,1,0,0:0:0:0:
192,192,152031,1,0,0:0:0:0:
448,192,152181,128,0,152331:0:0:0:0:
192,192,152181,128,0,152331:0:0:0:0:
64,192,152331,1,0,0:0:0:0:
320,192,152331,1,0,0:0:0:0:
192,192,152406,1,0,0:0:0:0:
320,192,152481,128,0,152631:0:0:0:0:
448,192,152481,128,0,152631:0:0:0:0:
192,192,152631,1,0,0:0:0:0:
64,192,152631,1,0,0:0:0:0:
192,192,152781,128,0,152931:0:0:0:0:
448,192,152781,128,0,152931:0:0:0:0:
320,192,152931,1,0,0:0:0:0:
64,192,152931,1,0,0:0:0:0:
320,192,153081,128,0,153231:0:0:0:0:
448,192,153081,128,0,153231:0:0:0:0:
64,192,153231,128,0,153306:0:0:0:0:
192,192,153231,128,0,153306:0:0:0:0:
320,192,153306,128,0,153381:0:0:0:0:
64,192,153381,128,0,153456:0:0:0:0:
448,192,153381,128,0,153456:0:0:0:0:
64,192,153531,128,0,153681:0:0:0:0:
448,192,153531,128,0,153681:0:0:0:0:
320,192,153681,1,0,0:0:0:0:
192,192,153681,1,0,0:0:0:0:
192,192,153831,128,0,154131:0:0:0:0:
64,192,153831,128,0,154131:0:0:0:0:
320,192,154131,1,0,0:0:0:0:
448,192,154131,1,0,0:0:0:0:
64,192,154281,128,0,154431:0:0:0:0:
192,192,154281,128,0,154431:0:0:0:0:
320,192,154431,1,0,0:0:0:0:
448,192,154431,1,0,0:0:0:0:
64,192,154581,128,0,154731:0:0:0:0:
320,192,154581,128,0,154731:0:0:0:0:
192,192,154731,1,0,0:0:0:0:
448,192,154731,1,0,0:0:0:0:
320,192,154806,1,0,0:0:0:0:
192,192,154881,128,0,155031:0:0:0:0:
64,192,154881,128,0,155031:0:0:0:0:
320,192,155031,1,0,0:0:0:0:
448,192,155031,1,0,0:0:0:0:
64,192,155181,128,0,155331:0:0:0:0:
320,192,155181,128,0,155331:0:0:0:0:
192,192,155331,1,0,0:0:0:0:
448,192,155331,1,0,0:0:0:0:
320,192,155406,1,0,0:0:0:0:
64,192,155481,128,0,155631:0:0:0:0:
192,192,155481,128,0,155631:0:0:0:0:
320,192,155631,1,0,0:0:0:0:
448,192,155631,1,0,0:0:0:0:
64,192,155706,1,0,0:0:0:0:
192,192,155706,1,0,0:0:0:0:
320,192,155781,128,0,155931:0:0:0:0:
448,192,155781,128,0,155931:0:0:0:0:
192,192,155931,1,0,0:0:0:0:
64,192,155931,1,0,0:0:0:0:
192,192,156081,1,0,0:0:0:0:
320,192,156081,1,0,0:0:0:0:
64,192,156231,128,0,156531:0:0:0:0:
448,192,156231,128,0,156531:0:0:0:0:
192,192,156531,1,0,0:0:0:0:
320,192,156531,1,0,0:0:0:0:
192,192,156681,128,0,156831:0:0:0:0:
320,192,156681,128,0,156831:0:0:0:0:
64,192,156831,1,0,0:0:0:0:
448,192,156831,1,0,0:0:0:0:
64,192,156981,128,0,157131:0:0:0:0:
448,192,156981,128,0,157131:0:0:0:0:
320,192,157131,1,0,0:0:0:0:
192,192,157131,1,0,0:0:0:0:
64,192,157206,1,0,0:0:0:0:
192,192,157281,128,0,157431:0:0:0:0:
448,192,157281,128,0,157431:0:0:0:0:
320,192,157431,1,0,0:0:0:0:
64,192,157431,1,0,0:0:0:0:
64,192,157581,128,0,157731:0:0:0:0:
320,192,157581,128,0,157731:0:0:0:0:
192,192,157731,1,0,0:0:0:0:
448,192,157731,1,0,0:0:0:0:
64,192,157881,128,0,158031:0:0:0:0:
448,192,157881,128,0,158031:0:0:0:0:
320,192,158031,1,0,0:0:0:0:
192,192,158031,1,0,0:0:0:0:
64,192,158106,1,0,0:0:0:0:
192,192,158181,128,0,158331:0:0:0:0:
448,192,158181,128,0,158331:0:0:0:0:
320,192,158331,1,0,0:0:0:0:
64,192,158331,1,0,0:0:0:0:
192,192,158406,1,0,0:0:0:0:
320,192,158481,128,0,158631:0:0:0:0:
448,192,158481,128,0,158631:0:0:0:0:
64,192,158631,128,0,158931:0:0:0:0:
192,192,158631,128,0,158931:0:0:0:0:
320,192,158931,128,0,159006:0:0:0:0:
192,192,159006,128,0,159081:0:0:0:0:
320,192,159081,128,0,159156:0:0:0:0:
192,192,159156,128,0,159231:0:0:0:0:
320,192,159231,128,0,159306:0:0:0:0:
192,192,159306,128,0,159381:0:0:0:0:
448,192,159381,1,0,0:0:0:0:
320,192,159381,128,0,159456:0:0:0:0:
64,192,159456,1,0,0:0:0:0:
192,192,159456,128,0,159531:0:0:0:0:
448,192,159531,1,0,0:0:0:0:
320,192,159531,128,0,159606:0:0:0:0:
64,192,159606,1,0,0:0:0:0:
192,192,159606,128,0,159681:0:0:0:0:
448,192,159681,1,0,0:0:0:0:
320,192,159681,128,0,159756:0:0:0:0:
64,192,159756,1,0,0:0:0:0:
192,192,159756,128,0,159831:0:0:0:0:
448,192,159831,1,0,0:0:0:0:
320,192,159831,128,0,159906:0:0:0:0:
64,192,159906,1,0,0:0:0:0:
192,192,159906,128,0,159981:0:0:0:0:
320,192,159981,128,0,160131:0:0:0:0:
448,192,159981,128,0,160131:0:0:0:0:
192,192,160206,128,0,160356:0:0:0:0:
320,192,160206,128,0,160356:0:0:0:0:
448,192,160206,128,0,160356:0:0:0:0:
64,192,160431,128,0,160506:0:0:0:0:
192,192,160431,128,0,160506:0:0:0:0:
320,192,160431,128,0,160506:0:0:0:0:
448,192,160431,128,0,160506:0:0:0:0:
64,192,160581,128,0,160731:0:0:0:0:
192,192,160581,128,0,160731:0:0:0:0:
64,192,160806,128,0,160956:0:0:0:0:
192,192,160806,128,0,160956:0:0:0:0:
320,192,160806,128,0,160956:0:0:0:0:
64,192,161031,128,0,161256:0:0:0:0:
192,192,161031,128,0,161256:0:0:0:0:
320,192,161031,128,0,161256:0:0:0:0:
448,192,161031,128,0,161256:0:0:0:0:
448,192,161781,128,0,161931:0:0:0:0:
320,192,161781,128,0,162081:0:0:0:0:
192,192,161781,128,0,162231:0:0:0:0:
64,192,161781,128,0,162381:0:0:0:0:
448,192,162081,128,0,162381:0:0:0:0:
320,192,162231,128,0,162381:0:0:0:0:
192,192,162381,128,0,162531:0:0:0:0:
448,192,162531,128,0,162681:0:0:0:0:
192,192,162681,128,0,162981:0:0:0:0:
448,192,162831,128,0,162981:0:0:0:0:
64,192,162981,128,0,163131:0:0:0:0:
320,192,163131,128,0,163431:0:0:0:0:
64,192,163281,128,0,163431:0:0:0:0:
192,192,163431,128,0,163581:0:0:0:0:
320,192,163581,128,0,163881:0:0:0:0:
192,192,163731,128,0,163881:0:0:0:0:
64,192,163881,128,0,164181:0:0:0:0:
320,192,164031,128,0,164181:0:0:0:0:
192,192,164181,128,0,164481:0:0:0:0:
320,192,164331,128,0,164481:0:0:0:0:
448,192,164481,128,0,164631:0:0:0:0:
192,192,164631,128,0,164931:0:0:0:0:
448,192,164781,128,0,164931:0:0:0:0:
320,192,164931,128,0,165081:0:0:0:0:
192,192,165081,128,0,165381:0:0:0:0:
320,192,165231,128,0,165381:0:0:0:0:
448,192,165381,128,0,165681:0:0:0:0:
64,192,165531,128,0,165681:0:0:0:0:
320,192,165681,128,0,165981:0:0:0:0:
64,192,165831,128,0,165981:0:0:0:0:
448,192,165981,128,0,166281:0:0:0:0:
64,192,166131,128,0,166281:0:0:0:0:
320,192,166281,128,0,166581:0:0:0:0:
192,192,166431,128,0,166581:0:0:0:0:
64,192,166581,128,0,166881:0:0:0:0:
192,192,166731,128,0,166881:0:0:0:0:
320,192,166881,128,0,167031:0:0:0:0:
64,192,167031,128,0,167331:0:0:0:0:
320,192,167181,128,0,167331:0:0:0:0:
192,192,167331,128,0,167481:0:0:0:0:
64,192,167481,128,0,167781:0:0:0:0:
320,192,167631,128,0,167781:0:0:0:0:
192,192,167781,128,0,168081:0:0:0:0:
320,192,167931,128,0,168081:0:0:0:0:
448,192,168081,128,0,168381:0:0:0:0:
320,192,168231,128,0,168531:0:0:0:0:
192,192,168381,128,0,168906:0:0:0:0:
64,192,168531,128,0,168906:0:0:0:0:
320,192,168681,128,0,168906:0:0:0:0:
448,192,168831,128,0,168906:0:0:0:0:
192,192,168981,128,0,169206:0:0:0:0:
192,192,169281,128,0,169356:0:0:0:0:
64,192,169431,128,0,169506:0:0:0:0:
192,192,169581,128,0,169656:0:0:0:0:
192,192,169731,128,0,169806:0:0:0:0:
192,192,169881,128,0,169956:0:0:0:0:
64,192,170031,128,0,170106:0:0:0:0:
192,192,170181,128,0,170331:0:0:0:0:
448,192,170481,128,0,170781:0:0:0:0:
192,192,170781,128,0,170931:0:0:0:0:
320,192,171381,128,0,171681:0:0:0:0:
448,192,171381,128,0,171456:0:0:0:0:
64,192,171381,128,0,171456:0:0:0:0:
192,192,171456,128,0,171531:0:0:0:0:
64,192,171531,128,0,171606:0:0:0:0:
192,192,171606,128,0,171681:0:0:0:0:
448,192,171681,128,0,171831:0:0:0:0:
64,192,171681,128,0,171756:0:0:0:0:
320,192,171756,128,0,171831:0:0:0:0:
192,192,171831,128,0,172131:0:0:0:0:
64,192,171831,128,0,171906:0:0:0:0:
448,192,171906,128,0,171981:0:0:0:0:
64,192,171981,128,0,172056:0:0:0:0:
448,192,172056,128,0,172131:0:0:0:0:
320,192,172131,128,0,172431:0:0:0:0:
64,192,172131,128,0,172206:0:0:0:0:
192,192,172206,128,0,172281:0:0:0:0:
448,192,172281,128,0,172356:0:0:0:0:
64,192,172281,128,0,172356:0:0:0:0:
192,192,172356,128,0,172431:0:0:0:0:
64,192,172431,128,0,172731:0:0:0:0:
448,192,172431,128,0,172506:0:0:0:0:
192,192,172506,128,0,172581:0:0:0:0:
448,192,172581,128,0,172656:0:0:0:0:
320,192,172656,128,0,172731:0:0:0:0:
448,192,172731,128,0,172881:0:0:0:0:
192,192,172731,128,0,172806:0:0:0:0:
64,192,172806,128,0,172881:0:0:0:0:
192,192,172881,128,0,173181:0:0:0:0:
320,192,172881,128,0,172956:0:0:0:0:
64,192,172956,128,0,173031:0:0:0:0:
448,192,173031,128,0,173106:0:0:0:0:
64,192,173106,128,0,173181:0:0:0:0:
320,192,173181,128,0,173481:0:0:0:0:
448,192,173181,128,0,173256:0:0:0:0:
192,192,173256,128,0,173331:0:0:0:0:
64,192,173331,128,0,173406:0:0:0:0:
448,192,173406,128,0,173481:0:0:0:0:
192,192,173481,128,0,173556:0:0:0:0:
64,192,173481,128,0,173556:0:0:0:0:
320,192,173556,128,0,173631:0:0:0:0:
448,192,173631,128,0,173706:0:0:0:0:
192,192,173706,128,0,173781:0:0:0:0:
64,192,173781,128,0,174081:0:0:0:0:
320,192,173781,128,0,173856:0:0:0:0:
448,192,173856,128,0,173931:0:0:0:0:
192,192,173931,128,0,174006:0:0:0:0:
192,192,174081,128,0,174381:0:0:0:0:
448,192,174081,128,0,174156:0:0:0:0:
320,192,174081,128,0,174156:0:0:0:0:
64,192,174156,128,0,174231:0:0:0:0:
448,192,174231,128,0,174306:0:0:0:0:
320,192,174306,128,0,174381:0:0:0:0:
448,192,174381,128,0,174681:0:0:0:0:
64,192,174381,128,0,174456:0:0:0:0:
192,192,174456,128,0,174531:0:0:0:0:
320,192,174531,128,0,174606:0:0:0:0:
64,192,174531,128,0,174606:0:0:0:0:
192,192,174606,128,0,174681:0:0:0:0:
64,192,174681,128,0,174981:0:0:0:0:
320,192,174681,128,0,174756:0:0:0:0:
448,192,174756,128,0,174831:0:0:0:0:
192,192,174831,128,0,174906:0:0:0:0:
320,192,174831,128,0,174906:0:0:0:0:
448,192,174906,128,0,174981:0:0:0:0:
320,192,174981,128,0,175281:0:0:0:0:
192,192,174981,128,0,175056:0:0:0:0:
64,192,175056,128,0,175131:0:0:0:0:
448,192,175131,128,0,175206:0:0:0:0:
192,192,175206,128,0,175281:0:0:0:0:
448,192,175281,128,0,175581:0:0:0:0:
64,192,175281,128,0,175356:0:0:0:0:
320,192,175356,128,0,175431:0:0:0:0:
192,192,175431,128,0,175506:0:0:0:0:
64,192,175506,128,0,175581:0:0:0:0:
192,192,175581,128,0,175881:0:0:0:0:
320,192,175581,128,0,175656:0:0:0:0:
448,192,175656,128,0,175731:0:0:0:0:
64,192,175731,128,0,175806:0:0:0:0:
320,192,175806,128,0,175881:0:0:0:0:
448,192,175881,128,0,175956:0:0:0:0:
64,192,175956,128,0,176031:0:0:0:0:
320,192,176031,128,0,176181:0:0:0:0:
192,192,176031,128,0,176106:0:0:0:0:
64,192,176106,128,0,176181:0:0:0:0:
448,192,176181,128,0,176481:0:0:0:0:
192,192,176181,128,0,176256:0:0:0:0:
320,192,176256,128,0,176331:0:0:0:0:
64,192,176331,128,0,176406:0:0:0:0:
192,192,176406,128,0,176481:0:0:0:0:
320,192,176481,128,0,176556:0:0:0:0:
64,192,176556,128,0,176631:0:0:0:0:
320,192,176631,128,0,176781:0:0:0:0:
192,192,176631,128,0,176706:0:0:0:0:
64,192,176706,128,0,176781:0:0:0:0:
448,192,176781,128,0,177081:0:0:0:0:
192,192,176781,128,0,176856:0:0:0:0:
320,192,176856,128,0,176931:0:0:0:0:
64,192,176931,128,0,177006:0:0:0:0:
192,192,177006,128,0,177081:0:0:0:0:
320,192,177081,128,0,177231:0:0:0:0:
64,192,177081,128,0,177156:0:0:0:0:
448,192,177156,128,0,177231:0:0:0:0:
192,192,177231,128,0,177381:0:0:0:0:
64,192,177231,128,0,177306:0:0:0:0:
320,192,177306,128,0,177381:0:0:0:0:
64,192,177381,128,0,177681:0:0:0:0:
448,192,177381,128,0,177456:0:0:0:0:
192,192,177456,128,0,177531:0:0:0:0:
320,192,177531,128,0,177606:0:0:0:0:
448,192,177606,128,0,177681:0:0:0:0:
320,192,177681,128,0,177981:0:0:0:0:
192,192,177681,128,0,177756:0:0:0:0:
64,192,177756,128,0,177831:0:0:0:0:
448,192,177831,128,0,177906:0:0:0:0:
64,192,177906,128,0,177981:0:0:0:0:
192,192,177981,128,0,178281:0:0:0:0:
448,192,177981,128,0,178056:0:0:0:0:
320,192,178056,128,0,178131:0:0:0:0:
64,192,178131,128,0,178206:0:0:0:0:
448,192,178206,128,0,178281:0:0:0:0:
320,192,178281,128,0,178356:0:0:0:0:
64,192,178281,128,0,178356:0:0:0:0:
192,192,178356,128,0,178431:0:0:0:0:
448,192,178431,128,0,178506:0:0:0:0:
320,192,178506,128,0,178581:0:0:0:0:
64,192,178581,128,0,178656:0:0:0:0:
192,192,178581,128,0,178656:0:0:0:0:
320,192,178656,128,0,178731:0:0:0:0:
448,192,178656,128,0,178731:0:0:0:0:
192,192,178731,128,0,178806:0:0:0:0:
64,192,178731,128,0,178806:0:0:0:0:
320,192,178806,128,0,178881:0:0:0:0:
64,192,178881,128,0,179031:0:0:0:0:
192,192,178881,128,0,179031:0:0:0:0:
448,192,178881,128,0,179031:0:0:0:0:
448,192,179181,128,0,179256:0:0:0:0:
64,192,179181,128,0,179256:0:0:0:0:
320,192,179256,128,0,179331:0:0:0:0:
192,192,179256,128,0,179331:0:0:0:0:
64,192,179331,128,0,179406:0:0:0:0:
448,192,179331,128,0,179406:0:0:0:0:
320,192,179406,128,0,179481:0:0:0:0:
192,192,179481,128,0,179631:0:0:0:0:
64,192,179481,128,0,179631:0:0:0:0:
448,192,179481,128,0,179631:0:0:0:0:
192,192,179781,1,0,0:0:0:0:
64,192,179781,128,0,179856:0:0:0:0:
320,192,179931,1,0,0:0:0:0:
64,192,179931,128,0,180006:0:0:0:0:
448,192,179931,128,0,180006:0:0:0:0:
320,192,180081,1,0,0:0:0:0:
64,192,180081,128,0,180231:0:0:0:0:
448,192,180081,128,0,180231:0:0:0:0:
320,192,180381,128,0,180531:0:0:0:0:
64,192,180381,128,0,180531:0:0:0:0:
192,192,180681,128,0,180756:0:0:0:0:
448,192,180681,128,0,180756:0:0:0:0:
64,192,180756,128,0,180831:0:0:0:0:
320,192,180756,128,0,180831:0:0:0:0:
192,192,180831,128,0,180906:0:0:0:0:
448,192,180831,128,0,180906:0:0:0:0:
320,192,180906,128,0,180981:0:0:0:0:
448,192,180981,128,0,181206:0:0:0:0:
192,192,180981,128,0,181056:0:0:0:0:
64,192,181056,128,0,181131:0:0:0:0:
320,192,181131,128,0,181356:0:0:0:0:
192,192,181131,128,0,181206:0:0:0:0:
64,192,181206,128,0,181281:0:0:0:0:
192,192,181281,128,0,181506:0:0:0:0:
448,192,181356,128,0,181431:0:0:0:0:
64,192,181431,128,0,181731:0:0:0:0:
320,192,181431,128,0,181506:0:0:0:0:
448,192,181506,128,0,181581:0:0:0:0:
192,192,181581,128,0,181656:0:0:0:0:
320,192,181656,128,0,181731:0:0:0:0:
448,192,181731,128,0,182031:0:0:0:0:
192,192,181731,128,0,181806:0:0:0:0:
64,192,181806,128,0,181881:0:0:0:0:
320,192,181881,128,0,181956:0:0:0:0:
192,192,181956,128,0,182031:0:0:0:0:
64,192,182031,128,0,182256:0:0:0:0:
320,192,182031,128,0,182106:0:0:0:0:
448,192,182106,128,0,182181:0:0:0:0:
192,192,182181,128,0,182406:0:0:0:0:
320,192,182181,128,0,182256:0:0:0:0:
448,192,182256,128,0,182331:0:0:0:0:
320,192,182331,128,0,182556:0:0:0:0:
64,192,182406,128,0,182481:0:0:0:0:
448,192,182481,128,0,182781:0:0:0:0:
192,192,182481,128,0,182556:0:0:0:0:
64,192,182556,128,0,182631:0:0:0:0:
320,192,182631,128,0,182706:0:0:0:0:
192,192,182706,128,0,182781:0:0:0:0:
64,192,182781,128,0,183081:0:0:0:0:
320,192,182781,128,0,182856:0:0:0:0:
448,192,182856,128,0,182931:0:0:0:0:
192,192,182931,128,0,183006:0:0:0:0:
320,192,183006,128,0,183081:0:0:0:0:
192,192,183081,128,0,183156:0:0:0:0:
64,192,183156,128,0,183231:0:0:0:0:
320,192,183231,128,0,183381:0:0:0:0:
448,192,183231,128,0,183306:0:0:0:0:
192,192,183306,128,0,183381:0:0:0:0:
448,192,183381,128,0,183681:0:0:0:0:
64,192,183381,128,0,183456:0:0:0:0:
320,192,183456,128,0,183531:0:0:0:0:
64,192,183531,128,0,183606:0:0:0:0:
192,192,183606,128,0,183681:0:0:0:0:
320,192,183681,128,0,183831:0:0:0:0:
64,192,183681,128,0,183756:0:0:0:0:
448,192,183756,128,0,183831:0:0:0:0:
64,192,183831,128,0,183981:0:0:0:0:
192,192,183831,128,0,183906:0:0:0:0:
320,192,183906,128,0,183981:0:0:0:0:
448,192,183981,128,0,184056:0:0:0:0:
192,192,183981,128,0,184056:0:0:0:0:
64,192,184056,128,0,184131:0:0:0:0:
320,192,184131,128,0,184281:0:0:0:0:
192,192,184131,128,0,184206:0:0:0:0:
448,192,184206,128,0,184281:0:0:0:0:
64,192,184281,128,0,184356:0:0:0:0:
192,192,184356,128,0,184431:0:0:0:0:
64,192,184431,128,0,184581:0:0:0:0:
448,192,184431,128,0,184506:0:0:0:0:
320,192,184506,128,0,184581:0:0:0:0:
192,192,184581,128,0,184656:0:0:0:0:
448,192,184581,128,0,184656:0:0:0:0:
320,192,184656,128,0,184731:0:0:0:0:
192,192,184731,128,0,184881:0:0:0:0:
64,192,184731,128,0,184806:0:0:0:0:
448,192,184806,128,0,184881:0:0:0:0:
320,192,184881,128,0,184956:0:0:0:0:
64,192,184881,128,0,185031:0:0:0:0:
192,192,184956,128,0,185031:0:0:0:0:
320,192,185031,128,0,185181:0:0:0:0:
448,192,185031,128,0,185106:0:0:0:0:
192,192,185106,128,0,185181:0:0:0:0:
448,192,185181,128,0,185481:0:0:0:0:
64,192,185181,128,0,185256:0:0:0:0:
320,192,185256,128,0,185331:0:0:0:0:
192,192,185331,128,0,185406:0:0:0:0:
320,192,185406,128,0,185481:0:0:0:0:
64,192,185481,128,0,185556:0:0:0:0:
192,192,185481,128,0,185556:0:0:0:0:
320,192,185556,128,0,185631:0:0:0:0:
64,192,185631,128,0,185706:0:0:0:0:
192,192,185631,128,0,185706:0:0:0:0:
320,192,185706,128,0,185781:0:0:0:0:
448,192,185706,128,0,185781:0:0:0:0:
64,192,185781,128,0,185856:0:0:0:0:
192,192,185781,128,0,185856:0:0:0:0:
448,192,185856,128,0,185931:0:0:0:0:
192,192,185931,128,0,186006:0:0:0:0:
64,192,186006,128,0,186081:0:0:0:0:
320,192,186081,128,0,186231:0:0:0:0:
192,192,186081,128,0,186156:0:0:0:0:
64,192,186156,128,0,186231:0:0:0:0:
448,192,186231,128,0,186381:0:0:0:0:
192,192,186231,128,0,186306:0:0:0:0:
320,192,186306,128,0,186381:0:0:0:0:
64,192,186381,128,0,186456:0:0:0:0:
320,192,186456,128,0,186531:0:0:0:0:
192,192,186531,128,0,186681:0:0:0:0:
448,192,186531,128,0,186606:0:0:0:0:
320,192,186606,128,0,186681:0:0:0:0:
64,192,186681,128,0,186756:0:0:0:0:
448,192,186756,128,0,186831:0:0:0:0:
320,192,186831,128,0,186981:0:0:0:0:
64,192,186831,128,0,186906:0:0:0:0:
192,192,186906,128,0,186981:0:0:0:0:
64,192,186981,128,0,187056:0:0:0:0:
448,192,186981,128,0,187056:0:0:0:0:
192,192,187056,128,0,187131:0:0:0:0:
320,192,187131,128,0,187206:0:0:0:0:
448,192,187131,128,0,187206:0:0:0:0:
192,192,187206,128,0,187281:0:0:0:0:
64,192,187206,128,0,187281:0:0:0:0:
448,192,187281,128,0,187356:0:0:0:0:
320,192,187281,128,0,187356:0:0:0:0:
192,192,187356,128,0,187431:0:0:0:0:
64,192,187431,128,0,187506:0:0:0:0:
448,192,187431,128,0,187506:0:0:0:0:
192,192,187506,128,0,187581:0:0:0:0:
320,192,187506,128,0,187581:0:0:0:0:
64,192,187581,128,0,187656:0:0:0:0:
448,192,187581,128,0,187656:0:0:0:0:
320,192,187656,128,0,187731:0:0:0:0:
448,192,187731,128,0,187806:0:0:0:0:
192,192,187731,128,0,187806:0:0:0:0:
320,192,187806,128,0,187881:0:0:0:0:
64,192,187806,128,0,187881:0:0:0:0:
448,192,187881,128,0,187956:0:0:0:0:
192,192,187881,128,0,187956:0:0:0:0:
320,192,187956,128,0,188031:0:0:0:0:
192,192,188031,128,0,188106:0:0:0:0:
64,192,188031,128,0,188106:0:0:0:0:
320,192,188106,128,0,188181:0:0:0:0:
64,192,188181,128,0,188331:0:0:0:0:
192,192,188181,128,0,188256:0:0:0:0:
448,192,188181,128,0,188406:0:0:0:0:
320,192,188256,128,0,188331:0:0:0:0:
192,192,188331,128,0,188406:0:0:0:0:
64,192,188406,128,0,188481:0:0:0:0:
320,192,188481,128,0,188631:0:0:0:0:
448,192,188481,128,0,188706:0:0:0:0:
64,192,188556,128,0,188631:0:0:0:0:
192,192,188631,128,0,188706:0:0:0:0:
320,192,188706,128,0,188781:0:0:0:0:
64,192,188781,128,0,188856:0:0:0:0:
448,192,188781,128,0,188856:0:0:0:0:
192,192,188856,128,0,189006:0:0:0:0:
64,192,188931,128,0,189006:0:0:0:0:
448,192,188931,128,0,189006:0:0:0:0:
320,192,189006,128,0,189156:0:0:0:0:
64,192,189081,128,0,189156:0:0:0:0:
448,192,189081,128,0,189156:0:0:0:0:
192,192,189156,128,0,189306:0:0:0:0:
64,192,189231,128,0,189306:0:0:0:0:
448,192,189231,128,0,189306:0:0:0:0:
320,192,189306,128,0,189381:0:0:0:0:
64,192,189381,128,0,189456:0:0:0:0:
192,192,189381,128,0,189456:0:0:0:0:
448,192,189456,128,0,189606:0:0:0:0:
64,192,189531,128,0,189606:0:0:0:0:
192,192,189531,128,0,189606:0:0:0:0:
320,192,189606,128,0,189756:0:0:0:0:
64,192,189681,128,0,189756:0:0:0:0:
192,192,189681,128,0,189756:0:0:0:0:
448,192,189756,128,0,189906:0:0:0:0:
64,192,189831,128,0,189906:0:0:0:0:
192,192,189831,128,0,189906:0:0:0:0:
320,192,189906,128,0,189981:0:0:0:0:
192,192,189981,128,0,190056:0:0:0:0:
448,192,189981,128,0,190056:0:0:0:0:
64,192,190056,128,0,190206:0:0:0:0:
192,192,190131,128,0,190206:0:0:0:0:
448,192,190131,128,0,190206:0:0:0:0:
320,192,190206,128,0,190356:0:0:0:0:
192,192,190281,128,0,190356:0:0:0:0:
448,192,190281,128,0,190356:0:0:0:0:
64,192,190356,128,0,190506:0:0:0:0:
192,192,190431,128,0,190506:0:0:0:0:
448,192,190431,128,0,190506:0:0:0:0:
320,192,190506,128,0,190581:0:0:0:0:
64,192,190581,128,0,190806:0:0:0:0:
448,192,190581,128,0,190731:0:0:0:0:
192,192,190656,128,0,190731:0:0:0:0:
320,192,190731,128,0,190806:0:0:0:0:
448,192,190806,128,0,190881:0:0:0:0:
192,192,190881,128,0,190956:0:0:0:0:
320,192,190881,128,0,191031:0:0:0:0:
64,192,190956,128,0,191031:0:0:0:0:
192,192,191031,128,0,191106:0:0:0:0:
320,192,191106,128,0,191181:0:0:0:0:
64,192,191181,128,0,191256:0:0:0:0:
448,192,191181,128,0,191406:0:0:0:0:
192,192,191256,128,0,191331:0:0:0:0:
64,192,191331,128,0,191406:0:0:0:0:
320,192,191331,128,0,191481:0:0:0:0:
192,192,191406,128,0,191481:0:0:0:0:
64,192,191481,128,0,191706:0:0:0:0:
448,192,191481,128,0,191556:0:0:0:0:
320,192,191556,128,0,191631:0:0:0:0:
192,192,191631,128,0,191706:0:0:0:0:
448,192,191631,128,0,191706:0:0:0:0:
320,192,191706,128,0,191781:0:0:0:0:
64,192,191781,128,0,191931:0:0:0:0:
448,192,191781,128,0,192006:0:0:0:0:
192,192,191856,128,0,191931:0:0:0:0:
320,192,191931,128,0,192006:0:0:0:0:
64,192,192006,128,0,192081:0:0:0:0:
192,192,192081,128,0,192156:0:0:0:0:
320,192,192081,128,0,192306:0:0:0:0:
448,192,192156,128,0,192231:0:0:0:0:
192,192,192231,128,0,192306:0:0:0:0:
64,192,192306,128,0,192381:0:0:0:0:
320,192,192381,128,0,192606:0:0:0:0:
448,192,192381,128,0,192531:0:0:0:0:
192,192,192456,128,0,192531:0:0:0:0:
64,192,192531,128,0,192606:0:0:0:0:
448,192,192606,128,0,192681:0:0:0:0:
192,192,192681,128,0,192831:0:0:0:0:
320,192,192681,128,0,192756:0:0:0:0:
64,192,192756,128,0,192831:0:0:0:0:
320,192,192831,128,0,192906:0:0:0:0:
448,192,192831,128,0,192906:0:0:0:0:
192,192,192906,128,0,192981:0:0:0:0:
64,192,192981,128,0,193206:0:0:0:0:
320,192,192981,128,0,193056:0:0:0:0:
448,192,192981,128,0,193206:0:0:0:0:
192,192,193056,128,0,193131:0:0:0:0:
320,192,193131,128,0,193206:0:0:0:0:
192,192,193206,128,0,193281:0:0:0:0:
64,192,193281,128,0,193431:0:0:0:0:
448,192,193281,128,0,193506:0:0:0:0:
320,192,193356,128,0,193431:0:0:0:0:
192,192,193431,128,0,193506:0:0:0:0:
64,192,193506,128,0,193581:0:0:0:0:
320,192,193581,128,0,193656:0:0:0:0:
448,192,193581,128,0,193806:0:0:0:0:
192,192,193656,128,0,193731:0:0:0:0:
320,192,193731,128,0,193806:0:0:0:0:
192,192,193806,128,0,193881:0:0:0:0:
64,192,193881,128,0,194031:0:0:0:0:
448,192,193881,128,0,194106:0:0:0:0:
320,192,193956,128,0,194031:0:0:0:0:
192,192,194031,128,0,194106:0:0:0:0:
64,192,194106,128,0,194181:0:0:0:0:
192,192,194181,128,0,194331:0:0:0:0:
448,192,194181,128,0,194406:0:0:0:0:
320,192,194256,128,0,194331:0:0:0:0:
64,192,194331,128,0,194406:0:0:0:0:
192,192,194406,128,0,194481:0:0:0:0:
64,192,194481,128,0,194706:0:0:0:0:
320,192,194481,128,0,194556:0:0:0:0:
448,192,194556,128,0,194631:0:0:0:0:
320,192,194631,128,0,194706:0:0:0:0:
192,192,194706,128,0,194781:0:0:0:0:
64,192,194781,128,0,194856:0:0:0:0:
320,192,194781,128,0,195006:0:0:0:0:
448,192,194856,128,0,194931:0:0:0:0:
64,192,194931,128,0,195006:0:0:0:0:
192,192,195006,128,0,195081:0:0:0:0:
320,192,195081,128,0,195156:0:0:0:0:
448,192,195081,128,0,195156:0:0:0:0:
64,192,195156,128,0,195231:0:0:0:0:
192,192,195156,128,0,195231:0:0:0:0:
320,192,195231,128,0,195306:0:0:0:0:
448,192,195231,128,0,195306:0:0:0:0:
192,192,195306,128,0,195381:0:0:0:0:
64,192,195381,128,0,195456:0:0:0:0:
448,192,195381,128,0,195456:0:0:0:0:
192,192,195456,128,0,195531:0:0:0:0:
320,192,195456,128,0,195531:0:0:0:0:
64,192,195531,128,0,195606:0:0:0:0:
448,192,195531,128,0,195606:0:0:0:0:
192,192,195606,128,0,195681:0:0:0:0:
320,192,195606,128,0,195681:0:0:0:0:
64,192,195681,128,0,195906:0:0:0:0:
448,192,195681,128,0,195906:0:0:0:0:
192,192,195831,128,0,195906:0:0:0:0:
320,192,195831,128,0,195906:0:0:0:0:
64,192,195981,128,0,196056:0:0:0:0:
448,192,195981,128,0,196056:0:0:0:0:
192,192,196056,128,0,196131:0:0:0:0:
320,192,196056,128,0,196131:0:0:0:0:
64,192,196131,128,0,196206:0:0:0:0:
448,192,196131,128,0,196206:0:0:0:0:
192,192,196206,128,0,196281:0:0:0:0:
320,192,196206,128,0,196281:0:0:0:0:
64,192,196281,128,0,196506:0:0:0:0:
448,192,196281,128,0,196506:0:0:0:0:
192,192,196431,128,0,196506:0:0:0:0:
320,192,196431,128,0,196506:0:0:0:0:
64,192,196581,128,0,196656:0:0:0:0:
192,192,196581,128,0,196656:0:0:0:0:
64,192,196731,128,0,196881:0:0:0:0:
192,192,196731,128,0,196806:0:0:0:0:
320,192,196731,128,0,196806:0:0:0:0:
192,192,196881,128,0,197031:0:0:0:0:
320,192,196881,128,0,196956:0:0:0:0:
448,192,196881,128,0,196956:0:0:0:0:
320,192,197031,128,0,197106:0:0:0:0:
448,192,197031,128,0,197181:0:0:0:0:
192,192,197106,128,0,197181:0:0:0:0:
64,192,197181,128,0,197256:0:0:0:0:
320,192,197181,128,0,197331:0:0:0:0:
64,192,197331,128,0,197406:0:0:0:0:
448,192,197331,128,0,197406:0:0:0:0:
320,192,197406,128,0,197481:0:0:0:0:
64,192,197481,128,0,197556:0:0:0:0:
192,192,197481,128,0,197556:0:0:0:0:
320,192,197556,128,0,197631:0:0:0:0:
448,192,197556,128,0,197631:0:0:0:0:
64,192,197631,128,0,197706:0:0:0:0:
192,192,197631,128,0,197706:0:0:0:0:
320,192,197706,128,0,197781:0:0:0:0:
64,192,197781,128,0,197931:0:0:0:0:
192,192,197781,128,0,197856:0:0:0:0:
448,192,197781,128,0,198006:0:0:0:0:
320,192,197856,128,0,197931:0:0:0:0:
192,192,197931,128,0,198006:0:0:0:0:
64,192,198006,128,0,198081:0:0:0:0:
448,192,198081,128,0,198156:0:0:0:0:
192,192,198081,128,0,198306:0:0:0:0:
320,192,198156,128,0,198231:0:0:0:0:
64,192,198231,128,0,198306:0:0:0:0:
448,192,198231,128,0,198306:0:0:0:0:
320,192,198306,128,0,198381:0:0:0:0:
64,192,198381,128,0,198531:0:0:0:0:
192,192,198381,128,0,198456:0:0:0:0:
320,192,198456,128,0,198531:0:0:0:0:
192,192,198531,128,0,198606:0:0:0:0:
448,192,198531,128,0,198681:0:0:0:0:
64,192,198606,128,0,198681:0:0:0:0:
192,192,198681,128,0,198756:0:0:0:0:
320,192,198681,128,0,198831:0:0:0:0:
448,192,198756,128,0,198831:0:0:0:0:
64,192,198831,128,0,198981:0:0:0:0:
192,192,198831,128,0,198906:0:0:0:0:
320,192,198906,128,0,198981:0:0:0:0:
192,192,198981,128,0,199131:0:0:0:0:
448,192,198981,128,0,199056:0:0:0:0:
64,192,199056,128,0,199131:0:0:0:0:
320,192,199131,128,0,199281:0:0:0:0:
448,192,199131,128,0,199206:0:0:0:0:
192,192,199206,128,0,199281:0:0:0:0:
64,192,199281,128,0,199356:0:0:0:0:
448,192,199281,128,0,199506:0:0:0:0:
320,192,199356,128,0,199431:0:0:0:0:
192,192,199431,128,0,199506:0:0:0:0:
64,192,199506,128,0,199581:0:0:0:0:
192,192,199581,128,0,199656:0:0:0:0:
448,192,199581,128,0,199806:0:0:0:0:
320,192,199656,128,0,199731:0:0:0:0:
64,192,199731,128,0,199806:0:0:0:0:
192,192,199806,128,0,199881:0:0:0:0:
320,192,199881,128,0,199956:0:0:0:0:
448,192,199881,128,0,199956:0:0:0:0:
64,192,199956,128,0,200031:0:0:0:0:
320,192,200031,128,0,200106:0:0:0:0:
448,192,200031,128,0,200106:0:0:0:0:
192,192,200106,128,0,200181:0:0:0:0:
64,192,200181,128,0,200406:0:0:0:0:
320,192,200181,128,0,200256:0:0:0:0:
448,192,200181,128,0,200331:0:0:0:0:
192,192,200256,128,0,200331:0:0:0:0:
320,192,200331,128,0,200406:0:0:0:0:
448,192,200406,128,0,200481:0:0:0:0:
64,192,200481,128,0,200556:0:0:0:0:
192,192,200481,128,0,200556:0:0:0:0:
320,192,200556,128,0,200631:0:0:0:0:
64,192,200631,128,0,200706:0:0:0:0:
192,192,200631,128,0,200706:0:0:0:0:
448,192,200706,128,0,200781:0:0:0:0:
320,192,200781,128,0,200856:0:0:0:0:
192,192,200781,128,0,200856:0:0:0:0:
64,192,200781,128,0,200931:0:0:0:0:
448,192,200856,128,0,200931:0:0:0:0:
320,192,200931,128,0,201006:0:0:0:0:
192,192,200931,128,0,201006:0:0:0:0:
64,192,201006,128,0,201081:0:0:0:0:
192,192,201081,128,0,201231:0:0:0:0:
320,192,201081,128,0,201156:0:0:0:0:
64,192,201156,128,0,201231:0:0:0:0:
320,192,201231,128,0,201306:0:0:0:0:
448,192,201231,128,0,201306:0:0:0:0:
192,192,201306,128,0,201381:0:0:0:0:
64,192,201381,128,0,201531:0:0:0:0:
320,192,201381,128,0,201606:0:0:0:0:
448,192,201381,128,0,201456:0:0:0:0:
192,192,201456,128,0,201531:0:0:0:0:
448,192,201531,128,0,201606:0:0:0:0:
64,192,201606,128,0,201681:0:0:0:0:
192,192,201681,128,0,201906:0:0:0:0:
320,192,201681,128,0,201831:0:0:0:0:
448,192,201756,128,0,201831:0:0:0:0:
64,192,201831,128,0,201906:0:0:0:0:
320,192,201906,128,0,201981:0:0:0:0:
64,192,201981,128,0,202056:0:0:0:0:
192,192,201981,128,0,202206:0:0:0:0:
448,192,202056,128,0,202131:0:0:0:0:
64,192,202131,128,0,202206:0:0:0:0:
320,192,202206,128,0,202281:0:0:0:0:
192,192,202281,128,0,202431:0:0:0:0:
448,192,202281,128,0,202356:0:0:0:0:
64,192,202356,128,0,202431:0:0:0:0:
448,192,202431,128,0,202506:0:0:0:0:
192,192,202506,128,0,202581:0:0:0:0:
64,192,202581,128,0,202731:0:0:0:0:
320,192,202581,128,0,202806:0:0:0:0:
448,192,202581,128,0,202656:0:0:0:0:
192,192,202656,128,0,202731:0:0:0:0:
448,192,202731,128,0,202806:0:0:0:0:
64,192,202806,128,0,202881:0:0:0:0:
192,192,202881,128,0,203106:0:0:0:0:
320,192,202881,128,0,203031:0:0:0:0:
448,192,202956,128,0,203031:0:0:0:0:
64,192,203031,128,0,203106:0:0:0:0:
320,192,203106,128,0,203181:0:0:0:0:
64,192,203181,128,0,203331:0:0:0:0:
192,192,203181,128,0,203406:0:0:0:0:
448,192,203256,128,0,203331:0:0:0:0:
320,192,203331,128,0,203406:0:0:0:0:
64,192,203406,128,0,203481:0:0:0:0:
192,192,203481,128,0,203631:0:0:0:0:
448,192,203481,128,0,203706:0:0:0:0:
320,192,203556,128,0,203631:0:0:0:0:
64,192,203631,128,0,203706:0:0:0:0:
192,192,203706,128,0,203781:0:0:0:0:
320,192,203781,128,0,203856:0:0:0:0:
448,192,203781,128,0,203856:0:0:0:0:
64,192,203781,128,0,203856:0:0:0:0:
192,192,203856,128,0,203931:0:0:0:0:
320,192,203931,128,0,204006:0:0:0:0:
448,192,203931,128,0,204006:0:0:0:0:
64,192,204006,128,0,204081:0:0:0:0:
192,192,204006,128,0,204081:0:0:0:0:
320,192,204081,128,0,204156:0:0:0:0:
448,192,204081,128,0,204156:0:0:0:0:
64,192,204156,128,0,204231:0:0:0:0:
192,192,204156,128,0,204231:0:0:0:0:
320,192,204231,128,0,204306:0:0:0:0:
448,192,204231,128,0,204306:0:0:0:0:
192,192,204306,128,0,204381:0:0:0:0:
64,192,204381,128,0,204456:0:0:0:0:
448,192,204381,128,0,204456:0:0:0:0:
192,192,204456,128,0,204531:0:0:0:0:
320,192,204456,128,0,204531:0:0:0:0:
64,192,204531,128,0,204606:0:0:0:0:
448,192,204531,128,0,204606:0:0:0:0:
192,192,204606,128,0,204681:0:0:0:0:
320,192,204606,128,0,204681:0:0:0:0:
448,192,204681,1,0,0:0:0:0:
64,192,204681,1,0,0:0:0:0:
448,192,204756,1,0,0:0:0:0:
192,192,204756,1,0,0:0:0:0:
320,192,204831,1,0,0:0:0:0:
64,192,204831,1,0,0:0:0:0:
192,192,204906,1,0,0:0:0:0:
320,192,204906,1,0,0:0:0:0:
64,192,204981,128,0,205581:0:0:0:0:
448,192,204981,128,0,205581:0:0:0:0:
192,192,204981,128,0,205506:0:0:0:0:
320,192,205431,128,0,205881:0:0:0:0:
192,192,205581,128,0,206031:0:0:0:0:
320,192,206031,128,0,206256:0:0:0:0:
192,192,206181,128,0,206406:0:0:0:0:
320,192,206331,128,0,206481:0:0:0:0:
192,192,206481,128,0,206556:0:0:0:0:
320,192,206556,128,0,206631:0:0:0:0:
192,192,206631,128,0,206706:0:0:0:0:
320,192,206706,128,0,206781:0:0:0:0:
64,192,206781,128,0,207006:0:0:0:0:
192,192,206781,128,0,206856:0:0:0:0:
448,192,206781,128,0,207006:0:0:0:0:
192,192,206931,1,0,0:0:0:0:
320,192,207006,1,0,0:0:0:0:
64,192,207081,128,0,207306:0:0:0:0:
320,192,207081,128,0,207156:0:0:0:0:
448,192,207081,128,0,207306:0:0:0:0:
320,192,207231,1,0,0:0:0:0:
192,192,207306,1,0,0:0:0:0:
320,192,207381,128,0,207681:0:0:0:0:
64,192,207381,128,0,207531:0:0:0:0:
192,192,207381,1,0,0:0:0:0:
448,192,207456,128,0,207531:0:0:0:0:
192,192,207531,128,0,207681:0:0:0:0:
448,192,207681,128,0,207981:0:0:0:0:
64,192,207681,128,0,207831:0:0:0:0:
192,192,207756,128,0,207831:0:0:0:0:
320,192,207831,128,0,207981:0:0:0:0:
64,192,207981,128,0,208281:0:0:0:0:
192,192,207981,128,0,208206:0:0:0:0:
448,192,208131,128,0,208206:0:0:0:0:
320,192,208206,128,0,208281:0:0:0:0:
192,192,208281,128,0,208431:0:0:0:0:
448,192,208281,128,0,208581:0:0:0:0:
64,192,208431,128,0,208731:0:0:0:0:
320,192,208431,128,0,208506:0:0:0:0:
192,192,208581,128,0,208731:0:0:0:0:
320,192,208581,128,0,208731:0:0:0:0:
448,192,208731,128,0,209031:0:0:0:0:
192,192,208881,128,0,209181:0:0:0:0:
64,192,208881,128,0,209031:0:0:0:0:
320,192,208881,128,0,208956:0:0:0:0:
320,192,209031,128,0,209181:0:0:0:0:
64,192,209181,128,0,209331:0:0:0:0:
448,192,209181,128,0,209481:0:0:0:0:
320,192,209331,128,0,209481:0:0:0:0:
64,192,209481,128,0,209781:0:0:0:0:
192,192,209481,1,0,0:0:0:0:
192,192,209631,128,0,209781:0:0:0:0:
320,192,209631,128,0,209781:0:0:0:0:
448,192,209631,1,0,0:0:0:0:
64,192,209931,128,0,210231:0:0:0:0:
192,192,209931,128,0,210006:0:0:0:0:
320,192,210006,128,0,210081:0:0:0:0:
192,192,210081,128,0,210231:0:0:0:0:
448,192,210081,128,0,210156:0:0:0:0:
320,192,210231,128,0,210381:0:0:0:0:
192,192,210381,128,0,210531:0:0:0:0:
64,192,210381,128,0,210531:0:0:0:0:
320,192,210531,128,0,210681:0:0:0:0:
448,192,210531,128,0,210606:0:0:0:0:
192,192,210606,128,0,210681:0:0:0:0:
448,192,210681,128,0,210831:0:0:0:0:
64,192,210681,128,0,210981:0:0:0:0:
320,192,210831,128,0,210981:0:0:0:0:
448,192,210981,128,0,211131:0:0:0:0:
192,192,210981,128,0,211131:0:0:0:0:
64,192,211131,128,0,211281:0:0:0:0:
320,192,211131,128,0,211206:0:0:0:0:
192,192,211206,128,0,211281:0:0:0:0:
448,192,211281,128,0,211581:0:0:0:0:
320,192,211281,128,0,211356:0:0:0:0:
64,192,211431,128,0,211581:0:0:0:0:
320,192,211581,128,0,211731:0:0:0:0:
192,192,211581,128,0,211656:0:0:0:0:
192,192,211731,128,0,211881:0:0:0:0:
448,192,211731,128,0,211806:0:0:0:0:
64,192,211806,128,0,211881:0:0:0:0:
320,192,211881,128,0,212031:0:0:0:0:
448,192,211881,128,0,211956:0:0:0:0:
64,192,212031,128,0,212106:0:0:0:0:
320,192,212106,1,0,0:0:0:0:
448,192,212106,1,0,0:0:0:0:
448,192,212181,1,0,0:0:0:0:
192,192,212181,128,0,212481:0:0:0:0:
64,192,212181,128,0,212331:0:0:0:0:
320,192,212331,128,0,212481:0:0:0:0:
448,192,212481,128,0,212781:0:0:0:0:
64,192,212481,128,0,212631:0:0:0:0:
320,192,212631,128,0,212781:0:0:0:0:
64,192,212781,128,0,213081:0:0:0:0:
192,192,212781,128,0,212931:0:0:0:0:
448,192,212931,128,0,213006:0:0:0:0:
320,192,213006,128,0,213081:0:0:0:0:
192,192,213081,128,0,213231:0:0:0:0:
448,192,213081,128,0,213381:0:0:0:0:
64,192,213231,128,0,213531:0:0:0:0:
192,192,213381,128,0,213531:0:0:0:0:
320,192,213381,128,0,213531:0:0:0:0:
448,192,213531,128,0,213831:0:0:0:0:
192,192,213681,128,0,213981:0:0:0:0:
64,192,213681,128,0,213831:0:0:0:0:
320,192,213681,1,0,0:0:0:0:
320,192,213831,128,0,213981:0:0:0:0:
64,192,213981,128,0,214131:0:0:0:0:
448,192,213981,128,0,214131:0:0:0:0:
320,192,214131,128,0,214281:0:0:0:0:
64,192,214281,128,0,214431:0:0:0:0:
192,192,214281,1,0,0:0:0:0:
448,192,214281,128,0,214581:0:0:0:0:
192,192,214431,128,0,214581:0:0:0:0:
320,192,214431,128,0,214581:0:0:0:0:
64,192,214731,128,0,214881:0:0:0:0:
192,192,214731,128,0,214806:0:0:0:0:
320,192,214806,128,0,214881:0:0:0:0:
192,192,214881,128,0,215031:0:0:0:0:
448,192,214881,128,0,215031:0:0:0:0:
320,192,215031,128,0,215181:0:0:0:0:
192,192,215181,128,0,215331:0:0:0:0:
64,192,215181,128,0,215256:0:0:0:0:
320,192,215331,128,0,215481:0:0:0:0:
448,192,215331,128,0,215406:0:0:0:0:
192,192,215406,128,0,215481:0:0:0:0:
448,192,215481,128,0,215631:0:0:0:0:
64,192,215481,128,0,215631:0:0:0:0:
320,192,215631,128,0,215781:0:0:0:0:
448,192,215781,128,0,215931:0:0:0:0:
192,192,215781,128,0,215931:0:0:0:0:
64,192,215931,128,0,216081:0:0:0:0:
320,192,215931,128,0,216006:0:0:0:0:
192,192,216006,128,0,216081:0:0:0:0:
320,192,216081,128,0,216381:0:0:0:0:
448,192,216081,128,0,216231:0:0:0:0:
64,192,216231,128,0,216381:0:0:0:0:
192,192,216381,128,0,216456:0:0:0:0:
448,192,216381,128,0,216456:0:0:0:0:
192,192,216531,128,0,216606:0:0:0:0:
448,192,216531,128,0,216606:0:0:0:0:
320,192,216606,128,0,216681:0:0:0:0:
448,192,216681,128,0,216756:0:0:0:0:
64,192,216681,128,0,216756:0:0:0:0:
320,192,216756,128,0,216831:0:0:0:0:
448,192,216831,128,0,216906:0:0:0:0:
192,192,216831,128,0,216906:0:0:0:0:
64,192,216981,128,0,217206:0:0:0:0:
320,192,216981,128,0,217206:0:0:0:0:
448,192,216981,128,0,217206:0:0:0:0:
192,192,216981,128,0,217056:0:0:0:0:
192,192,217131,128,0,217206:0:0:0:0:
64,192,217281,128,0,217506:0:0:0:0:
320,192,217281,128,0,217506:0:0:0:0:
448,192,217281,128,0,217506:0:0:0:0:
192,192,217431,128,0,217506:0:0:0:0:
64,192,217581,128,0,217806:0:0:0:0:
448,192,217581,128,0,217806:0:0:0:0:
192,192,217731,128,0,217806:0:0:0:0:
320,192,217806,128,0,217881:0:0:0:0:
64,192,217881,128,0,218106:0:0:0:0:
192,192,217881,128,0,218106:0:0:0:0:
448,192,217881,128,0,218106:0:0:0:0:
320,192,218031,128,0,218106:0:0:0:0:
192,192,218181,128,0,218406:0:0:0:0:
448,192,218181,128,0,218406:0:0:0:0:
64,192,218331,128,0,218406:0:0:0:0:
320,192,218406,128,0,218481:0:0:0:0:
64,192,218481,128,0,218706:0:0:0:0:
192,192,218481,128,0,218556:0:0:0:0:
448,192,218481,128,0,218706:0:0:0:0:
192,192,218631,128,0,218706:0:0:0:0:
320,192,218706,128,0,218781:0:0:0:0:
192,192,218781,128,0,218931:0:0:0:0:
448,192,218781,128,0,219006:0:0:0:0:
64,192,218931,128,0,219006:0:0:0:0:
192,192,219006,128,0,219081:0:0:0:0:
64,192,219081,128,0,219306:0:0:0:0:
320,192,219081,128,0,219306:0:0:0:0:
448,192,219081,128,0,219306:0:0:0:0:
192,192,219231,128,0,219306:0:0:0:0:
320,192,219381,128,0,219606:0:0:0:0:
448,192,219381,128,0,219606:0:0:0:0:
192,192,219531,128,0,219606:0:0:0:0:
64,192,219606,128,0,219681:0:0:0:0:
192,192,219681,128,0,219831:0:0:0:0:
320,192,219681,128,0,219756:0:0:0:0:
448,192,219681,128,0,219906:0:0:0:0:
320,192,219831,128,0,219906:0:0:0:0:
192,192,219906,128,0,219981:0:0:0:0:
64,192,219981,128,0,220206:0:0:0:0:
448,192,219981,128,0,220131:0:0:0:0:
320,192,220131,128,0,220206:0:0:0:0:
448,192,220206,128,0,220281:0:0:0:0:
64,192,220281,128,0,220506:0:0:0:0:
192,192,220281,128,0,220506:0:0:0:0:
320,192,220281,128,0,220431:0:0:0:0:
448,192,220431,128,0,220506:0:0:0:0:
320,192,220506,128,0,220581:0:0:0:0:
192,192,220581,128,0,220731:0:0:0:0:
448,192,220581,128,0,220806:0:0:0:0:
320,192,220731,128,0,220806:0:0:0:0:
192,192,220806,128,0,220881:0:0:0:0:
64,192,220881,128,0,220956:0:0:0:0:
320,192,220881,128,0,221106:0:0:0:0:
448,192,220881,128,0,221106:0:0:0:0:
64,192,221031,128,0,221106:0:0:0:0:
192,192,221106,128,0,221181:0:0:0:0:
64,192,221181,128,0,221406:0:0:0:0:
320,192,221181,128,0,221331:0:0:0:0:
192,192,221331,128,0,221406:0:0:0:0:
320,192,221406,128,0,221481:0:0:0:0:
448,192,221481,128,0,221706:0:0:0:0:
64,192,221481,128,0,221556:0:0:0:0:
64,192,221631,128,0,221706:0:0:0:0:
192,192,221631,128,0,221706:0:0:0:0:
320,192,221706,128,0,221781:0:0:0:0:
64,192,221781,128,0,222006:0:0:0:0:
192,192,221781,128,0,222006:0:0:0:0:
448,192,221781,128,0,222006:0:0:0:0:
320,192,221931,128,0,222006:0:0:0:0:
64,192,222081,128,0,222306:0:0:0:0:
192,192,222081,128,0,222306:0:0:0:0:
448,192,222081,128,0,222306:0:0:0:0:
320,192,222231,128,0,222306:0:0:0:0:
192,192,222381,128,0,222531:0:0:0:0:
448,192,222381,128,0,222606:0:0:0:0:
64,192,222531,128,0,222606:0:0:0:0:
192,192,222606,128,0,222681:0:0:0:0:
64,192,222681,128,0,222906:0:0:0:0:
320,192,222681,128,0,222906:0:0:0:0:
448,192,222831,128,0,222906:0:0:0:0:
64,192,222981,128,0,223206:0:0:0:0:
192,192,222981,128,0,223131:0:0:0:0:
320,192,222981,128,0,223206:0:0:0:0:
448,192,223131,128,0,223206:0:0:0:0:
192,192,223206,128,0,223281:0:0:0:0:
64,192,223281,128,0,223506:0:0:0:0:
320,192,223281,128,0,223356:0:0:0:0:
448,192,223281,128,0,223506:0:0:0:0:
320,192,223431,128,0,223506:0:0:0:0:
192,192,223506,128,0,223581:0:0:0:0:
64,192,223581,128,0,223656:0:0:0:0:
320,192,223581,128,0,223731:0:0:0:0:
64,192,223731,128,0,223806:0:0:0:0:
320,192,223806,128,0,223881:0:0:0:0:
192,192,223881,128,0,224031:0:0:0:0:
64,192,223881,128,0,224106:0:0:0:0:
448,192,223881,128,0,224106:0:0:0:0:
320,192,224031,128,0,224106:0:0:0:0:
192,192,224106,128,0,224181:0:0:0:0:
64,192,224181,128,0,224256:0:0:0:0:
320,192,224181,128,0,224331:0:0:0:0:
64,192,224331,128,0,224406:0:0:0:0:
192,192,224331,128,0,224406:0:0:0:0:
320,192,224406,128,0,224481:0:0:0:0:
64,192,224481,128,0,224706:0:0:0:0:
192,192,224481,128,0,224631:0:0:0:0:
448,192,224481,128,0,224556:0:0:0:0:
320,192,224631,128,0,224781:0:0:0:0:
448,192,224631,128,0,224706:0:0:0:0:
192,192,224706,128,0,224781:0:0:0:0:
64,192,224781,128,0,224856:0:0:0:0:
448,192,224781,128,0,225006:0:0:0:0:
64,192,224931,128,0,225006:0:0:0:0:
192,192,224931,128,0,225006:0:0:0:0:
320,192,225006,128,0,225081:0:0:0:0:
64,192,225081,128,0,225231:0:0:0:0:
192,192,225081,128,0,225156:0:0:0:0:
448,192,225081,128,0,225306:0:0:0:0:
192,192,225231,128,0,225306:0:0:0:0:
320,192,225231,128,0,225306:0:0:0:0:
64,192,225306,128,0,225381:0:0:0:0:
192,192,225381,128,0,225606:0:0:0:0:
320,192,225381,128,0,225531:0:0:0:0:
448,192,225381,128,0,225456:0:0:0:0:
64,192,225456,128,0,225531:0:0:0:0:
448,192,225531,128,0,225606:0:0:0:0:
320,192,225606,128,0,225681:0:0:0:0:
448,192,225681,128,0,225756:0:0:0:0:
192,192,225681,128,0,225831:0:0:0:0:
64,192,225756,128,0,225831:0:0:0:0:
448,192,225831,128,0,225881:0:0:0:0:
320,192,225881,128,0,225931:0:0:0:0:
192,192,225931,128,0,225981:0:0:0:0:
64,192,225981,128,0,226081:0:0:0:0:
320,192,225981,128,0,226081:0:0:0:0:
448,192,225981,128,0,226081:0:0:0:0:
64,192,226131,128,0,226231:0:0:0:0:
192,192,226131,128,0,226231:0:0:0:0:
448,192,226131,128,0,226231:0:0:0:0:
192,192,226281,128,0,226381:0:0:0:0:
320,192,226281,128,0,226381:0:0:0:0:
448,192,226281,128,0,226381:0:0:0:0:
64,192,226431,128,0,226706:0:0:0:0:
192,192,226431,128,0,226681:0:0:0:0:
320,192,226431,128,0,226656:0:0:0:0:
448,192,226431,128,0,226631:0:0:0:0:
