osu file format v14

[General]
AudioFilename: audio.mp3
AudioLeadIn: 0
PreviewTime: 53629
Countdown: 0
SampleSet: Soft
StackLeniency: 0.7
Mode: 3
LetterboxInBreaks: 0
SpecialStyle: 0
WidescreenStoryboard: 1

[Editor]
DistanceSpacing: 0.8
BeatDivisor: 4
GridSize: 16
TimelineZoom: 2.1

[Metadata]
Title:Six trillion years and overnight story
TitleUnicode:六兆年と一夜物語
Artist:kemu feat. IA
ArtistUnicode:kemu feat. IA
Creator:Rivals_7
Version:Hyper
Source:
Tags:japanese rock roku-chou rokuchou nen rokuchounen to ichiya monogatari pandora voxx vocaloid vocaloid3 the world ~kaze~ 風 v love 25 cantabile exit tunes presents vocaloconnection
BeatmapID:2524849
BeatmapSetID:1213119

[Difficulty]
HPDrainRate:7.5
CircleSize:4
OverallDifficulty:7.5
ApproachRate:5
SliderMultiplier:1.4
SliderTickRate:1

[Events]
//Background and Video events
0,0,"rkc.jpg",0,0
//Break Periods
//Storyboard Layer 0 (Background)
//Storyboard Layer 1 (Fail)
//Storyboard Layer 2 (Pass)
//Storyboard Layer 3 (Foreground)
//Storyboard Layer 4 (Overlay)
//Storyboard Sound Samples
Sample,80040,0,"drum-hitfinish.wav",65
Sample,86008,0,"drum-hitfinish.wav",65
Sample,87298,0,"drum-hitfinish.wav",65
Sample,88588,0,"drum-hitfinish.wav",65
Sample,89879,0,"drum-hitfinish.wav",65
Sample,91169,0,"drum-hitfinish.wav",65

[TimingPoints]
13105,322.58064516129,4,2,1,65,1,0
54395,-100,4,2,1,65,0,1
64395,-100,4,2,1,65,0,0
65040,-100,4,2,1,65,0,1
68588,-100,4,2,1,65,0,0
69879,-100,4,2,1,65,0,1
74395,-100,4,2,1,65,0,0
75040,-100,4,2,1,65,0,1
97459,-100,4,2,1,65,0,0

[HitObjects]
64,192,12782,1,0,0:0:0:0:
192,192,12863,1,0,0:0:0:0:
320,192,12943,1,0,0:0:0:0:
448,192,13024,1,0,0:0:0:0:
64,192,13105,1,4,0:0:0:0:
192,192,13105,1,8,0:0:0:0:
64,192,13266,1,8,0:0:0:0:
192,192,13266,1,2,0:0:0:0:
448,192,13427,128,0,13588:0:0:0:0:
192,192,13588,1,0,0:0:0:0:
64,192,13669,1,0,0:0:0:0:
320,192,13750,1,0,0:0:0:0:
448,192,13830,1,0,0:0:0:0:
192,192,13911,1,0,0:0:0:0:
320,192,13992,1,0,0:0:0:0:
64,192,14072,128,0,14234:0:0:0:0:
448,192,14234,128,0,14395:0:0:0:0:
64,192,14395,1,8,0:0:0:0:
192,192,14395,1,2,0:0:0:0:
64,192,14556,1,8,0:0:0:0:
192,192,14556,1,2,0:0:0:0:
320,192,14717,128,0,14879:0:0:0:0:
192,192,14879,1,0,0:0:0:0:
64,192,14959,1,0,0:0:0:0:
320,192,15040,1,0,0:0:0:0:
448,192,15121,1,0,0:0:0:0:
192,192,15201,1,0,0:0:0:0:
320,192,15282,1,0,0:0:0:0:
448,192,15363,128,0,15524:0:0:0:0:
64,192,15524,128,0,15685:0:0:0:0:
320,192,15685,1,8,0:0:0:0:
448,192,15685,1,2,0:0:0:0:
320,192,15846,1,8,0:0:0:0:
448,192,15846,1,2,0:0:0:0:
64,192,16008,128,0,16169:0:0:0:0:
320,192,16169,1,0,0:0:0:0:
192,192,16250,1,0,0:0:0:0:
448,192,16330,1,0,0:0:0:0:
320,192,16411,1,0,0:0:0:0:
64,192,16492,1,0,0:0:0:0:
192,192,16572,1,0,0:0:0:0:
320,192,16653,128,0,16814:0:0:0:0:
64,192,16814,1,2,0:0:0:0:
192,192,16895,1,2,0:0:0:0:
320,192,16975,1,10,0:0:0:0:
448,192,16975,1,4,0:0:0:0:
64,192,17137,1,2,0:0:0:0:
192,192,17217,1,2,0:0:0:0:
320,192,17298,1,2,0:0:0:0:
448,192,17298,1,0,0:0:0:0:
64,192,17379,1,2,0:0:0:0:
448,192,17459,1,2,0:0:0:0:
320,192,17540,1,2,0:0:0:0:
64,192,17621,1,8,0:0:0:0:
192,192,17621,1,4,0:0:0:0:
320,192,17782,1,8,0:0:0:0:
448,192,17782,1,0,0:0:0:0:
192,192,17863,1,8,0:0:0:0:
64,192,17943,1,8,0:0:0:0:
320,192,18024,1,8,0:0:0:0:
192,192,18105,1,8,0:0:0:0:
448,192,18185,1,8,0:0:0:0:
64,192,18266,1,2,0:0:0:0:
320,192,18266,1,4,0:0:0:0:
192,192,18427,1,0,0:0:0:0:
320,192,18588,1,8,0:0:0:0:
448,192,18588,1,0,0:0:0:0:
64,192,18750,1,0,0:0:0:65:drum-hitfinish.wav
320,192,18911,1,2,0:0:0:0:
192,192,18992,1,0,0:0:0:0:
448,192,19072,1,0,0:0:0:65:drum-hitfinish.wav
320,192,19153,1,0,0:0:0:0:
64,192,19234,1,8,0:0:0:0:
192,192,19234,1,0,0:0:0:0:
448,192,19395,1,0,0:0:0:65:drum-hitfinish.wav
64,192,19556,1,2,0:0:0:0:
320,192,19556,1,0,0:0:0:0:
192,192,19717,1,0,0:0:0:65:drum-hitfinish.wav
320,192,19879,1,8,0:0:0:0:
448,192,19879,1,4,0:0:0:0:
64,192,20040,1,2,0:0:0:0:
192,192,20121,1,2,0:0:0:0:
320,192,20201,1,4,0:0:0:0:
448,192,20201,1,2,0:0:0:0:
64,192,20282,1,0,0:0:0:0:
192,192,20363,1,8,0:0:0:0:
448,192,20443,1,8,0:0:0:0:
320,192,20524,1,2,0:0:0:0:
64,192,20605,1,8,0:0:0:0:
192,192,20685,1,8,0:0:0:0:
320,192,20766,1,8,0:0:0:0:
64,192,20846,1,2,0:0:0:0:
448,192,20846,1,4,0:0:0:0:
192,192,20927,1,8,0:0:0:0:
320,192,21008,1,8,0:0:0:0:
64,192,21088,1,8,0:0:0:0:
192,192,21169,1,8,0:0:0:0:
320,192,21330,1,8,0:0:0:0:
448,192,21330,1,2,0:0:0:0:
192,192,21411,1,8,0:0:0:0:
64,192,21492,1,8,0:0:0:0:
320,192,21572,1,8,0:0:0:0:
448,192,21653,1,8,0:0:0:0:
64,192,21814,1,2,0:0:0:0:
192,192,21814,1,8,0:0:0:0:
320,192,21895,1,8,0:0:0:0:
64,192,21975,1,8,0:0:0:0:
448,192,22056,1,8,0:0:0:0:
192,192,22137,1,8,0:0:0:0:
320,192,22298,1,2,0:0:0:0:
448,192,22298,1,8,0:0:0:0:
192,192,22379,1,8,0:0:0:0:
448,192,22459,1,8,0:0:0:0:
64,192,22540,1,8,0:0:0:0:
320,192,22621,1,8,0:0:0:0:
192,192,23104,1,0,0:0:0:0:
192,192,23266,1,0,0:0:0:0:
64,192,23427,1,2,0:0:0:0:
448,192,23427,1,4,0:0:0:0:
320,192,23588,1,0,0:0:0:0:
64,192,23750,1,2,0:0:0:0:
320,192,23911,1,0,0:0:0:0:
64,192,24072,1,2,0:0:0:0:
448,192,24234,1,0,0:0:0:0:
192,192,24395,1,2,0:0:0:0:
448,192,24556,1,0,0:0:0:0:
192,192,24717,1,2,0:0:0:0:
320,192,24879,1,0,0:0:0:0:
64,192,25040,1,2,0:0:0:0:
448,192,25201,1,0,0:0:0:0:
64,192,25363,1,2,0:0:0:0:
192,192,25524,1,0,0:0:0:0:
320,192,25685,1,2,0:0:0:0:
64,192,25846,1,0,0:0:0:0:
320,192,26008,1,2,0:0:0:0:
192,192,26169,1,0,0:0:0:0:
448,192,26330,1,2,0:0:0:0:
192,192,26492,1,0,0:0:0:0:
448,192,26653,1,2,0:0:0:0:
64,192,26814,1,0,0:0:0:0:
320,192,26975,1,2,0:0:0:0:
64,192,27137,1,0,0:0:0:0:
320,192,27298,1,2,0:0:0:0:
192,192,27459,1,0,0:0:0:0:
64,192,27621,1,2,0:0:0:0:
320,192,27782,1,0,0:0:0:0:
64,192,27943,1,2,0:0:0:0:
448,192,28104,1,0,0:0:0:0:
192,192,28266,1,2,0:0:0:0:
448,192,28427,1,0,0:0:0:0:
192,192,28588,1,2,0:0:0:0:
320,192,28750,1,0,0:0:0:0:
448,192,28911,1,2,0:0:0:0:
64,192,29072,1,0,0:0:0:0:
448,192,29234,1,2,0:0:0:0:
64,192,29395,1,0,0:0:0:0:
320,192,29556,1,2,0:0:0:0:
64,192,29717,1,0,0:0:0:0:
320,192,29879,1,2,0:0:0:0:
192,192,30040,1,0,0:0:0:0:
64,192,30201,1,2,0:0:0:0:
448,192,30363,1,0,0:0:0:0:
64,192,30524,1,2,0:0:0:0:
448,192,30685,1,0,0:0:0:0:
192,192,30846,1,2,0:0:0:0:
448,192,31008,1,0,0:0:0:0:
192,192,31169,1,2,0:0:0:0:
320,192,31330,1,0,0:0:0:0:
64,192,31492,1,2,0:0:0:0:
320,192,31653,1,0,0:0:0:0:
64,192,31814,1,2,0:0:0:0:
192,192,31975,1,0,0:0:0:0:
320,192,32137,1,2,0:0:0:0:
64,192,32298,1,0,0:0:0:0:
320,192,32459,1,2,0:0:0:0:
64,192,32621,1,0,0:0:0:0:
320,192,32782,1,2,0:0:0:0:
448,192,32782,128,0,32943:0:0:0:0:
192,192,32943,1,0,0:0:0:0:
64,192,33104,128,2,33427:0:0:0:0:
320,192,33427,1,2,0:0:0:70:Tom2.wav
448,192,33427,128,0,33750:0:0:0:0:
64,192,33750,1,2,0:0:0:0:
192,192,33750,1,4,0:0:0:0:
320,192,33911,1,0,0:0:0:0:
64,192,34072,1,8,0:0:0:0:
448,192,34072,1,0,0:0:0:0:
192,192,34234,1,0,0:0:0:0:
192,192,34395,1,2,0:0:0:0:
448,192,34395,1,0,0:0:0:0:
320,192,34556,1,0,0:0:0:0:
64,192,34717,1,8,0:0:0:0:
192,192,34717,1,0,0:0:0:0:
448,192,34879,1,0,0:0:0:0:
192,192,35040,1,2,0:0:0:0:
448,192,35040,1,0,0:0:0:0:
64,192,35201,1,0,0:0:0:0:
64,192,35363,1,8,0:0:0:0:
448,192,35363,1,0,0:0:0:0:
320,192,35524,1,0,0:0:0:0:
64,192,35685,1,2,0:0:0:0:
320,192,35685,1,0,0:0:0:0:
192,192,35846,1,0,0:0:0:0:
320,192,36008,1,8,0:0:0:0:
448,192,36008,1,0,0:0:0:0:
448,192,36169,1,0,0:0:0:0:
64,192,36330,1,2,0:0:0:0:
192,192,36330,1,0,0:0:0:0:
320,192,36492,1,0,0:0:0:0:
64,192,36653,1,8,0:0:0:0:
448,192,36653,1,0,0:0:0:0:
192,192,36814,1,0,0:0:0:0:
192,192,36975,1,2,0:0:0:0:
320,192,36975,1,0,0:0:0:0:
320,192,37137,1,0,0:0:0:0:
64,192,37298,1,8,0:0:0:0:
192,192,37298,1,0,0:0:0:0:
448,192,37459,1,0,0:0:0:0:
64,192,37621,1,2,0:0:0:0:
448,192,37621,1,0,0:0:0:0:
192,192,37782,1,0,0:0:0:0:
64,192,37943,1,8,0:0:0:0:
320,192,37943,1,0,0:0:0:0:
448,192,38104,1,0,0:0:0:0:
192,192,38185,1,8,0:0:0:0:
64,192,38266,1,2,0:0:0:0:
320,192,38346,1,8,0:0:0:0:
448,192,38427,1,0,0:0:0:0:
64,192,38588,1,2,0:0:0:0:
192,192,38588,1,0,0:0:0:0:
320,192,38830,1,8,0:0:0:0:
448,192,38830,1,0,0:0:0:0:
64,192,38911,1,4,0:0:0:0:
192,192,38911,1,2,0:0:0:0:
320,192,39072,1,0,0:0:0:0:
64,192,39234,1,8,0:0:0:0:
448,192,39234,1,0,0:0:0:0:
192,192,39395,1,0,0:0:0:0:
192,192,39556,1,2,0:0:0:0:
448,192,39556,1,0,0:0:0:0:
320,192,39717,1,0,0:0:0:0:
64,192,39879,1,8,0:0:0:0:
192,192,39879,1,0,0:0:0:0:
448,192,40040,1,0,0:0:0:0:
64,192,40201,1,2,0:0:0:0:
448,192,40201,1,0,0:0:0:0:
192,192,40363,1,0,0:0:0:0:
320,192,40524,1,8,0:0:0:0:
448,192,40524,1,0,0:0:0:0:
64,192,40685,1,0,0:0:0:0:
192,192,40766,1,8,0:0:0:0:
448,192,40766,1,0,0:0:0:0:
320,192,40846,1,2,0:0:0:0:
64,192,41008,1,0,0:0:0:0:
320,192,41169,1,8,0:0:0:0:
448,192,41169,1,0,0:0:0:0:
192,192,41330,1,0,0:0:0:0:
64,192,41492,1,2,0:0:0:0:
448,192,41492,1,0,0:0:0:0:
64,192,41814,1,8,0:0:0:0:
192,192,41814,1,0,0:0:0:0:
192,192,41975,1,0,0:0:0:0:
320,192,42137,1,2,0:0:0:0:
448,192,42137,1,0,0:0:0:0:
192,192,42298,1,0,0:0:0:0:
64,192,42459,1,8,0:0:0:0:
448,192,42459,1,0,0:0:0:0:
448,192,42621,1,0,0:0:0:0:
64,192,42782,1,2,0:0:0:0:
192,192,42782,1,0,0:0:0:0:
320,192,42943,1,8,0:0:0:0:
448,192,42943,1,4,0:0:0:0:
192,192,43104,1,2,0:0:0:0:
320,192,43266,1,8,0:0:0:0:
448,192,43266,1,0,0:0:0:0:
64,192,43427,1,2,0:0:0:0:
192,192,43427,1,0,0:0:0:0:
320,192,43588,1,8,0:0:0:0:
448,192,43588,1,0,0:0:0:0:
64,192,43750,1,8,0:0:0:0:
192,192,43750,1,0,0:0:0:0:
320,192,43830,1,8,0:0:0:0:
192,192,43911,1,8,0:0:0:0:
448,192,43992,1,8,0:0:0:0:
64,192,44072,128,2,44395:0:0:0:0:
320,192,44072,1,4,0:0:0:0:
64,192,44556,128,2,44717:0:0:0:0:
448,192,44556,1,0,0:0:0:65:drum-hitfinish.wav
320,192,44879,1,0,0:0:0:0:
192,192,45040,1,2,0:0:0:0:
448,192,45040,128,0,45201:0:0:0:65:drum-hitfinish.wav
448,192,46008,128,0,46330:0:0:0:0:
64,192,46330,128,0,46653:0:0:0:0:
192,192,46653,1,2,0:0:0:0:
448,192,46653,1,0,0:0:0:65:drum-hitfinish.wav
64,192,46975,1,8,0:0:0:0:
192,192,46975,1,0,0:0:0:0:
320,192,47137,1,2,0:0:0:0:
448,192,47137,1,0,0:0:0:65:drum-hitfinish.wav
64,192,47459,1,0,0:0:0:0:
192,192,47540,1,0,0:0:0:0:
320,192,47621,1,2,0:0:0:0:
448,192,47621,1,0,0:0:0:65:drum-hitfinish.wav
448,192,48588,1,0,0:0:0:0:
192,192,48696,1,0,0:0:0:70:Tom1.wav
320,192,48803,1,0,0:0:0:70:Tom1.wav
64,192,48911,1,0,0:0:0:70:Tom2.wav
192,192,49018,1,0,0:0:0:70:Tom3.wav
320,192,49126,1,0,0:0:0:70:Tom3.wav
64,192,49234,128,2,49556:0:0:0:0:
448,192,49234,1,0,0:0:0:0:
448,192,49556,128,0,49879:0:0:0:0:
192,192,49879,128,0,50201:0:0:0:0:
320,192,50201,128,0,50524:0:0:0:0:
64,192,50524,128,0,50846:0:0:0:0:
448,192,50846,1,0,0:0:0:0:
192,192,51008,1,2,0:0:0:0:
320,192,51088,1,2,0:0:0:0:
64,192,51169,1,8,0:0:0:0:
448,192,51169,1,0,0:0:0:0:
192,192,51411,1,8,0:0:0:0:
320,192,51492,1,8,0:0:0:0:
64,192,51572,1,8,0:0:0:0:
192,192,51653,1,8,0:0:0:0:
320,192,51734,1,8,0:0:0:0:
64,192,51814,1,2,0:0:0:0:
448,192,51814,1,4,0:0:0:0:
320,192,52137,1,8,0:0:0:0:
448,192,52137,1,0,0:0:0:70:Tom2.wav
320,192,52298,1,8,0:0:0:0:
448,192,52298,1,0,0:0:0:70:Tom2.wav
64,192,52459,1,8,0:0:0:0:
192,192,52459,1,0,0:0:0:70:Tom2.wav
64,192,52621,1,8,0:0:0:0:
192,192,52621,1,0,0:0:0:70:Tom2.wav
320,192,52782,1,8,0:0:0:0:
448,192,52782,1,0,0:0:0:70:Tom2.wav
64,192,52943,1,8,0:0:0:0:
192,192,52943,1,0,0:0:0:70:Tom2.wav
320,192,53104,1,8,0:0:0:0:
448,192,53104,1,0,0:0:0:70:Tom2.wav
64,192,54395,1,10,0:0:0:0:
448,192,54395,1,4,0:0:0:0:
192,192,54556,1,0,0:0:0:0:
320,192,54637,1,8,0:0:0:0:
448,192,54637,1,0,0:0:0:0:
64,192,54717,1,2,0:0:0:0:
192,192,54879,1,8,0:0:0:0:
448,192,54879,1,0,0:0:0:0:
64,192,55040,1,2,0:0:0:0:
320,192,55201,1,8,0:0:0:0:
64,192,55282,1,8,0:0:0:0:
192,192,55282,1,0,0:0:0:0:
448,192,55363,1,2,0:0:0:0:
64,192,55524,1,8,0:0:0:0:
192,192,55524,1,0,0:0:0:0:
448,192,55685,1,2,0:0:0:0:
320,192,55846,1,0,0:0:0:0:
64,192,55927,1,8,0:0:0:0:
192,192,55927,1,0,0:0:0:0:
448,192,56008,1,2,0:0:0:0:
64,192,56169,1,8,0:0:0:0:
192,192,56169,1,0,0:0:0:0:
320,192,56330,1,2,0:0:0:0:
64,192,56492,1,8,0:0:0:0:
320,192,56572,1,8,0:0:0:0:
448,192,56572,1,0,0:0:0:0:
192,192,56653,1,2,0:0:0:0:
320,192,56814,1,8,0:0:0:0:
448,192,56814,1,0,0:0:0:0:
192,192,56975,1,2,0:0:0:0:
448,192,57137,1,0,0:0:0:0:
64,192,57217,1,8,0:0:0:0:
320,192,57217,1,0,0:0:0:0:
192,192,57298,1,2,0:0:0:0:
320,192,57459,1,8,0:0:0:0:
448,192,57459,1,0,0:0:0:0:
64,192,57621,1,2,0:0:0:0:
320,192,57782,1,8,0:0:0:0:
64,192,57863,1,8,0:0:0:0:
192,192,57863,1,0,0:0:0:0:
448,192,57943,1,2,0:0:0:0:
64,192,58104,1,8,0:0:0:0:
320,192,58104,1,0,0:0:0:0:
192,192,58266,1,2,0:0:0:0:
448,192,58427,1,0,0:0:0:0:
64,192,58508,1,8,0:0:0:0:
192,192,58508,1,0,0:0:0:0:
320,192,58588,1,2,0:0:0:0:
64,192,58750,1,8,0:0:0:0:
448,192,58750,1,0,0:0:0:0:
192,192,58911,1,2,0:0:0:0:
320,192,59072,1,8,0:0:0:0:
64,192,59153,1,8,0:0:0:0:
192,192,59153,1,0,0:0:0:0:
448,192,59234,1,2,0:0:0:0:
192,192,59395,1,8,0:0:0:0:
320,192,59475,1,8,0:0:0:0:
64,192,59556,1,2,0:0:0:0:
448,192,59556,1,4,0:0:0:0:
192,192,59717,1,0,0:0:0:0:
320,192,59798,1,8,0:0:0:0:
448,192,59798,1,0,0:0:0:0:
64,192,59879,1,2,0:0:0:0:
192,192,60040,1,8,0:0:0:0:
320,192,60040,1,0,0:0:0:0:
448,192,60201,1,2,0:0:0:0:
64,192,60363,1,8,0:0:0:0:
320,192,60443,1,8,0:0:0:0:
448,192,60443,1,0,0:0:0:0:
64,192,60524,1,2,0:0:0:0:
192,192,60685,1,8,0:0:0:0:
448,192,60685,1,0,0:0:0:0:
320,192,60846,1,2,0:0:0:0:
64,192,61008,1,0,0:0:0:0:
192,192,61088,1,8,0:0:0:0:
448,192,61088,1,0,0:0:0:0:
320,192,61169,1,2,0:0:0:0:
64,192,61330,1,8,0:0:0:0:
192,192,61330,1,0,0:0:0:0:
448,192,61492,1,2,0:0:0:0:
192,192,61653,1,8,0:0:0:0:
320,192,61734,1,8,0:0:0:0:
448,192,61734,1,0,0:0:0:0:
64,192,61814,1,2,0:0:0:0:
192,192,61975,1,8,0:0:0:0:
320,192,61975,1,0,0:0:0:0:
448,192,62137,1,2,0:0:0:0:
64,192,62298,1,0,0:0:0:0:
192,192,62379,1,8,0:0:0:0:
320,192,62379,1,0,0:0:0:0:
448,192,62459,1,2,0:0:0:0:
64,192,62621,1,8,0:0:0:0:
192,192,62621,1,0,0:0:0:0:
320,192,62701,1,0,0:0:0:0:
448,192,62782,1,2,0:0:0:0:
64,192,62943,1,8,0:0:0:0:
320,192,63024,1,8,0:0:0:0:
192,192,63104,1,2,0:0:0:0:
448,192,63185,1,8,0:0:0:0:
320,192,63266,1,8,0:0:0:0:
192,192,63346,1,8,0:0:0:0:
64,192,63427,1,2,0:0:0:0:
448,192,63427,1,0,0:0:0:0:
448,192,63588,1,2,0:0:0:0:
64,192,63750,1,2,0:0:0:0:
192,192,63750,1,0,0:0:0:0:
192,192,63911,1,2,0:0:0:0:
320,192,64072,1,2,0:0:0:0:
448,192,64072,1,0,0:0:0:0:
64,192,64395,128,2,64717:0:0:0:0:
192,192,64395,1,0,0:0:0:0:
448,192,64717,1,0,0:0:0:0:
192,192,64798,1,0,0:0:0:0:
320,192,64879,1,0,0:0:0:0:
64,192,64959,1,0,0:0:0:0:
192,192,65040,1,2,0:0:0:0:
448,192,65040,128,4,65363:0:0:0:0:
64,192,65363,1,2,0:0:0:0:
320,192,65524,1,8,0:0:0:0:
64,192,65604,1,8,0:0:0:0:
192,192,65604,1,0,0:0:0:0:
320,192,65685,1,2,0:0:0:0:
64,192,65846,1,8,0:0:0:0:
192,192,65846,1,0,0:0:0:0:
448,192,66008,1,2,0:0:0:0:
64,192,66169,1,0,0:0:0:0:
320,192,66250,1,8,0:0:0:0:
448,192,66250,1,0,0:0:0:0:
192,192,66330,1,2,0:0:0:0:
320,192,66492,1,8,0:0:0:0:
448,192,66492,1,0,0:0:0:0:
64,192,66653,1,2,0:0:0:0:
320,192,66814,1,8,0:0:0:0:
64,192,66895,1,8,0:0:0:0:
192,192,66895,1,0,0:0:0:0:
448,192,66975,1,2,0:0:0:0:
192,192,67137,1,8,0:0:0:0:
320,192,67137,1,0,0:0:0:0:
64,192,67298,1,2,0:0:0:0:
448,192,67459,1,0,0:0:0:0:
64,192,67540,1,8,0:0:0:0:
320,192,67540,1,0,0:0:0:0:
192,192,67621,1,2,0:0:0:0:
320,192,67782,1,8,0:0:0:0:
448,192,67782,1,0,0:0:0:0:
64,192,67943,1,2,0:0:0:0:
320,192,68104,1,8,0:0:0:0:
64,192,68185,1,8,0:0:0:0:
192,192,68185,1,0,0:0:0:0:
448,192,68266,1,2,0:0:0:0:
192,192,68427,1,8,0:0:0:0:
320,192,68508,1,8,0:0:0:0:
64,192,68588,1,2,0:0:0:0:
448,192,68588,1,4,0:0:0:0:
192,192,68911,1,2,0:0:0:0:
448,192,68911,1,4,0:0:0:0:
320,192,69072,1,0,0:0:0:0:
64,192,69234,1,2,0:0:0:0:
192,192,69234,1,4,0:0:0:0:
448,192,69395,1,8,0:0:0:0:
320,192,69475,1,8,0:0:0:0:
64,192,69556,1,8,0:0:0:0:
192,192,69637,1,8,0:0:0:0:
320,192,69717,1,8,0:0:0:0:
448,192,69798,1,8,0:0:0:0:
64,192,69879,1,2,0:0:0:0:
192,192,69879,1,4,0:0:0:0:
320,192,70040,1,0,0:0:0:0:
64,192,70121,1,8,0:0:0:0:
448,192,70121,1,0,0:0:0:0:
192,192,70201,1,2,0:0:0:0:
320,192,70363,1,8,0:0:0:0:
448,192,70363,1,0,0:0:0:0:
64,192,70524,1,2,0:0:0:0:
320,192,70685,1,8,0:0:0:0:
64,192,70766,1,8,0:0:0:0:
192,192,70766,1,0,0:0:0:0:
448,192,70846,1,2,0:0:0:0:
64,192,71008,1,8,0:0:0:0:
320,192,71008,1,0,0:0:0:0:
192,192,71169,1,2,0:0:0:0:
320,192,71330,1,0,0:0:0:0:
64,192,71411,1,8,0:0:0:0:
448,192,71411,1,0,0:0:0:0:
192,192,71492,1,2,0:0:0:0:
320,192,71653,1,8,0:0:0:0:
448,192,71653,1,0,0:0:0:0:
64,192,71814,1,2,0:0:0:0:
448,192,71975,1,8,0:0:0:0:
64,192,72056,1,8,0:0:0:0:
320,192,72056,1,0,0:0:0:0:
192,192,72137,1,2,0:0:0:0:
320,192,72298,1,8,0:0:0:0:
448,192,72298,1,0,0:0:0:0:
64,192,72459,1,2,0:0:0:0:
448,192,72621,1,0,0:0:0:0:
192,192,72701,1,8,0:0:0:0:
320,192,72701,1,0,0:0:0:0:
64,192,72782,1,2,0:0:0:0:
320,192,72943,1,8,0:0:0:0:
448,192,72943,1,0,0:0:0:0:
192,192,73024,1,0,0:0:0:0:
64,192,73104,1,2,0:0:0:0:
320,192,73266,1,8,0:0:0:0:
448,192,73346,1,8,0:0:0:0:
192,192,73427,1,2,0:0:0:0:
320,192,73508,1,8,0:0:0:0:
64,192,73588,1,8,0:0:0:0:
192,192,73669,1,8,0:0:0:0:
320,192,73750,1,2,0:0:0:0:
448,192,73750,1,0,0:0:0:0:
448,192,73911,1,2,0:0:0:0:
64,192,74072,1,2,0:0:0:0:
192,192,74072,1,0,0:0:0:0:
192,192,74234,1,2,0:0:0:0:
320,192,74395,1,2,0:0:0:0:
448,192,74395,1,4,0:0:0:0:
64,192,74717,1,8,0:0:0:0:
192,192,74717,1,0,0:0:0:0:
320,192,74798,1,0,0:0:0:0:
448,192,74879,1,0,0:0:0:0:
192,192,74959,1,0,0:0:0:0:
64,192,75040,1,2,0:0:0:0:
448,192,75040,1,4,0:0:0:0:
320,192,75201,1,0,0:0:0:65:drum-hitfinish.wav
64,192,75363,1,8,0:0:0:0:
192,192,75363,1,0,0:0:0:0:
448,192,75524,1,0,0:0:0:65:drum-hitfinish.wav
192,192,75685,1,2,0:0:0:0:
64,192,75766,1,0,0:0:0:0:
320,192,75846,1,0,0:0:0:65:drum-hitfinish.wav
192,192,75927,1,0,0:0:0:0:
320,192,76008,1,8,0:0:0:0:
448,192,76008,1,0,0:0:0:0:
64,192,76169,1,0,0:0:0:65:drum-hitfinish.wav
192,192,76330,1,2,0:0:0:0:
448,192,76330,1,0,0:0:0:0:
320,192,76492,1,0,0:0:0:65:drum-hitfinish.wav
64,192,76653,1,8,0:0:0:0:
192,192,76653,1,0,0:0:0:0:
448,192,76814,1,0,0:0:0:65:drum-hitfinish.wav
320,192,76975,1,2,0:0:0:0:
192,192,77056,1,0,0:0:0:0:
64,192,77137,1,0,0:0:0:65:drum-hitfinish.wav
448,192,77217,1,0,0:0:0:0:
64,192,77298,1,8,0:0:0:0:
320,192,77298,1,0,0:0:0:0:
192,192,77459,1,0,0:0:0:65:drum-hitfinish.wav
320,192,77621,1,2,0:0:0:0:
448,192,77621,1,0,0:0:0:0:
64,192,77782,1,0,0:0:0:65:drum-hitfinish.wav
192,192,77943,1,8,0:0:0:0:
448,192,77943,1,0,0:0:0:0:
320,192,78104,1,0,0:0:0:65:drum-hitfinish.wav
64,192,78266,1,2,0:0:0:0:
192,192,78346,1,0,0:0:0:0:
448,192,78427,1,0,0:0:0:65:drum-hitfinish.wav
320,192,78508,1,0,0:0:0:0:
64,192,78588,1,8,0:0:0:0:
192,192,78588,1,0,0:0:0:0:
320,192,78750,1,0,0:0:0:65:drum-hitfinish.wav
64,192,78911,1,2,0:0:0:0:
448,192,78911,1,0,0:0:0:0:
192,192,79072,1,0,0:0:0:65:drum-hitfinish.wav
320,192,79234,1,8,0:0:0:0:
448,192,79234,1,0,0:0:0:0:
192,192,79314,1,0,0:0:0:0:
64,192,79395,1,0,0:0:0:65:drum-hitfinish.wav
320,192,79475,1,0,0:0:0:0:
448,192,79556,1,2,0:0:0:0:
192,192,79717,1,0,0:0:0:65:drum-hitfinish.wav
320,192,79879,1,8,0:0:0:0:
448,192,79879,1,0,0:0:0:0:
192,192,80040,1,2,0:0:0:0:
320,192,80121,1,8,0:0:0:0:
64,192,80201,1,2,0:0:0:0:
448,192,80201,1,4,0:0:0:0:
192,192,80363,1,0,0:0:0:65:drum-hitfinish.wav
320,192,80524,1,8,0:0:0:0:
448,192,80524,1,0,0:0:0:0:
64,192,80685,1,0,0:0:0:65:drum-hitfinish.wav
320,192,80846,1,2,0:0:0:0:
448,192,80927,1,0,0:0:0:0:
192,192,81008,1,0,0:0:0:65:drum-hitfinish.wav
320,192,81088,1,0,0:0:0:0:
64,192,81169,1,8,0:0:0:0:
192,192,81169,1,0,0:0:0:0:
448,192,81330,1,0,0:0:0:65:drum-hitfinish.wav
64,192,81492,1,2,0:0:0:0:
320,192,81492,1,0,0:0:0:0:
192,192,81653,1,0,0:0:0:65:drum-hitfinish.wav
320,192,81814,1,8,0:0:0:0:
448,192,81814,1,0,0:0:0:0:
64,192,81975,1,0,0:0:0:65:drum-hitfinish.wav
192,192,82137,1,2,0:0:0:0:
320,192,82217,1,0,0:0:0:0:
448,192,82298,1,0,0:0:0:65:drum-hitfinish.wav
64,192,82379,1,0,0:0:0:0:
192,192,82459,1,8,0:0:0:0:
448,192,82459,1,0,0:0:0:0:
320,192,82621,1,0,0:0:0:65:drum-hitfinish.wav
64,192,82782,1,2,0:0:0:0:
192,192,82782,1,0,0:0:0:0:
448,192,82943,1,0,0:0:0:65:drum-hitfinish.wav
64,192,83104,1,8,0:0:0:0:
320,192,83104,1,0,0:0:0:0:
192,192,83266,1,8,0:0:0:0:
448,192,83266,1,0,0:0:0:0:
320,192,83346,1,8,0:0:0:0:
64,192,83427,1,2,0:0:0:0:
192,192,83508,1,2,0:0:0:0:
320,192,83588,1,8,0:0:0:0:
448,192,83588,1,0,0:0:0:0:
64,192,83750,1,2,0:0:0:0:
192,192,83830,1,8,0:0:0:0:
320,192,83911,1,8,0:0:0:0:
192,192,83992,1,8,0:0:0:0:
64,192,84072,1,2,0:0:0:0:
448,192,84072,1,4,0:0:0:0:
320,192,84153,1,8,0:0:0:0:
192,192,84234,1,8,0:0:0:0:
448,192,84314,1,8,0:0:0:0:
64,192,84395,1,2,0:0:0:0:
320,192,84475,1,2,0:0:0:0:
192,192,84556,1,0,0:0:0:70:Tom1.wav
320,192,84637,1,0,0:0:0:70:Tom1.wav
448,192,84717,1,0,0:0:0:70:Tom2.wav
192,192,84798,1,0,0:0:0:70:Tom2.wav
64,192,84879,1,0,0:0:0:70:Tom3.wav
320,192,84959,1,0,0:0:0:70:Tom3.wav
192,192,85040,1,8,0:0:0:0:
448,192,85121,1,8,0:0:0:0:
320,192,85201,1,8,0:0:0:0:
192,192,85282,1,8,0:0:0:0:
64,192,85363,1,6,0:0:0:0:
448,192,85363,1,0,0:0:0:65:drum-hitfinish.wav
192,192,85524,1,0,0:0:0:0:
320,192,85685,1,8,0:0:0:0:
448,192,85685,1,0,0:0:0:65:drum-hitfinish.wav
64,192,85846,1,0,0:0:0:0:
320,192,86008,1,2,0:0:0:0:
448,192,86088,1,0,0:0:0:0:
192,192,86169,1,0,0:0:0:0:
320,192,86250,1,0,0:0:0:0:
64,192,86330,1,8,0:0:0:0:
192,192,86330,1,0,0:0:0:65:drum-hitfinish.wav
448,192,86492,1,0,0:0:0:0:
64,192,86653,1,2,0:0:0:0:
320,192,86653,1,0,0:0:0:65:drum-hitfinish.wav
192,192,86814,1,0,0:0:0:0:
320,192,86975,1,8,0:0:0:0:
448,192,86975,1,0,0:0:0:65:drum-hitfinish.wav
64,192,87137,1,0,0:0:0:0:
192,192,87298,1,2,0:0:0:0:
320,192,87379,1,0,0:0:0:0:
448,192,87459,1,0,0:0:0:0:
64,192,87540,1,0,0:0:0:0:
192,192,87621,1,8,0:0:0:0:
448,192,87621,1,0,0:0:0:65:drum-hitfinish.wav
320,192,87782,1,0,0:0:0:0:
64,192,87943,1,2,0:0:0:0:
192,192,87943,1,0,0:0:0:65:drum-hitfinish.wav
448,192,88104,1,0,0:0:0:0:
64,192,88266,1,8,0:0:0:0:
320,192,88266,1,0,0:0:0:65:drum-hitfinish.wav
192,192,88427,1,0,0:0:0:0:
448,192,88588,1,2,0:0:0:0:
320,192,88669,1,0,0:0:0:0:
64,192,88750,1,0,0:0:0:0:
192,192,88830,1,0,0:0:0:0:
320,192,88911,1,8,0:0:0:0:
448,192,88911,1,0,0:0:0:65:drum-hitfinish.wav
192,192,89072,1,0,0:0:0:0:
64,192,89234,1,2,0:0:0:0:
448,192,89234,1,0,0:0:0:65:drum-hitfinish.wav
320,192,89395,1,0,0:0:0:0:
64,192,89556,1,8,0:0:0:0:
192,192,89556,1,0,0:0:0:65:drum-hitfinish.wav
320,192,89637,1,0,0:0:0:0:
448,192,89717,1,0,0:0:0:0:
192,192,89798,1,0,0:0:0:0:
64,192,89879,1,2,0:0:0:0:
320,192,90040,1,0,0:0:0:0:
64,192,90201,1,8,0:0:0:0:
192,192,90201,1,0,0:0:0:65:drum-hitfinish.wav
320,192,90363,1,8,0:0:0:0:
192,192,90443,1,8,0:0:0:0:
64,192,90524,1,6,0:0:0:0:
448,192,90524,1,0,0:0:0:65:drum-hitfinish.wav
320,192,90685,1,0,0:0:0:0:
64,192,90846,1,8,0:0:0:0:
192,192,90846,1,0,0:0:0:65:drum-hitfinish.wav
448,192,91008,1,0,0:0:0:70:Tom1.wav
320,192,91088,1,0,0:0:0:70:Tom1.wav
192,192,91169,1,0,0:0:0:70:Tom2.wav
320,192,91330,1,0,0:0:0:70:Tom2.wav
192,192,91411,1,0,0:0:0:70:Tom2.wav
320,192,91492,1,4,0:0:0:0:
448,192,91492,1,0,0:0:0:70:Tom3.wav
64,192,91653,1,8,0:0:0:0:
192,192,91734,1,8,0:0:0:0:
320,192,91814,1,2,0:0:0:0:
448,192,91814,1,4,0:0:0:0:
192,192,91975,1,8,0:0:0:0:
64,192,92056,1,8,0:0:0:0:
320,192,92137,1,2,0:0:0:0:
192,192,92217,1,8,0:0:0:0:
448,192,92298,1,8,0:0:0:0:
64,192,92379,1,8,0:0:0:0:
320,192,92459,1,10,0:0:0:0:
192,192,92540,1,8,0:0:0:0:
448,192,92621,1,8,0:0:0:0:
192,192,92701,1,8,0:0:0:0:
320,192,92782,1,10,0:0:0:0:
64,192,92863,1,8,0:0:0:0:
192,192,92943,1,8,0:0:0:0:
320,192,93024,1,8,0:0:0:0:
64,192,93104,1,2,0:0:0:0:
448,192,93104,1,4,0:0:0:0:
192,192,93185,1,8,0:0:0:0:
320,192,93266,1,8,0:0:0:0:
64,192,93346,1,8,0:0:0:0:
448,192,93427,1,8,0:0:0:0:
192,192,93588,1,2,0:0:0:0:
448,192,93588,1,8,0:0:0:0:
64,192,93669,1,8,0:0:0:0:
320,192,93750,1,8,0:0:0:0:
192,192,93830,1,8,0:0:0:0:
448,192,93911,1,8,0:0:0:0:
64,192,94072,1,8,0:0:0:0:
192,192,94072,1,2,0:0:0:0:
320,192,94153,1,8,0:0:0:0:
448,192,94234,1,8,0:0:0:0:
192,192,94314,1,8,0:0:0:0:
320,192,94395,1,8,0:0:0:0:
64,192,94556,1,2,0:0:0:0:
448,192,94556,1,8,0:0:0:0:
192,192,94637,1,8,0:0:0:0:
320,192,94717,1,8,0:0:0:0:
192,192,94798,1,8,0:0:0:0:
448,192,94879,1,8,0:0:0:0:
64,192,95040,1,0,0:0:0:70:Tom1.wav
320,192,95121,1,0,0:0:0:70:Tom2.wav
64,192,95201,1,0,0:0:0:70:Tom1.wav
448,192,95282,1,0,0:0:0:70:Tom3.wav
192,192,95363,1,8,0:0:0:0:
448,192,95443,1,8,0:0:0:0:
192,192,95524,1,8,0:0:0:0:
320,192,95604,1,8,0:0:0:0:
64,192,95685,1,2,0:0:0:0:
448,192,95685,1,4,0:0:0:0:
192,192,95766,1,8,0:0:0:0:
320,192,95846,1,8,0:0:0:0:
448,192,95927,1,8,0:0:0:0:
64,192,96008,1,8,0:0:0:0:
320,192,96169,1,8,0:0:0:0:
448,192,96169,1,2,0:0:0:0:
192,192,96250,1,8,0:0:0:0:
64,192,96330,1,8,0:0:0:0:
320,192,96411,1,8,0:0:0:0:
448,192,96492,1,8,0:0:0:0:
64,192,96653,1,8,0:0:0:0:
192,192,96653,1,2,0:0:0:0:
320,192,96734,1,8,0:0:0:0:
448,192,96814,1,8,0:0:0:0:
192,192,96895,1,8,0:0:0:0:
64,192,96975,1,8,0:0:0:0:
320,192,97137,1,2,0:0:0:0:
448,192,97137,1,4,0:0:0:0:
192,192,97217,1,2,0:0:0:0:
64,192,97298,1,6,0:0:0:0:
448,192,97379,1,2,0:0:0:0:
64,192,97459,1,2,0:0:0:0:
320,192,97459,1,4,0:0:0:0:
