osu file format v14

[General]
AudioFilename: audio.mp3
AudioLeadIn: 0
PreviewTime: 53629
Countdown: 0
SampleSet: Soft
StackLeniency: 0.7
Mode: 3
LetterboxInBreaks: 0
SpecialStyle: 0
WidescreenStoryboard: 1

[Editor]
DistanceSpacing: 0.8
BeatDivisor: 2
GridSize: 16
TimelineZoom: 1.5

[Metadata]
Title:Six trillion years and overnight story
TitleUnicode:六兆年と一夜物語
Artist:kemu feat. IA
ArtistUnicode:kemu feat. IA
Creator:Rivals_7
Version:Beginner
Source:
Tags:japanese rock roku-chou rokuchou nen rokuchounen to ichiya monogatari pandora voxx vocaloid vocaloid3 the world ~kaze~ 風 v love 25 cantabile exit tunes presents vocaloconnection
BeatmapID:2524847
BeatmapSetID:1213119

[Difficulty]
HPDrainRate:6.5
CircleSize:4
OverallDifficulty:6.5
ApproachRate:5
SliderMultiplier:1.4
SliderTickRate:1

[Events]
//Background and Video events
0,0,"rkc.jpg",0,0
//Break Periods
//Storyboard Layer 0 (Background)
//Storyboard Layer 1 (Fail)
//Storyboard Layer 2 (Pass)
//Storyboard Layer 3 (Foreground)
//Storyboard Layer 4 (Overlay)
//Storyboard Sound Samples
Sample,52137,0,"Tom2.wav",70
Sample,52459,0,"Tom2.wav",70
Sample,52782,0,"Tom2.wav",70
Sample,80040,0,"drum-hitfinish.wav",65
Sample,86008,0,"drum-hitfinish.wav",65
Sample,86330,0,"drum-hitfinish.wav",65
Sample,86653,0,"drum-hitfinish.wav",65
Sample,87298,0,"drum-hitfinish.wav",65
Sample,87621,0,"drum-hitfinish.wav",65
Sample,87943,0,"drum-hitfinish.wav",65
Sample,88588,0,"drum-hitfinish.wav",65
Sample,88911,0,"drum-hitfinish.wav",65
Sample,89234,0,"drum-hitfinish.wav",65
Sample,89879,0,"drum-hitfinish.wav",65
Sample,90201,0,"drum-hitfinish.wav",65
Sample,90846,0,"drum-hitfinish.wav",65
Sample,91169,0,"drum-hitfinish.wav",65

[TimingPoints]
13105,322.58064516129,4,2,1,65,1,0
54395,-100,4,2,1,65,0,1
64395,-100,4,2,1,65,0,0
65040,-100,4,2,1,65,0,1
68588,-100,4,2,1,65,0,0
69879,-100,4,2,1,65,0,1
74395,-100,4,2,1,65,0,0
75040,-100,4,2,1,65,0,1
97459,-100,4,2,1,65,0,0

[HitObjects]
192,192,12782,128,0,13105:0:0:0:0:
64,192,13105,1,4,0:0:0:0:
448,192,13105,1,8,0:0:0:0:
320,192,13266,1,10,0:0:0:0:
64,192,13750,1,0,0:0:0:0:
192,192,13911,1,0,0:0:0:0:
448,192,14072,128,0,14395:0:0:0:0:
64,192,14395,1,8,0:0:0:0:
192,192,14395,1,2,0:0:0:0:
320,192,14556,1,10,0:0:0:0:
448,192,15040,1,0,0:0:0:0:
320,192,15201,1,0,0:0:0:0:
64,192,15363,128,0,15685:0:0:0:0:
320,192,15685,1,8,0:0:0:0:
448,192,15685,1,2,0:0:0:0:
192,192,15846,1,10,0:0:0:0:
320,192,16330,1,0,0:0:0:0:
192,192,16492,1,0,0:0:0:0:
64,192,16653,128,0,16975:0:0:0:0:
448,192,16975,1,14,0:0:0:0:
192,192,17137,1,2,0:0:0:0:
320,192,17298,1,2,0:0:0:0:
64,192,17459,1,2,0:0:0:0:
192,192,17621,1,8,0:0:0:0:
448,192,17621,1,4,0:0:0:0:
64,192,17943,128,8,18266:0:0:0:0:
320,192,18266,1,2,0:0:0:0:
448,192,18266,1,4,0:0:0:0:
64,192,18588,1,8,0:0:0:0:
192,192,18588,1,0,0:0:0:0:
320,192,18911,1,2,0:0:0:0:
192,192,19072,1,0,0:0:0:65:drum-hitfinish.wav
64,192,19234,1,8,0:0:0:0:
320,192,19556,1,2,0:0:0:0:
64,192,19879,1,8,0:0:0:0:
448,192,19879,1,4,0:0:0:0:
192,192,20201,1,6,0:0:0:0:
320,192,20363,1,8,0:0:0:0:
448,192,20524,1,2,0:0:0:0:
64,192,20685,1,8,0:0:0:0:
192,192,20846,1,2,0:0:0:0:
448,192,20846,128,4,21169:0:0:0:0:
64,192,21330,128,8,21653:0:0:0:0:
192,192,21330,1,2,0:0:0:0:
320,192,21814,1,2,0:0:0:0:
448,192,21814,128,8,22137:0:0:0:0:
64,192,22298,1,2,0:0:0:0:
192,192,22298,128,8,22621:0:0:0:0:
448,192,23104,1,0,0:0:0:0:
320,192,23266,1,0,0:0:0:0:
64,192,23427,1,2,0:0:0:0:
192,192,23427,1,4,0:0:0:0:
448,192,23750,1,2,0:0:0:0:
320,192,24072,1,2,0:0:0:0:
64,192,24395,1,2,0:0:0:0:
192,192,24717,1,2,0:0:0:0:
320,192,25040,1,2,0:0:0:0:
448,192,25363,1,2,0:0:0:0:
192,192,25685,1,2,0:0:0:0:
320,192,26008,1,2,0:0:0:0:
64,192,26330,1,2,0:0:0:0:
192,192,26653,1,2,0:0:0:0:
448,192,26975,1,2,0:0:0:0:
320,192,27298,1,2,0:0:0:0:
192,192,27621,1,2,0:0:0:0:
448,192,27943,1,2,0:0:0:0:
64,192,28266,1,2,0:0:0:0:
320,192,28588,1,2,0:0:0:0:
192,192,28911,1,2,0:0:0:0:
320,192,29234,1,2,0:0:0:0:
64,192,29556,1,2,0:0:0:0:
448,192,29879,1,2,0:0:0:0:
192,192,30201,1,2,0:0:0:0:
320,192,30524,1,2,0:0:0:0:
192,192,30846,1,2,0:0:0:0:
448,192,31169,1,2,0:0:0:0:
320,192,31492,1,2,0:0:0:0:
192,192,31814,1,2,0:0:0:0:
64,192,32137,1,2,0:0:0:0:
448,192,32459,1,2,0:0:0:0:
192,192,32782,1,2,0:0:0:0:
320,192,33104,1,2,0:0:0:0:
448,192,33427,1,2,0:0:0:70:Tom2.wav
64,192,33750,1,2,0:0:0:0:
192,192,33750,1,4,0:0:0:0:
320,192,34072,1,8,0:0:0:0:
192,192,34395,1,2,0:0:0:0:
448,192,34717,1,8,0:0:0:0:
320,192,35040,1,2,0:0:0:0:
192,192,35363,1,8,0:0:0:0:
64,192,35685,1,2,0:0:0:0:
320,192,36008,1,8,0:0:0:0:
192,192,36169,1,0,0:0:0:0:
448,192,36330,1,2,0:0:0:0:
64,192,36653,1,8,0:0:0:0:
192,192,36975,1,2,0:0:0:0:
320,192,37298,1,8,0:0:0:0:
448,192,37621,1,2,0:0:0:0:
192,192,37943,1,8,0:0:0:0:
448,192,38104,1,0,0:0:0:0:
320,192,38266,1,2,0:0:0:0:
64,192,38588,1,2,0:0:0:0:
320,192,38911,1,4,0:0:0:0:
448,192,38911,1,2,0:0:0:0:
192,192,39234,1,8,0:0:0:0:
64,192,39556,1,2,0:0:0:0:
320,192,39879,1,8,0:0:0:0:
192,192,40201,1,2,0:0:0:0:
448,192,40524,1,8,0:0:0:0:
320,192,40846,1,2,0:0:0:0:
192,192,41169,1,8,0:0:0:0:
64,192,41492,1,2,0:0:0:0:
320,192,41814,1,8,0:0:0:0:
64,192,41975,1,0,0:0:0:0:
448,192,42137,1,2,0:0:0:0:
192,192,42459,1,8,0:0:0:0:
320,192,42782,1,2,0:0:0:0:
64,192,42943,1,12,0:0:0:0:
448,192,43266,1,8,0:0:0:0:
192,192,43427,1,2,0:0:0:0:
320,192,43588,1,8,0:0:0:0:
448,192,43750,128,8,44072:0:0:0:0:
64,192,44072,1,2,0:0:0:0:
192,192,44072,1,4,0:0:0:0:
192,192,44556,1,2,0:0:0:0:
320,192,44556,1,0,0:0:0:65:drum-hitfinish.wav
320,192,45040,1,2,0:0:0:0:
448,192,45040,1,0,0:0:0:65:drum-hitfinish.wav
192,192,46008,128,0,46330:0:0:0:0:
448,192,46330,128,0,46653:0:0:0:0:
64,192,46653,1,2,0:0:0:0:
192,192,46653,1,0,0:0:0:65:drum-hitfinish.wav
320,192,46975,1,8,0:0:0:0:
64,192,47137,1,2,0:0:0:0:
448,192,47137,1,0,0:0:0:65:drum-hitfinish.wav
192,192,47459,1,0,0:0:0:0:
320,192,47621,1,2,0:0:0:0:
448,192,47621,1,0,0:0:0:65:drum-hitfinish.wav
64,192,48588,128,0,48911:0:0:0:0:
448,192,48911,128,0,49234:0:0:0:70:Tom2.wav
64,192,49234,1,2,0:0:0:0:
192,192,49234,128,0,49556:0:0:0:0:
320,192,49556,128,0,49879:0:0:0:0:
64,192,49879,128,0,50201:0:0:0:0:
448,192,50201,128,0,50524:0:0:0:0:
192,192,50524,128,0,50846:0:0:0:0:
320,192,51169,1,8,0:0:0:0:
448,192,51169,1,0,0:0:0:0:
192,192,51492,1,8,0:0:0:0:
320,192,51653,1,8,0:0:0:0:
64,192,51814,1,2,0:0:0:0:
448,192,51814,1,4,0:0:0:0:
192,192,52137,1,8,0:0:0:0:
192,192,52459,1,8,0:0:0:0:
320,192,52782,1,8,0:0:0:0:
64,192,53104,1,8,0:0:0:0:
448,192,53104,1,0,0:0:0:70:Tom2.wav
320,192,54395,1,10,0:0:0:0:
448,192,54395,1,4,0:0:0:0:
192,192,54717,1,2,0:0:0:0:
448,192,55040,1,2,0:0:0:0:
64,192,55363,1,2,0:0:0:0:
192,192,55524,1,8,0:0:0:0:
320,192,55685,1,2,0:0:0:0:
192,192,56008,1,2,0:0:0:0:
320,192,56169,1,8,0:0:0:0:
448,192,56330,1,2,0:0:0:0:
192,192,56653,1,2,0:0:0:0:
448,192,56975,1,2,0:0:0:0:
192,192,57298,1,2,0:0:0:0:
64,192,57621,1,2,0:0:0:0:
448,192,57782,1,8,0:0:0:0:
192,192,57943,1,2,0:0:0:0:
64,192,58266,1,2,0:0:0:0:
448,192,58588,1,2,0:0:0:0:
320,192,58750,1,8,0:0:0:0:
192,192,58911,1,2,0:0:0:0:
64,192,59234,1,2,0:0:0:0:
192,192,59395,1,8,0:0:0:0:
320,192,59556,1,2,0:0:0:0:
448,192,59556,1,4,0:0:0:0:
192,192,59879,1,2,0:0:0:0:
448,192,60201,1,2,0:0:0:0:
320,192,60524,1,2,0:0:0:0:
64,192,60846,1,2,0:0:0:0:
448,192,61008,1,0,0:0:0:0:
320,192,61169,1,2,0:0:0:0:
192,192,61492,1,2,0:0:0:0:
320,192,61814,1,2,0:0:0:0:
192,192,61975,1,8,0:0:0:0:
64,192,62137,1,2,0:0:0:0:
64,192,62459,1,2,0:0:0:0:
448,192,62782,1,2,0:0:0:0:
192,192,62943,1,8,0:0:0:0:
448,192,63104,1,2,0:0:0:0:
64,192,63427,1,2,0:0:0:0:
192,192,63588,1,2,0:0:0:0:
320,192,63750,1,2,0:0:0:0:
448,192,63911,1,2,0:0:0:0:
64,192,64072,1,2,0:0:0:0:
320,192,64395,128,2,64717:0:0:0:0:
192,192,64717,1,0,0:0:0:0:
64,192,65040,1,2,0:0:0:0:
448,192,65040,1,4,0:0:0:0:
320,192,65363,1,2,0:0:0:0:
448,192,65685,1,2,0:0:0:0:
192,192,65846,1,8,0:0:0:0:
64,192,66008,1,2,0:0:0:0:
320,192,66330,1,2,0:0:0:0:
448,192,66492,1,8,0:0:0:0:
192,192,66653,1,2,0:0:0:0:
64,192,66975,1,2,0:0:0:0:
448,192,67298,1,2,0:0:0:0:
64,192,67621,1,2,0:0:0:0:
320,192,67943,1,2,0:0:0:0:
448,192,68104,1,8,0:0:0:0:
64,192,68266,1,2,0:0:0:0:
320,192,68588,1,2,0:0:0:0:
448,192,68588,1,4,0:0:0:0:
192,192,68911,1,6,0:0:0:0:
64,192,69234,1,2,0:0:0:0:
448,192,69234,1,4,0:0:0:0:
320,192,69556,128,8,69879:0:0:0:0:
64,192,69879,1,2,0:0:0:0:
192,192,69879,1,4,0:0:0:0:
320,192,70201,1,2,0:0:0:0:
64,192,70524,1,2,0:0:0:0:
320,192,70846,1,2,0:0:0:0:
192,192,71008,1,8,0:0:0:0:
448,192,71169,1,2,0:0:0:0:
320,192,71492,1,2,0:0:0:0:
64,192,71814,1,2,0:0:0:0:
448,192,72137,1,2,0:0:0:0:
320,192,72298,1,8,0:0:0:0:
192,192,72459,1,2,0:0:0:0:
192,192,72782,1,2,0:0:0:0:
320,192,73104,1,2,0:0:0:0:
64,192,73266,1,8,0:0:0:0:
320,192,73427,1,2,0:0:0:0:
64,192,73750,1,2,0:0:0:0:
192,192,73911,1,2,0:0:0:0:
320,192,74072,1,2,0:0:0:0:
448,192,74234,1,2,0:0:0:0:
64,192,74395,1,6,0:0:0:0:
320,192,74717,128,8,75040:0:0:0:0:
64,192,75040,1,2,0:0:0:0:
448,192,75040,1,4,0:0:0:0:
64,192,75363,1,8,0:0:0:0:
192,192,75363,1,0,0:0:0:0:
320,192,75685,1,2,0:0:0:0:
192,192,76008,1,8,0:0:0:0:
448,192,76008,1,0,0:0:0:0:
64,192,76330,1,2,0:0:0:0:
320,192,76653,1,8,0:0:0:0:
448,192,76653,1,0,0:0:0:0:
192,192,76975,1,2,0:0:0:0:
64,192,77298,1,8,0:0:0:0:
448,192,77298,1,0,0:0:0:0:
320,192,77621,1,2,0:0:0:0:
192,192,77943,1,8,0:0:0:0:
448,192,77943,1,0,0:0:0:0:
64,192,78266,1,2,0:0:0:0:
320,192,78588,1,8,0:0:0:0:
448,192,78588,1,0,0:0:0:0:
192,192,78911,1,2,0:0:0:0:
64,192,79234,1,8,0:0:0:0:
320,192,79234,1,0,0:0:0:0:
448,192,79556,1,2,0:0:0:0:
192,192,79879,1,8,0:0:0:0:
320,192,80040,1,2,0:0:0:0:
64,192,80201,1,2,0:0:0:0:
448,192,80201,1,4,0:0:0:0:
320,192,80524,1,8,0:0:0:0:
448,192,80524,1,0,0:0:0:0:
192,192,80846,1,2,0:0:0:0:
64,192,81169,1,8,0:0:0:0:
320,192,81169,1,0,0:0:0:0:
448,192,81492,1,2,0:0:0:0:
64,192,81814,1,8,0:0:0:0:
192,192,81814,1,0,0:0:0:0:
320,192,82137,1,2,0:0:0:0:
64,192,82459,1,8,0:0:0:0:
448,192,82459,1,0,0:0:0:0:
192,192,82782,1,2,0:0:0:0:
64,192,83104,1,8,0:0:0:0:
320,192,83104,1,0,0:0:0:0:
448,192,83427,1,2,0:0:0:0:
64,192,83750,1,2,0:0:0:0:
192,192,83750,1,0,0:0:0:0:
64,192,84072,1,2,0:0:0:0:
448,192,84072,1,4,0:0:0:0:
320,192,84234,1,8,0:0:0:0:
192,192,84395,1,2,0:0:0:0:
448,192,84717,1,0,0:0:0:70:Tom2.wav
320,192,85040,1,8,0:0:0:0:
192,192,85201,1,8,0:0:0:0:
64,192,85363,1,6,0:0:0:0:
448,192,85363,1,0,0:0:0:65:drum-hitfinish.wav
192,192,85685,1,8,0:0:0:0:
320,192,85685,1,0,0:0:0:65:drum-hitfinish.wav
448,192,86008,1,2,0:0:0:0:
64,192,86169,1,0,0:0:0:0:
192,192,86330,1,8,0:0:0:0:
448,192,86653,1,2,0:0:0:0:
64,192,86975,1,8,0:0:0:0:
192,192,86975,1,0,0:0:0:65:drum-hitfinish.wav
320,192,87298,1,2,0:0:0:0:
192,192,87459,1,0,0:0:0:0:
448,192,87621,1,8,0:0:0:0:
64,192,87943,1,2,0:0:0:0:
192,192,88266,1,8,0:0:0:0:
448,192,88266,1,0,0:0:0:65:drum-hitfinish.wav
320,192,88588,1,2,0:0:0:0:
192,192,88750,1,0,0:0:0:0:
64,192,88911,1,8,0:0:0:0:
448,192,89234,1,2,0:0:0:0:
64,192,89556,1,8,0:0:0:0:
192,192,89556,1,0,0:0:0:65:drum-hitfinish.wav
320,192,89717,1,0,0:0:0:0:
448,192,89879,1,2,0:0:0:0:
192,192,90201,1,8,0:0:0:0:
320,192,90363,1,8,0:0:0:0:
64,192,90524,1,6,0:0:0:0:
448,192,90524,1,0,0:0:0:65:drum-hitfinish.wav
320,192,90846,1,8,0:0:0:0:
64,192,91169,1,0,0:0:0:70:Tom2.wav
320,192,91330,1,0,0:0:0:70:Tom2.wav
192,192,91492,1,4,0:0:0:0:
448,192,91492,1,0,0:0:0:70:Tom3.wav
64,192,91814,1,2,0:0:0:0:
320,192,91814,1,4,0:0:0:0:
192,192,92137,1,2,0:0:0:0:
448,192,92298,1,8,0:0:0:0:
192,192,92459,1,10,0:0:0:0:
320,192,92782,1,10,0:0:0:0:
192,192,92943,1,8,0:0:0:0:
64,192,93104,1,2,0:0:0:0:
448,192,93104,128,4,93427:0:0:0:0:
64,192,93588,1,2,0:0:0:0:
192,192,93588,128,8,93911:0:0:0:0:
320,192,94072,1,8,0:0:0:0:
448,192,94072,128,2,94395:0:0:0:0:
64,192,94556,128,2,94879:0:0:0:0:
320,192,94556,1,8,0:0:0:0:
448,192,95040,1,0,0:0:0:70:Tom1.wav
320,192,95201,1,0,0:0:0:70:Tom1.wav
192,192,95363,1,8,0:0:0:0:
64,192,95524,1,8,0:0:0:0:
320,192,95685,1,2,0:0:0:0:
448,192,95685,128,4,96008:0:0:0:0:
64,192,96169,128,8,96492:0:0:0:0:
192,192,96169,1,2,0:0:0:0:
320,192,96653,1,8,0:0:0:0:
448,192,96653,128,2,96975:0:0:0:0:
192,192,97137,1,6,0:0:0:0:
320,192,97298,1,6,0:0:0:0:
64,192,97459,1,2,0:0:0:0:
448,192,97459,1,4,0:0:0:0:
