osu file format v14

[General]
AudioFilename: audio.mp3
AudioLeadIn: 0
PreviewTime: 58844
Countdown: 0
SampleSet: Normal
StackLeniency: 0.8
Mode: 3
LetterboxInBreaks: 0
SpecialStyle: 0
WidescreenStoryboard: 1

[Editor]
DistanceSpacing: 1.5
BeatDivisor: 4
GridSize: 4
TimelineZoom: 2

[Metadata]
Title:Ikasama Life Game
TitleUnicode:イカサマライフゲイム
Artist:kemu feat. GUMI
ArtistUnicode:kemu feat. GUMI
Creator:mijkolsmith
Version:EXHAUST
Source:
Tags:SDVX REFLEC BEAT plus EXIT TUNES PRESENTS Vocaloconnection 初音ミク (2012) BLASTER GATE vocaloid japanese ke-sanβ Suzumu Hatsuko PANDORA VOXX-complete- Life Cheating Game megpoid SOUND VOLTEX BOOTH Rock
BeatmapID:1968059
BeatmapSetID:942437

[Difficulty]
HPDrainRate:8.5
CircleSize:4
OverallDifficulty:8.5
ApproachRate:9.4
SliderMultiplier:1.5
SliderTickRate:1

[Events]
//Background and Video events
0,0,"ikasama_life.png",0,0
//Break Periods
//Storyboard Layer 0 (Background)
//Storyboard Layer 1 (Fail)
//Storyboard Layer 2 (Pass)
//Storyboard Layer 3 (Foreground)
//Storyboard Layer 4 (Overlay)
//Storyboard Sound Samples

[TimingPoints]
10919,300,4,3,1,60,1,0
20219,-66.6666666666667,4,3,1,60,0,0
20369,-166.666666666667,4,3,1,60,0,0
20406,-142.857142857143,4,3,1,60,0,0
20444,-125,4,3,1,60,0,0
20481,-111.111111111111,4,3,1,60,0,0
20519,-100,4,1,1,90,0,0
58919,-100,4,1,1,90,0,1
78119,-100,4,1,1,60,0,0
88019,-100,4,1,1,60,0,0
96869,-100,4,1,1,90,0,0
116519,-100,4,1,1,90,0,1
135719,-100,4,1,1,90,0,0
135869,-100,4,3,1,60,0,0
140219,-100,4,1,1,90,0,0
179069,-100,4,3,1,60,0,0
188519,-100,4,1,1,90,0,0
198119,-100,4,1,1,90,0,1
219719,-100,4,1,1,90,0,0

[HitObjects]
192,192,10919,128,0,11069:0:0:0:0:
448,192,10919,1,0,0:0:0:0:
64,192,11069,128,0,11219:0:0:0:0:
320,192,11219,128,0,11369:0:0:0:0:
192,192,11369,128,0,11519:0:0:0:0:
448,192,11369,1,0,0:0:0:0:
64,192,11519,1,0,0:0:0:0:
448,192,11669,128,0,11819:0:0:0:0:
192,192,11669,1,0,0:0:0:0:
320,192,11969,128,0,12119:0:0:0:0:
64,192,11969,1,0,0:0:0:0:
192,192,12119,128,0,12269:0:0:0:0:
448,192,12269,128,0,12419:0:0:0:0:
64,192,12269,1,0,0:0:0:0:
64,192,12569,128,0,12719:0:0:0:0:
320,192,12569,1,0,0:0:0:0:
448,192,12719,1,0,0:0:0:0:
192,192,12869,128,0,13019:0:0:0:0:
320,192,13019,128,0,13169:0:0:0:0:
64,192,13019,1,0,0:0:0:0:
448,192,13169,128,0,13319:0:0:0:0:
320,192,13319,128,0,13469:0:0:0:0:
192,192,13319,1,0,0:0:0:0:
64,192,13469,128,0,13619:0:0:0:0:
320,192,13619,128,0,13769:0:0:0:0:
192,192,13769,128,0,13919:0:0:0:0:
448,192,13769,1,0,0:0:0:0:
64,192,13919,1,0,0:0:0:0:
448,192,14069,128,0,14219:0:0:0:0:
192,192,14069,1,0,0:0:0:0:
320,192,14369,128,0,14519:0:0:0:0:
64,192,14369,1,0,0:0:0:0:
64,192,14669,128,0,14819:0:0:0:0:
448,192,14669,1,0,0:0:0:0:
192,192,14819,128,0,14969:0:0:0:0:
320,192,14969,128,0,15119:0:0:0:0:
64,192,15119,1,0,0:0:0:0:
448,192,15119,128,0,15269:0:0:0:0:
320,192,15269,128,0,15419:0:0:0:0:
192,192,15419,128,0,15569:0:0:0:0:
64,192,15569,128,0,15719:0:0:0:0:
448,192,15719,1,0,0:0:0:0:
320,192,15794,1,0,0:0:0:0:
192,192,15869,1,0,0:0:0:0:
320,192,15944,1,0,0:0:0:0:
64,192,16019,1,0,0:0:0:0:
192,192,16094,1,0,0:0:0:0:
320,192,16169,1,0,0:0:0:0:
192,192,16244,1,0,0:0:0:0:
448,192,16319,1,0,0:0:0:0:
320,192,16394,1,0,0:0:0:0:
192,192,16469,1,0,0:0:0:0:
320,192,16544,1,0,0:0:0:0:
64,192,16619,1,0,0:0:0:0:
192,192,16694,1,0,0:0:0:0:
320,192,16769,1,0,0:0:0:0:
448,192,16844,1,0,0:0:0:0:
64,192,16919,1,0,0:0:0:0:
192,192,16969,1,0,0:0:0:0:
320,192,17019,1,0,0:0:0:0:
448,192,17069,1,0,0:0:0:0:
64,192,17119,1,0,0:0:0:0:
192,192,17169,1,0,0:0:0:0:
320,192,17219,1,0,0:0:0:0:
448,192,17269,1,0,0:0:0:0:
64,192,17319,1,0,0:0:0:0:
192,192,17369,1,0,0:0:0:0:
320,192,17419,1,0,0:0:0:0:
448,192,17469,1,0,0:0:0:0:
64,192,17519,1,0,0:0:0:0:
192,192,17569,1,0,0:0:0:0:
320,192,17619,1,0,0:0:0:0:
448,192,17669,1,0,0:0:0:0:
64,192,17719,1,0,0:0:0:0:
192,192,17769,1,0,0:0:0:0:
320,192,17819,1,0,0:0:0:0:
448,192,17894,1,0,0:0:0:0:
64,192,17969,1,0,0:0:0:0:
192,192,18044,1,0,0:0:0:0:
448,192,18119,128,0,18269:0:0:0:0:
192,192,18269,128,0,18419:0:0:0:0:
320,192,18419,128,0,18569:0:0:0:0:
64,192,18569,128,0,18719:0:0:0:0:
448,192,18719,128,0,18869:0:0:0:0:
192,192,18869,128,0,19019:0:0:0:0:
320,192,19019,128,0,19169:0:0:0:0:
64,192,19169,1,0,0:0:0:0:
192,192,19206,1,0,0:0:0:0:
320,192,19244,1,0,0:0:0:0:
448,192,19281,1,0,0:0:0:0:
64,192,19319,128,0,19469:0:0:0:0:
448,192,19469,1,0,0:0:0:0:
192,192,19519,1,0,0:0:0:0:
320,192,19569,1,0,0:0:0:0:
448,192,19619,128,0,19769:0:0:0:0:
64,192,19769,128,0,19919:0:0:0:0:
192,192,19919,128,0,20069:0:0:0:0:
64,192,20219,1,0,0:0:0:90:big snare.wav
320,192,20219,1,0,0:0:0:0:
448,192,20219,1,0,0:0:0:0:
64,192,20519,1,2,0:0:0:0:
192,192,20519,1,4,0:0:0:0:
448,192,20519,1,0,0:0:0:0:
320,192,20669,1,0,0:0:0:0:
64,192,20819,1,2,0:0:0:0:
448,192,20819,1,8,0:0:0:0:
192,192,20969,1,0,0:0:0:0:
320,192,21119,1,2,0:0:0:0:
448,192,21119,1,0,0:0:0:0:
64,192,21194,1,0,0:0:0:0:
192,192,21269,1,0,0:0:0:0:
320,192,21419,1,2,0:0:0:0:
64,192,21419,1,8,0:0:0:0:
192,192,21569,1,0,0:0:0:0:
448,192,21719,1,2,0:0:0:0:
64,192,21719,1,0,0:0:0:0:
320,192,21869,1,0,0:0:0:0:
64,192,22019,1,2,0:0:0:0:
192,192,22019,1,8,0:0:0:0:
448,192,22094,1,0,0:0:0:0:
320,192,22169,1,0,0:0:0:0:
64,192,22319,128,2,22469:0:0:0:0:
448,192,22319,1,0,0:0:0:0:
192,192,22469,128,0,22619:0:0:0:0:
64,192,22619,1,2,0:0:0:0:
320,192,22619,128,8,22769:0:0:0:0:
448,192,22769,128,0,22919:0:0:0:0:
64,192,22919,1,2,0:0:0:0:
192,192,22919,1,0,0:0:0:0:
448,192,23069,1,0,0:0:0:0:
64,192,23219,1,2,0:0:0:0:
320,192,23219,1,8,0:0:0:0:
192,192,23369,1,0,0:0:0:0:
64,192,23519,1,2,0:0:0:0:
448,192,23519,1,0,0:0:0:0:
320,192,23669,1,0,0:0:0:0:
192,192,23819,1,2,0:0:0:0:
448,192,23819,1,8,0:0:0:0:
320,192,23969,1,0,0:0:0:0:
64,192,24119,1,2,0:0:0:0:
448,192,24119,1,0,0:0:0:0:
320,192,24269,1,0,0:0:0:0:
64,192,24419,1,2,0:0:0:0:
192,192,24419,1,8,0:0:0:0:
320,192,24494,1,0,0:0:0:0:
192,192,24569,1,0,0:0:0:0:
320,192,24719,1,2,0:0:0:0:
448,192,24719,1,0,0:0:0:0:
192,192,24794,1,0,0:0:0:0:
320,192,24869,1,0,0:0:0:0:
64,192,25019,1,2,0:0:0:0:
192,192,25019,1,8,0:0:0:0:
64,192,25169,1,8,0:0:0:0:
192,192,25169,1,0,0:0:0:0:
320,192,25244,1,8,0:0:0:0:
64,192,25319,1,4,0:0:0:0:
192,192,25319,1,2,0:0:0:0:
448,192,25319,1,0,0:0:0:0:
320,192,25469,1,0,0:0:0:0:
64,192,25619,1,2,0:0:0:0:
448,192,25619,1,8,0:0:0:0:
192,192,25769,1,0,0:0:0:0:
64,192,25919,1,2,0:0:0:0:
448,192,25919,1,0,0:0:0:0:
192,192,25994,1,0,0:0:0:0:
320,192,26069,1,0,0:0:0:0:
192,192,26219,1,2,0:0:0:0:
448,192,26219,1,8,0:0:0:0:
64,192,26369,1,0,0:0:0:0:
192,192,26519,1,2,0:0:0:0:
448,192,26519,1,0,0:0:0:0:
320,192,26669,1,0,0:0:0:0:
64,192,26819,1,2,0:0:0:0:
448,192,26819,1,8,0:0:0:0:
320,192,26894,1,0,0:0:0:0:
192,192,26969,1,0,0:0:0:0:
64,192,27119,128,2,27269:0:0:0:0:
448,192,27119,1,0,0:0:0:0:
320,192,27269,128,0,27419:0:0:0:0:
64,192,27419,1,2,0:0:0:0:
192,192,27419,128,8,27569:0:0:0:0:
448,192,27569,128,0,27719:0:0:0:0:
64,192,27719,1,2,0:0:0:0:
192,192,27719,1,0,0:0:0:0:
320,192,27869,1,0,0:0:0:0:
64,192,28019,1,2,0:0:0:0:
448,192,28019,1,8,0:0:0:0:
320,192,28169,1,0,0:0:0:0:
192,192,28319,1,2,0:0:0:0:
448,192,28319,1,0,0:0:0:0:
320,192,28469,1,0,0:0:0:0:
64,192,28619,1,2,0:0:0:0:
192,192,28619,1,8,0:0:0:0:
320,192,28769,1,0,0:0:0:0:
64,192,28919,1,2,0:0:0:0:
448,192,28919,1,0,0:0:0:0:
192,192,29069,1,0,0:0:0:0:
320,192,29144,1,0,0:0:0:0:
64,192,29219,1,8,0:0:0:0:
192,192,29219,1,4,0:0:0:0:
448,192,29219,1,0,0:0:0:0:
64,192,29369,1,2,0:0:0:0:
192,192,29444,1,2,0:0:0:0:
320,192,29519,1,8,0:0:0:0:
448,192,29519,1,0,0:0:0:0:
448,192,29669,1,8,0:0:0:0:
320,192,29744,1,8,0:0:0:0:
64,192,29819,1,8,0:0:0:0:
192,192,29819,1,0,0:0:0:0:
320,192,29969,1,8,0:0:0:0:
192,192,30044,1,8,0:0:0:0:
64,192,30119,1,2,0:0:0:0:
320,192,30119,1,4,0:0:0:0:
448,192,30119,1,0,0:0:0:0:
192,192,30269,128,0,30419:0:0:0:0:
64,192,30419,1,2,0:0:0:0:
448,192,30419,128,0,30569:0:0:0:0:
320,192,30569,128,0,30719:0:0:0:0:
192,192,30719,1,2,0:0:0:0:
448,192,30719,128,0,30869:0:0:0:0:
64,192,31019,1,2,0:0:0:0:
192,192,31019,128,0,31169:0:0:0:0:
320,192,31169,128,0,31319:0:0:0:0:
192,192,31319,1,2,0:0:0:0:
448,192,31319,128,0,31469:0:0:0:0:
64,192,31619,1,2,0:0:0:0:
192,192,31619,128,0,31769:0:0:0:0:
320,192,31769,128,0,31919:0:0:0:0:
192,192,31919,1,2,0:0:0:0:
448,192,31919,128,0,32069:0:0:0:0:
320,192,32069,128,0,32219:0:0:0:0:
64,192,32219,1,2,0:0:0:0:
448,192,32219,128,0,32369:0:0:0:0:
64,192,32369,128,0,32519:0:0:0:0:
192,192,32519,1,2,0:0:0:0:
320,192,32519,1,0,0:0:0:0:
64,192,32819,1,2,0:0:0:0:
192,192,33119,1,2,0:0:0:0:
320,192,33119,1,0,0:0:0:0:
448,192,33419,1,2,0:0:0:0:
192,192,33719,1,2,0:0:0:0:
320,192,33719,1,0,0:0:0:0:
64,192,34019,1,2,0:0:0:0:
448,192,34169,128,8,34319:0:0:0:0:
192,192,34319,1,0,0:0:0:0:
320,192,34319,1,0,0:0:0:0:
64,192,34469,1,8,0:0:0:0:
448,192,34469,1,2,0:0:0:0:
192,192,34619,1,0,0:0:0:0:
320,192,34769,1,8,0:0:0:0:
192,192,34844,1,8,0:0:0:0:
64,192,34919,1,4,0:0:0:0:
320,192,34919,1,2,0:0:0:0:
448,192,34919,1,0,0:0:0:0:
192,192,35069,128,0,35219:0:0:0:0:
320,192,35219,128,2,35369:0:0:0:0:
448,192,35219,1,0,0:0:0:0:
64,192,35369,128,8,35519:0:0:0:0:
192,192,35369,1,0,0:0:0:0:
192,192,35519,128,2,35669:0:0:0:0:
320,192,35519,1,0,0:0:0:0:
320,192,35819,128,2,35969:0:0:0:0:
448,192,35819,1,0,0:0:0:0:
192,192,35969,128,0,36119:0:0:0:0:
64,192,36119,128,2,36269:0:0:0:0:
320,192,36119,1,0,0:0:0:0:
320,192,36419,128,2,36569:0:0:0:0:
448,192,36419,1,0,0:0:0:0:
192,192,36569,128,8,36719:0:0:0:0:
64,192,36719,128,2,36869:0:0:0:0:
320,192,36719,1,0,0:0:0:0:
320,192,36869,128,8,37019:0:0:0:0:
448,192,37019,1,2,0:0:0:0:
64,192,37169,128,8,37319:0:0:0:0:
192,192,37169,1,0,0:0:0:0:
448,192,37244,1,8,0:0:0:0:
320,192,37319,1,2,0:0:0:0:
64,192,37619,1,2,0:0:0:0:
448,192,37619,1,8,0:0:0:0:
64,192,37919,1,2,0:0:0:0:
448,192,37919,1,0,0:0:0:0:
64,192,38219,1,2,0:0:0:0:
448,192,38219,1,0,0:0:0:0:
320,192,38369,1,8,0:0:0:0:
192,192,38444,1,8,0:0:0:0:
64,192,38519,1,4,0:0:0:0:
320,192,38519,1,2,0:0:0:0:
448,192,38519,128,0,38669:0:0:0:0:
192,192,38669,128,0,38819:0:0:0:0:
320,192,38819,128,4,38969:0:0:0:0:
448,192,38819,1,2,0:0:0:0:
64,192,38969,128,0,39119:0:0:0:0:
192,192,39119,128,2,39269:0:0:0:0:
320,192,39269,128,2,39419:0:0:0:0:
64,192,39419,1,8,0:0:0:0:
192,192,39419,1,0,0:0:0:0:
320,192,39494,1,8,0:0:0:0:
448,192,39494,1,0,0:0:0:0:
64,192,39569,1,8,0:0:0:0:
192,192,39569,1,0,0:0:0:0:
64,192,39719,1,2,0:0:0:0:
320,192,39719,1,4,0:0:0:0:
448,192,39719,1,0,0:0:0:0:
192,192,39869,1,0,0:0:0:0:
320,192,40019,1,2,0:0:0:0:
448,192,40019,1,8,0:0:0:0:
192,192,40169,1,0,0:0:0:0:
64,192,40319,1,2,0:0:0:0:
448,192,40319,1,0,0:0:0:0:
320,192,40469,1,0,0:0:0:0:
64,192,40619,1,8,0:0:0:0:
192,192,40619,1,2,0:0:0:0:
448,192,40769,1,0,0:0:0:0:
64,192,40919,1,2,0:0:0:0:
320,192,40919,1,0,0:0:0:0:
192,192,41069,1,0,0:0:0:0:
320,192,41219,1,8,0:0:0:0:
448,192,41219,1,2,0:0:0:0:
192,192,41369,1,0,0:0:0:0:
64,192,41519,1,2,0:0:0:0:
448,192,41519,1,0,0:0:0:0:
320,192,41669,1,0,0:0:0:0:
64,192,41819,1,8,0:0:0:0:
192,192,41819,1,2,0:0:0:0:
448,192,41969,1,0,0:0:0:0:
64,192,42119,1,2,0:0:0:0:
192,192,42119,1,0,0:0:0:0:
320,192,42269,1,0,0:0:0:0:
64,192,42419,1,8,0:0:0:0:
448,192,42419,1,2,0:0:0:0:
192,192,42569,1,0,0:0:0:0:
320,192,42719,1,2,0:0:0:0:
448,192,42719,1,0,0:0:0:0:
64,192,42869,1,0,0:0:0:0:
192,192,43019,1,8,0:0:0:0:
320,192,43019,1,2,0:0:0:0:
64,192,43169,1,0,0:0:0:0:
320,192,43319,1,2,0:0:0:0:
448,192,43319,1,0,0:0:0:0:
192,192,43469,1,0,0:0:0:0:
448,192,43619,1,2,0:0:0:0:
64,192,43619,1,8,0:0:0:0:
320,192,43769,1,0,0:0:0:0:
64,192,43919,1,2,0:0:0:0:
192,192,43919,1,0,0:0:0:0:
320,192,44069,128,0,44219:0:0:0:90:long hat.wav
192,192,44219,1,8,0:0:0:0:
448,192,44219,1,2,0:0:0:0:
64,192,44369,1,0,0:0:0:90:long hat.wav
192,192,44444,1,8,0:0:0:0:
64,192,44519,1,2,0:0:0:0:
320,192,44519,1,4,0:0:0:0:
448,192,44519,1,0,0:0:0:0:
192,192,44669,1,0,0:0:0:0:
320,192,44819,1,8,0:0:0:0:
448,192,44819,1,2,0:0:0:0:
192,192,44969,1,0,0:0:0:0:
320,192,45119,1,2,0:0:0:0:
448,192,45119,1,0,0:0:0:0:
64,192,45269,1,0,0:0:0:0:
192,192,45419,1,8,0:0:0:0:
448,192,45419,1,2,0:0:0:0:
320,192,45569,1,0,0:0:0:0:
64,192,45719,1,2,0:0:0:0:
192,192,45719,1,0,0:0:0:0:
448,192,45869,1,0,0:0:0:0:
64,192,46019,1,8,0:0:0:0:
192,192,46019,1,2,0:0:0:0:
320,192,46019,1,0,0:0:0:90:long hat.wav
448,192,46169,1,0,0:0:0:0:
64,192,46319,1,2,0:0:0:0:
320,192,46319,1,0,0:0:0:0:
192,192,46469,1,0,0:0:0:0:
64,192,46619,1,8,0:0:0:0:
320,192,46619,1,2,0:0:0:0:
448,192,46619,1,0,0:0:0:90:long hat.wav
192,192,46769,1,0,0:0:0:0:
64,192,46919,1,2,0:0:0:0:
448,192,46919,1,0,0:0:0:0:
320,192,47069,1,0,0:0:0:0:
64,192,47219,1,8,0:0:0:0:
192,192,47219,1,2,0:0:0:0:
448,192,47369,1,0,0:0:0:0:
64,192,47519,1,2,0:0:0:0:
192,192,47519,1,0,0:0:0:0:
448,192,47669,1,0,0:0:0:0:
64,192,47819,1,4,0:0:0:0:
192,192,47819,1,2,0:0:0:0:
320,192,47819,1,8,0:0:0:0:
448,192,47969,1,0,0:0:0:0:
64,192,48119,1,2,0:0:0:0:
192,192,48119,1,0,0:0:0:0:
320,192,48269,1,4,0:0:0:0:
448,192,48269,1,2,0:0:0:0:
64,192,48419,1,4,0:0:0:0:
192,192,48419,1,8,0:0:0:0:
448,192,48419,1,0,0:0:0:0:
320,192,48569,1,2,0:0:0:0:
192,192,48644,1,2,0:0:0:0:
64,192,48719,1,4,0:0:0:0:
320,192,48719,1,8,0:0:0:0:
448,192,48719,1,0,0:0:0:0:
192,192,48869,1,2,0:0:0:0:
64,192,48944,1,0,0:0:0:0:
320,192,49019,1,8,0:0:0:0:
448,192,49019,1,0,0:0:0:0:
320,192,49169,1,8,0:0:0:0:
448,192,49169,1,0,0:0:0:0:
64,192,49319,1,2,0:0:0:0:
192,192,49319,128,4,49469:0:0:0:0:
448,192,49319,1,0,0:0:0:0:
320,192,49619,1,8,0:0:0:0:
448,192,49619,1,0,0:0:0:0:
64,192,49769,1,2,0:0:0:0:
192,192,49769,128,0,49919:0:0:0:0:
448,192,49919,1,0,0:0:0:0:
64,192,50069,1,2,0:0:0:0:
320,192,50069,1,0,0:0:0:0:
320,192,50369,1,8,0:0:0:0:
448,192,50369,1,0,0:0:0:0:
192,192,50519,1,0,0:0:0:0:
64,192,50669,1,2,0:0:0:0:
320,192,50669,1,0,0:0:0:0:
64,192,50819,1,8,0:0:0:0:
192,192,50819,1,0,0:0:0:0:
320,192,50969,1,0,0:0:0:0:
448,192,51044,1,0,0:0:0:0:
64,192,51119,1,2,0:0:0:0:
320,192,51119,1,0,0:0:0:0:
192,192,51269,128,0,51419:0:0:0:0:
320,192,51419,128,0,51569:0:0:0:0:
64,192,51569,1,8,0:0:0:0:
192,192,51569,128,0,51719:0:0:0:0:
320,192,51719,128,2,51869:0:0:0:0:
448,192,51719,1,0,0:0:0:0:
64,192,52019,1,8,0:0:0:0:
192,192,52019,1,0,0:0:0:0:
320,192,52169,128,2,52319:0:0:0:0:
448,192,52169,1,0,0:0:0:0:
64,192,52319,1,0,0:0:0:0:
192,192,52469,1,2,0:0:0:0:
448,192,52469,1,0,0:0:0:0:
64,192,52769,1,8,0:0:0:0:
192,192,52769,1,0,0:0:0:0:
320,192,52919,1,0,0:0:0:0:
64,192,53069,1,2,0:0:0:0:
448,192,53069,1,0,0:0:0:0:
64,192,53219,1,8,0:0:0:0:
192,192,53219,1,0,0:0:0:0:
320,192,53369,128,0,53519:0:0:0:0:
64,192,53519,1,2,0:0:0:0:
192,192,53519,128,0,53669:0:0:0:0:
320,192,53669,128,2,53819:0:0:0:0:
448,192,53669,1,0,0:0:0:0:
64,192,53819,1,8,0:0:0:0:
192,192,53819,128,0,53969:0:0:0:0:
320,192,53969,128,0,54119:0:0:0:0:
448,192,53969,1,0,0:0:0:0:
64,192,54119,1,2,0:0:0:0:
192,192,54119,128,0,54269:0:0:0:0:
320,192,54419,1,8,0:0:0:0:
448,192,54419,1,0,0:0:0:0:
64,192,54569,1,2,0:0:0:0:
192,192,54569,128,0,54719:0:0:0:0:
448,192,54719,1,0,0:0:0:0:
64,192,54869,1,2,0:0:0:0:
320,192,54869,1,0,0:0:0:0:
320,192,55169,1,8,0:0:0:0:
448,192,55169,1,0,0:0:0:0:
192,192,55319,1,0,0:0:0:0:
64,192,55469,1,2,0:0:0:0:
320,192,55469,1,0,0:0:0:0:
320,192,55619,1,8,0:0:0:0:
448,192,55619,1,0,0:0:0:0:
64,192,55769,1,2,0:0:0:0:
192,192,55769,1,0,0:0:0:0:
320,192,55844,1,2,0:0:0:0:
448,192,55844,1,0,0:0:0:0:
64,192,55919,1,8,0:0:0:0:
192,192,55919,1,0,0:0:0:0:
320,192,56069,1,2,0:0:0:0:
64,192,56219,1,8,0:0:0:0:
192,192,56219,1,0,0:0:0:0:
64,192,56369,1,8,0:0:0:0:
192,192,56369,1,0,0:0:0:0:
448,192,56519,1,2,0:0:0:0:
448,192,56669,1,2,0:0:0:0:
448,192,56819,1,2,0:0:0:0:
64,192,56969,1,2,0:0:0:0:
320,192,57119,128,2,57419:0:0:0:0:
320,192,57569,1,2,0:0:0:0:
192,192,57644,1,2,0:0:0:0:
64,192,57719,1,4,0:0:0:0:
320,192,57719,1,8,0:0:0:0:
448,192,57719,1,0,0:0:0:0:
192,192,57869,1,0,0:0:0:0:
320,192,57944,1,0,0:0:0:0:
64,192,58019,1,8,0:0:0:0:
448,192,58019,1,0,0:0:0:0:
192,192,58169,1,0,0:0:0:0:
320,192,58244,1,0,0:0:0:0:
64,192,58319,1,8,0:0:0:0:
448,192,58319,1,0,0:0:0:0:
192,192,58394,1,0,0:0:0:0:
320,192,58469,1,8,0:0:0:0:
64,192,58544,1,8,0:0:0:0:
448,192,58619,1,8,0:0:0:0:
64,192,58694,1,8,0:0:0:0:
448,192,58769,1,8,0:0:0:0:
192,192,58844,1,8,0:0:0:0:
64,192,58919,1,4,0:0:0:0:
320,192,58919,1,2,0:0:0:0:
448,192,58919,1,0,0:0:0:0:
192,192,58994,1,0,0:0:0:0:
320,192,59069,1,0,0:0:0:70:long hat.wav
192,192,59144,1,0,0:0:0:0:
64,192,59219,1,2,0:0:0:0:
448,192,59219,1,8,0:0:0:0:
320,192,59294,1,0,0:0:0:0:
192,192,59369,1,0,0:0:0:70:long hat.wav
448,192,59444,1,0,0:0:0:0:
64,192,59519,1,2,0:0:0:0:
320,192,59519,1,0,0:0:0:0:
192,192,59594,1,0,0:0:0:0:
448,192,59669,1,0,0:0:0:70:long hat.wav
64,192,59744,1,0,0:0:0:0:
192,192,59819,1,2,0:0:0:0:
320,192,59819,1,8,0:0:0:0:
448,192,59894,1,0,0:0:0:0:
64,192,59969,1,0,0:0:0:70:long hat.wav
192,192,60044,1,0,0:0:0:0:
320,192,60119,1,2,0:0:0:0:
448,192,60119,1,0,0:0:0:0:
64,192,60194,1,0,0:0:0:0:
192,192,60269,1,0,0:0:0:70:long hat.wav
320,192,60344,1,0,0:0:0:0:
64,192,60419,1,2,0:0:0:0:
448,192,60419,1,8,0:0:0:0:
320,192,60494,1,0,0:0:0:0:
192,192,60569,1,0,0:0:0:70:long hat.wav
448,192,60644,1,0,0:0:0:0:
192,192,60719,1,2,0:0:0:0:
320,192,60719,1,0,0:0:0:0:
64,192,60794,1,0,0:0:0:0:
448,192,60869,1,0,0:0:0:70:long hat.wav
320,192,60944,1,0,0:0:0:0:
64,192,61019,1,8,0:0:0:0:
192,192,61019,1,2,0:0:0:0:
448,192,61094,1,0,0:0:0:0:
320,192,61169,1,0,0:0:0:70:long hat.wav
192,192,61244,1,0,0:0:0:0:
64,192,61319,1,2,0:0:0:0:
448,192,61319,1,0,0:0:0:0:
320,192,61394,1,0,0:0:0:0:
192,192,61469,1,0,0:0:0:70:long hat.wav
64,192,61544,1,0,0:0:0:0:
320,192,61619,1,2,0:0:0:0:
448,192,61619,1,8,0:0:0:0:
192,192,61694,1,0,0:0:0:0:
448,192,61769,1,0,0:0:0:70:long hat.wav
64,192,61844,1,0,0:0:0:0:
192,192,61919,1,2,0:0:0:0:
320,192,61919,1,0,0:0:0:0:
448,192,61994,1,0,0:0:0:0:
64,192,62069,1,0,0:0:0:70:long hat.wav
192,192,62144,1,0,0:0:0:0:
320,192,62219,1,2,0:0:0:0:
448,192,62219,1,8,0:0:0:0:
192,192,62294,1,0,0:0:0:0:
64,192,62369,1,0,0:0:0:70:long hat.wav
320,192,62444,1,0,0:0:0:0:
64,192,62519,1,2,0:0:0:0:
192,192,62519,1,0,0:0:0:0:
448,192,62594,1,0,0:0:0:0:
320,192,62669,1,0,0:0:0:70:long hat.wav
192,192,62744,1,0,0:0:0:0:
64,192,62819,1,8,0:0:0:0:
448,192,62819,1,2,0:0:0:0:
320,192,62894,1,0,0:0:0:0:
192,192,62969,1,0,0:0:0:70:long hat.wav
64,192,63044,1,0,0:0:0:0:
320,192,63119,1,2,0:0:0:0:
448,192,63119,1,0,0:0:0:0:
320,192,63269,1,0,0:0:0:70:long hat.wav
192,192,63344,1,0,0:0:0:0:
64,192,63419,1,8,0:0:0:0:
448,192,63419,1,2,0:0:0:0:
64,192,63569,1,8,0:0:0:0:
192,192,63644,1,8,0:0:0:0:
64,192,63719,1,2,0:0:0:0:
320,192,63719,1,4,0:0:0:0:
448,192,63719,1,0,0:0:0:0:
192,192,63794,1,0,0:0:0:0:
448,192,63869,1,0,0:0:0:70:long hat.wav
64,192,63944,1,0,0:0:0:0:
192,192,64019,1,8,0:0:0:0:
320,192,64019,1,2,0:0:0:0:
448,192,64094,1,0,0:0:0:0:
64,192,64169,1,0,0:0:0:70:long hat.wav
320,192,64244,1,0,0:0:0:0:
192,192,64319,1,2,0:0:0:0:
448,192,64319,1,0,0:0:0:0:
64,192,64394,1,0,0:0:0:0:
320,192,64469,1,0,0:0:0:70:long hat.wav
448,192,64544,1,0,0:0:0:0:
64,192,64619,1,8,0:0:0:0:
192,192,64619,1,2,0:0:0:0:
320,192,64694,1,0,0:0:0:0:
448,192,64769,1,0,0:0:0:70:long hat.wav
192,192,64844,1,0,0:0:0:0:
64,192,64919,1,2,0:0:0:0:
448,192,64919,1,0,0:0:0:0:
192,192,64994,1,0,0:0:0:0:
320,192,65069,1,0,0:0:0:70:long hat.wav
64,192,65144,1,0,0:0:0:0:
320,192,65219,1,2,0:0:0:0:
448,192,65219,1,8,0:0:0:0:
192,192,65294,1,0,0:0:0:0:
320,192,65369,1,0,0:0:0:70:long hat.wav
448,192,65444,1,0,0:0:0:0:
64,192,65519,1,2,0:0:0:0:
192,192,65519,1,0,0:0:0:0:
320,192,65594,1,0,0:0:0:0:
448,192,65669,1,0,0:0:0:70:long hat.wav
64,192,65744,1,0,0:0:0:0:
192,192,65819,1,2,0:0:0:0:
448,192,65819,1,8,0:0:0:0:
320,192,65894,1,0,0:0:0:0:
64,192,65969,1,0,0:0:0:70:long hat.wav
448,192,66044,1,0,0:0:0:0:
192,192,66119,1,2,0:0:0:0:
320,192,66119,1,0,0:0:0:0:
64,192,66194,1,0,0:0:0:0:
448,192,66269,1,0,0:0:0:70:long hat.wav
320,192,66344,1,0,0:0:0:0:
64,192,66419,1,2,0:0:0:0:
192,192,66419,1,8,0:0:0:0:
320,192,66494,1,0,0:0:0:0:
448,192,66569,1,0,0:0:0:70:long hat.wav
64,192,66644,1,0,0:0:0:0:
192,192,66719,1,2,0:0:0:0:
320,192,66719,1,0,0:0:0:0:
448,192,66794,1,0,0:0:0:0:
64,192,66869,1,0,0:0:0:70:long hat.wav
192,192,66944,1,0,0:0:0:0:
320,192,67019,1,2,0:0:0:0:
448,192,67019,1,8,0:0:0:0:
192,192,67094,1,0,0:0:0:0:
64,192,67169,1,0,0:0:0:90:long hat.wav
320,192,67244,1,0,0:0:0:0:
192,192,67319,1,2,0:0:0:0:
448,192,67319,1,0,0:0:0:0:
448,192,67469,1,2,0:0:0:0:
320,192,67544,1,2,0:0:0:0:
64,192,67619,1,4,0:0:0:0:
192,192,67619,1,8,0:0:0:0:
448,192,67619,1,0,0:0:0:0:
64,192,67769,1,2,0:0:0:0:
192,192,67844,1,2,0:0:0:0:
64,192,67919,1,8,0:0:0:0:
320,192,67919,1,4,0:0:0:0:
448,192,67919,1,0,0:0:0:0:
192,192,68069,1,8,0:0:0:0:
320,192,68144,1,8,0:0:0:0:
64,192,68219,1,8,0:0:0:0:
448,192,68219,1,2,0:0:0:0:
320,192,68369,1,8,0:0:0:0:
64,192,68444,1,8,0:0:0:0:
192,192,68519,1,4,0:0:0:0:
320,192,68519,1,2,0:0:0:0:
448,192,68519,1,0,0:0:0:0:
64,192,68594,1,0,0:0:0:0:
448,192,68669,1,0,0:0:0:90:long hat.wav
320,192,68744,1,0,0:0:0:0:
64,192,68819,1,2,0:0:0:0:
192,192,68819,1,8,0:0:0:0:
448,192,68894,1,0,0:0:0:0:
192,192,68969,1,0,0:0:0:90:long hat.wav
320,192,69044,1,0,0:0:0:0:
64,192,69119,1,2,0:0:0:0:
448,192,69119,1,0,0:0:0:0:
192,192,69194,1,0,0:0:0:0:
320,192,69269,1,0,0:0:0:90:long hat.wav
64,192,69344,1,0,0:0:0:0:
192,192,69419,1,2,0:0:0:0:
448,192,69419,1,8,0:0:0:0:
320,192,69494,1,0,0:0:0:0:
64,192,69569,1,0,0:0:0:90:long hat.wav
448,192,69644,1,0,0:0:0:0:
192,192,69719,1,2,0:0:0:0:
320,192,69719,1,0,0:0:0:0:
448,192,69794,1,0,0:0:0:0:
64,192,69869,1,0,0:0:0:90:long hat.wav
320,192,69944,1,0,0:0:0:0:
192,192,70019,1,2,0:0:0:0:
448,192,70019,1,8,0:0:0:0:
64,192,70094,1,0,0:0:0:0:
320,192,70169,1,0,0:0:0:90:long hat.wav
448,192,70244,1,0,0:0:0:0:
64,192,70319,1,2,0:0:0:0:
192,192,70319,1,0,0:0:0:0:
320,192,70394,1,0,0:0:0:0:
64,192,70469,1,0,0:0:0:90:long hat.wav
192,192,70544,1,0,0:0:0:0:
320,192,70619,1,2,0:0:0:0:
448,192,70619,1,8,0:0:0:0:
64,192,70694,1,0,0:0:0:0:
192,192,70769,1,0,0:0:0:90:long hat.wav
448,192,70844,1,0,0:0:0:0:
64,192,70919,1,2,0:0:0:0:
320,192,70919,1,0,0:0:0:0:
192,192,70994,1,0,0:0:0:0:
448,192,71069,1,0,0:0:0:90:long hat.wav
320,192,71144,1,0,0:0:0:0:
64,192,71219,1,2,0:0:0:0:
192,192,71219,1,8,0:0:0:0:
448,192,71294,1,0,0:0:0:0:
320,192,71369,1,0,0:0:0:90:long hat.wav
64,192,71444,1,0,0:0:0:0:
192,192,71519,1,2,0:0:0:0:
448,192,71519,1,0,0:0:0:0:
320,192,71594,1,0,0:0:0:0:
64,192,71669,1,0,0:0:0:90:long hat.wav
192,192,71744,1,0,0:0:0:0:
320,192,71819,1,2,0:0:0:0:
448,192,71819,1,8,0:0:0:0:
192,192,71894,1,0,0:0:0:0:
64,192,71969,1,0,0:0:0:90:long hat.wav
320,192,72044,1,0,0:0:0:0:
64,192,72119,1,2,0:0:0:0:
448,192,72119,1,0,0:0:0:0:
192,192,72194,1,0,0:0:0:0:
320,192,72269,1,0,0:0:0:90:long hat.wav
192,192,72344,1,0,0:0:0:0:
64,192,72419,1,2,0:0:0:0:
448,192,72419,1,8,0:0:0:0:
320,192,72494,1,0,0:0:0:0:
192,192,72569,1,0,0:0:0:90:long hat.wav
320,192,72644,1,0,0:0:0:0:
64,192,72719,1,2,0:0:0:0:
448,192,72719,1,0,0:0:0:0:
448,192,72869,1,8,0:0:0:0:
320,192,72944,1,8,0:0:0:0:
64,192,73019,1,2,0:0:0:0:
192,192,73019,1,8,0:0:0:0:
320,192,73169,1,8,0:0:0:0:
192,192,73244,1,8,0:0:0:0:
64,192,73319,1,2,0:0:0:0:
320,192,73319,1,4,0:0:0:0:
448,192,73319,1,0,0:0:0:0:
192,192,73394,1,0,0:0:0:0:
64,192,73469,1,0,0:0:0:90:long hat.wav
320,192,73544,1,0,0:0:0:0:
192,192,73619,1,2,0:0:0:0:
448,192,73619,1,8,0:0:0:0:
64,192,73694,1,0,0:0:0:0:
320,192,73769,1,0,0:0:0:90:long hat.wav
64,192,73844,1,0,0:0:0:0:
192,192,73919,1,2,0:0:0:0:
448,192,73919,1,0,0:0:0:0:
320,192,73994,1,0,0:0:0:0:
64,192,74069,1,0,0:0:0:90:long hat.wav
192,192,74144,1,0,0:0:0:0:
320,192,74219,1,2,0:0:0:0:
448,192,74219,1,8,0:0:0:0:
64,192,74294,1,0,0:0:0:0:
320,192,74369,1,0,0:0:0:90:long hat.wav
192,192,74444,1,0,0:0:0:0:
64,192,74519,1,2,0:0:0:0:
448,192,74519,1,0,0:0:0:0:
320,192,74594,1,0,0:0:0:0:
192,192,74669,1,0,0:0:0:90:long hat.wav
64,192,74744,1,0,0:0:0:0:
320,192,74819,1,2,0:0:0:0:
448,192,74819,1,8,0:0:0:0:
192,192,74894,1,0,0:0:0:0:
448,192,74969,1,0,0:0:0:90:long hat.wav
64,192,75044,1,0,0:0:0:0:
192,192,75119,1,2,0:0:0:0:
320,192,75119,1,0,0:0:0:0:
448,192,75194,1,0,0:0:0:0:
64,192,75269,1,0,0:0:0:90:long hat.wav
192,192,75344,1,0,0:0:0:0:
320,192,75419,1,2,0:0:0:0:
448,192,75419,1,8,0:0:0:0:
64,192,75494,1,0,0:0:0:0:
448,192,75569,1,8,0:0:0:0:
192,192,75644,1,8,0:0:0:0:
64,192,75719,1,2,0:0:0:0:
320,192,75719,1,4,0:0:0:0:
448,192,75719,1,0,0:0:0:0:
64,192,75869,1,2,0:0:0:0:
192,192,75869,1,0,0:0:0:0:
320,192,76019,1,2,0:0:0:0:
448,192,76019,1,8,0:0:0:0:
192,192,76169,1,8,0:0:0:0:
320,192,76244,1,8,0:0:0:0:
64,192,76319,1,2,0:0:0:0:
192,192,76319,1,4,0:0:0:0:
448,192,76319,1,0,0:0:0:0:
320,192,76469,1,2,0:0:0:0:
448,192,76469,1,0,0:0:0:0:
64,192,76619,1,2,0:0:0:0:
192,192,76619,1,8,0:0:0:0:
320,192,76769,1,8,0:0:0:0:
192,192,76844,1,8,0:0:0:0:
64,192,76919,1,4,0:0:0:0:
320,192,76919,1,8,0:0:0:0:
448,192,76919,1,0,0:0:0:0:
192,192,77069,1,2,0:0:0:0:
64,192,77219,1,4,0:0:0:0:
320,192,77219,1,8,0:0:0:0:
448,192,77219,1,0,0:0:0:0:
192,192,77369,1,2,0:0:0:0:
64,192,77519,1,4,0:0:0:0:
320,192,77519,1,8,0:0:0:0:
448,192,77519,1,0,0:0:0:0:
320,192,77819,1,8,0:0:0:0:
64,192,77894,1,8,0:0:0:0:
448,192,77969,1,8,0:0:0:0:
192,192,78044,1,8,0:0:0:0:
64,192,78119,1,2,0:0:0:0:
320,192,78119,1,4,0:0:0:0:
448,192,78119,1,0,0:0:0:0:
192,192,78269,1,0,0:0:0:0:
320,192,78419,1,8,0:0:0:0:
448,192,78419,1,2,0:0:0:0:
192,192,78569,1,0,0:0:0:0:
64,192,78719,1,2,0:0:0:0:
448,192,78719,1,0,0:0:0:0:
320,192,78794,1,0,0:0:0:0:
192,192,78869,1,0,0:0:0:0:
64,192,79019,1,8,0:0:0:0:
448,192,79019,1,2,0:0:0:0:
192,192,79169,1,0,0:0:0:0:
64,192,79319,1,2,0:0:0:0:
320,192,79319,1,0,0:0:0:0:
192,192,79469,1,0,0:0:0:0:
64,192,79619,1,8,0:0:0:0:
448,192,79619,1,2,0:0:0:0:
192,192,79694,1,0,0:0:0:0:
320,192,79769,1,0,0:0:0:0:
64,192,79919,128,2,80069:0:0:0:0:
448,192,79919,1,0,0:0:0:0:
192,192,80069,128,0,80219:0:0:0:0:
64,192,80219,1,2,0:0:0:0:
320,192,80219,128,8,80369:0:0:0:0:
448,192,80369,128,0,80519:0:0:0:0:
64,192,80519,1,2,0:0:0:0:
192,192,80519,1,0,0:0:0:0:
448,192,80669,1,0,0:0:0:0:
64,192,80819,1,2,0:0:0:0:
320,192,80819,1,8,0:0:0:0:
192,192,80969,1,0,0:0:0:0:
64,192,81119,1,2,0:0:0:0:
448,192,81119,1,0,0:0:0:0:
192,192,81269,1,0,0:0:0:0:
64,192,81419,1,2,0:0:0:0:
320,192,81419,1,8,0:0:0:0:
448,192,81419,1,4,0:0:0:0:
192,192,81569,1,0,0:0:0:0:
64,192,81719,1,2,0:0:0:0:
448,192,81719,1,0,0:0:0:0:
320,192,81869,1,8,0:0:0:0:
192,192,82019,1,8,0:0:0:0:
448,192,82019,1,2,0:0:0:0:
320,192,82094,1,8,0:0:0:0:
192,192,82169,1,8,0:0:0:0:
64,192,82319,1,8,0:0:0:0:
320,192,82319,1,2,0:0:0:0:
192,192,82394,1,8,0:0:0:0:
320,192,82469,1,8,0:0:0:0:
192,192,82619,1,8,0:0:0:0:
448,192,82619,1,2,0:0:0:0:
320,192,82694,1,8,0:0:0:0:
192,192,82769,1,8,0:0:0:0:
64,192,82919,1,4,0:0:0:0:
320,192,82919,1,2,0:0:0:0:
448,192,82919,1,0,0:0:0:0:
192,192,83069,1,0,0:0:0:0:
320,192,83219,1,2,0:0:0:0:
448,192,83219,1,8,0:0:0:0:
192,192,83369,1,0,0:0:0:0:
64,192,83519,1,2,0:0:0:0:
448,192,83519,1,0,0:0:0:0:
192,192,83594,1,0,0:0:0:0:
320,192,83669,1,0,0:0:0:0:
64,192,83819,1,8,0:0:0:0:
192,192,83819,1,2,0:0:0:0:
448,192,83969,1,0,0:0:0:0:
64,192,84119,1,2,0:0:0:0:
320,192,84119,1,0,0:0:0:0:
192,192,84269,1,0,0:0:0:0:
64,192,84419,1,2,0:0:0:0:
448,192,84419,1,8,0:0:0:0:
320,192,84494,1,0,0:0:0:0:
192,192,84569,1,0,0:0:0:0:
64,192,84719,128,2,84869:0:0:0:0:
448,192,84719,1,0,0:0:0:0:
320,192,84869,128,0,85019:0:0:0:0:
64,192,85019,1,2,0:0:0:0:
192,192,85019,128,8,85169:0:0:0:0:
448,192,85169,128,0,85319:0:0:0:0:
64,192,85319,1,2,0:0:0:0:
192,192,85319,1,0,0:0:0:0:
320,192,85469,1,0,0:0:0:0:
64,192,85619,1,2,0:0:0:0:
448,192,85619,1,8,0:0:0:0:
320,192,85769,1,0,0:0:0:0:
64,192,85919,1,2,0:0:0:0:
448,192,85919,1,0,0:0:0:0:
192,192,86069,1,0,0:0:0:0:
64,192,86219,1,2,0:0:0:0:
320,192,86219,1,8,0:0:0:0:
448,192,86219,1,4,0:0:0:0:
192,192,86369,1,0,0:0:0:0:
64,192,86519,1,2,0:0:0:0:
448,192,86519,1,0,0:0:0:0:
320,192,86669,1,2,0:0:0:0:
192,192,86744,1,2,0:0:0:0:
64,192,86819,1,4,0:0:0:0:
320,192,86819,1,8,0:0:0:0:
448,192,86819,1,0,0:0:0:0:
192,192,86969,1,2,0:0:0:0:
64,192,87044,1,2,0:0:0:0:
320,192,87119,1,8,0:0:0:0:
448,192,87119,1,0,0:0:0:0:
192,192,87269,1,8,0:0:0:0:
320,192,87344,1,8,0:0:0:0:
64,192,87419,1,8,0:0:0:0:
448,192,87419,1,0,0:0:0:0:
192,192,87494,1,8,0:0:0:0:
320,192,87569,1,8,0:0:0:0:
64,192,87719,1,4,0:0:0:0:
192,192,87719,1,2,0:0:0:0:
448,192,87719,1,0,0:0:0:0:
320,192,87869,128,0,88019:0:0:0:0:
64,192,88019,128,0,88169:0:0:0:60:long hat.wav
192,192,88019,1,0,0:0:0:0:
192,192,88169,128,0,88319:0:0:0:0:
64,192,88319,1,0,0:0:0:60:long hat.wav
320,192,88319,128,0,88469:0:0:0:0:
192,192,88619,1,0,0:0:0:60:long hat.wav
448,192,88619,128,0,88769:0:0:0:0:
320,192,88769,128,0,88919:0:0:0:0:
64,192,88919,128,0,89069:0:0:0:60:long hat.wav
192,192,88919,1,0,0:0:0:0:
192,192,89219,128,0,89369:0:0:0:60:long hat.wav
320,192,89219,1,0,0:0:0:0:
320,192,89369,128,0,89519:0:0:0:0:
64,192,89519,128,0,89669:0:0:0:60:long hat.wav
448,192,89519,1,0,0:0:0:0:
192,192,89669,128,0,89819:0:0:0:0:
320,192,89819,1,0,0:0:0:60:long hat.wav
448,192,89819,128,0,89969:0:0:0:0:
192,192,89969,128,0,90119:0:0:0:0:
448,192,90044,1,0,0:0:0:60:long hat.wav
64,192,90119,1,0,0:0:0:60:long hat.wav
192,192,90419,1,0,0:0:0:60:long hat.wav
64,192,90719,1,0,0:0:0:60:long hat.wav
192,192,91019,1,0,0:0:0:60:long hat.wav
64,192,91319,1,0,0:0:0:60:long hat.wav
192,192,91619,1,0,0:0:0:60:long hat.wav
320,192,91769,128,8,91919:0:0:0:0:
64,192,91919,1,0,0:0:0:0:
448,192,91919,1,0,0:0:0:0:
320,192,92069,1,8,0:0:0:0:
192,192,92069,1,2,0:0:0:0:
448,192,92219,1,0,0:0:0:0:
64,192,92369,1,8,0:0:0:0:
192,192,92444,1,8,0:0:0:0:
64,192,92519,1,2,0:0:0:0:
320,192,92519,1,4,0:0:0:0:
448,192,92519,1,0,0:0:0:0:
192,192,92669,128,0,92819:0:0:0:0:
64,192,92819,128,0,92969:0:0:0:60:long hat.wav
320,192,92819,1,0,0:0:0:0:
320,192,92969,128,10,93119:0:0:0:0:
64,192,93119,1,0,0:0:0:60:long hat.wav
192,192,93119,128,0,93269:0:0:0:0:
192,192,93419,128,0,93569:0:0:0:60:long hat.wav
448,192,93419,1,0,0:0:0:0:
320,192,93569,128,0,93719:0:0:0:0:
64,192,93719,1,0,0:0:0:60:long hat.wav
448,192,93719,128,0,93869:0:0:0:0:
192,192,94019,128,0,94169:0:0:0:60:long hat.wav
448,192,94019,1,0,0:0:0:0:
64,192,94169,128,8,94319:0:0:0:0:
320,192,94169,1,0,0:0:0:0:
448,192,94319,128,0,94469:0:0:0:60:long hat.wav
64,192,94469,128,8,94619:0:0:0:0:
192,192,94469,1,0,0:0:0:0:
64,192,94769,128,2,94919:0:0:0:0:
448,192,94769,1,0,0:0:0:0:
320,192,94844,1,2,0:0:0:0:
192,192,94919,1,2,0:0:0:0:
64,192,95969,128,0,96269:0:0:0:0:
192,192,96269,128,0,96419:0:0:0:0:
320,192,96419,128,0,96569:0:0:0:0:
448,192,96569,128,0,96869:0:0:0:0:
192,192,96869,1,8,0:0:0:0:
320,192,96869,128,4,97169:0:0:0:0:
64,192,96869,1,0,0:0:0:0:
192,192,97169,1,2,0:0:0:0:
64,192,97319,1,2,0:0:0:0:
320,192,97319,1,4,0:0:0:0:
448,192,97319,1,0,0:0:0:0:
192,192,97469,1,0,0:0:0:0:
320,192,97619,1,2,0:0:0:0:
448,192,97619,1,8,0:0:0:0:
64,192,97769,1,0,0:0:0:0:
192,192,97919,1,2,0:0:0:0:
320,192,97919,1,0,0:0:0:0:
448,192,98069,1,0,0:0:0:0:
64,192,98219,1,2,0:0:0:0:
320,192,98219,1,8,0:0:0:0:
448,192,98369,1,0,0:0:0:0:
64,192,98519,1,2,0:0:0:0:
192,192,98519,1,0,0:0:0:0:
320,192,98669,1,0,0:0:0:0:
64,192,98819,1,2,0:0:0:0:
448,192,98819,1,8,0:0:0:0:
192,192,98969,1,0,0:0:0:0:
64,192,99119,1,2,0:0:0:0:
448,192,99119,1,0,0:0:0:0:
320,192,99269,1,0,0:0:0:0:
64,192,99419,1,2,0:0:0:0:
192,192,99419,1,8,0:0:0:0:
448,192,99569,1,0,0:0:0:0:
64,192,99719,1,2,0:0:0:0:
192,192,99719,1,0,0:0:0:0:
448,192,99869,1,0,0:0:0:0:
64,192,100019,1,2,0:0:0:0:
320,192,100019,1,8,0:0:0:0:
192,192,100169,1,0,0:0:0:0:
64,192,100319,1,2,0:0:0:0:
448,192,100319,1,0,0:0:0:0:
192,192,100469,1,0,0:0:0:0:
320,192,100619,1,2,0:0:0:0:
448,192,100619,1,8,0:0:0:0:
192,192,100769,1,0,0:0:0:0:
320,192,100919,1,2,0:0:0:0:
448,192,100919,1,0,0:0:0:0:
192,192,101069,1,0,0:0:0:0:
64,192,101219,1,2,0:0:0:0:
448,192,101219,1,8,0:0:0:0:
320,192,101369,1,0,0:0:0:0:
64,192,101519,1,2,0:0:0:0:
448,192,101519,1,0,0:0:0:0:
192,192,101669,1,0,0:0:0:90:long hat.wav
320,192,101669,128,0,101819:0:0:0:0:
64,192,101819,1,2,0:0:0:0:
448,192,101819,1,8,0:0:0:0:
192,192,101969,1,0,0:0:0:90:long hat.wav
320,192,102044,1,8,0:0:0:0:
64,192,102119,1,2,0:0:0:0:
192,192,102119,1,4,0:0:0:0:
448,192,102119,1,0,0:0:0:0:
320,192,102269,1,0,0:0:0:0:
64,192,102419,1,2,0:0:0:0:
192,192,102419,1,8,0:0:0:0:
320,192,102569,1,0,0:0:0:0:
192,192,102719,1,2,0:0:0:0:
320,192,102719,1,0,0:0:0:0:
64,192,102869,1,0,0:0:0:0:
192,192,103019,1,2,0:0:0:0:
448,192,103019,1,8,0:0:0:0:
320,192,103169,1,0,0:0:0:0:
64,192,103319,1,2,0:0:0:0:
448,192,103319,1,0,0:0:0:0:
320,192,103469,1,0,0:0:0:0:
64,192,103619,1,2,0:0:0:0:
192,192,103619,1,8,0:0:0:0:
448,192,103619,1,0,0:0:0:90:long hat.wav
320,192,103769,1,0,0:0:0:0:
192,192,103919,1,2,0:0:0:0:
448,192,103919,1,0,0:0:0:0:
64,192,104069,1,0,0:0:0:0:
192,192,104219,1,2,0:0:0:0:
320,192,104219,1,8,0:0:0:0:
448,192,104219,1,0,0:0:0:90:long hat.wav
64,192,104369,1,0,0:0:0:0:
192,192,104519,1,2,0:0:0:0:
448,192,104519,1,0,0:0:0:0:
320,192,104669,1,0,0:0:0:0:
64,192,104819,1,2,0:0:0:0:
448,192,104819,1,8,0:0:0:0:
192,192,104969,1,0,0:0:0:0:
64,192,105119,1,2,0:0:0:0:
320,192,105119,1,0,0:0:0:0:
192,192,105269,1,0,0:0:0:0:
64,192,105419,1,2,0:0:0:0:
320,192,105419,1,4,0:0:0:0:
448,192,105419,1,8,0:0:0:0:
192,192,105569,1,0,0:0:0:0:
320,192,105644,1,0,0:0:0:0:
64,192,105719,1,2,0:0:0:0:
448,192,105719,1,0,0:0:0:0:
320,192,105869,1,8,0:0:0:0:
192,192,105944,1,8,0:0:0:0:
64,192,106019,1,8,0:0:0:0:
448,192,106019,1,0,0:0:0:0:
320,192,106094,1,8,0:0:0:0:
192,192,106169,1,10,0:0:0:0:
64,192,106319,1,4,0:0:0:0:
320,192,106319,1,8,0:0:0:0:
448,192,106319,1,0,0:0:0:0:
64,192,106469,1,4,0:0:0:0:
320,192,106469,1,8,0:0:0:0:
448,192,106469,1,0,0:0:0:0:
64,192,106619,1,8,0:0:0:0:
192,192,106619,1,0,0:0:0:0:
64,192,106769,1,8,0:0:0:0:
192,192,106769,1,0,0:0:0:0:
64,192,106919,1,4,0:0:0:0:
320,192,106919,128,2,107069:0:0:0:0:
448,192,106919,1,0,0:0:0:0:
64,192,107219,1,8,0:0:0:0:
448,192,107219,1,0,0:0:0:0:
320,192,107369,128,2,107519:0:0:0:0:
448,192,107369,1,0,0:0:0:0:
192,192,107519,1,0,0:0:0:0:
64,192,107669,1,2,0:0:0:0:
320,192,107669,1,0,0:0:0:0:
320,192,107969,1,8,0:0:0:0:
448,192,107969,1,0,0:0:0:0:
192,192,108269,1,2,0:0:0:0:
448,192,108269,1,0,0:0:0:0:
64,192,108419,1,8,0:0:0:0:
192,192,108419,1,0,0:0:0:0:
320,192,108569,1,0,0:0:0:0:
448,192,108644,1,0,0:0:0:0:
64,192,108719,1,2,0:0:0:0:
192,192,108719,1,0,0:0:0:0:
320,192,108869,128,0,109019:0:0:0:0:
192,192,109019,128,0,109169:0:0:0:0:
320,192,109169,128,8,109319:0:0:0:0:
448,192,109169,1,0,0:0:0:0:
64,192,109319,1,2,0:0:0:0:
192,192,109319,128,0,109469:0:0:0:0:
320,192,109619,1,8,0:0:0:0:
448,192,109619,1,0,0:0:0:0:
192,192,109769,128,2,109919:0:0:0:0:
320,192,109769,1,0,0:0:0:0:
64,192,109919,1,0,0:0:0:0:
192,192,110069,1,2,0:0:0:0:
448,192,110069,1,0,0:0:0:0:
64,192,110369,1,8,0:0:0:0:
320,192,110369,1,4,0:0:0:0:
192,192,110519,1,0,0:0:0:0:
320,192,110669,1,2,0:0:0:0:
448,192,110669,1,0,0:0:0:0:
64,192,110819,1,8,0:0:0:0:
192,192,110819,1,0,0:0:0:0:
320,192,110919,1,8,0:0:0:0:
192,192,111019,1,8,0:0:0:0:
320,192,111119,1,8,0:0:0:0:
64,192,111219,1,8,0:0:0:0:
448,192,111219,1,0,0:0:0:0:
64,192,111419,1,8,0:0:0:0:
448,192,111419,1,0,0:0:0:0:
192,192,111619,1,8,0:0:0:0:
320,192,111619,1,0,0:0:0:0:
64,192,111719,1,2,0:0:0:0:
448,192,111719,128,0,111869:0:0:0:0:
64,192,112019,1,8,0:0:0:0:
192,192,112019,1,0,0:0:0:0:
320,192,112169,1,2,0:0:0:0:
448,192,112169,128,0,112319:0:0:0:0:
192,192,112319,1,0,0:0:0:0:
64,192,112469,1,2,0:0:0:0:
448,192,112469,1,0,0:0:0:0:
320,192,112769,1,8,0:0:0:0:
448,192,112769,1,0,0:0:0:0:
192,192,112919,1,0,0:0:0:0:
64,192,113069,1,2,0:0:0:0:
320,192,113069,1,0,0:0:0:0:
320,192,113219,1,8,0:0:0:0:
448,192,113219,1,0,0:0:0:0:
64,192,113369,1,2,0:0:0:0:
192,192,113369,1,0,0:0:0:0:
320,192,113444,1,2,0:0:0:0:
448,192,113444,1,0,0:0:0:0:
64,192,113519,1,8,0:0:0:0:
192,192,113519,1,0,0:0:0:0:
320,192,113669,1,2,0:0:0:0:
64,192,113819,1,8,0:0:0:0:
192,192,113819,1,0,0:0:0:0:
64,192,113969,1,8,0:0:0:0:
192,192,113969,1,0,0:0:0:0:
448,192,114119,1,2,0:0:0:0:
448,192,114269,1,2,0:0:0:0:
448,192,114419,1,2,0:0:0:0:
64,192,114569,1,2,0:0:0:0:
320,192,114719,128,2,115019:0:0:0:0:
192,192,115319,128,0,115619:0:0:0:0:
448,192,115619,128,0,115919:0:0:0:0:
64,192,115919,128,0,116219:0:0:0:0:
320,192,116219,128,0,116519:0:0:0:0:
64,192,116519,1,2,0:0:0:0:
192,192,116519,1,4,0:0:0:0:
448,192,116519,1,0,0:0:0:0:
320,192,116594,1,0,0:0:0:0:
192,192,116669,1,0,0:0:0:90:long hat.wav
64,192,116744,1,0,0:0:0:0:
192,192,116819,1,8,0:0:0:0:
448,192,116819,1,2,0:0:0:0:
320,192,116894,1,0,0:0:0:0:
64,192,116969,1,0,0:0:0:90:long hat.wav
448,192,117044,1,0,0:0:0:0:
192,192,117119,1,2,0:0:0:0:
320,192,117119,1,0,0:0:0:0:
64,192,117194,1,0,0:0:0:0:
448,192,117269,1,0,0:0:0:90:long hat.wav
320,192,117344,1,0,0:0:0:0:
64,192,117419,1,8,0:0:0:0:
192,192,117419,1,2,0:0:0:0:
448,192,117494,1,0,0:0:0:0:
320,192,117569,1,0,0:0:0:90:long hat.wav
64,192,117644,1,0,0:0:0:0:
192,192,117719,1,2,0:0:0:0:
448,192,117719,1,0,0:0:0:0:
320,192,117794,1,0,0:0:0:0:
64,192,117869,1,0,0:0:0:90:long hat.wav
192,192,117944,1,0,0:0:0:0:
320,192,118019,1,8,0:0:0:0:
448,192,118019,1,2,0:0:0:0:
192,192,118094,1,0,0:0:0:0:
448,192,118169,1,0,0:0:0:90:long hat.wav
320,192,118244,1,0,0:0:0:0:
64,192,118319,1,2,0:0:0:0:
192,192,118319,1,0,0:0:0:0:
320,192,118394,1,0,0:0:0:0:
448,192,118469,1,0,0:0:0:90:long hat.wav
192,192,118544,1,0,0:0:0:0:
64,192,118619,1,8,0:0:0:0:
320,192,118619,1,2,0:0:0:0:
448,192,118694,1,0,0:0:0:0:
320,192,118769,1,0,0:0:0:90:long hat.wav
192,192,118844,1,0,0:0:0:0:
64,192,118919,1,2,0:0:0:0:
448,192,118919,1,0,0:0:0:0:
320,192,118994,1,0,0:0:0:0:
192,192,119069,1,0,0:0:0:90:long hat.wav
64,192,119144,1,0,0:0:0:0:
320,192,119219,1,2,0:0:0:0:
448,192,119219,1,8,0:0:0:0:
192,192,119294,1,0,0:0:0:0:
320,192,119369,1,0,0:0:0:90:long hat.wav
64,192,119444,1,0,0:0:0:0:
192,192,119519,1,2,0:0:0:0:
448,192,119519,1,0,0:0:0:0:
320,192,119594,1,0,0:0:0:0:
64,192,119669,1,0,0:0:0:90:long hat.wav
192,192,119744,1,0,0:0:0:0:
320,192,119819,1,8,0:0:0:0:
448,192,119819,1,2,0:0:0:0:
192,192,119894,1,0,0:0:0:0:
320,192,119969,1,0,0:0:0:90:long hat.wav
64,192,120044,1,0,0:0:0:0:
192,192,120119,1,2,0:0:0:0:
448,192,120119,1,0,0:0:0:0:
320,192,120194,1,0,0:0:0:0:
64,192,120269,1,0,0:0:0:90:long hat.wav
192,192,120344,1,0,0:0:0:0:
64,192,120419,1,8,0:0:0:0:
448,192,120419,1,2,0:0:0:0:
320,192,120494,1,0,0:0:0:0:
192,192,120569,1,0,0:0:0:90:long hat.wav
448,192,120644,1,0,0:0:0:0:
64,192,120719,1,2,0:0:0:0:
320,192,120719,1,0,0:0:0:0:
192,192,120869,1,8,0:0:0:0:
320,192,120944,1,8,0:0:0:0:
64,192,121019,1,2,0:0:0:0:
448,192,121019,1,8,0:0:0:0:
448,192,121169,1,8,0:0:0:0:
320,192,121244,1,8,0:0:0:0:
64,192,121319,1,4,0:0:0:0:
192,192,121319,1,2,0:0:0:0:
448,192,121319,1,0,0:0:0:0:
320,192,121394,1,0,0:0:0:0:
192,192,121469,1,0,0:0:0:90:long hat.wav
448,192,121544,1,0,0:0:0:0:
64,192,121619,1,2,0:0:0:0:
320,192,121619,1,8,0:0:0:0:
192,192,121694,1,0,0:0:0:0:
448,192,121769,1,0,0:0:0:90:long hat.wav
64,192,121844,1,0,0:0:0:0:
320,192,121919,1,2,0:0:0:0:
448,192,121919,1,0,0:0:0:0:
192,192,121994,1,0,0:0:0:0:
64,192,122069,1,0,0:0:0:90:long hat.wav
320,192,122144,1,0,0:0:0:0:
192,192,122219,1,2,0:0:0:0:
448,192,122219,1,8,0:0:0:0:
64,192,122294,1,0,0:0:0:0:
320,192,122369,1,0,0:0:0:90:long hat.wav
192,192,122444,1,0,0:0:0:0:
64,192,122519,1,2,0:0:0:0:
448,192,122519,1,0,0:0:0:0:
320,192,122594,1,0,0:0:0:0:
192,192,122669,1,0,0:0:0:90:long hat.wav
448,192,122744,1,0,0:0:0:0:
192,192,122819,1,2,0:0:0:0:
320,192,122819,1,8,0:0:0:0:
64,192,122894,1,0,0:0:0:0:
448,192,122969,1,0,0:0:0:90:long hat.wav
192,192,123044,1,0,0:0:0:0:
64,192,123119,1,2,0:0:0:0:
448,192,123119,1,0,0:0:0:0:
320,192,123194,1,0,0:0:0:0:
192,192,123269,1,0,0:0:0:90:long hat.wav
64,192,123344,1,0,0:0:0:0:
320,192,123419,1,2,0:0:0:0:
448,192,123419,1,8,0:0:0:0:
64,192,123494,1,0,0:0:0:0:
192,192,123569,1,0,0:0:0:90:long hat.wav
448,192,123644,1,0,0:0:0:0:
64,192,123719,1,2,0:0:0:0:
320,192,123719,1,0,0:0:0:0:
448,192,123794,1,0,0:0:0:0:
64,192,123869,1,0,0:0:0:90:long hat.wav
192,192,123944,1,0,0:0:0:0:
320,192,124019,1,2,0:0:0:0:
448,192,124019,1,8,0:0:0:0:
64,192,124094,1,0,0:0:0:0:
320,192,124169,1,0,0:0:0:90:long hat.wav
192,192,124244,1,0,0:0:0:0:
64,192,124319,1,2,0:0:0:0:
448,192,124319,1,0,0:0:0:0:
320,192,124394,1,0,0:0:0:0:
448,192,124469,1,0,0:0:0:90:long hat.wav
192,192,124544,1,0,0:0:0:0:
64,192,124619,1,2,0:0:0:0:
320,192,124619,1,8,0:0:0:0:
448,192,124694,1,0,0:0:0:0:
192,192,124769,1,0,0:0:0:90:long hat.wav
320,192,124844,1,0,0:0:0:0:
64,192,124919,1,2,0:0:0:0:
192,192,124919,1,0,0:0:0:0:
320,192,125069,1,2,0:0:0:0:
192,192,125144,1,2,0:0:0:0:
64,192,125219,1,4,0:0:0:0:
320,192,125219,1,8,0:0:0:0:
448,192,125219,1,0,0:0:0:0:
192,192,125369,1,2,0:0:0:0:
320,192,125444,1,2,0:0:0:0:
64,192,125519,1,8,0:0:0:0:
192,192,125519,1,4,0:0:0:0:
448,192,125519,1,0,0:0:0:0:
320,192,125669,1,8,0:0:0:0:
192,192,125744,1,8,0:0:0:0:
320,192,125819,1,8,0:0:0:0:
448,192,125819,1,2,0:0:0:0:
64,192,125969,1,8,0:0:0:0:
192,192,126044,1,8,0:0:0:0:
64,192,126119,1,4,0:0:0:0:
320,192,126119,1,2,0:0:0:0:
448,192,126119,1,0,0:0:0:0:
192,192,126194,1,0,0:0:0:0:
320,192,126269,1,0,0:0:0:90:long hat.wav
448,192,126344,1,0,0:0:0:0:
192,192,126419,1,2,0:0:0:0:
320,192,126419,1,8,0:0:0:0:
64,192,126494,1,0,0:0:0:0:
320,192,126569,1,0,0:0:0:90:long hat.wav
448,192,126644,1,0,0:0:0:0:
64,192,126719,1,2,0:0:0:0:
192,192,126719,1,0,0:0:0:0:
320,192,126794,1,0,0:0:0:0:
64,192,126869,1,0,0:0:0:90:long hat.wav
192,192,126944,1,0,0:0:0:0:
320,192,127019,1,2,0:0:0:0:
448,192,127019,1,8,0:0:0:0:
192,192,127094,1,0,0:0:0:0:
320,192,127169,1,0,0:0:0:90:long hat.wav
64,192,127244,1,0,0:0:0:0:
192,192,127319,1,2,0:0:0:0:
448,192,127319,1,0,0:0:0:0:
320,192,127394,1,0,0:0:0:0:
192,192,127469,1,0,0:0:0:90:long hat.wav
448,192,127544,1,0,0:0:0:0:
64,192,127619,1,2,0:0:0:0:
320,192,127619,1,8,0:0:0:0:
192,192,127694,1,0,0:0:0:0:
448,192,127769,1,0,0:0:0:90:long hat.wav
320,192,127844,1,0,0:0:0:0:
64,192,127919,1,2,0:0:0:0:
192,192,127919,1,0,0:0:0:0:
448,192,127994,1,0,0:0:0:0:
64,192,128069,1,0,0:0:0:90:long hat.wav
192,192,128144,1,0,0:0:0:0:
320,192,128219,1,2,0:0:0:0:
448,192,128219,1,8,0:0:0:0:
192,192,128294,1,0,0:0:0:0:
64,192,128369,1,0,0:0:0:90:long hat.wav
320,192,128444,1,0,0:0:0:0:
64,192,128519,1,2,0:0:0:0:
192,192,128519,1,0,0:0:0:0:
320,192,128594,1,0,0:0:0:0:
448,192,128669,1,0,0:0:0:90:long hat.wav
64,192,128744,1,0,0:0:0:0:
192,192,128819,1,2,0:0:0:0:
320,192,128819,1,8,0:0:0:0:
448,192,128894,1,0,0:0:0:0:
64,192,128969,1,0,0:0:0:90:long hat.wav
320,192,129044,1,0,0:0:0:0:
64,192,129119,1,2,0:0:0:0:
192,192,129119,1,0,0:0:0:0:
448,192,129194,1,0,0:0:0:0:
320,192,129269,1,0,0:0:0:90:long hat.wav
64,192,129344,1,0,0:0:0:0:
192,192,129419,1,2,0:0:0:0:
448,192,129419,1,8,0:0:0:0:
320,192,129494,1,0,0:0:0:0:
448,192,129569,1,0,0:0:0:90:long hat.wav
64,192,129644,1,0,0:0:0:0:
192,192,129719,1,2,0:0:0:0:
320,192,129719,1,0,0:0:0:0:
448,192,129794,1,0,0:0:0:0:
64,192,129869,1,0,0:0:0:90:long hat.wav
192,192,129944,1,0,0:0:0:0:
320,192,130019,1,2,0:0:0:0:
448,192,130019,1,8,0:0:0:0:
192,192,130094,1,0,0:0:0:0:
64,192,130169,1,0,0:0:0:90:long hat.wav
320,192,130244,1,0,0:0:0:0:
192,192,130319,1,2,0:0:0:0:
448,192,130319,1,0,0:0:0:0:
64,192,130469,1,8,0:0:0:0:
192,192,130544,1,8,0:0:0:0:
320,192,130619,1,2,0:0:0:0:
448,192,130619,1,8,0:0:0:0:
192,192,130769,1,8,0:0:0:0:
320,192,130844,1,8,0:0:0:0:
64,192,130919,1,4,0:0:0:0:
192,192,130919,1,2,0:0:0:0:
448,192,130919,1,0,0:0:0:0:
320,192,130994,1,0,0:0:0:0:
192,192,131069,1,0,0:0:0:90:long hat.wav
64,192,131144,1,0,0:0:0:0:
320,192,131219,1,2,0:0:0:0:
448,192,131219,1,8,0:0:0:0:
192,192,131294,1,0,0:0:0:0:
448,192,131369,1,0,0:0:0:90:long hat.wav
64,192,131444,1,0,0:0:0:0:
192,192,131519,1,2,0:0:0:0:
320,192,131519,1,0,0:0:0:0:
448,192,131594,1,0,0:0:0:0:
64,192,131669,1,0,0:0:0:90:long hat.wav
192,192,131744,1,0,0:0:0:0:
320,192,131819,1,2,0:0:0:0:
448,192,131819,1,8,0:0:0:0:
64,192,131894,1,0,0:0:0:0:
192,192,131969,1,0,0:0:0:90:long hat.wav
320,192,132044,1,0,0:0:0:0:
64,192,132119,1,2,0:0:0:0:
448,192,132119,1,0,0:0:0:0:
192,192,132194,1,0,0:0:0:0:
320,192,132269,1,0,0:0:0:90:long hat.wav
448,192,132344,1,0,0:0:0:0:
64,192,132419,1,2,0:0:0:0:
192,192,132419,1,8,0:0:0:0:
320,192,132494,1,0,0:0:0:0:
448,192,132569,1,0,0:0:0:90:long hat.wav
192,192,132644,1,0,0:0:0:0:
64,192,132719,1,2,0:0:0:0:
448,192,132719,1,0,0:0:0:0:
320,192,132794,1,0,0:0:0:0:
192,192,132869,1,0,0:0:0:90:long hat.wav
320,192,132944,1,0,0:0:0:0:
64,192,133019,1,2,0:0:0:0:
192,192,133019,1,8,0:0:0:0:
448,192,133094,1,0,0:0:0:0:
64,192,133169,1,8,0:0:0:0:
320,192,133244,1,8,0:0:0:0:
64,192,133319,1,4,0:0:0:0:
192,192,133319,1,2,0:0:0:0:
448,192,133319,1,0,0:0:0:0:
320,192,133469,1,2,0:0:0:0:
448,192,133469,1,0,0:0:0:0:
64,192,133619,1,8,0:0:0:0:
192,192,133619,1,2,0:0:0:0:
320,192,133769,1,8,0:0:0:0:
192,192,133844,1,8,0:0:0:0:
64,192,133919,1,4,0:0:0:0:
320,192,133919,1,2,0:0:0:0:
448,192,133919,1,0,0:0:0:0:
64,192,134069,1,2,0:0:0:0:
192,192,134069,1,0,0:0:0:0:
320,192,134219,1,8,0:0:0:0:
448,192,134219,1,2,0:0:0:0:
192,192,134369,1,8,0:0:0:0:
320,192,134444,1,8,0:0:0:0:
64,192,134519,1,4,0:0:0:0:
192,192,134519,1,8,0:0:0:0:
448,192,134519,1,0,0:0:0:0:
320,192,134669,1,2,0:0:0:0:
64,192,134819,1,8,0:0:0:0:
192,192,134819,1,4,0:0:0:0:
448,192,134819,1,0,0:0:0:0:
320,192,134969,1,2,0:0:0:0:
64,192,135119,1,8,0:0:0:0:
192,192,135119,1,4,0:0:0:0:
448,192,135119,1,0,0:0:0:0:
320,192,135419,1,8,0:0:0:0:
448,192,135419,1,0,0:0:0:0:
64,192,135494,1,8,0:0:0:0:
192,192,135494,1,0,0:0:0:0:
320,192,135569,1,8,0:0:0:0:
448,192,135569,1,0,0:0:0:0:
192,192,135644,1,8,0:0:0:0:
64,192,135719,1,4,0:0:0:0:
320,192,135719,1,2,0:0:0:0:
448,192,135719,1,0,0:0:0:0:
192,192,135869,1,0,0:0:0:0:
64,192,136019,1,0,0:0:0:0:
192,192,136169,1,0,0:0:0:0:
320,192,136319,1,0,0:0:0:0:
448,192,136319,1,0,0:0:0:0:
64,192,136469,1,0,0:0:0:0:
192,192,136619,1,0,0:0:0:0:
448,192,136619,1,0,0:0:0:0:
64,192,136769,1,0,0:0:0:0:
192,192,136919,1,0,0:0:0:0:
320,192,136919,1,0,0:0:0:0:
448,192,137069,1,0,0:0:0:0:
320,192,137144,1,0,0:0:0:0:
192,192,137219,1,0,0:0:0:0:
64,192,137369,1,0,0:0:0:0:
448,192,137519,1,0,0:0:0:0:
320,192,137669,1,0,0:0:0:0:
192,192,137819,1,0,0:0:0:0:
64,192,137969,1,0,0:0:0:0:
192,192,138119,1,0,0:0:0:0:
448,192,138119,1,0,0:0:0:0:
64,192,138269,1,0,0:0:0:0:
320,192,138419,1,0,0:0:0:0:
192,192,138569,1,0,0:0:0:0:
64,192,138719,1,0,0:0:0:0:
448,192,138719,1,0,0:0:0:0:
192,192,138869,1,0,0:0:0:0:
320,192,139019,1,0,0:0:0:0:
448,192,139169,1,0,0:0:0:0:
320,192,139319,1,0,0:0:0:0:
448,192,139319,1,0,0:0:0:0:
192,192,139469,1,0,0:0:0:0:
64,192,139619,1,0,0:0:0:0:
320,192,139619,1,0,0:0:0:0:
448,192,139769,1,0,0:0:0:0:
64,192,139919,1,0,0:0:0:0:
192,192,139919,1,0,0:0:0:0:
320,192,140069,1,0,0:0:0:0:
64,192,140219,1,0,0:0:0:80:big snare.wav
320,192,140219,1,0,0:0:0:0:
448,192,140219,1,0,0:0:0:0:
192,192,140369,1,0,0:0:0:0:
64,192,140519,1,2,0:0:0:0:
192,192,140519,1,4,0:0:0:0:
64,192,140819,1,2,0:0:0:0:
192,192,140819,1,0,0:0:0:0:
320,192,140969,1,0,0:0:0:0:
64,192,141119,1,2,0:0:0:0:
320,192,141119,1,0,0:0:0:0:
448,192,141119,1,0,0:0:0:0:
64,192,141419,1,2,0:0:0:0:
192,192,141419,1,0,0:0:0:0:
320,192,141719,1,2,0:0:0:0:
448,192,141719,1,0,0:0:0:0:
64,192,142019,1,2,0:0:0:0:
192,192,142019,1,0,0:0:0:0:
448,192,142169,1,0,0:0:0:0:
192,192,142319,1,2,0:0:0:0:
320,192,142319,1,0,0:0:0:0:
448,192,142319,1,0,0:0:0:0:
64,192,142619,1,2,0:0:0:0:
192,192,142619,1,0,0:0:0:0:
64,192,142919,1,2,0:0:0:0:
320,192,142919,1,0,0:0:0:0:
448,192,142919,1,0,0:0:0:0:
64,192,143219,1,2,0:0:0:0:
192,192,143219,1,0,0:0:0:0:
448,192,143369,1,0,0:0:0:0:
64,192,143519,1,2,0:0:0:0:
320,192,143519,1,0,0:0:0:0:
448,192,143519,1,0,0:0:0:0:
64,192,143819,1,2,0:0:0:0:
192,192,143819,1,0,0:0:0:0:
320,192,144119,1,2,0:0:0:0:
448,192,144119,1,0,0:0:0:0:
64,192,144219,1,0,0:0:0:0:
320,192,144319,1,0,0:0:0:0:
64,192,144419,1,2,0:0:0:0:
192,192,144419,1,0,0:0:0:0:
448,192,144519,1,0,0:0:0:0:
64,192,144619,1,0,0:0:0:0:
320,192,144719,1,2,0:0:0:0:
448,192,144719,1,0,0:0:0:0:
192,192,144819,1,0,0:0:0:0:
64,192,144919,1,0,0:0:0:0:
192,192,145019,1,2,0:0:0:0:
448,192,145019,1,0,0:0:0:0:
320,192,145219,1,0,0:0:0:0:
64,192,145319,1,2,0:0:0:0:
192,192,145319,1,4,0:0:0:0:
448,192,145319,1,0,0:0:0:0:
64,192,145619,1,2,0:0:0:0:
192,192,145619,1,0,0:0:0:0:
448,192,145769,1,0,0:0:0:0:
64,192,145919,1,2,0:0:0:0:
320,192,145919,1,0,0:0:0:0:
448,192,145919,1,0,0:0:0:0:
64,192,146219,1,2,0:0:0:0:
192,192,146219,1,0,0:0:0:0:
448,192,146369,1,0,0:0:0:0:
64,192,146519,1,2,0:0:0:0:
320,192,146519,1,0,0:0:0:0:
448,192,146519,1,0,0:0:0:0:
192,192,146669,1,0,0:0:0:0:
64,192,146819,1,2,0:0:0:0:
192,192,146819,1,0,0:0:0:0:
448,192,146819,1,0,0:0:0:0:
320,192,146969,1,0,0:0:0:0:
64,192,147119,1,2,0:0:0:0:
320,192,147119,1,0,0:0:0:0:
448,192,147119,1,0,0:0:0:0:
64,192,147419,1,2,0:0:0:0:
192,192,147419,1,0,0:0:0:0:
64,192,147719,1,2,0:0:0:0:
320,192,147719,1,0,0:0:0:0:
448,192,147719,1,0,0:0:0:0:
64,192,148019,1,2,0:0:0:0:
192,192,148019,1,0,0:0:0:0:
448,192,148169,1,0,0:0:0:0:
192,192,148319,1,2,0:0:0:0:
320,192,148319,1,0,0:0:0:0:
448,192,148319,1,0,0:0:0:0:
64,192,148619,1,2,0:0:0:0:
192,192,148619,1,0,0:0:0:90:long hat.wav
320,192,148769,1,0,0:0:0:0:
192,192,148844,1,0,0:0:0:0:
64,192,148919,1,2,0:0:0:0:
320,192,148919,1,4,0:0:0:0:
448,192,148919,1,0,0:0:0:0:
320,192,149219,1,8,0:0:0:0:
448,192,149219,1,2,0:0:0:0:
64,192,149319,1,8,0:0:0:0:
192,192,149319,1,0,0:0:0:0:
320,192,149419,1,8,0:0:0:0:
448,192,149419,1,0,0:0:0:0:
64,192,149519,1,8,0:0:0:0:
192,192,149519,1,2,0:0:0:0:
320,192,149619,1,8,0:0:0:0:
448,192,149619,1,0,0:0:0:0:
64,192,149719,1,8,0:0:0:0:
192,192,149719,1,0,0:0:0:0:
320,192,149819,1,8,0:0:0:0:
448,192,149819,1,2,0:0:0:0:
64,192,149919,1,8,0:0:0:0:
192,192,149919,1,0,0:0:0:0:
320,192,150019,1,8,0:0:0:0:
448,192,150019,1,0,0:0:0:0:
64,192,150119,1,4,0:0:0:0:
192,192,150119,1,2,0:0:0:0:
448,192,150119,1,0,0:0:0:0:
320,192,150194,1,0,0:0:0:0:
64,192,150269,1,0,0:0:0:0:
192,192,150344,1,0,0:0:0:0:
320,192,150419,1,2,0:0:0:0:
448,192,150494,1,0,0:0:0:0:
64,192,150569,1,0,0:0:0:0:
192,192,150644,1,0,0:0:0:0:
320,192,150719,1,2,0:0:0:0:
448,192,150794,1,0,0:0:0:0:
64,192,150869,1,0,0:0:0:90:long hat.wav
192,192,150944,1,0,0:0:0:0:
320,192,151019,1,2,0:0:0:0:
448,192,151094,1,0,0:0:0:0:
64,192,151169,1,0,0:0:0:0:
192,192,151244,1,0,0:0:0:0:
320,192,151319,1,2,0:0:0:0:
448,192,151394,1,0,0:0:0:0:
64,192,151469,1,0,0:0:0:0:
192,192,151544,1,0,0:0:0:0:
320,192,151619,1,2,0:0:0:0:
448,192,151694,1,0,0:0:0:0:
64,192,151769,1,0,0:0:0:90:long hat.wav
192,192,151844,1,0,0:0:0:0:
320,192,151919,1,2,0:0:0:0:
448,192,151994,1,0,0:0:0:0:
64,192,152069,1,0,0:0:0:90:long hat.wav
192,192,152144,1,0,0:0:0:0:
320,192,152219,1,2,0:0:0:0:
448,192,152294,1,0,0:0:0:0:
64,192,152369,1,0,0:0:0:0:
192,192,152444,1,0,0:0:0:0:
320,192,152519,1,2,0:0:0:0:
448,192,152594,1,0,0:0:0:0:
64,192,152669,1,0,0:0:0:0:
192,192,152744,1,0,0:0:0:0:
320,192,152819,1,2,0:0:0:0:
448,192,152894,1,0,0:0:0:0:
64,192,152969,1,0,0:0:0:0:
192,192,153044,1,0,0:0:0:0:
320,192,153119,1,2,0:0:0:0:
448,192,153194,1,0,0:0:0:0:
64,192,153269,1,0,0:0:0:90:long hat.wav
192,192,153344,1,0,0:0:0:0:
320,192,153419,1,2,0:0:0:0:
448,192,153494,1,0,0:0:0:0:
64,192,153569,1,8,0:0:0:0:
192,192,153569,1,0,0:0:0:0:
320,192,153644,1,8,0:0:0:0:
448,192,153644,1,0,0:0:0:0:
64,192,153719,1,4,0:0:0:0:
192,192,153719,1,8,0:0:0:0:
448,192,153794,1,0,0:0:0:0:
320,192,153869,1,0,0:0:0:0:
192,192,153944,1,0,0:0:0:0:
64,192,154019,1,4,0:0:0:0:
320,192,154019,1,8,0:0:0:0:
448,192,154019,1,0,0:0:0:0:
192,192,154094,1,0,0:0:0:0:
64,192,154169,1,0,0:0:0:0:
448,192,154244,1,0,0:0:0:0:
64,192,154319,1,4,0:0:0:0:
192,192,154319,1,8,0:0:0:0:
320,192,154319,1,0,0:0:0:0:
448,192,154394,1,0,0:0:0:0:
320,192,154469,1,0,0:0:0:0:
192,192,154544,1,0,0:0:0:0:
64,192,154619,1,4,0:0:0:0:
320,192,154619,1,8,0:0:0:0:
448,192,154619,1,0,0:0:0:0:
192,192,154694,1,0,0:0:0:0:
448,192,154769,1,0,0:0:0:0:
320,192,154844,1,0,0:0:0:0:
64,192,154919,1,4,0:0:0:0:
192,192,154919,1,2,0:0:0:0:
448,192,155369,1,2,0:0:0:0:
64,192,155519,1,8,0:0:0:0:
320,192,155519,1,0,0:0:0:0:
192,192,155969,1,2,0:0:0:0:
320,192,156119,1,2,0:0:0:0:
64,192,156269,1,8,0:0:0:0:
192,192,156269,1,0,0:0:0:0:
320,192,156419,1,8,0:0:0:0:
448,192,156419,1,0,0:0:0:0:
192,192,156569,1,2,0:0:0:0:
64,192,156719,1,4,0:0:0:0:
320,192,156719,1,2,0:0:0:0:
448,192,156719,1,0,0:0:0:0:
64,192,157019,1,4,0:0:0:0:
192,192,157019,1,2,0:0:0:0:
448,192,157019,1,0,0:0:0:0:
64,192,157319,1,4,0:0:0:0:
320,192,157319,1,2,0:0:0:0:
448,192,157319,1,0,0:0:0:0:
320,192,157769,1,0,0:0:0:0:
64,192,157919,1,8,0:0:0:0:
448,192,157919,1,0,0:0:0:0:
192,192,158069,1,8,0:0:0:0:
64,192,158219,1,8,0:0:0:0:
192,192,158369,1,8,0:0:0:0:
320,192,158369,1,0,0:0:0:0:
64,192,158519,1,4,0:0:0:0:
192,192,158519,1,2,0:0:0:0:
448,192,158519,1,0,0:0:0:0:
320,192,158669,1,2,0:0:0:0:
448,192,158669,1,0,0:0:0:0:
64,192,158819,1,2,0:0:0:0:
192,192,158819,1,0,0:0:0:0:
320,192,158969,1,2,0:0:0:0:
448,192,158969,1,0,0:0:0:0:
64,192,159119,1,8,0:0:0:0:
192,192,159119,1,0,0:0:0:0:
320,192,159194,1,8,0:0:0:0:
448,192,159194,1,0,0:0:0:0:
64,192,159269,1,8,0:0:0:0:
192,192,159269,1,0,0:0:0:0:
320,192,159344,1,8,0:0:0:0:
448,192,159344,1,0,0:0:0:0:
64,192,159419,1,8,0:0:0:0:
192,192,159419,1,0,0:0:0:0:
320,192,159494,1,8,0:0:0:0:
448,192,159494,1,0,0:0:0:0:
64,192,159569,1,8,0:0:0:0:
192,192,159569,1,0,0:0:0:0:
320,192,159644,1,8,0:0:0:0:
64,192,159719,128,4,159869:0:0:0:0:
192,192,159719,1,2,0:0:0:0:
448,192,159719,1,0,0:0:0:0:
320,192,159869,128,0,160019:0:0:0:0:
64,192,160019,1,8,0:0:0:0:
192,192,160019,128,2,160169:0:0:0:0:
320,192,160169,128,0,160469:0:0:0:0:
64,192,160319,1,2,0:0:0:0:
448,192,160319,1,0,0:0:0:0:
192,192,160469,128,2,160619:0:0:0:0:
320,192,160619,1,2,0:0:0:0:
448,192,160619,128,8,160769:0:0:0:0:
64,192,160769,128,0,161069:0:0:0:0:
192,192,160919,1,2,0:0:0:0:
448,192,160919,1,0,0:0:0:0:
192,192,161069,128,2,161219:0:0:0:0:
64,192,161219,1,2,0:0:0:0:
448,192,161219,128,8,161369:0:0:0:0:
320,192,161369,128,0,161669:0:0:0:0:
64,192,161519,1,2,0:0:0:0:
192,192,161519,1,0,0:0:0:0:
448,192,161669,1,2,0:0:0:0:
320,192,161744,1,0,0:0:0:0:
64,192,161819,1,2,0:0:0:0:
192,192,161819,128,8,161969:0:0:0:0:
320,192,161969,128,0,162269:0:0:0:0:
64,192,162119,1,2,0:0:0:0:
448,192,162119,1,0,0:0:0:0:
192,192,162269,128,0,162344:0:0:0:0:
64,192,162419,128,2,162494:0:0:0:0:
448,192,162419,1,8,0:0:0:0:
320,192,162569,128,0,162644:0:0:0:0:
64,192,162719,1,2,0:0:0:0:
448,192,162719,128,0,162869:0:0:0:0:
192,192,162869,128,2,163019:0:0:0:0:
64,192,163019,1,2,0:0:0:0:
448,192,163019,1,8,0:0:0:0:
192,192,163319,1,2,0:0:0:0:
320,192,163319,128,0,163469:0:0:0:0:
64,192,163469,1,2,0:0:0:0:
192,192,163619,128,2,163769:0:0:0:0:
320,192,163619,1,8,0:0:0:0:
320,192,163919,128,2,163994:0:0:0:0:
448,192,163919,1,0,0:0:0:0:
64,192,163994,1,2,0:0:0:0:
192,192,163994,128,0,164069:0:0:0:0:
320,192,164069,1,2,0:0:0:0:
448,192,164069,128,0,164144:0:0:0:0:
64,192,164144,128,2,164219:0:0:0:0:
192,192,164144,1,0,0:0:0:0:
320,192,164219,1,8,0:0:0:0:
448,192,164219,128,0,164294:0:0:0:0:
192,192,164294,128,0,164369:0:0:0:0:
320,192,164369,128,0,164444:0:0:0:0:
64,192,164444,128,0,164519:0:0:0:0:
192,192,164519,1,2,0:0:0:0:
320,192,164519,1,4,0:0:0:0:
448,192,164519,1,0,0:0:0:0:
64,192,164594,1,0,0:0:0:0:
320,192,164669,1,0,0:0:0:0:
192,192,164744,1,0,0:0:0:0:
64,192,164819,1,2,0:0:0:0:
448,192,164819,1,8,0:0:0:0:
192,192,164894,1,0,0:0:0:0:
320,192,164969,1,0,0:0:0:0:
448,192,165044,1,0,0:0:0:0:
64,192,165119,1,2,0:0:0:0:
192,192,165119,1,0,0:0:0:0:
320,192,165194,1,0,0:0:0:0:
192,192,165269,1,2,0:0:0:0:
448,192,165344,1,0,0:0:0:0:
64,192,165419,1,2,0:0:0:0:
320,192,165419,1,8,0:0:0:0:
192,192,165494,1,0,0:0:0:0:
448,192,165569,1,0,0:0:0:0:
320,192,165644,1,0,0:0:0:0:
64,192,165719,1,2,0:0:0:0:
192,192,165719,1,0,0:0:0:0:
448,192,165794,1,0,0:0:0:0:
320,192,165869,1,2,0:0:0:0:
192,192,165944,1,0,0:0:0:0:
64,192,166019,1,2,0:0:0:0:
448,192,166019,1,8,0:0:0:0:
320,192,166094,1,0,0:0:0:0:
192,192,166169,1,0,0:0:0:0:
320,192,166244,1,0,0:0:0:0:
64,192,166319,1,2,0:0:0:0:
448,192,166319,1,0,0:0:0:0:
192,192,166394,1,0,0:0:0:0:
320,192,166469,1,2,0:0:0:0:
192,192,166544,1,0,0:0:0:0:
64,192,166619,1,2,0:0:0:0:
448,192,166619,128,8,167219:0:0:0:0:
64,192,166919,1,2,0:0:0:0:
192,192,166919,1,0,0:0:0:0:
64,192,167219,128,2,167369:0:0:0:0:
192,192,167219,1,8,0:0:0:0:
320,192,167369,128,2,167819:0:0:0:0:
64,192,167519,1,2,0:0:0:0:
192,192,167519,1,0,0:0:0:0:
448,192,167669,1,2,0:0:0:0:
64,192,167819,1,2,0:0:0:0:
192,192,167819,1,8,0:0:0:0:
320,192,167969,1,0,0:0:0:0:
192,192,168044,128,0,168119:0:0:0:0:
320,192,168119,1,2,0:0:0:0:
448,192,168119,1,0,0:0:0:0:
64,192,168194,1,2,0:0:0:0:
192,192,168194,1,0,0:0:0:0:
320,192,168269,1,2,0:0:0:0:
448,192,168269,1,0,0:0:0:0:
64,192,168344,1,2,0:0:0:0:
192,192,168344,1,0,0:0:0:0:
320,192,168419,1,8,0:0:0:0:
448,192,168419,1,4,0:0:0:0:
64,192,168569,1,0,0:0:0:0:
448,192,168644,1,0,0:0:0:0:
192,192,168719,1,8,0:0:0:0:
320,192,168719,128,0,168869:0:0:0:0:
64,192,168869,1,8,0:0:0:0:
192,192,168944,1,8,0:0:0:0:
320,192,169019,1,8,0:0:0:0:
192,192,169094,1,0,0:0:0:0:
320,192,169169,1,8,0:0:0:0:
192,192,169244,1,8,0:0:0:0:
64,192,169319,1,4,0:0:0:0:
448,192,169319,1,2,0:0:0:0:
64,192,169469,128,0,169619:0:0:0:0:
192,192,169619,128,8,169769:0:0:0:0:
448,192,169619,1,2,0:0:0:0:
320,192,169769,1,0,0:0:0:0:
448,192,169844,1,0,0:0:0:0:
64,192,169919,1,2,0:0:0:0:
192,192,169919,1,0,0:0:0:0:
320,192,169994,1,0,0:0:0:0:
448,192,170069,128,2,170219:0:0:0:0:
64,192,170219,1,2,0:0:0:0:
320,192,170219,1,8,0:0:0:0:
192,192,170294,1,0,0:0:0:0:
64,192,170369,1,0,0:0:0:0:
448,192,170444,1,0,0:0:0:0:
192,192,170519,1,2,0:0:0:0:
320,192,170519,128,0,170894:0:0:0:0:
192,192,170669,1,2,0:0:0:0:
64,192,170819,1,2,0:0:0:0:
448,192,170819,1,8,0:0:0:0:
64,192,170969,128,0,171119:0:0:0:0:
192,192,171119,128,2,171269:0:0:0:0:
320,192,171119,1,0,0:0:0:0:
64,192,171269,128,2,171419:0:0:0:0:
192,192,171419,1,2,0:0:0:0:
320,192,171419,128,8,171569:0:0:0:0:
64,192,171569,128,0,171719:0:0:0:0:
192,192,171719,1,2,0:0:0:0:
448,192,171719,128,0,172019:0:0:0:0:
64,192,172019,1,2,0:0:0:0:
320,192,172019,128,8,172169:0:0:0:0:
448,192,172169,128,0,172319:0:0:0:0:
64,192,172319,1,2,0:0:0:0:
192,192,172319,1,0,0:0:0:0:
320,192,172469,128,2,172619:0:0:0:0:
64,192,172619,1,2,0:0:0:0:
448,192,172619,1,8,0:0:0:0:
320,192,172769,128,2,172994:0:0:0:0:
64,192,172919,1,2,0:0:0:0:
448,192,172919,1,0,0:0:0:0:
64,192,173069,1,8,0:0:0:0:
192,192,173069,128,0,173144:0:0:0:0:
320,192,173219,128,8,173294:0:0:0:0:
448,192,173219,1,0,0:0:0:0:
192,192,173369,128,2,173444:0:0:0:0:
448,192,173444,1,2,0:0:0:0:
64,192,173519,128,8,173744:0:0:0:0:
320,192,173519,1,0,0:0:0:0:
448,192,173669,1,2,0:0:0:0:
320,192,173744,1,2,0:0:0:0:
64,192,173819,1,8,0:0:0:0:
448,192,173819,1,0,0:0:0:0:
320,192,173894,1,8,0:0:0:0:
192,192,173969,1,8,0:0:0:0:
64,192,174044,1,8,0:0:0:0:
192,192,174119,1,4,0:0:0:0:
320,192,174119,1,2,0:0:0:0:
448,192,174194,1,0,0:0:0:0:
192,192,174269,1,0,0:0:0:0:
64,192,174344,1,0,0:0:0:0:
192,192,174419,1,2,0:0:0:0:
448,192,174419,1,8,0:0:0:0:
320,192,174494,1,0,0:0:0:0:
448,192,174569,1,0,0:0:0:0:
64,192,174644,1,0,0:0:0:0:
320,192,174719,1,8,0:0:0:0:
192,192,174719,1,2,0:0:0:0:
64,192,174794,1,0,0:0:0:0:
320,192,174869,1,2,0:0:0:0:
192,192,174944,1,2,0:0:0:0:
320,192,175019,1,2,0:0:0:0:
448,192,175019,1,8,0:0:0:0:
192,192,175094,1,0,0:0:0:0:
448,192,175169,1,2,0:0:0:0:
320,192,175244,1,2,0:0:0:0:
64,192,175319,128,2,175469:0:0:0:0:
448,192,175319,1,8,0:0:0:0:
320,192,175394,1,0,0:0:0:0:
192,192,175469,1,0,0:0:0:0:
448,192,175544,1,0,0:0:0:0:
192,192,175619,1,8,0:0:0:0:
320,192,175619,1,2,0:0:0:0:
192,192,175769,1,0,0:0:0:0:
448,192,175769,1,0,0:0:0:0:
64,192,175919,1,8,0:0:0:0:
192,192,175919,1,2,0:0:0:0:
320,192,175994,1,0,0:0:0:0:
64,192,176069,1,2,0:0:0:0:
448,192,176069,1,0,0:0:0:0:
192,192,176144,1,0,0:0:0:0:
320,192,176219,1,8,0:0:0:0:
448,192,176219,1,2,0:0:0:0:
64,192,176294,1,0,0:0:0:0:
192,192,176369,1,0,0:0:0:0:
320,192,176369,1,2,0:0:0:0:
448,192,176444,1,0,0:0:0:0:
64,192,176519,1,4,0:0:0:0:
192,192,176519,1,2,0:0:0:0:
320,192,176519,1,0,0:0:0:0:
64,192,176669,1,4,0:0:0:0:
192,192,176669,1,0,0:0:0:0:
64,192,176819,1,2,0:0:0:0:
320,192,176819,1,4,0:0:0:0:
448,192,176819,1,0,0:0:0:0:
320,192,176969,1,0,0:0:0:0:
448,192,176969,1,0,0:0:0:0:
64,192,177119,1,8,0:0:0:0:
192,192,177194,1,8,0:0:0:0:
64,192,177269,1,2,0:0:0:0:
192,192,177344,1,0,0:0:0:0:
320,192,177419,128,8,177719:0:0:0:0:
448,192,177419,1,0,0:0:0:0:
64,192,177719,1,4,0:0:0:0:
192,192,177719,1,8,0:0:0:0:
448,192,177719,128,0,178769:0:0:0:0:
64,192,177869,1,8,0:0:0:0:
192,192,177944,1,8,0:0:0:0:
320,192,178019,1,8,0:0:0:0:
64,192,178094,1,8,0:0:0:0:
192,192,178169,1,8,0:0:0:0:
320,192,178244,1,8,0:0:0:0:
64,192,178319,1,8,0:0:0:0:
192,192,178394,1,8,0:0:0:0:
320,192,178469,1,8,0:0:0:0:
64,192,178544,1,8,0:0:0:0:
192,192,178619,1,8,0:0:0:0:
320,192,178694,1,8,0:0:0:0:
64,192,178769,1,8,0:0:0:0:
192,192,178844,1,8,0:0:0:0:
64,192,178919,1,4,0:0:0:0:
320,192,178919,1,2,0:0:0:0:
448,192,178919,1,0,0:0:0:0:
448,192,179069,1,0,0:0:0:0:
320,192,179219,1,0,0:0:0:0:
64,192,179369,1,0,0:0:0:0:
192,192,179369,1,0,0:0:0:0:
448,192,179669,1,0,0:0:0:0:
64,192,179969,1,0,0:0:0:0:
320,192,180269,1,0,0:0:0:0:
192,192,180569,1,0,0:0:0:0:
64,192,180869,1,0,0:0:0:0:
192,192,181019,1,0,0:0:0:0:
448,192,181169,1,0,0:0:0:0:
192,192,181319,1,0,0:0:0:0:
320,192,181619,1,0,0:0:0:0:
64,192,181769,1,0,0:0:0:0:
448,192,182069,1,0,0:0:0:0:
320,192,182369,1,0,0:0:0:0:
320,192,182669,1,0,0:0:0:0:
448,192,182819,1,0,0:0:0:0:
320,192,182969,1,0,0:0:0:0:
192,192,183119,1,0,0:0:0:0:
320,192,183419,1,0,0:0:0:0:
192,192,183569,1,0,0:0:0:0:
320,192,183719,1,0,0:0:0:0:
448,192,183719,1,0,0:0:0:0:
192,192,183869,1,0,0:0:0:0:
320,192,184019,1,0,0:0:0:0:
64,192,184169,1,0,0:0:0:0:
448,192,184169,1,0,0:0:0:0:
320,192,184619,1,0,0:0:0:0:
448,192,184769,1,0,0:0:0:0:
192,192,184919,1,0,0:0:0:0:
64,192,185369,128,0,186119:0:0:0:0:
320,192,185819,1,0,0:0:0:0:
448,192,186119,1,0,0:0:0:0:
320,192,186419,1,0,0:0:0:0:
192,192,186569,1,0,0:0:0:0:
64,192,186869,1,0,0:0:0:0:
448,192,187169,1,0,0:0:0:0:
192,192,187469,1,0,0:0:0:0:
64,192,187619,1,0,0:0:0:0:
448,192,187769,1,0,0:0:0:0:
320,192,187919,128,0,188519:0:0:0:0:
64,192,188519,1,2,0:0:0:0:
192,192,188519,1,4,0:0:0:0:
192,192,188819,1,2,0:0:0:0:
320,192,188819,1,0,0:0:0:0:
64,192,188969,1,0,0:0:0:0:
320,192,189119,1,2,0:0:0:0:
448,192,189119,1,0,0:0:0:0:
64,192,189269,1,0,0:0:0:0:
192,192,189419,1,2,0:0:0:0:
320,192,189419,1,0,0:0:0:0:
448,192,189569,1,0,0:0:0:0:
64,192,189719,1,2,0:0:0:0:
192,192,189719,1,0,0:0:0:0:
448,192,189869,1,0,0:0:0:0:
192,192,190019,1,2,0:0:0:0:
320,192,190019,1,0,0:0:0:0:
64,192,190169,1,0,0:0:0:0:
320,192,190319,1,2,0:0:0:0:
448,192,190319,1,0,0:0:0:0:
64,192,190469,1,0,0:0:0:0:
192,192,190619,1,2,0:0:0:0:
320,192,190619,1,0,0:0:0:0:
448,192,190769,1,0,0:0:0:0:
64,192,190919,1,2,0:0:0:0:
192,192,190919,1,0,0:0:0:0:
192,192,191219,1,2,0:0:0:0:
320,192,191219,1,0,0:0:0:0:
64,192,191369,1,0,0:0:0:0:
320,192,191519,1,2,0:0:0:0:
448,192,191519,1,0,0:0:0:0:
192,192,191819,1,2,0:0:0:0:
320,192,191819,1,0,0:0:0:0:
448,192,191969,1,0,0:0:0:0:
64,192,192119,1,2,0:0:0:0:
192,192,192119,1,0,0:0:0:0:
448,192,192269,1,0,0:0:0:0:
192,192,192419,1,2,0:0:0:0:
320,192,192419,1,0,0:0:0:0:
64,192,192569,1,0,0:0:0:0:
320,192,192719,1,2,0:0:0:0:
448,192,192719,1,0,0:0:0:0:
192,192,193019,1,2,0:0:0:0:
320,192,193019,1,0,0:0:0:0:
448,192,193169,1,0,0:0:0:0:
64,192,193319,1,2,0:0:0:0:
192,192,193319,1,0,0:0:0:0:
192,192,193619,1,0,0:0:0:0:
320,192,193619,1,0,0:0:0:0:
320,192,193919,1,2,0:0:0:0:
448,192,193919,1,0,0:0:0:0:
192,192,194219,1,2,0:0:0:0:
320,192,194219,1,0,0:0:0:0:
448,192,194369,1,0,0:0:0:0:
64,192,194519,1,2,0:0:0:0:
192,192,194519,1,0,0:0:0:0:
320,192,194669,1,2,0:0:0:0:
448,192,194669,1,0,0:0:0:0:
64,192,194819,1,2,0:0:0:0:
192,192,194819,1,0,0:0:0:0:
320,192,194969,1,2,0:0:0:0:
448,192,194969,1,0,0:0:0:0:
64,192,195119,1,2,0:0:0:0:
192,192,195119,1,0,0:0:0:0:
320,192,195194,1,2,0:0:0:0:
192,192,195269,1,2,0:0:0:0:
320,192,195344,1,2,0:0:0:0:
64,192,195419,1,2,0:0:0:0:
448,192,195494,1,2,0:0:0:0:
64,192,195569,1,2,0:0:0:0:
448,192,195644,1,2,0:0:0:0:
192,192,195719,128,0,195869:0:0:0:0:
320,192,195869,128,0,196019:0:0:0:0:
64,192,196019,128,0,196169:0:0:0:0:
448,192,196169,128,0,196319:0:0:0:0:
320,192,196319,128,0,196469:0:0:0:0:
192,192,196469,128,0,196619:0:0:0:0:
448,192,196619,128,0,196769:0:0:0:0:
64,192,196769,128,0,196919:0:0:0:0:
320,192,196919,128,0,197069:0:0:0:0:
448,192,196919,128,0,197069:0:0:0:0:
64,192,197069,128,0,197219:0:0:0:0:
192,192,197069,128,0,197219:0:0:0:0:
320,192,197219,128,0,197369:0:0:0:0:
448,192,197219,128,0,197369:0:0:0:0:
64,192,197369,128,0,197519:0:0:0:0:
192,192,197369,128,0,197519:0:0:0:0:
448,192,197519,1,8,0:0:0:0:
320,192,197594,1,8,0:0:0:0:
192,192,197669,1,8,0:0:0:0:
64,192,197744,1,8,0:0:0:0:
448,192,197819,1,8,0:0:0:0:
320,192,197894,1,8,0:0:0:0:
192,192,197969,1,8,0:0:0:0:
64,192,198044,1,8,0:0:0:0:
192,192,198119,1,4,0:0:0:0:
320,192,198119,1,2,0:0:0:0:
448,192,198119,1,0,0:0:0:0:
64,192,198194,1,0,0:0:0:0:
192,192,198269,1,0,0:0:0:70:long hat.wav
320,192,198344,1,0,0:0:0:0:
64,192,198419,1,2,0:0:0:0:
448,192,198419,1,8,0:0:0:0:
192,192,198494,1,0,0:0:0:0:
448,192,198569,1,0,0:0:0:70:long hat.wav
64,192,198644,1,0,0:0:0:0:
192,192,198719,1,2,0:0:0:0:
320,192,198719,1,0,0:0:0:0:
448,192,198794,1,0,0:0:0:0:
192,192,198869,1,0,0:0:0:70:long hat.wav
320,192,198944,1,0,0:0:0:0:
64,192,199019,1,2,0:0:0:0:
448,192,199019,1,8,0:0:0:0:
192,192,199094,1,0,0:0:0:0:
320,192,199169,1,0,0:0:0:70:long hat.wav
448,192,199244,1,0,0:0:0:0:
192,192,199319,1,2,0:0:0:0:
320,192,199319,1,0,0:0:0:0:
64,192,199394,1,0,0:0:0:0:
320,192,199469,1,0,0:0:0:70:long hat.wav
192,192,199544,1,0,0:0:0:0:
64,192,199619,1,2,0:0:0:0:
448,192,199619,1,8,0:0:0:0:
320,192,199694,1,0,0:0:0:0:
192,192,199769,1,0,0:0:0:70:long hat.wav
448,192,199844,1,0,0:0:0:0:
64,192,199919,1,2,0:0:0:0:
320,192,199919,1,0,0:0:0:0:
192,192,199994,1,0,0:0:0:0:
448,192,200069,1,0,0:0:0:70:long hat.wav
320,192,200144,1,0,0:0:0:0:
64,192,200219,1,2,0:0:0:0:
192,192,200219,1,8,0:0:0:0:
320,192,200294,1,0,0:0:0:0:
448,192,200369,1,0,0:0:0:70:long hat.wav
64,192,200444,1,0,0:0:0:0:
192,192,200519,1,2,0:0:0:0:
320,192,200519,1,0,0:0:0:0:
448,192,200594,1,0,0:0:0:0:
64,192,200669,1,0,0:0:0:70:long hat.wav
448,192,200744,1,0,0:0:0:0:
192,192,200819,1,2,0:0:0:0:
320,192,200819,1,8,0:0:0:0:
64,192,200894,1,0,0:0:0:0:
448,192,200969,1,0,0:0:0:70:long hat.wav
192,192,201044,1,0,0:0:0:0:
64,192,201119,1,2,0:0:0:0:
448,192,201119,1,0,0:0:0:0:
320,192,201194,1,0,0:0:0:0:
192,192,201269,1,0,0:0:0:70:long hat.wav
64,192,201344,1,0,0:0:0:0:
320,192,201419,1,2,0:0:0:0:
448,192,201419,1,8,0:0:0:0:
192,192,201494,1,0,0:0:0:0:
64,192,201569,1,0,0:0:0:70:long hat.wav
448,192,201644,1,0,0:0:0:0:
192,192,201719,1,2,0:0:0:0:
320,192,201719,1,0,0:0:0:0:
64,192,201794,1,0,0:0:0:0:
448,192,201869,1,0,0:0:0:70:long hat.wav
192,192,201944,1,0,0:0:0:0:
320,192,202019,1,2,0:0:0:0:
448,192,202019,1,8,0:0:0:0:
64,192,202094,1,0,0:0:0:0:
192,192,202169,1,0,0:0:0:70:long hat.wav
448,192,202244,1,0,0:0:0:0:
64,192,202319,1,2,0:0:0:0:
320,192,202319,1,0,0:0:0:0:
448,192,202469,1,0,0:0:0:70:long hat.wav
64,192,202544,1,0,0:0:0:0:
192,192,202619,1,2,0:0:0:0:
320,192,202619,1,8,0:0:0:0:
64,192,202769,1,8,0:0:0:0:
320,192,202769,1,0,0:0:0:0:
64,192,202919,1,2,0:0:0:0:
192,192,202919,1,4,0:0:0:0:
448,192,202919,1,0,0:0:0:0:
320,192,202994,1,0,0:0:0:0:
192,192,203069,1,0,0:0:0:70:long hat.wav
64,192,203144,1,0,0:0:0:0:
320,192,203219,1,2,0:0:0:0:
448,192,203219,1,8,0:0:0:0:
192,192,203294,1,0,0:0:0:0:
64,192,203369,1,0,0:0:0:70:long hat.wav
320,192,203444,1,0,0:0:0:0:
192,192,203519,1,2,0:0:0:0:
448,192,203519,1,0,0:0:0:0:
64,192,203594,1,0,0:0:0:0:
448,192,203669,1,0,0:0:0:70:long hat.wav
64,192,203744,1,0,0:0:0:0:
192,192,203819,1,2,0:0:0:0:
448,192,203819,1,8,0:0:0:0:
320,192,203894,1,0,0:0:0:0:
64,192,203969,1,0,0:0:0:70:long hat.wav
192,192,204044,1,0,0:0:0:0:
320,192,204119,1,2,0:0:0:0:
448,192,204119,1,0,0:0:0:0:
64,192,204194,1,0,0:0:0:0:
192,192,204269,1,0,0:0:0:70:long hat.wav
320,192,204344,1,0,0:0:0:0:
64,192,204419,1,2,0:0:0:0:
192,192,204419,1,8,0:0:0:0:
448,192,204494,1,0,0:0:0:0:
320,192,204569,1,0,0:0:0:70:long hat.wav
192,192,204644,1,0,0:0:0:0:
64,192,204719,1,2,0:0:0:0:
320,192,204719,1,0,0:0:0:0:
448,192,204794,1,0,0:0:0:0:
192,192,204869,1,0,0:0:0:70:long hat.wav
320,192,204944,1,0,0:0:0:0:
64,192,205019,1,2,0:0:0:0:
448,192,205019,1,8,0:0:0:0:
192,192,205094,1,0,0:0:0:0:
320,192,205169,1,0,0:0:0:70:long hat.wav
192,192,205244,1,0,0:0:0:0:
64,192,205319,1,2,0:0:0:0:
448,192,205319,1,0,0:0:0:0:
320,192,205394,1,0,0:0:0:0:
192,192,205469,1,0,0:0:0:70:long hat.wav
448,192,205544,1,0,0:0:0:0:
64,192,205619,1,2,0:0:0:0:
320,192,205619,1,8,0:0:0:0:
192,192,205694,1,0,0:0:0:0:
448,192,205769,1,0,0:0:0:70:long hat.wav
320,192,205844,1,0,0:0:0:0:
64,192,205919,1,2,0:0:0:0:
192,192,205919,1,0,0:0:0:0:
448,192,205994,1,0,0:0:0:0:
320,192,206069,1,0,0:0:0:70:long hat.wav
192,192,206144,1,0,0:0:0:0:
64,192,206219,1,2,0:0:0:0:
448,192,206219,1,8,0:0:0:0:
192,192,206294,1,0,0:0:0:0:
320,192,206369,1,0,0:0:0:70:long hat.wav
448,192,206444,1,0,0:0:0:0:
192,192,206519,1,2,0:0:0:0:
320,192,206519,1,0,0:0:0:0:
448,192,206669,1,2,0:0:0:0:
64,192,206744,1,2,0:0:0:0:
192,192,206819,1,8,0:0:0:0:
320,192,206819,1,4,0:0:0:0:
448,192,206819,1,0,0:0:0:0:
64,192,206969,1,2,0:0:0:0:
448,192,207044,1,2,0:0:0:0:
64,192,207119,1,8,0:0:0:0:
192,192,207119,1,4,0:0:0:0:
320,192,207119,1,0,0:0:0:0:
64,192,207269,1,8,0:0:0:0:
320,192,207344,1,8,0:0:0:0:
192,192,207419,1,8,0:0:0:0:
448,192,207419,1,2,0:0:0:0:
64,192,207569,1,8,0:0:0:0:
192,192,207644,1,8,0:0:0:0:
64,192,207719,1,2,0:0:0:0:
320,192,207719,1,4,0:0:0:0:
448,192,207719,1,0,0:0:0:0:
192,192,207794,1,0,0:0:0:0:
320,192,207869,1,0,0:0:0:70:long hat.wav
64,192,207944,1,0,0:0:0:0:
192,192,208019,1,2,0:0:0:0:
448,192,208019,1,8,0:0:0:0:
320,192,208094,1,0,0:0:0:0:
448,192,208169,1,0,0:0:0:70:long hat.wav
64,192,208244,1,0,0:0:0:0:
192,192,208319,1,2,0:0:0:0:
320,192,208319,1,0,0:0:0:0:
448,192,208394,1,0,0:0:0:0:
320,192,208469,1,0,0:0:0:70:long hat.wav
64,192,208544,1,0,0:0:0:0:
320,192,208619,1,2,0:0:0:0:
448,192,208619,1,8,0:0:0:0:
192,192,208694,1,0,0:0:0:0:
64,192,208769,1,0,0:0:0:70:long hat.wav
448,192,208844,1,0,0:0:0:0:
192,192,208919,1,2,0:0:0:0:
320,192,208919,1,0,0:0:0:0:
64,192,208994,1,0,0:0:0:0:
448,192,209069,1,0,0:0:0:70:long hat.wav
320,192,209144,1,0,0:0:0:0:
64,192,209219,1,2,0:0:0:0:
192,192,209219,1,8,0:0:0:0:
448,192,209294,1,0,0:0:0:0:
320,192,209369,1,0,0:0:0:70:long hat.wav
192,192,209444,1,0,0:0:0:0:
64,192,209519,1,2,0:0:0:0:
448,192,209519,1,0,0:0:0:0:
320,192,209594,1,0,0:0:0:0:
192,192,209669,1,0,0:0:0:70:long hat.wav
64,192,209744,1,0,0:0:0:0:
320,192,209819,1,2,0:0:0:0:
448,192,209819,1,8,0:0:0:0:
192,192,209894,1,0,0:0:0:0:
64,192,209969,1,0,0:0:0:70:long hat.wav
192,192,210044,1,0,0:0:0:0:
320,192,210119,1,2,0:0:0:0:
448,192,210119,1,0,0:0:0:0:
64,192,210194,1,0,0:0:0:0:
192,192,210269,1,0,0:0:0:70:long hat.wav
448,192,210344,1,0,0:0:0:0:
64,192,210419,1,2,0:0:0:0:
320,192,210419,1,8,0:0:0:0:
192,192,210494,1,0,0:0:0:0:
320,192,210569,1,0,0:0:0:70:long hat.wav
64,192,210644,1,0,0:0:0:0:
192,192,210719,1,2,0:0:0:0:
448,192,210719,1,0,0:0:0:0:
320,192,210794,1,0,0:0:0:0:
64,192,210869,1,0,0:0:0:70:long hat.wav
192,192,210944,1,0,0:0:0:0:
320,192,211019,1,2,0:0:0:0:
448,192,211019,1,8,0:0:0:0:
64,192,211094,1,0,0:0:0:0:
192,192,211169,1,0,0:0:0:70:long hat.wav
448,192,211244,1,0,0:0:0:0:
64,192,211319,1,2,0:0:0:0:
320,192,211319,1,0,0:0:0:0:
192,192,211394,1,0,0:0:0:0:
320,192,211469,1,0,0:0:0:70:long hat.wav
448,192,211544,1,0,0:0:0:0:
64,192,211619,1,2,0:0:0:0:
192,192,211619,1,8,0:0:0:0:
320,192,211694,1,0,0:0:0:0:
448,192,211769,1,0,0:0:0:70:long hat.wav
192,192,211844,1,0,0:0:0:0:
64,192,211919,1,2,0:0:0:0:
320,192,211919,1,0,0:0:0:0:
448,192,212069,1,8,0:0:0:0:
64,192,212144,1,8,0:0:0:0:
192,192,212219,1,8,0:0:0:0:
320,192,212219,1,2,0:0:0:0:
64,192,212369,1,8,0:0:0:0:
448,192,212444,1,8,0:0:0:0:
64,192,212519,1,2,0:0:0:0:
192,192,212519,1,4,0:0:0:0:
320,192,212519,1,0,0:0:0:0:
448,192,212594,1,0,0:0:0:0:
192,192,212669,1,0,0:0:0:70:long hat.wav
320,192,212744,1,0,0:0:0:0:
64,192,212819,1,2,0:0:0:0:
448,192,212819,1,8,0:0:0:0:
192,192,212894,1,0,0:0:0:0:
320,192,212969,1,0,0:0:0:70:long hat.wav
64,192,213044,1,0,0:0:0:0:
192,192,213119,1,2,0:0:0:0:
448,192,213119,1,0,0:0:0:0:
320,192,213194,1,0,0:0:0:0:
64,192,213269,1,0,0:0:0:70:long hat.wav
448,192,213344,1,0,0:0:0:0:
64,192,213419,1,2,0:0:0:0:
192,192,213419,1,8,0:0:0:0:
320,192,213494,1,0,0:0:0:0:
448,192,213569,1,0,0:0:0:70:long hat.wav
64,192,213644,1,0,0:0:0:0:
320,192,213719,1,2,0:0:0:0:
448,192,213719,1,0,0:0:0:0:
192,192,213794,1,0,0:0:0:0:
64,192,213869,1,0,0:0:0:70:long hat.wav
320,192,213944,1,0,0:0:0:0:
192,192,214019,1,2,0:0:0:0:
448,192,214019,1,8,0:0:0:0:
64,192,214094,1,0,0:0:0:0:
448,192,214169,1,0,0:0:0:70:long hat.wav
320,192,214244,1,0,0:0:0:0:
64,192,214319,1,2,0:0:0:0:
192,192,214319,1,0,0:0:0:0:
448,192,214394,1,0,0:0:0:0:
320,192,214469,1,0,0:0:0:70:long hat.wav
64,192,214544,1,0,0:0:0:0:
192,192,214619,1,2,0:0:0:0:
448,192,214619,1,8,0:0:0:0:
320,192,214694,1,0,0:0:0:0:
64,192,214769,1,8,0:0:0:0:
320,192,214844,1,8,0:0:0:0:
64,192,214919,1,2,0:0:0:0:
192,192,214919,1,4,0:0:0:0:
448,192,214919,1,0,0:0:0:0:
192,192,215069,1,2,0:0:0:0:
320,192,215069,1,0,0:0:0:0:
64,192,215219,1,2,0:0:0:0:
448,192,215219,1,8,0:0:0:0:
192,192,215369,1,8,0:0:0:0:
320,192,215444,1,8,0:0:0:0:
64,192,215519,1,4,0:0:0:0:
192,192,215519,1,8,0:0:0:0:
448,192,215519,1,0,0:0:0:0:
192,192,215669,1,2,0:0:0:0:
320,192,215669,1,0,0:0:0:0:
64,192,215819,1,2,0:0:0:0:
448,192,215819,1,8,0:0:0:0:
320,192,215969,1,8,0:0:0:0:
192,192,216044,1,8,0:0:0:0:
64,192,216119,1,4,0:0:0:0:
320,192,216119,1,8,0:0:0:0:
448,192,216119,1,0,0:0:0:0:
192,192,216269,1,2,0:0:0:0:
64,192,216419,1,4,0:0:0:0:
320,192,216419,1,8,0:0:0:0:
448,192,216419,1,0,0:0:0:0:
192,192,216569,1,2,0:0:0:0:
64,192,216719,1,4,0:0:0:0:
320,192,216719,1,8,0:0:0:0:
448,192,216719,1,0,0:0:0:0:
192,192,216869,1,0,0:0:0:0:
64,192,217019,1,8,0:0:0:0:
320,192,217019,1,0,0:0:0:0:
192,192,217094,1,0,0:0:0:0:
448,192,217169,1,0,0:0:0:0:
320,192,217244,1,0,0:0:0:0:
64,192,217319,1,8,0:0:0:0:
192,192,217319,1,4,0:0:0:0:
448,192,217319,1,0,0:0:0:0:
192,192,217469,1,2,0:0:0:0:
320,192,217469,1,0,0:0:0:0:
64,192,217619,1,2,0:0:0:0:
448,192,217619,1,8,0:0:0:0:
320,192,217769,1,2,0:0:0:0:
192,192,217844,1,2,0:0:0:0:
64,192,217919,1,4,0:0:0:0:
320,192,217919,1,8,0:0:0:0:
448,192,217919,1,0,0:0:0:0:
192,192,218069,1,2,0:0:0:0:
320,192,218144,1,2,0:0:0:0:
64,192,218219,1,8,0:0:0:0:
448,192,218219,1,2,0:0:0:0:
192,192,218369,1,2,0:0:0:0:
320,192,218369,1,0,0:0:0:0:
64,192,218519,1,4,0:0:0:0:
192,192,218519,1,2,0:0:0:0:
448,192,218519,1,0,0:0:0:0:
320,192,218669,1,2,0:0:0:0:
64,192,218819,1,2,0:0:0:0:
192,192,218819,1,0,0:0:0:0:
320,192,218969,1,2,0:0:0:0:
64,192,219119,1,4,0:0:0:0:
192,192,219119,1,2,0:0:0:0:
448,192,219119,1,0,0:0:0:0:
64,192,219419,1,8,0:0:0:0:
448,192,219419,1,0,0:0:0:0:
192,192,219494,1,8,0:0:0:0:
320,192,219494,1,0,0:0:0:0:
64,192,219569,1,8,0:0:0:0:
448,192,219569,1,0,0:0:0:0:
320,192,219644,1,8,0:0:0:0:
64,192,219719,1,4,0:0:0:0:
192,192,219719,1,2,0:0:0:0:
448,192,219719,1,0,0:0:0:0:
320,192,219869,1,0,0:0:0:0:
64,192,220019,1,2,0:0:0:0:
448,192,220019,1,8,0:0:0:0:
192,192,220169,1,0,0:0:0:0:
320,192,220319,1,2,0:0:0:0:
448,192,220319,1,0,0:0:0:0:
192,192,220394,1,0,0:0:0:0:
64,192,220469,1,0,0:0:0:0:
320,192,220619,1,2,0:0:0:0:
448,192,220619,1,8,0:0:0:0:
192,192,220769,1,0,0:0:0:0:
64,192,220919,1,2,0:0:0:0:
320,192,220919,1,0,0:0:0:0:
448,192,221069,1,0,0:0:0:0:
64,192,221219,1,2,0:0:0:0:
192,192,221219,1,8,0:0:0:0:
320,192,221294,1,0,0:0:0:0:
448,192,221369,1,0,0:0:0:0:
64,192,221519,128,2,221669:0:0:0:0:
320,192,221519,1,0,0:0:0:0:
192,192,221669,128,0,221819:0:0:0:0:
64,192,221819,1,2,0:0:0:0:
320,192,221819,128,8,221969:0:0:0:0:
448,192,221969,128,0,222119:0:0:0:0:
64,192,222119,1,2,0:0:0:0:
192,192,222119,1,0,0:0:0:0:
320,192,222269,1,0,0:0:0:0:
64,192,222419,1,2,0:0:0:0:
448,192,222419,1,8,0:0:0:0:
192,192,222569,1,0,0:0:0:0:
320,192,222719,1,2,0:0:0:0:
448,192,222719,1,0,0:0:0:0:
192,192,222869,1,0,0:0:0:0:
64,192,223019,1,2,0:0:0:0:
320,192,223019,1,8,0:0:0:0:
192,192,223169,1,0,0:0:0:0:
64,192,223319,1,2,0:0:0:0:
448,192,223319,1,0,0:0:0:0:
320,192,223469,1,0,0:0:0:0:
64,192,223619,1,2,0:0:0:0:
192,192,223619,1,8,0:0:0:0:
320,192,223694,1,0,0:0:0:0:
192,192,223769,1,0,0:0:0:0:
320,192,223919,1,2,0:0:0:0:
448,192,223919,1,0,0:0:0:0:
192,192,223994,1,0,0:0:0:0:
320,192,224069,1,0,0:0:0:0:
64,192,224219,1,2,0:0:0:0:
192,192,224219,1,8,0:0:0:0:
320,192,224294,1,0,0:0:0:0:
64,192,224369,1,8,0:0:0:0:
448,192,224444,1,8,0:0:0:0:
64,192,224519,1,2,0:0:0:0:
192,192,224519,1,4,0:0:0:0:
320,192,224519,1,0,0:0:0:0:
448,192,224669,1,0,0:0:0:0:
64,192,224819,1,2,0:0:0:0:
192,192,224819,1,8,0:0:0:0:
320,192,224969,1,0,0:0:0:0:
192,192,225119,1,2,0:0:0:0:
448,192,225119,1,0,0:0:0:0:
64,192,225194,1,0,0:0:0:0:
320,192,225269,1,0,0:0:0:0:
192,192,225419,1,2,0:0:0:0:
448,192,225419,1,8,0:0:0:0:
320,192,225569,1,0,0:0:0:0:
64,192,225719,1,2,0:0:0:0:
448,192,225719,1,0,0:0:0:0:
192,192,225869,1,0,0:0:0:0:
64,192,226019,1,2,0:0:0:0:
320,192,226019,1,8,0:0:0:0:
448,192,226094,1,0,0:0:0:0:
192,192,226169,1,0,0:0:0:0:
64,192,226319,128,2,226469:0:0:0:0:
448,192,226319,1,0,0:0:0:0:
320,192,226469,128,0,226619:0:0:0:0:
64,192,226619,1,2,0:0:0:0:
192,192,226619,128,8,226769:0:0:0:0:
448,192,226769,128,0,226919:0:0:0:0:
64,192,226919,1,2,0:0:0:0:
320,192,226919,1,0,0:0:0:0:
192,192,227069,1,0,0:0:0:0:
64,192,227219,1,2,0:0:0:0:
448,192,227219,1,8,0:0:0:0:
320,192,227369,1,0,0:0:0:0:
192,192,227519,1,2,0:0:0:0:
448,192,227519,1,0,0:0:0:0:
64,192,227669,1,0,0:0:0:0:
320,192,227819,1,2,0:0:0:0:
448,192,227819,1,8,0:0:0:0:
192,192,227969,1,0,0:0:0:0:
320,192,228119,1,2,0:0:0:0:
448,192,228119,1,0,0:0:0:0:
64,192,228269,1,8,0:0:0:0:
448,192,228344,1,8,0:0:0:0:
192,192,228419,1,8,0:0:0:0:
320,192,228494,1,8,0:0:0:0:
192,192,228569,1,8,0:0:0:0:
448,192,228644,1,8,0:0:0:0:
64,192,228719,1,8,0:0:0:0:
320,192,228794,1,8,0:0:0:0:
64,192,228869,1,8,0:0:0:0:
192,192,229019,1,8,0:0:0:0:
320,192,229094,1,8,0:0:0:0:
192,192,229169,1,8,0:0:0:0:
448,192,229244,1,8,0:0:0:0:
64,192,229319,1,2,0:0:0:0:
192,192,229319,1,4,0:0:0:0:
320,192,229319,1,0,0:0:0:0:
448,192,229469,1,0,0:0:0:0:
64,192,229619,1,2,0:0:0:0:
320,192,229619,1,8,0:0:0:0:
192,192,229769,1,0,0:0:0:0:
64,192,229919,1,2,0:0:0:0:
320,192,229919,1,0,0:0:0:0:
192,192,229994,1,0,0:0:0:0:
448,192,230069,1,0,0:0:0:0:
64,192,230219,1,2,0:0:0:0:
192,192,230219,1,8,0:0:0:0:
448,192,230369,1,0,0:0:0:0:
192,192,230519,1,2,0:0:0:0:
320,192,230519,1,0,0:0:0:0:
64,192,230669,1,0,0:0:0:0:
192,192,230819,1,2,0:0:0:0:
448,192,230819,1,8,0:0:0:0:
320,192,230894,1,0,0:0:0:0:
64,192,230969,1,0,0:0:0:0:
192,192,231119,1,2,0:0:0:0:
448,192,231119,128,0,231269:0:0:0:0:
320,192,231269,128,0,231419:0:0:0:0:
192,192,231419,128,2,231569:0:0:0:0:
448,192,231419,1,8,0:0:0:0:
64,192,231569,128,0,231719:0:0:0:0:
192,192,231719,1,2,0:0:0:0:
320,192,231719,1,0,0:0:0:0:
448,192,231869,1,0,0:0:0:0:
64,192,232019,1,2,0:0:0:0:
320,192,232019,1,8,0:0:0:0:
192,192,232169,1,0,0:0:0:0:
320,192,232319,1,2,0:0:0:0:
448,192,232319,1,0,0:0:0:0:
192,192,232469,1,0,0:0:0:0:
64,192,232619,1,2,0:0:0:0:
448,192,232619,1,8,0:0:0:0:
320,192,232769,1,0,0:0:0:0:
64,192,232919,1,2,0:0:0:0:
192,192,232919,1,0,0:0:0:0:
320,192,233069,1,0,0:0:0:70:long hat.wav
448,192,233069,1,0,0:0:0:0:
64,192,233219,1,10,0:0:0:0:
192,192,233219,1,0,0:0:0:70:long hat.wav
320,192,233294,1,0,0:0:0:0:
192,192,233369,1,0,0:0:0:0:
448,192,233519,1,8,0:0:0:0:
64,192,233594,1,8,0:0:0:0:
320,192,233669,1,8,0:0:0:0:
192,192,233744,1,8,0:0:0:0:
448,192,233819,1,8,0:0:0:0:
64,192,233894,1,8,0:0:0:0:
320,192,233969,1,8,0:0:0:0:
192,192,234044,1,8,0:0:0:0:
64,192,234119,1,2,0:0:0:0:
320,192,234119,1,4,0:0:0:0:
448,192,234119,1,0,0:0:0:0:
192,192,234269,1,0,0:0:0:0:
64,192,234419,1,2,0:0:0:0:
320,192,234419,1,8,0:0:0:0:
448,192,234569,1,0,0:0:0:0:
64,192,234719,1,2,0:0:0:0:
320,192,234719,1,0,0:0:0:0:
448,192,234794,1,0,0:0:0:0:
192,192,234869,1,0,0:0:0:0:
320,192,235019,1,2,0:0:0:0:
448,192,235019,1,8,0:0:0:0:
64,192,235169,1,0,0:0:0:0:
192,192,235319,1,2,0:0:0:0:
448,192,235319,1,0,0:0:0:0:
64,192,235469,1,0,0:0:0:0:
192,192,235619,1,2,0:0:0:0:
448,192,235619,1,8,0:0:0:0:
64,192,235694,1,0,0:0:0:0:
320,192,235769,1,0,0:0:0:0:
64,192,235919,1,2,0:0:0:0:
448,192,235919,128,0,236069:0:0:0:0:
192,192,236069,128,0,236219:0:0:0:0:
320,192,236219,128,2,236369:0:0:0:0:
448,192,236219,1,8,0:0:0:0:
64,192,236369,128,0,236519:0:0:0:0:
320,192,236519,1,2,0:0:0:0:
448,192,236519,1,0,0:0:0:0:
192,192,236669,1,0,0:0:0:0:
64,192,236819,1,10,0:0:0:0:
448,192,236819,1,4,0:0:0:0:
192,192,236969,1,0,0:0:0:0:
64,192,237119,1,2,0:0:0:0:
320,192,237119,1,0,0:0:0:0:
448,192,237269,1,0,0:0:0:0:
64,192,237419,1,2,0:0:0:0:
320,192,237419,1,8,0:0:0:0:
192,192,237569,1,0,0:0:0:0:
320,192,237719,1,2,0:0:0:0:
448,192,237719,1,0,0:0:0:0:
192,192,237794,1,2,0:0:0:0:
64,192,237869,1,4,0:0:0:0:
320,192,237869,1,8,0:0:0:0:
448,192,237869,1,0,0:0:0:0:
64,192,238019,1,8,0:0:0:0:
192,192,238019,1,0,0:0:0:0:
320,192,238094,1,0,0:0:0:0:
192,192,238169,1,8,0:0:0:0:
320,192,238319,1,8,0:0:0:0:
448,192,238319,1,0,0:0:0:0:
192,192,238394,1,0,0:0:0:0:
320,192,238469,1,8,0:0:0:0:
64,192,238619,1,8,0:0:0:0:
192,192,238619,1,0,0:0:0:0:
320,192,238694,1,0,0:0:0:0:
192,192,238769,1,8,0:0:0:0:
448,192,238919,1,0,0:0:0:0:
320,192,238994,1,0,0:0:0:0:
192,192,239069,1,0,0:0:0:0:
320,192,239256,1,0,0:0:0:0:
448,192,239419,1,0,0:0:0:0:
