osu file format v14

[General]
AudioFilename: audio.mp3
AudioLeadIn: 0
PreviewTime: 59142
Countdown: 0
SampleSet: Normal
StackLeniency: 0.7
Mode: 1
LetterboxInBreaks: 0
WidescreenStoryboard: 1

[Editor]
Bookmarks: 20761,30361,39961,49561
DistanceSpacing: 1.1
BeatDivisor: 4
GridSize: 8
TimelineZoom: 1.3

[Metadata]
Title:Ikasama Life Game (Cut Ver.)
TitleUnicode:イカサマライフゲイム (Cut Ver.)
Artist:kemu
ArtistUnicode:kemu
Creator:[-E S I A-]
Version:Muzukashii
Source:
Tags:Life-cheating Game VOCALOID ボーカロイド megpoid gumi メグッポイド グミ スズム suzumu voxx japanese rock j-rock jrock short version E_S_I_A [-E_S_I_A-] ESIA [-ESIA-]
BeatmapID:4451976
BeatmapSetID:2119365

[Difficulty]
HPDrainRate:6.5
CircleSize:2
OverallDifficulty:5
ApproachRate:10
SliderMultiplier:1.4
SliderTickRate:1

[Events]
//Background and Video events
0,0,"BG.jpg",0,-120
//Break Periods
//Storyboard Layer 0 (Background)
//Storyboard Layer 1 (Fail)
//Storyboard Layer 2 (Pass)
//Storyboard Layer 3 (Foreground)
//Storyboard Layer 4 (Overlay)
//Storyboard Sound Samples

[TimingPoints]
11161,300,4,1,0,60,1,0
11161,-100,4,1,0,60,0,0
18286,-100,4,1,0,70,0,0
20386,-100,4,1,0,100,0,0
20686,-100,4,1,0,90,0,0
30511,-100,4,1,0,70,0,0
39886,-100,4,1,0,80,0,0
49711,-100,4,1,0,70,0,0
57586,-100,4,1,0,80,0,0
57923,-100,4,1,0,90,0,0
59161,-100,4,1,0,100,0,1
77761,-100,4,1,0,90,0,0

[HitObjects]
320,173,11161,5,8,0:0:0:0:
306,184,11461,1,8,0:0:0:0:
320,173,11611,1,0,0:0:0:0:
306,184,11911,1,8,0:0:0:0:
324,179,12211,1,0,0:0:0:0:
230,139,12511,1,8,0:0:0:0:
212,148,12811,1,0,0:0:0:0:
234,152,13561,1,8,0:0:0:0:
234,152,13861,1,8,0:0:0:0:
261,181,14011,1,0,0:0:0:0:
331,152,14311,1,8,0:0:0:0:
331,152,14611,1,0,0:0:0:0:
224,134,14911,1,0,0:0:0:0:
224,134,15061,1,0,0:0:0:0:
449,154,15361,1,8,0:0:0:0:
339,166,15961,1,0,0:0:0:0:
259,190,16261,1,8,0:0:0:0:
274,211,16561,1,8,0:0:0:0:
339,166,16711,1,8,0:0:0:0:
259,190,16861,1,0,0:0:0:0:
324,212,17161,1,0,0:0:0:0:
289,177,17461,1,8,0:0:0:0:
230,185,17761,1,0,0:0:0:0:
230,185,17911,1,0,0:0:0:0:
247,184,18061,1,8,0:0:0:0:
302,209,18361,1,8,0:0:0:0:
302,209,18661,1,8,0:0:0:0:
168,210,18811,1,0,0:0:0:0:
203,176,18961,1,8,0:0:0:0:
209,169,19261,1,0,0:0:0:0:
203,176,19561,1,8,0:0:0:0:
277,228,19711,1,0,0:0:0:0:
272,182,19861,1,0,0:0:0:0:
209,169,20011,1,0,0:0:0:0:
244,189,20161,1,8,0:0:0:0:
321,141,20461,1,4,0:0:0:0:
253,211,20761,1,12,0:0:0:0:
332,215,21061,1,8,0:0:0:0:
273,199,21211,1,0,0:0:0:0:
228,182,21361,1,8,0:0:0:0:
317,206,21436,1,8,0:0:0:0:
317,206,21511,1,8,0:0:0:0:
326,225,21661,1,0,0:0:0:0:
229,218,21961,1,8,0:0:0:0:
214,171,22111,1,0,0:0:0:0:
277,195,22261,1,8,0:0:0:0:
274,150,22336,1,8,0:0:0:0:
312,191,22411,1,8,0:0:0:0:
278,175,22561,1,0,0:0:0:0:
347,183,22711,1,0,0:0:0:0:
246,196,22861,1,8,0:0:0:0:
285,185,23011,1,0,0:0:0:0:
124,175,23161,1,8,0:0:0:0:
218,180,23611,1,8,0:0:0:0:
209,184,23761,1,0,0:0:0:0:
209,184,23911,1,0,0:0:0:0:
295,278,24061,1,8,0:0:0:0:
188,233,24211,1,0,0:0:0:0:
283,215,24511,1,8,0:0:0:0:
271,171,24661,1,0,0:0:0:0:
278,193,24736,1,0,0:0:0:0:
225,179,24811,1,0,0:0:0:0:
272,175,24961,1,8,0:0:0:0:
177,182,25111,1,0,0:0:0:0:
367,171,25261,1,8,0:0:0:0:
237,166,25411,1,8,0:0:0:0:
343,187,25561,1,4,0:0:0:0:
294,181,25861,1,8,0:0:0:0:
273,199,26011,1,0,0:0:0:0:
228,182,26161,1,8,0:0:0:0:
319,188,26236,1,8,0:0:0:0:
294,189,26311,1,8,0:0:0:0:
326,225,26461,1,0,0:0:0:0:
229,218,26761,1,8,0:0:0:0:
214,171,26911,1,0,0:0:0:0:
277,195,27061,1,8,0:0:0:0:
237,175,27136,1,8,0:0:0:0:
237,175,27211,1,8,0:0:0:0:
246,196,27361,1,0,0:0:0:0:
278,175,27511,1,0,0:0:0:0:
347,183,27661,1,8,0:0:0:0:
124,175,27811,1,8,0:0:0:0:
285,185,27961,1,0,0:0:0:0:
218,180,28411,1,8,0:0:0:0:
209,184,28561,1,0,0:0:0:0:
209,184,28711,1,0,0:0:0:0:
295,278,28861,1,8,0:0:0:0:
188,233,29011,1,0,0:0:0:0:
227,160,29311,1,0,0:0:0:0:
271,171,29461,1,8,0:0:0:0:
225,179,29611,1,0,0:0:0:0:
336,198,29761,1,8,0:0:0:0:
378,198,29836,1,8,0:0:0:0:
237,166,29911,1,8,0:0:0:0:
367,171,30061,1,0,0:0:0:0:
367,171,30211,1,0,0:0:0:0:
387,194,30361,1,12,0:0:0:0:
290,243,30661,1,0,0:0:0:0:
270,251,30961,1,0,0:0:0:0:
270,251,31261,1,0,0:0:0:0:
225,218,31561,1,8,0:0:0:0:
200,206,31861,1,0,0:0:0:0:
200,206,32161,1,0,0:0:0:0:
200,206,32461,1,0,0:0:0:0:
302,240,32761,1,8,0:0:0:0:
319,192,33061,1,0,0:0:0:0:
260,220,33361,1,0,0:0:0:0:
260,220,33661,1,0,0:0:0:0:
344,208,33961,1,8,0:0:0:0:
298,173,34411,1,8,0:0:0:0:
269,198,34711,1,8,0:0:0:0:
239,214,34861,1,0,0:0:0:0:
157,128,35011,1,0,0:0:0:0:
253,241,35161,1,12,0:0:0:0:
195,231,35461,1,0,0:0:0:0:
178,196,35611,1,8,0:0:0:0:
195,231,35761,1,0,0:0:0:0:
195,231,36061,1,0,0:0:0:0:
438,178,36361,1,8,0:0:0:0:
214,255,36661,1,0,0:0:0:0:
303,187,36811,1,8,0:0:0:0:
303,187,37111,1,8,0:0:0:0:
245,163,37261,1,0,0:0:0:0:
412,190,37411,1,8,0:0:0:0:
318,174,37561,1,0,0:0:0:0:
256,176,37861,1,8,0:0:0:0:
258,174,38161,1,0,0:0:0:0:
258,174,38461,1,0,0:0:0:0:
358,197,38611,1,0,0:0:0:0:
276,196,38761,1,8,0:0:0:0:
292,246,38911,1,0,0:0:0:0:
234,207,38986,1,0,0:0:0:0:
225,223,39061,1,0,0:0:0:0:
445,185,39211,1,8,0:0:0:0:
321,174,39511,1,0,0:0:0:0:
279,182,39961,1,12,0:0:0:0:
275,186,40261,1,8,0:0:0:0:
162,234,40411,1,0,0:0:0:0:
193,225,40561,1,0,0:0:0:0:
284,203,40861,1,8,0:0:0:0:
270,193,41011,1,8,0:0:0:0:
284,203,41161,1,0,0:0:0:0:
315,172,41461,1,0,0:0:0:0:
264,212,41611,1,8,0:0:0:0:
269,210,41761,1,0,0:0:0:0:
340,169,41836,1,0,0:0:0:0:
254,190,41911,1,0,0:0:0:0:
371,183,42061,1,8,0:0:0:0:
234,184,42211,1,0,0:0:0:0:
354,200,42661,1,8,0:0:0:0:
237,201,42961,1,0,0:0:0:0:
261,192,43111,1,0,0:0:0:0:
354,200,43261,1,8,0:0:0:0:
222,192,43561,1,0,0:0:0:0:
262,184,43711,1,0,0:0:0:0:
238,189,43861,1,8,0:0:0:0:
299,208,44011,1,0,0:0:0:0:
215,195,44311,1,0,0:0:0:0:
279,186,44461,1,8,0:0:0:0:
279,186,44611,1,8,0:0:0:0:
303,156,44761,1,4,0:0:0:0:
341,194,45061,1,8,0:0:0:0:
323,171,45211,1,0,0:0:0:0:
359,191,45361,1,8,0:0:0:0:
243,163,45661,1,8,0:0:0:0:
288,178,45811,1,8,0:0:0:0:
313,163,45961,1,0,0:0:0:0:
248,171,46261,1,8,0:0:0:0:
337,183,46411,1,0,0:0:0:0:
239,184,46486,1,0,0:0:0:0:
336,183,46561,1,0,0:0:0:0:
248,171,46711,1,0,0:0:0:0:
322,193,46861,1,8,0:0:0:0:
366,191,47011,1,0,0:0:0:0:
251,197,47461,1,8,0:0:0:0:
217,194,47761,1,0,0:0:0:0:
217,194,47911,1,0,0:0:0:0:
318,210,48061,1,12,0:0:0:0:
365,274,48361,1,0,0:0:0:0:
337,243,48511,1,8,0:0:0:0:
427,181,48661,1,8,0:0:0:0:
426,181,48811,1,0,0:0:0:0:
233,173,48886,1,0,0:0:0:0:
463,177,48961,1,0,0:0:0:0:
351,252,49111,1,8,0:0:0:0:
280,185,49561,5,12,0:0:0:0:
270,253,49861,1,0,0:0:0:0:
312,246,50011,1,8,0:0:0:0:
291,179,50311,1,0,0:0:0:0:
314,221,50611,1,8,0:0:0:0:
324,197,50911,1,0,0:0:0:0:
366,231,51061,1,8,0:0:0:0:
289,198,51361,1,0,0:0:0:0:
259,175,51961,1,0,0:0:0:0:
259,196,52261,1,8,0:0:0:0:
302,151,52411,1,0,0:0:0:0:
299,207,52711,1,0,0:0:0:0:
358,193,53011,1,8,0:0:0:0:
344,199,53311,1,0,0:0:0:0:
358,193,53461,1,8,0:0:0:0:
422,259,53761,1,0,0:0:0:0:
393,192,54061,1,8,0:0:0:0:
393,192,54211,1,8,0:0:0:0:
311,200,54361,1,0,0:0:0:0:
293,186,54661,1,8,0:0:0:0:
278,174,54811,1,0,0:0:0:0:
231,174,55111,1,0,0:0:0:0:
208,174,55411,1,8,0:0:0:0:
294,172,55711,1,0,0:0:0:0:
208,174,55861,1,8,0:0:0:0:
257,173,56161,1,0,0:0:0:0:
367,194,56311,1,0,0:0:0:0:
280,186,56461,1,8,0:0:0:0:
280,186,56611,1,8,0:0:0:0:
291,273,56761,1,0,0:0:0:0:
352,223,57211,1,0,0:0:0:0:
352,223,57361,1,8,0:0:0:0:
319,185,57811,1,0,0:0:0:0:
297,182,57961,1,8,0:0:0:0:
336,211,58261,1,8,0:0:0:0:
233,181,58411,1,0,0:0:0:0:
238,199,58561,1,8,0:0:0:0:
233,181,58636,1,8,0:0:0:0:
277,173,58711,1,8,0:0:0:0:
161,179,58861,1,0,0:0:0:0:
302,200,59011,1,0,0:0:0:0:
317,155,59161,1,12,0:0:0:0:
243,173,59461,1,0,0:0:0:0:
245,171,59611,1,8,0:0:0:0:
412,219,59911,1,8,0:0:0:0:
227,194,60061,1,0,0:0:0:0:
265,184,60211,1,8,0:0:0:0:
317,220,60511,1,8,0:0:0:0:
235,175,60661,1,0,0:0:0:0:
317,220,60811,1,8,0:0:0:0:
288,185,60886,1,8,0:0:0:0:
303,181,60961,1,8,0:0:0:0:
264,175,61111,1,0,0:0:0:0:
258,182,61261,1,8,0:0:0:0:
284,203,61411,1,8,0:0:0:0:
340,204,61561,1,0,0:0:0:0:
292,173,61861,1,8,0:0:0:0:
292,173,62011,1,0,0:0:0:0:
304,210,62311,1,0,0:0:0:0:
253,167,62461,1,8,0:0:0:0:
282,167,62611,1,0,0:0:0:0:
301,187,62911,1,0,0:0:0:0:
381,191,63061,1,8,0:0:0:0:
261,176,63136,1,8,0:0:0:0:
362,185,63211,1,8,0:0:0:0:
308,224,63361,1,0,0:0:0:0:
258,186,63661,1,8,0:0:0:0:
233,178,63811,1,0,0:0:0:0:
226,170,63961,1,12,0:0:0:0:
162,206,64261,1,8,0:0:0:0:
162,206,64561,1,0,0:0:0:0:
289,209,64861,1,8,0:0:0:0:
326,198,65011,1,8,0:0:0:0:
255,200,65161,1,0,0:0:0:0:
207,195,65461,1,8,0:0:0:0:
219,194,65761,1,0,0:0:0:0:
245,213,66061,1,0,0:0:0:0:
245,213,66136,1,0,0:0:0:0:
252,191,66211,1,0,0:0:0:0:
245,213,66361,1,8,0:0:0:0:
221,184,66661,1,8,0:0:0:0:
262,211,66811,1,0,0:0:0:0:
301,209,67111,1,8,0:0:0:0:
312,185,67261,1,0,0:0:0:0:
252,191,67411,1,8,0:0:0:0:
252,191,67486,1,8,0:0:0:0:
182,189,67561,1,8,0:0:0:0:
268,229,67711,1,8,0:0:0:0:
264,189,67861,1,0,0:0:0:0:
220,162,68161,1,8,0:0:0:0:
317,155,68761,1,12,0:0:0:0:
243,173,69061,1,8,0:0:0:0:
245,171,69211,1,0,0:0:0:0:
412,219,69511,1,8,0:0:0:0:
227,194,69661,1,0,0:0:0:0:
265,184,69811,1,8,0:0:0:0:
317,220,70111,1,8,0:0:0:0:
235,175,70261,1,0,0:0:0:0:
317,220,70411,1,8,0:0:0:0:
288,185,70486,1,8,0:0:0:0:
303,181,70561,1,8,0:0:0:0:
340,204,70711,1,0,0:0:0:0:
258,182,70861,1,8,0:0:0:0:
284,203,71011,1,8,0:0:0:0:
340,204,71161,1,0,0:0:0:0:
363,183,71611,1,0,0:0:0:0:
272,184,71761,1,8,0:0:0:0:
306,173,72211,1,8,0:0:0:0:
282,167,72361,1,0,0:0:0:0:
268,167,72511,1,8,0:0:0:0:
308,224,72661,1,0,0:0:0:0:
304,210,72736,1,0,0:0:0:0:
301,187,72811,1,0,0:0:0:0:
252,176,72961,1,8,0:0:0:0:
258,186,73261,1,8,0:0:0:0:
233,178,73411,1,0,0:0:0:0:
226,170,73561,1,12,0:0:0:0:
162,206,73861,1,8,0:0:0:0:
162,206,74161,1,0,0:0:0:0:
289,209,74461,1,8,0:0:0:0:
326,198,74611,1,8,0:0:0:0:
255,200,74761,1,0,0:0:0:0:
207,195,75061,1,8,0:0:0:0:
219,194,75361,1,0,0:0:0:0:
245,213,75661,1,0,0:0:0:0:
245,213,75736,1,0,0:0:0:0:
252,191,75811,1,0,0:0:0:0:
245,213,75961,1,12,0:0:0:0:
221,184,76261,1,0,0:0:0:0:
262,211,76411,1,0,0:0:0:0:
301,209,76561,1,8,0:0:0:0:
312,185,76861,1,8,0:0:0:0:
329,195,77011,1,0,0:0:0:0:
182,189,77161,1,8,0:0:0:0:
268,229,77311,1,0,0:0:0:0:
238,205,77386,1,0,0:0:0:0:
372,268,77461,1,0,0:0:0:0:
291,184,77611,1,0,0:0:0:0:
220,162,77761,1,8,0:0:0:0:
220,162,78061,1,0,0:0:0:0:
253,211,78361,5,12,0:0:0:0:
294,181,78661,1,8,0:0:0:0:
273,199,78811,1,0,0:0:0:0:
228,182,78961,1,8,0:0:0:0:
319,188,79036,1,8,0:0:0:0:
294,189,79111,1,8,0:0:0:0:
326,225,79261,1,0,0:0:0:0:
229,218,79561,1,8,0:0:0:0:
214,171,79711,1,0,0:0:0:0:
277,195,79861,1,8,0:0:0:0:
206,196,79936,1,8,0:0:0:0:
219,191,80011,1,8,0:0:0:0:
294,216,80161,1,0,0:0:0:0:
278,175,80311,1,0,0:0:0:0:
347,183,80461,1,8,0:0:0:0:
285,185,80611,1,0,0:0:0:0:
124,175,80761,1,8,0:0:0:0:
218,180,81211,1,8,0:0:0:0:
209,184,81361,1,0,0:0:0:0:
209,184,81511,1,0,0:0:0:0:
295,278,81661,1,8,0:0:0:0:
188,233,81811,1,0,0:0:0:0:
283,215,82111,1,8,0:0:0:0:
271,171,82261,1,0,0:0:0:0:
278,193,82336,1,0,0:0:0:0:
225,179,82411,1,0,0:0:0:0:
272,175,82561,1,8,0:0:0:0:
367,171,82711,1,8,0:0:0:0:
367,171,82861,1,0,0:0:0:0:
343,187,83161,1,12,0:0:0:0:
294,181,83461,1,8,0:0:0:0:
273,199,83611,1,0,0:0:0:0:
228,182,83761,1,8,0:0:0:0:
319,188,83836,1,8,0:0:0:0:
294,189,83911,1,8,0:0:0:0:
326,225,84061,1,0,0:0:0:0:
229,218,84361,1,8,0:0:0:0:
214,171,84511,1,0,0:0:0:0:
277,195,84661,1,8,0:0:0:0:
212,221,84736,1,8,0:0:0:0:
213,221,84811,1,8,0:0:0:0:
246,196,84961,1,0,0:0:0:0:
278,175,85111,1,0,0:0:0:0:
347,183,85261,1,8,0:0:0:0:
124,175,85411,1,8,0:0:0:0:
285,185,85561,1,0,0:0:0:0:
209,184,85861,1,12,0:0:0:0:
218,180,86161,1,0,0:0:0:0:
209,184,86311,1,0,0:0:0:0:
295,278,86461,1,8,0:0:0:0:
188,233,86611,1,0,0:0:0:0:
227,160,86911,1,8,0:0:0:0:
271,171,87061,1,8,0:0:0:0:
225,179,87211,1,0,0:0:0:0:
336,198,87361,1,8,0:0:0:0:
225,179,87436,1,8,0:0:0:0:
237,166,87511,1,8,0:0:0:0:
367,171,87661,1,0,0:0:0:0:
367,171,87811,1,8,0:0:0:0:
