osu file format v14

[General]
AudioFilename: audio.mp3
AudioLeadIn: 0
PreviewTime: 59142
Countdown: 0
SampleSet: Normal
StackLeniency: 0.7
Mode: 1
LetterboxInBreaks: 0
WidescreenStoryboard: 1

[Editor]
Bookmarks: 20761,30361,39961,49561
DistanceSpacing: 1.1
BeatDivisor: 2
GridSize: 8
TimelineZoom: 0.5999998

[Metadata]
Title:Ikasama Life Game (Cut Ver.)
TitleUnicode:イカサマライフゲイム (Cut Ver.)
Artist:kemu
ArtistUnicode:kemu
Creator:[-E S I A-]
Version:Kantan
Source:
Tags:Life-cheating Game VOCALOID ボーカロイド megpoid gumi メグッポイド グミ スズム suzumu voxx japanese rock j-rock jrock short version E_S_I_A [-E_S_I_A-] ESIA [-ESIA-]
BeatmapID:4451975
BeatmapSetID:2119365

[Difficulty]
HPDrainRate:8.5
CircleSize:2
OverallDifficulty:3
ApproachRate:10
SliderMultiplier:1.4
SliderTickRate:1

[Events]
//Background and Video events
0,0,"BG.jpg",0,-120
//Break Periods
//Storyboard Layer 0 (Background)
//Storyboard Layer 1 (Fail)
//Storyboard Layer 2 (Pass)
//Storyboard Layer 3 (Foreground)
//Storyboard Layer 4 (Overlay)
//Storyboard Sound Samples

[TimingPoints]
11161,300,4,1,0,60,1,0
11161,-100,4,1,0,60,0,0
18286,-100,4,1,0,70,0,0
20386,-100,4,1,0,100,0,0
20686,-100,4,1,0,90,0,0
30511,-100,4,1,0,70,0,0
39886,-100,4,1,0,80,0,0
49711,-100,4,1,0,70,0,0
57586,-100,4,1,0,80,0,0
57923,-100,4,1,0,90,0,0
59161,-100,4,1,0,100,0,1
77761,-100,4,1,0,90,0,0

[HitObjects]
320,173,11161,5,8,0:0:0:0:
230,139,12211,1,8,0:0:0:0:
212,148,12811,1,0,0:0:0:0:
234,152,13561,1,8,0:0:0:0:
331,152,14611,1,0,0:0:0:0:
449,154,15361,1,8,0:0:0:0:
339,166,15961,1,0,0:0:0:0:
324,212,17161,1,0,0:0:0:0:
230,185,17761,1,8,0:0:0:0:
302,209,18361,1,8,0:0:0:0:
168,210,18961,1,0,0:0:0:0:
203,176,19561,1,8,0:0:0:0:
253,211,20761,1,12,0:0:0:0:
273,199,21361,1,0,0:0:0:0:
229,218,21961,1,8,0:0:0:0:
277,195,22261,1,8,0:0:0:0:
284,218,22561,1,0,0:0:0:0:
124,175,23161,1,8,0:0:0:0:
209,184,23761,1,0,0:0:0:0:
295,278,24061,1,8,0:0:0:0:
188,233,24361,1,0,0:0:0:0:
343,187,25561,1,12,0:0:0:0:
273,199,26161,1,0,0:0:0:0:
229,218,26761,1,8,0:0:0:0:
277,195,27061,1,8,0:0:0:0:
347,183,27361,1,0,0:0:0:0:
285,185,27961,1,8,0:0:0:0:
209,184,28561,1,0,0:0:0:0:
295,278,28861,1,8,0:0:0:0:
271,171,29161,1,0,0:0:0:0:
387,194,30361,1,12,0:0:0:0:
225,218,31561,1,0,0:0:0:0:
200,206,32161,1,0,0:0:0:0:
302,240,32761,1,0,0:0:0:0:
344,208,33961,1,8,0:0:0:0:
298,173,34411,1,0,0:0:0:0:
269,198,34711,1,0,0:0:0:0:
253,241,35161,1,12,0:0:0:0:
438,178,36361,1,8,0:0:0:0:
245,163,36811,1,0,0:0:0:0:
252,237,37111,1,0,0:0:0:0:
318,174,37561,1,0,0:0:0:0:
276,196,38761,1,12,0:0:0:0:
445,185,39211,1,8,0:0:0:0:
321,174,39511,1,0,0:0:0:0:
279,182,39961,1,12,0:0:0:0:
193,225,40561,1,0,0:0:0:0:
284,203,40861,1,8,0:0:0:0:
284,203,41161,1,0,0:0:0:0:
371,183,41761,1,8,0:0:0:0:
254,190,42061,1,0,0:0:0:0:
354,200,42661,1,8,0:0:0:0:
354,200,43261,1,8,0:0:0:0:
222,192,43561,1,0,0:0:0:0:
303,156,44761,1,4,0:0:0:0:
359,191,45361,1,8,0:0:0:0:
243,163,45661,1,8,0:0:0:0:
313,163,45961,1,0,0:0:0:0:
336,183,46561,1,0,0:0:0:0:
322,193,46861,1,8,0:0:0:0:
251,197,47461,1,0,0:0:0:0:
217,194,48061,1,8,0:0:0:0:
365,274,48361,1,0,0:0:0:0:
280,185,49561,5,12,0:0:0:0:
232,214,50011,1,0,0:0:0:0:
314,221,50611,1,8,0:0:0:0:
366,231,51061,1,8,0:0:0:0:
259,175,51961,1,8,0:0:0:0:
302,151,52411,1,0,0:0:0:0:
358,193,53011,1,8,0:0:0:0:
358,193,53461,1,8,0:0:0:0:
311,200,54361,1,0,0:0:0:0:
293,186,54811,1,8,0:0:0:0:
208,174,55411,1,8,0:0:0:0:
208,174,55861,1,8,0:0:0:0:
291,273,56761,1,0,0:0:0:0:
297,182,57961,1,8,0:0:0:0:
336,211,58261,1,0,0:0:0:0:
238,199,58561,1,8,0:0:0:0:
317,155,59161,1,12,0:0:0:0:
245,171,59611,1,0,0:0:0:0:
317,220,59911,1,0,0:0:0:0:
265,184,60211,1,8,0:0:0:0:
235,175,60811,1,0,0:0:0:0:
292,173,61561,1,8,0:0:0:0:
292,173,62011,1,0,0:0:0:0:
253,167,62311,1,8,0:0:0:0:
304,210,62611,1,0,0:0:0:0:
381,191,63061,1,8,0:0:0:0:
308,224,63361,1,0,0:0:0:0:
226,170,63961,1,12,0:0:0:0:
289,209,64861,1,8,0:0:0:0:
255,200,65161,1,0,0:0:0:0:
245,213,66061,1,8,0:0:0:0:
245,213,66361,1,8,0:0:0:0:
262,211,66661,1,0,0:0:0:0:
252,191,67111,1,8,0:0:0:0:
301,209,67411,1,0,0:0:0:0:
268,229,67861,1,8,0:0:0:0:
220,162,68161,1,8,0:0:0:0:
317,155,68761,1,12,0:0:0:0:
245,171,69211,1,0,0:0:0:0:
235,175,69511,1,8,0:0:0:0:
227,194,69811,1,0,0:0:0:0:
317,220,70411,1,8,0:0:0:0:
258,182,70861,1,8,0:0:0:0:
340,204,71161,1,0,0:0:0:0:
272,184,71761,1,8,0:0:0:0:
268,167,72361,1,0,0:0:0:0:
308,224,72661,1,0,0:0:0:0:
252,176,72961,1,8,0:0:0:0:
226,170,73561,1,12,0:0:0:0:
289,209,74461,1,8,0:0:0:0:
255,200,74761,1,0,0:0:0:0:
245,213,75661,1,0,0:0:0:0:
245,213,75961,1,12,0:0:0:0:
301,209,76561,1,0,0:0:0:0:
182,189,76861,1,8,0:0:0:0:
329,195,77161,1,0,0:0:0:0:
372,268,77461,1,0,0:0:0:0:
220,162,77761,1,8,0:0:0:0:
253,211,78361,5,12,0:0:0:0:
326,225,78961,1,0,0:0:0:0:
229,218,79561,1,8,0:0:0:0:
277,195,79861,1,8,0:0:0:0:
289,208,80161,1,0,0:0:0:0:
124,175,80761,1,8,0:0:0:0:
209,184,81361,1,0,0:0:0:0:
295,278,81661,1,8,0:0:0:0:
188,233,81961,1,0,0:0:0:0:
343,187,83161,1,12,0:0:0:0:
273,199,83761,1,0,0:0:0:0:
229,218,84361,1,8,0:0:0:0:
277,195,84661,1,8,0:0:0:0:
278,175,84961,1,0,0:0:0:0:
124,175,85561,1,8,0:0:0:0:
218,180,86161,1,0,0:0:0:0:
295,278,86461,1,8,0:0:0:0:
188,233,86761,1,0,0:0:0:0:
367,171,87361,1,8,0:0:0:0:
367,171,87661,1,8,0:0:0:0:
