osu file format v14

[General]
AudioFilename: audio.mp3
AudioLeadIn: 0
PreviewTime: 51632
Countdown: 0
SampleSet: Soft
StackLeniency: 0.7
Mode: 3
LetterboxInBreaks: 0
SpecialStyle: 0
WidescreenStoryboard: 0

[Editor]
DistanceSpacing: 1.5
BeatDivisor: 4
GridSize: 4
TimelineZoom: 2.5

[Metadata]
Title:Frontier Explorer
TitleUnicode:フロンティア↑↑エクスプローラー
Artist:kei_iwata feat. Lycoris Radiata
ArtistUnicode:kei_iwata feat. りこりす・らぢあーた
Creator:MapleSyrup-
Version:Advanced
Source:WORLD WAR -BATTLE ROYALE IN ALL REGIONS-
Tags:Blocko BMS WW_Battle CODE-F -soar to the Frontier- SOARING HAPPY HARDCORE qfeileadh kei iwata ALL AMERICA japanese electronic tokiru_iwata WW & battle
BeatmapID:3515148
BeatmapSetID:1720028

[Difficulty]
HPDrainRate:6.5
CircleSize:7
OverallDifficulty:6.5
ApproachRate:5
SliderMultiplier:1.4
SliderTickRate:1

[Events]
//Background and Video events
0,0,"bg.jpg",0,0
//Break Periods
//Storyboard Layer 0 (Background)
//Storyboard Layer 1 (Fail)
//Storyboard Layer 2 (Pass)
//Storyboard Layer 3 (Foreground)
//Storyboard Layer 4 (Overlay)
//Storyboard Sound Samples

[TimingPoints]
3632,300,4,2,1,60,1,0
51632,-100,4,2,1,60,0,1
70832,-100,4,2,1,60,0,0
90032,-100,4,2,1,60,0,1
109157,-100,4,2,1,60,0,0
109232,-100,4,2,1,60,0,1
128432,-100,4,2,1,60,0,0

[HitObjects]
9,192,3632,5,0,0:0:0:0:
448,192,3632,1,0,0:0:0:0:
82,192,3782,1,0,0:0:0:0:
155,192,3932,1,0,0:0:0:0:
228,192,4082,1,0,0:0:0:0:
301,192,4232,1,0,0:0:0:0:
374,192,4232,1,0,0:0:0:0:
448,192,4532,1,0,0:0:0:0:
9,192,4532,1,0,0:0:0:0:
374,192,4682,1,0,0:0:0:0:
301,192,4832,1,0,0:0:0:0:
228,192,4982,1,0,0:0:0:0:
155,192,5132,1,0,0:0:0:0:
82,192,5132,1,0,0:0:0:0:
9,192,5432,1,0,0:0:0:0:
374,192,5432,1,0,0:0:0:0:
301,192,5582,1,0,0:0:0:0:
82,192,5732,1,0,0:0:0:0:
155,192,5882,1,0,0:0:0:0:
228,192,6032,1,0,0:0:0:0:
448,192,6032,1,0,0:0:0:0:
155,192,6182,1,0,0:0:0:0:
82,192,6332,1,0,0:0:0:0:
9,192,6482,1,0,0:0:0:0:
301,192,6632,1,0,0:0:0:0:
448,192,6632,1,0,0:0:0:0:
228,192,6932,1,0,0:0:0:0:
9,192,6932,1,0,0:0:0:0:
301,192,7082,1,0,0:0:0:0:
374,192,7232,1,0,0:0:0:0:
448,192,7382,1,0,0:0:0:0:
155,192,7532,1,0,0:0:0:0:
9,192,7532,1,0,0:0:0:0:
82,192,7832,1,0,0:0:0:0:
448,192,7832,1,0,0:0:0:0:
155,192,7982,1,0,0:0:0:0:
374,192,8132,1,0,0:0:0:0:
301,192,8282,1,0,0:0:0:0:
82,192,8432,1,0,0:0:0:0:
9,192,8432,1,0,0:0:0:0:
155,192,8582,1,0,0:0:0:0:
228,192,8732,1,0,0:0:0:0:
301,192,8882,1,0,0:0:0:0:
374,192,9032,1,0,0:0:0:0:
448,192,9032,1,0,0:0:0:0:
374,192,9332,1,0,0:0:0:0:
448,192,9332,1,0,0:0:0:0:
301,192,9482,1,0,0:0:0:0:
228,192,9632,1,0,0:0:0:0:
155,192,9782,1,0,0:0:0:0:
82,192,9932,1,0,0:0:0:0:
9,192,9932,1,0,0:0:0:0:
82,192,10232,1,0,0:0:0:0:
9,192,10232,1,0,0:0:0:0:
301,192,10382,1,0,0:0:0:0:
155,192,10532,1,0,0:0:0:0:
374,192,10682,1,0,0:0:0:0:
9,192,10832,1,0,0:0:0:0:
228,192,10832,1,0,0:0:0:0:
9,192,10982,1,0,0:0:0:0:
82,192,11132,1,0,0:0:0:0:
155,192,11282,1,0,0:0:0:0:
228,192,11432,1,0,0:0:0:0:
448,192,11432,1,0,0:0:0:0:
448,192,11582,1,0,0:0:0:0:
374,192,11732,1,0,0:0:0:0:
301,192,11882,1,0,0:0:0:0:
155,192,11882,1,0,0:0:0:0:
82,192,12182,1,0,0:0:0:0:
374,192,12332,1,0,0:0:0:0:
155,192,12632,1,0,0:0:0:0:
448,192,12632,1,0,0:0:0:0:
374,192,12932,1,0,0:0:0:0:
82,192,12932,1,0,0:0:0:0:
9,192,13232,1,0,0:0:0:0:
301,192,13232,1,0,0:0:0:0:
228,192,13382,1,0,0:0:0:0:
155,192,13532,1,0,0:0:0:0:
82,192,13682,1,0,0:0:0:0:
9,192,13832,1,0,0:0:0:0:
448,192,13832,1,0,0:0:0:0:
374,192,13982,1,0,0:0:0:0:
301,192,14132,1,0,0:0:0:0:
228,192,14282,1,0,0:0:0:0:
155,192,14432,1,0,0:0:0:0:
448,192,14432,1,0,0:0:0:0:
228,192,14582,1,0,0:0:0:0:
301,192,14732,1,0,0:0:0:0:
374,192,14882,1,0,0:0:0:0:
448,192,15032,1,0,0:0:0:0:
109,192,15032,1,0,0:0:0:0:
155,192,15182,1,0,0:0:0:0:
301,192,15332,1,0,0:0:0:0:
256,192,15332,1,0,0:0:0:0:
374,192,15482,1,0,0:0:0:0:
475,192,15482,1,0,0:0:0:0:
155,192,15632,1,0,0:0:0:0:
9,192,15632,1,0,0:0:0:0:
228,192,15782,1,0,0:0:0:0:
301,192,15932,1,0,0:0:0:0:
374,192,16082,1,0,0:0:0:0:
448,192,16232,1,0,0:0:0:0:
9,192,16232,1,0,0:0:0:0:
82,192,16382,1,0,0:0:0:0:
155,192,16532,1,0,0:0:0:0:
228,192,16682,1,0,0:0:0:0:
301,192,16832,1,0,0:0:0:0:
448,192,16832,1,0,0:0:0:0:
228,192,16982,1,0,0:0:0:0:
155,192,17132,1,0,0:0:0:0:
82,192,17282,1,0,0:0:0:0:
9,192,17432,1,0,0:0:0:0:
448,192,17432,1,0,0:0:0:0:
374,192,17582,1,0,0:0:0:0:
301,192,17732,1,0,0:0:0:0:
155,192,17732,1,0,0:0:0:0:
82,192,17882,1,0,0:0:0:0:
9,192,17882,1,0,0:0:0:0:
448,192,18032,1,0,0:0:0:0:
374,192,18032,1,0,0:0:0:0:
301,192,18182,1,0,0:0:0:0:
228,192,18332,1,0,0:0:0:0:
155,192,18482,1,0,0:0:0:0:
82,192,18632,1,0,0:0:0:0:
9,192,18632,1,0,0:0:0:0:
155,192,18782,1,0,0:0:0:0:
228,192,18932,1,0,0:0:0:0:
301,192,19082,1,0,0:0:0:0:
374,192,19232,1,0,0:0:0:0:
9,192,19232,1,0,0:0:0:0:
155,192,19382,1,0,0:0:0:0:
228,192,19532,1,0,0:0:0:0:
374,192,19682,1,0,0:0:0:0:
82,192,19832,1,0,0:0:0:0:
448,192,19832,1,0,0:0:0:0:
301,192,19982,1,0,0:0:0:0:
228,192,20132,1,0,0:0:0:0:
182,192,20132,1,0,0:0:0:0:
82,192,20282,1,0,0:0:0:0:
36,192,20282,1,0,0:0:0:0:
448,192,20432,1,0,0:0:0:0:
374,192,20432,1,0,0:0:0:0:
155,192,20582,1,0,0:0:0:0:
9,192,20582,1,0,0:0:0:0:
256,192,20732,1,0,0:0:0:0:
329,192,20882,1,0,0:0:0:0:
82,192,21032,1,0,0:0:0:0:
9,192,21032,1,0,0:0:0:0:
301,192,21182,1,0,0:0:0:0:
448,192,21182,1,0,0:0:0:0:
228,192,21332,1,0,0:0:0:0:
155,192,21482,1,0,0:0:0:0:
82,192,21632,1,0,0:0:0:0:
374,192,21632,1,0,0:0:0:0:
301,192,21782,1,0,0:0:0:0:
228,192,21932,1,0,0:0:0:0:
9,192,21932,1,0,0:0:0:0:
301,192,22082,1,0,0:0:0:0:
374,192,22232,1,0,0:0:0:0:
82,192,22232,1,0,0:0:0:0:
155,192,22382,1,0,0:0:0:0:
228,192,22532,1,0,0:0:0:0:
448,192,22532,1,0,0:0:0:0:
155,192,22682,1,0,0:0:0:0:
82,192,22832,1,0,0:0:0:0:
9,192,22832,1,0,0:0:0:0:
475,192,23132,1,0,0:0:0:0:
402,192,23132,1,0,0:0:0:0:
82,192,23432,1,0,0:0:0:0:
9,192,23432,1,0,0:0:0:0:
402,192,23732,1,0,0:0:0:0:
329,192,23732,1,0,0:0:0:0:
9,192,24032,1,0,0:0:0:0:
82,192,24032,1,0,0:0:0:0:
329,192,24332,1,0,0:0:0:0:
256,192,24332,1,0,0:0:0:0:
9,192,24632,1,0,0:0:0:0:
82,192,24632,1,0,0:0:0:0:
82,192,24932,1,0,0:0:0:0:
9,192,24932,1,0,0:0:0:0:
228,192,25082,1,0,0:0:0:0:
374,192,25232,1,0,0:0:0:0:
448,192,25232,1,0,0:0:0:0:
36,192,25532,1,0,0:0:0:0:
109,192,25532,1,0,0:0:0:0:
374,192,25832,1,0,0:0:0:0:
448,192,25832,1,0,0:0:0:0:
109,192,26132,1,0,0:0:0:0:
182,192,26132,1,0,0:0:0:0:
374,192,26432,1,0,0:0:0:0:
448,192,26432,1,0,0:0:0:0:
182,192,26732,1,0,0:0:0:0:
256,192,26732,1,0,0:0:0:0:
448,192,27032,1,0,0:0:0:0:
374,192,27032,1,0,0:0:0:0:
374,192,27332,1,0,0:0:0:0:
448,192,27332,1,0,0:0:0:0:
228,192,27482,1,0,0:0:0:0:
155,192,27632,1,0,0:0:0:0:
9,192,27632,1,0,0:0:0:0:
329,192,27932,1,0,0:0:0:0:
475,192,27932,1,0,0:0:0:0:
155,192,28232,1,0,0:0:0:0:
9,192,28232,1,0,0:0:0:0:
402,192,28532,1,0,0:0:0:0:
256,192,28532,1,0,0:0:0:0:
155,192,28832,1,0,0:0:0:0:
9,192,28832,1,0,0:0:0:0:
475,192,29132,1,0,0:0:0:0:
329,192,29132,1,0,0:0:0:0:
155,192,29432,1,0,0:0:0:0:
9,192,29432,1,0,0:0:0:0:
9,192,29732,1,0,0:0:0:0:
155,192,29732,1,0,0:0:0:0:
228,192,29882,1,0,0:0:0:0:
301,192,30032,1,0,0:0:0:0:
448,192,30032,1,0,0:0:0:0:
36,192,30332,1,0,0:0:0:0:
182,192,30332,1,0,0:0:0:0:
301,192,30632,1,0,0:0:0:0:
448,192,30632,1,0,0:0:0:0:
36,192,30932,1,0,0:0:0:0:
182,192,30932,1,0,0:0:0:0:
256,192,31082,1,0,0:0:0:0:
402,192,31232,1,0,0:0:0:0:
329,192,31232,1,0,0:0:0:0:
228,192,31382,1,0,0:0:0:0:
109,192,31532,1,0,0:0:0:0:
182,192,31532,1,0,0:0:0:0:
374,192,31832,1,0,0:0:0:0:
448,192,31832,1,0,0:0:0:0:
182,192,32132,1,0,0:0:0:0:
329,192,32282,1,0,0:0:0:0:
9,192,32432,1,0,0:0:0:0:
448,192,32432,1,0,0:0:0:0:
82,192,32732,1,0,0:0:0:0:
374,192,32732,1,0,0:0:0:0:
155,192,33032,1,0,0:0:0:0:
301,192,33032,1,0,0:0:0:0:
82,192,33332,1,0,0:0:0:0:
374,192,33332,1,0,0:0:0:0:
448,192,33632,1,0,0:0:0:0:
9,192,33632,1,0,0:0:0:0:
82,192,33932,1,0,0:0:0:0:
374,192,33932,1,0,0:0:0:0:
301,192,34232,1,0,0:0:0:0:
155,192,34232,1,0,0:0:0:0:
374,192,34532,1,0,0:0:0:0:
82,192,34532,1,0,0:0:0:0:
301,192,34682,1,0,0:0:0:0:
9,192,34832,1,0,0:0:0:0:
228,192,34832,1,0,0:0:0:0:
82,192,35132,1,0,0:0:0:0:
301,192,35132,1,0,0:0:0:0:
374,192,35432,1,0,0:0:0:0:
155,192,35432,1,0,0:0:0:0:
228,192,35732,1,0,0:0:0:0:
448,192,35732,1,0,0:0:0:0:
374,192,36032,1,0,0:0:0:0:
155,192,36032,1,0,0:0:0:0:
301,192,36332,1,0,0:0:0:0:
82,192,36332,1,0,0:0:0:0:
228,192,36632,1,0,0:0:0:0:
9,192,36632,1,0,0:0:0:0:
82,192,36932,1,0,0:0:0:0:
301,192,36932,1,0,0:0:0:0:
155,192,37082,1,0,0:0:0:0:
228,192,37232,1,0,0:0:0:0:
448,192,37232,1,0,0:0:0:0:
155,192,37532,1,0,0:0:0:0:
9,192,37532,1,0,0:0:0:0:
301,192,37832,1,0,0:0:0:0:
448,192,37832,1,0,0:0:0:0:
228,192,38132,1,0,0:0:0:0:
9,192,38132,1,0,0:0:0:0:
301,192,38432,1,0,0:0:0:0:
374,192,38432,1,0,0:0:0:0:
82,192,38732,1,0,0:0:0:0:
155,192,38732,1,0,0:0:0:0:
374,192,39032,1,0,0:0:0:0:
448,192,39032,1,0,0:0:0:0:
82,192,39332,1,0,0:0:0:0:
9,192,39332,1,0,0:0:0:0:
228,192,39482,1,0,0:0:0:0:
301,192,39632,1,0,0:0:0:0:
374,192,39632,1,0,0:0:0:0:
301,192,39782,1,0,0:0:0:0:
374,192,39782,1,0,0:0:0:0:
36,192,39932,1,0,0:0:0:0:
475,192,40082,1,0,0:0:0:0:
82,192,40232,1,0,0:0:0:0:
155,192,40232,1,0,0:0:0:0:
82,192,40382,1,0,0:0:0:0:
155,192,40382,1,0,0:0:0:0:
475,192,40532,1,0,0:0:0:0:
36,192,40682,1,0,0:0:0:0:
374,192,40832,1,0,0:0:0:0:
228,192,40832,1,0,0:0:0:0:
155,192,40982,1,0,0:0:0:0:
82,192,41132,1,0,0:0:0:0:
374,192,41132,1,0,0:0:0:0:
301,192,41282,1,0,0:0:0:0:
228,192,41432,1,0,0:0:0:0:
9,192,41432,1,0,0:0:0:0:
82,192,41582,1,0,0:0:0:0:
155,192,41732,1,0,0:0:0:0:
301,192,41732,1,0,0:0:0:0:
374,192,41882,1,0,0:0:0:0:
448,192,42032,1,0,0:0:0:0:
9,192,42032,1,0,0:0:0:0:
82,192,42182,1,0,0:0:0:0:
155,192,42332,1,0,0:0:0:0:
228,192,42482,1,0,0:0:0:0:
301,192,42632,1,0,0:0:0:0:
448,192,42632,1,0,0:0:0:0:
9,192,42932,1,0,0:0:0:0:
448,192,42932,1,0,0:0:0:0:
374,192,43082,1,0,0:0:0:0:
301,192,43232,1,0,0:0:0:0:
228,192,43382,1,0,0:0:0:0:
155,192,43532,1,0,0:0:0:0:
9,192,43532,1,0,0:0:0:0:
9,192,43832,1,0,0:0:0:0:
374,192,43832,1,0,0:0:0:0:
228,192,43982,1,0,0:0:0:0:
82,192,44132,1,0,0:0:0:0:
301,192,44282,1,0,0:0:0:0:
155,192,44432,1,0,0:0:0:0:
448,192,44432,1,0,0:0:0:0:
82,192,44732,1,0,0:0:0:0:
448,192,44732,1,0,0:0:0:0:
228,192,44882,1,0,0:0:0:0:
374,192,45032,1,0,0:0:0:0:
155,192,45182,1,0,0:0:0:0:
301,192,45332,1,0,0:0:0:0:
9,192,45332,1,0,0:0:0:0:
9,192,45632,1,0,0:0:0:0:
448,192,45632,1,0,0:0:0:0:
374,192,45782,1,0,0:0:0:0:
301,192,45932,1,0,0:0:0:0:
228,192,46082,1,0,0:0:0:0:
448,192,46232,1,0,0:0:0:0:
9,192,46232,1,0,0:0:0:0:
82,192,46382,1,0,0:0:0:0:
155,192,46532,1,0,0:0:0:0:
228,192,46682,1,0,0:0:0:0:
301,192,46832,1,0,0:0:0:0:
448,192,46832,1,0,0:0:0:0:
9,192,47132,1,0,0:0:0:0:
82,192,47132,1,0,0:0:0:0:
155,192,47282,1,0,0:0:0:0:
228,192,47432,1,0,0:0:0:0:
301,192,47582,1,0,0:0:0:0:
374,192,47732,1,0,0:0:0:0:
448,192,47732,1,0,0:0:0:0:
374,192,48032,1,0,0:0:0:0:
448,192,48032,1,0,0:0:0:0:
301,192,48182,1,0,0:0:0:0:
155,192,48332,1,0,0:0:0:0:
82,192,48482,1,0,0:0:0:0:
9,192,48632,1,0,0:0:0:0:
448,192,48632,1,0,0:0:0:0:
374,192,48782,1,0,0:0:0:0:
301,192,48932,1,0,0:0:0:0:
155,192,48932,1,0,0:0:0:0:
9,192,49232,1,0,0:0:0:0:
228,192,49232,1,0,0:0:0:0:
9,192,49382,1,0,0:0:0:0:
82,192,49532,1,0,0:0:0:0:
155,192,49682,1,0,0:0:0:0:
228,192,49832,1,0,0:0:0:0:
448,192,49832,1,0,0:0:0:0:
448,192,49982,1,0,0:0:0:0:
374,192,50132,1,0,0:0:0:0:
301,192,50282,1,0,0:0:0:0:
182,192,50432,1,0,0:0:0:0:
329,192,50732,1,0,0:0:0:0:
9,192,51032,1,0,0:0:0:0:
109,192,51032,1,0,0:0:0:0:
182,192,51182,1,0,0:0:0:0:
448,192,51332,1,0,0:0:0:0:
402,192,51332,1,0,0:0:0:0:
329,192,51482,1,0,0:0:0:0:
228,192,51632,1,0,0:0:0:0:
9,192,51632,1,0,0:0:0:0:
82,192,51782,1,0,0:0:0:0:
155,192,51932,1,0,0:0:0:0:
301,192,51932,1,0,0:0:0:0:
374,192,52082,1,0,0:0:0:0:
448,192,52232,1,0,0:0:0:0:
228,192,52232,1,0,0:0:0:0:
155,192,52382,1,0,0:0:0:0:
82,192,52532,1,0,0:0:0:0:
374,192,52532,1,0,0:0:0:0:
301,192,52682,1,0,0:0:0:0:
228,192,52832,1,0,0:0:0:0:
9,192,52832,1,0,0:0:0:0:
82,192,52982,1,0,0:0:0:0:
155,192,53132,1,0,0:0:0:0:
374,192,53132,1,0,0:0:0:0:
228,192,53282,1,0,0:0:0:0:
301,192,53432,1,0,0:0:0:0:
448,192,53432,1,0,0:0:0:0:
228,192,53582,1,0,0:0:0:0:
155,192,53732,1,0,0:0:0:0:
9,192,53732,1,0,0:0:0:0:
155,192,53882,1,0,0:0:0:0:
9,192,53882,1,0,0:0:0:0:
228,192,54032,1,0,0:0:0:0:
448,192,54032,1,0,0:0:0:0:
374,192,54182,1,0,0:0:0:0:
301,192,54332,1,0,0:0:0:0:
155,192,54332,1,0,0:0:0:0:
82,192,54482,1,0,0:0:0:0:
9,192,54632,1,0,0:0:0:0:
228,192,54632,1,0,0:0:0:0:
301,192,54782,1,0,0:0:0:0:
374,192,54932,1,0,0:0:0:0:
82,192,54932,1,0,0:0:0:0:
155,192,55082,1,0,0:0:0:0:
228,192,55232,1,0,0:0:0:0:
448,192,55232,1,0,0:0:0:0:
374,192,55382,1,0,0:0:0:0:
301,192,55532,1,0,0:0:0:0:
82,192,55532,1,0,0:0:0:0:
228,192,55682,1,0,0:0:0:0:
155,192,55832,1,0,0:0:0:0:
9,192,55832,1,0,0:0:0:0:
228,192,55982,1,0,0:0:0:0:
301,192,56132,1,0,0:0:0:0:
448,192,56132,1,0,0:0:0:0:
301,192,56282,1,0,0:0:0:0:
448,192,56282,1,0,0:0:0:0:
155,192,56432,1,0,0:0:0:0:
9,192,56432,1,0,0:0:0:0:
228,192,56582,1,0,0:0:0:0:
301,192,56732,1,0,0:0:0:0:
82,192,56732,1,0,0:0:0:0:
155,192,56882,1,0,0:0:0:0:
228,192,57032,1,0,0:0:0:0:
9,192,57032,1,0,0:0:0:0:
82,192,57182,1,0,0:0:0:0:
155,192,57332,1,0,0:0:0:0:
374,192,57332,1,0,0:0:0:0:
82,192,57482,1,0,0:0:0:0:
9,192,57632,1,0,0:0:0:0:
301,192,57632,1,0,0:0:0:0:
228,192,57782,1,0,0:0:0:0:
155,192,57932,1,0,0:0:0:0:
374,192,57932,1,0,0:0:0:0:
301,192,58082,1,0,0:0:0:0:
228,192,58232,1,0,0:0:0:0:
448,192,58232,1,0,0:0:0:0:
374,192,58382,1,0,0:0:0:0:
301,192,58532,1,0,0:0:0:0:
82,192,58532,1,0,0:0:0:0:
374,192,58682,1,0,0:0:0:0:
182,192,58682,1,0,0:0:0:0:
448,192,58832,1,0,0:0:0:0:
9,192,58832,1,0,0:0:0:0:
82,192,58982,1,0,0:0:0:0:
155,192,59132,1,0,0:0:0:0:
374,192,59132,1,0,0:0:0:0:
301,192,59282,1,0,0:0:0:0:
228,192,59432,1,0,0:0:0:0:
9,192,59432,1,0,0:0:0:0:
155,192,59582,1,0,0:0:0:0:
82,192,59732,1,0,0:0:0:0:
448,192,59732,1,0,0:0:0:0:
374,192,59882,1,0,0:0:0:0:
301,192,60032,1,0,0:0:0:0:
155,192,60032,1,0,0:0:0:0:
82,192,60182,1,0,0:0:0:0:
9,192,60182,1,0,0:0:0:0:
448,192,60332,1,0,0:0:0:0:
329,192,60332,1,0,0:0:0:0:
256,192,60632,1,0,0:0:0:0:
402,192,60632,1,0,0:0:0:0:
329,192,60932,1,0,0:0:0:0:
182,192,60932,1,0,0:0:0:0:
475,192,61082,1,0,0:0:0:0:
402,192,61082,1,0,0:0:0:0:
228,192,61232,1,0,0:0:0:0:
82,192,61232,1,0,0:0:0:0:
301,192,61382,1,0,0:0:0:0:
374,192,61532,1,0,0:0:0:0:
155,192,61532,1,0,0:0:0:0:
228,192,61682,1,0,0:0:0:0:
301,192,61832,1,0,0:0:0:0:
82,192,61832,1,0,0:0:0:0:
155,192,61982,1,0,0:0:0:0:
228,192,62132,1,0,0:0:0:0:
9,192,62132,1,0,0:0:0:0:
82,192,62282,1,0,0:0:0:0:
155,192,62432,1,0,0:0:0:0:
301,192,62432,1,0,0:0:0:0:
374,192,62582,1,0,0:0:0:0:
82,192,62732,1,0,0:0:0:0:
448,192,62732,1,0,0:0:0:0:
155,192,62882,1,0,0:0:0:0:
228,192,63032,1,0,0:0:0:0:
448,192,63032,1,0,0:0:0:0:
301,192,63182,1,0,0:0:0:0:
82,192,63332,1,0,0:0:0:0:
9,192,63332,1,0,0:0:0:0:
9,192,63482,1,0,0:0:0:0:
82,192,63482,1,0,0:0:0:0:
228,192,63632,1,0,0:0:0:0:
374,192,63632,1,0,0:0:0:0:
155,192,63782,1,0,0:0:0:0:
82,192,63932,1,0,0:0:0:0:
301,192,63932,1,0,0:0:0:0:
228,192,64082,1,0,0:0:0:0:
155,192,64232,1,0,0:0:0:0:
374,192,64232,1,0,0:0:0:0:
301,192,64382,1,0,0:0:0:0:
228,192,64532,1,0,0:0:0:0:
448,192,64532,1,0,0:0:0:0:
374,192,64682,1,0,0:0:0:0:
301,192,64832,1,0,0:0:0:0:
155,192,64832,1,0,0:0:0:0:
82,192,64982,1,0,0:0:0:0:
374,192,65132,1,0,0:0:0:0:
9,192,65132,1,0,0:0:0:0:
301,192,65282,1,0,0:0:0:0:
228,192,65432,1,0,0:0:0:0:
9,192,65432,1,0,0:0:0:0:
155,192,65582,1,0,0:0:0:0:
374,192,65732,1,0,0:0:0:0:
448,192,65732,1,0,0:0:0:0:
448,192,65882,1,0,0:0:0:0:
374,192,65882,1,0,0:0:0:0:
82,192,66032,1,0,0:0:0:0:
228,192,66032,1,0,0:0:0:0:
448,192,66182,1,0,0:0:0:0:
155,192,66332,1,0,0:0:0:0:
301,192,66332,1,0,0:0:0:0:
9,192,66482,1,0,0:0:0:0:
228,192,66632,1,0,0:0:0:0:
374,192,66632,1,0,0:0:0:0:
82,192,66782,1,0,0:0:0:0:
301,192,66932,1,0,0:0:0:0:
448,192,66932,1,0,0:0:0:0:
155,192,67082,1,0,0:0:0:0:
374,192,67232,1,0,0:0:0:0:
228,192,67232,1,0,0:0:0:0:
9,192,67382,1,0,0:0:0:0:
301,192,67532,1,0,0:0:0:0:
155,192,67532,1,0,0:0:0:0:
448,192,67682,1,0,0:0:0:0:
228,192,67832,1,0,0:0:0:0:
82,192,67832,1,0,0:0:0:0:
374,192,67982,1,0,0:0:0:0:
155,192,68132,1,0,0:0:0:0:
9,192,68132,1,0,0:0:0:0:
301,192,68282,1,0,0:0:0:0:
256,192,68282,1,0,0:0:0:0:
374,192,68432,1,0,0:0:0:0:
448,192,68432,1,0,0:0:0:0:
374,192,68582,1,0,0:0:0:0:
448,192,68582,1,0,0:0:0:0:
329,192,68732,1,0,0:0:0:0:
256,192,68882,1,0,0:0:0:0:
82,192,69032,1,0,0:0:0:0:
9,192,69032,1,0,0:0:0:0:
9,192,69182,1,0,0:0:0:0:
82,192,69182,1,0,0:0:0:0:
182,192,69332,1,0,0:0:0:0:
256,192,69482,1,0,0:0:0:0:
448,192,69632,1,0,0:0:0:0:
301,192,69632,1,0,0:0:0:0:
155,192,69782,1,0,0:0:0:0:
301,192,69932,1,0,0:0:0:0:
448,192,69932,1,0,0:0:0:0:
228,192,70082,1,0,0:0:0:0:
155,192,70232,1,0,0:0:0:0:
9,192,70232,1,0,0:0:0:0:
301,192,70382,1,0,0:0:0:0:
155,192,70532,1,0,0:0:0:0:
9,192,70532,1,0,0:0:0:0:
228,192,70682,1,0,0:0:0:0:
301,192,70832,1,0,0:0:0:0:
374,192,70832,1,0,0:0:0:0:
36,192,70982,1,0,0:0:0:0:
301,192,71132,1,0,0:0:0:0:
374,192,71132,1,0,0:0:0:0:
155,192,71432,1,0,0:0:0:0:
82,192,71432,1,0,0:0:0:0:
475,192,71582,1,0,0:0:0:0:
82,192,71732,1,0,0:0:0:0:
155,192,71732,1,0,0:0:0:0:
374,192,72032,1,0,0:0:0:0:
448,192,72032,1,0,0:0:0:0:
329,192,72182,1,0,0:0:0:0:
374,192,72332,1,0,0:0:0:0:
448,192,72332,1,0,0:0:0:0:
82,192,72632,1,0,0:0:0:0:
9,192,72632,1,0,0:0:0:0:
182,192,72782,1,0,0:0:0:0:
9,192,72932,1,0,0:0:0:0:
82,192,72932,1,0,0:0:0:0:
374,192,73232,1,0,0:0:0:0:
448,192,73232,1,0,0:0:0:0:
301,192,73382,1,0,0:0:0:0:
228,192,73532,1,0,0:0:0:0:
36,192,73532,1,0,0:0:0:0:
155,192,73682,1,0,0:0:0:0:
82,192,73832,1,0,0:0:0:0:
374,192,73832,1,0,0:0:0:0:
301,192,73982,1,0,0:0:0:0:
228,192,74132,1,0,0:0:0:0:
475,192,74132,1,0,0:0:0:0:
155,192,74282,1,0,0:0:0:0:
82,192,74432,1,0,0:0:0:0:
9,192,74432,1,0,0:0:0:0:
155,192,74582,1,0,0:0:0:0:
228,192,74732,1,0,0:0:0:0:
475,192,74732,1,0,0:0:0:0:
301,192,74882,1,0,0:0:0:0:
374,192,75032,1,0,0:0:0:0:
82,192,75032,1,0,0:0:0:0:
155,192,75182,1,0,0:0:0:0:
228,192,75332,1,0,0:0:0:0:
36,192,75332,1,0,0:0:0:0:
475,192,75332,1,0,0:0:0:0:
374,192,75632,1,0,0:0:0:0:
9,192,75632,1,0,0:0:0:0:
301,192,75782,1,0,0:0:0:0:
228,192,75932,1,0,0:0:0:0:
155,192,76082,1,0,0:0:0:0:
82,192,76232,1,0,0:0:0:0:
9,192,76232,1,0,0:0:0:0:
82,192,76532,1,0,0:0:0:0:
448,192,76532,1,0,0:0:0:0:
155,192,76682,1,0,0:0:0:0:
228,192,76832,1,0,0:0:0:0:
301,192,76982,1,0,0:0:0:0:
374,192,77132,1,0,0:0:0:0:
448,192,77132,1,0,0:0:0:0:
82,192,77432,1,0,0:0:0:0:
155,192,77582,1,0,0:0:0:0:
374,192,77732,1,0,0:0:0:0:
301,192,77882,1,0,0:0:0:0:
9,192,78032,1,0,0:0:0:0:
82,192,78032,1,0,0:0:0:0:
155,192,78182,1,0,0:0:0:0:
228,192,78332,1,0,0:0:0:0:
301,192,78482,1,0,0:0:0:0:
374,192,78632,1,0,0:0:0:0:
448,192,78632,1,0,0:0:0:0:
301,192,78932,1,0,0:0:0:0:
155,192,79082,1,0,0:0:0:0:
82,192,79382,1,0,0:0:0:0:
374,192,79532,1,0,0:0:0:0:
155,192,79832,1,0,0:0:0:0:
448,192,79832,1,0,0:0:0:0:
374,192,80132,1,0,0:0:0:0:
82,192,80132,1,0,0:0:0:0:
301,192,80432,1,0,0:0:0:0:
9,192,80432,1,0,0:0:0:0:
82,192,80582,1,0,0:0:0:0:
155,192,80732,1,0,0:0:0:0:
228,192,80882,1,0,0:0:0:0:
301,192,81032,1,0,0:0:0:0:
448,192,81032,1,0,0:0:0:0:
155,192,81332,1,0,0:0:0:0:
448,192,81332,1,0,0:0:0:0:
374,192,81482,1,0,0:0:0:0:
301,192,81632,1,0,0:0:0:0:
228,192,81782,1,0,0:0:0:0:
155,192,81932,1,0,0:0:0:0:
9,192,81932,1,0,0:0:0:0:
9,192,82232,1,0,0:0:0:0:
374,192,82232,1,0,0:0:0:0:
228,192,82382,1,0,0:0:0:0:
82,192,82532,1,0,0:0:0:0:
301,192,82682,1,0,0:0:0:0:
155,192,82832,1,0,0:0:0:0:
448,192,82832,1,0,0:0:0:0:
82,192,83132,1,0,0:0:0:0:
448,192,83132,1,0,0:0:0:0:
228,192,83282,1,0,0:0:0:0:
374,192,83432,1,0,0:0:0:0:
155,192,83582,1,0,0:0:0:0:
301,192,83732,1,0,0:0:0:0:
9,192,83732,1,0,0:0:0:0:
9,192,84032,1,0,0:0:0:0:
448,192,84032,1,0,0:0:0:0:
374,192,84182,1,0,0:0:0:0:
301,192,84332,1,0,0:0:0:0:
228,192,84482,1,0,0:0:0:0:
448,192,84632,1,0,0:0:0:0:
9,192,84632,1,0,0:0:0:0:
182,192,84782,1,0,0:0:0:0:
109,192,84932,1,0,0:0:0:0:
256,192,85082,1,0,0:0:0:0:
301,192,85232,1,0,0:0:0:0:
448,192,85232,1,0,0:0:0:0:
9,192,85532,1,0,0:0:0:0:
82,192,85532,1,0,0:0:0:0:
155,192,85682,1,0,0:0:0:0:
228,192,85832,1,0,0:0:0:0:
301,192,85982,1,0,0:0:0:0:
374,192,86132,1,0,0:0:0:0:
448,192,86132,1,0,0:0:0:0:
374,192,86432,1,0,0:0:0:0:
448,192,86432,1,0,0:0:0:0:
301,192,86582,1,0,0:0:0:0:
155,192,86732,1,0,0:0:0:0:
82,192,86882,1,0,0:0:0:0:
9,192,87032,1,0,0:0:0:0:
448,192,87032,1,0,0:0:0:0:
374,192,87182,1,0,0:0:0:0:
301,192,87332,1,0,0:0:0:0:
155,192,87332,1,0,0:0:0:0:
9,192,87632,1,0,0:0:0:0:
228,192,87632,1,0,0:0:0:0:
9,192,87782,1,0,0:0:0:0:
82,192,87932,1,0,0:0:0:0:
155,192,88082,1,0,0:0:0:0:
228,192,88232,1,0,0:0:0:0:
448,192,88232,1,0,0:0:0:0:
448,192,88382,1,0,0:0:0:0:
374,192,88532,1,0,0:0:0:0:
301,192,88682,1,0,0:0:0:0:
109,192,88832,1,0,0:0:0:0:
402,192,89132,1,0,0:0:0:0:
9,192,89432,1,0,0:0:0:0:
182,192,89432,1,0,0:0:0:0:
109,192,89582,1,0,0:0:0:0:
448,192,89732,1,0,0:0:0:0:
329,192,89732,1,0,0:0:0:0:
402,192,89882,1,0,0:0:0:0:
228,192,90032,1,0,0:0:0:0:
9,192,90032,1,0,0:0:0:0:
82,192,90182,1,0,0:0:0:0:
155,192,90332,1,0,0:0:0:0:
301,192,90332,1,0,0:0:0:0:
374,192,90482,1,0,0:0:0:0:
448,192,90632,1,0,0:0:0:0:
228,192,90632,1,0,0:0:0:0:
155,192,90782,1,0,0:0:0:0:
82,192,90932,1,0,0:0:0:0:
374,192,90932,1,0,0:0:0:0:
301,192,91082,1,0,0:0:0:0:
228,192,91232,1,0,0:0:0:0:
9,192,91232,1,0,0:0:0:0:
82,192,91382,1,0,0:0:0:0:
155,192,91532,1,0,0:0:0:0:
374,192,91532,1,0,0:0:0:0:
228,192,91682,1,0,0:0:0:0:
301,192,91832,1,0,0:0:0:0:
448,192,91832,1,0,0:0:0:0:
228,192,91982,1,0,0:0:0:0:
155,192,92132,1,0,0:0:0:0:
9,192,92132,1,0,0:0:0:0:
155,192,92282,1,0,0:0:0:0:
9,192,92282,1,0,0:0:0:0:
228,192,92432,1,0,0:0:0:0:
448,192,92432,1,0,0:0:0:0:
374,192,92582,1,0,0:0:0:0:
301,192,92732,1,0,0:0:0:0:
155,192,92732,1,0,0:0:0:0:
82,192,92882,1,0,0:0:0:0:
9,192,93032,1,0,0:0:0:0:
228,192,93032,1,0,0:0:0:0:
301,192,93182,1,0,0:0:0:0:
374,192,93332,1,0,0:0:0:0:
82,192,93332,1,0,0:0:0:0:
155,192,93482,1,0,0:0:0:0:
228,192,93632,1,0,0:0:0:0:
448,192,93632,1,0,0:0:0:0:
374,192,93782,1,0,0:0:0:0:
301,192,93932,1,0,0:0:0:0:
82,192,93932,1,0,0:0:0:0:
228,192,94082,1,0,0:0:0:0:
155,192,94232,1,0,0:0:0:0:
9,192,94232,1,0,0:0:0:0:
228,192,94382,1,0,0:0:0:0:
301,192,94532,1,0,0:0:0:0:
448,192,94532,1,0,0:0:0:0:
301,192,94682,1,0,0:0:0:0:
448,192,94682,1,0,0:0:0:0:
155,192,94832,1,0,0:0:0:0:
9,192,94832,1,0,0:0:0:0:
228,192,94982,1,0,0:0:0:0:
301,192,95132,1,0,0:0:0:0:
82,192,95132,1,0,0:0:0:0:
155,192,95282,1,0,0:0:0:0:
228,192,95432,1,0,0:0:0:0:
9,192,95432,1,0,0:0:0:0:
82,192,95582,1,0,0:0:0:0:
155,192,95732,1,0,0:0:0:0:
374,192,95732,1,0,0:0:0:0:
82,192,95882,1,0,0:0:0:0:
9,192,96032,1,0,0:0:0:0:
301,192,96032,1,0,0:0:0:0:
228,192,96182,1,0,0:0:0:0:
155,192,96332,1,0,0:0:0:0:
374,192,96332,1,0,0:0:0:0:
301,192,96482,1,0,0:0:0:0:
228,192,96632,1,0,0:0:0:0:
448,192,96632,1,0,0:0:0:0:
374,192,96782,1,0,0:0:0:0:
301,192,96932,1,0,0:0:0:0:
82,192,96932,1,0,0:0:0:0:
374,192,97082,1,0,0:0:0:0:
182,192,97082,1,0,0:0:0:0:
448,192,97232,1,0,0:0:0:0:
9,192,97232,1,0,0:0:0:0:
82,192,97382,1,0,0:0:0:0:
155,192,97532,1,0,0:0:0:0:
374,192,97532,1,0,0:0:0:0:
301,192,97682,1,0,0:0:0:0:
228,192,97832,1,0,0:0:0:0:
9,192,97832,1,0,0:0:0:0:
155,192,97982,1,0,0:0:0:0:
82,192,98132,1,0,0:0:0:0:
448,192,98132,1,0,0:0:0:0:
374,192,98282,1,0,0:0:0:0:
301,192,98432,1,0,0:0:0:0:
155,192,98432,1,0,0:0:0:0:
82,192,98582,1,0,0:0:0:0:
9,192,98582,1,0,0:0:0:0:
448,192,98732,1,0,0:0:0:0:
301,192,98732,1,0,0:0:0:0:
374,192,99032,1,0,0:0:0:0:
228,192,99032,1,0,0:0:0:0:
155,192,99332,1,0,0:0:0:0:
301,192,99332,1,0,0:0:0:0:
475,192,99482,1,0,0:0:0:0:
402,192,99482,1,0,0:0:0:0:
228,192,99632,1,0,0:0:0:0:
82,192,99632,1,0,0:0:0:0:
301,192,99782,1,0,0:0:0:0:
374,192,99932,1,0,0:0:0:0:
155,192,99932,1,0,0:0:0:0:
228,192,100082,1,0,0:0:0:0:
301,192,100232,1,0,0:0:0:0:
82,192,100232,1,0,0:0:0:0:
155,192,100382,1,0,0:0:0:0:
228,192,100532,1,0,0:0:0:0:
9,192,100532,1,0,0:0:0:0:
82,192,100682,1,0,0:0:0:0:
155,192,100832,1,0,0:0:0:0:
301,192,100832,1,0,0:0:0:0:
374,192,100982,1,0,0:0:0:0:
82,192,101132,1,0,0:0:0:0:
448,192,101132,1,0,0:0:0:0:
155,192,101282,1,0,0:0:0:0:
228,192,101432,1,0,0:0:0:0:
448,192,101432,1,0,0:0:0:0:
301,192,101582,1,0,0:0:0:0:
82,192,101732,1,0,0:0:0:0:
9,192,101732,1,0,0:0:0:0:
9,192,101882,1,0,0:0:0:0:
82,192,101882,1,0,0:0:0:0:
228,192,102032,1,0,0:0:0:0:
374,192,102032,1,0,0:0:0:0:
155,192,102182,1,0,0:0:0:0:
82,192,102332,1,0,0:0:0:0:
301,192,102332,1,0,0:0:0:0:
228,192,102482,1,0,0:0:0:0:
155,192,102632,1,0,0:0:0:0:
374,192,102632,1,0,0:0:0:0:
301,192,102782,1,0,0:0:0:0:
228,192,102932,1,0,0:0:0:0:
448,192,102932,1,0,0:0:0:0:
374,192,103082,1,0,0:0:0:0:
301,192,103232,1,0,0:0:0:0:
155,192,103232,1,0,0:0:0:0:
82,192,103382,1,0,0:0:0:0:
374,192,103532,1,0,0:0:0:0:
9,192,103532,1,0,0:0:0:0:
301,192,103682,1,0,0:0:0:0:
228,192,103832,1,0,0:0:0:0:
9,192,103832,1,0,0:0:0:0:
155,192,103982,1,0,0:0:0:0:
374,192,104132,1,0,0:0:0:0:
448,192,104132,1,0,0:0:0:0:
448,192,104282,1,0,0:0:0:0:
374,192,104282,1,0,0:0:0:0:
82,192,104432,1,0,0:0:0:0:
228,192,104432,1,0,0:0:0:0:
448,192,104582,1,0,0:0:0:0:
155,192,104732,1,0,0:0:0:0:
301,192,104732,1,0,0:0:0:0:
9,192,104882,1,0,0:0:0:0:
228,192,105032,1,0,0:0:0:0:
374,192,105032,1,0,0:0:0:0:
82,192,105182,1,0,0:0:0:0:
301,192,105332,1,0,0:0:0:0:
448,192,105332,1,0,0:0:0:0:
155,192,105482,1,0,0:0:0:0:
374,192,105632,1,0,0:0:0:0:
228,192,105632,1,0,0:0:0:0:
9,192,105782,1,0,0:0:0:0:
301,192,105932,1,0,0:0:0:0:
155,192,105932,1,0,0:0:0:0:
448,192,106082,1,0,0:0:0:0:
228,192,106232,1,0,0:0:0:0:
82,192,106232,1,0,0:0:0:0:
374,192,106382,1,0,0:0:0:0:
155,192,106532,1,0,0:0:0:0:
9,192,106532,1,0,0:0:0:0:
301,192,106682,1,0,0:0:0:0:
256,192,106682,1,0,0:0:0:0:
374,192,106832,1,0,0:0:0:0:
448,192,106832,1,0,0:0:0:0:
374,192,106982,1,0,0:0:0:0:
448,192,106982,1,0,0:0:0:0:
329,192,107132,1,0,0:0:0:0:
256,192,107282,1,0,0:0:0:0:
82,192,107432,1,0,0:0:0:0:
9,192,107432,1,0,0:0:0:0:
9,192,107582,1,0,0:0:0:0:
82,192,107582,1,0,0:0:0:0:
182,192,107732,1,0,0:0:0:0:
256,192,107882,1,0,0:0:0:0:
448,192,108032,1,0,0:0:0:0:
301,192,108032,1,0,0:0:0:0:
109,192,108182,1,0,0:0:0:0:
301,192,108332,1,0,0:0:0:0:
448,192,108332,1,0,0:0:0:0:
228,192,108482,1,0,0:0:0:0:
155,192,108632,1,0,0:0:0:0:
9,192,108632,1,0,0:0:0:0:
402,192,108782,1,0,0:0:0:0:
155,192,108932,1,0,0:0:0:0:
36,192,108932,1,0,0:0:0:0:
228,192,109082,1,0,0:0:0:0:
301,192,109232,1,0,0:0:0:0:
448,192,109232,1,0,0:0:0:0:
374,192,109232,1,0,0:0:0:0:
374,192,109532,1,0,0:0:0:0:
301,192,109532,1,0,0:0:0:0:
228,192,109532,1,0,0:0:0:0:
301,192,109832,1,0,0:0:0:0:
228,192,109832,1,0,0:0:0:0:
155,192,109832,1,0,0:0:0:0:
228,192,110132,1,0,0:0:0:0:
155,192,110132,1,0,0:0:0:0:
82,192,110132,1,0,0:0:0:0:
155,192,110432,1,0,0:0:0:0:
82,192,110432,1,0,0:0:0:0:
9,192,110432,1,0,0:0:0:0:
228,192,110582,1,0,0:0:0:0:
301,192,110732,1,0,0:0:0:0:
9,192,110732,1,0,0:0:0:0:
82,192,110882,1,0,0:0:0:0:
155,192,111032,1,0,0:0:0:0:
448,192,111032,1,0,0:0:0:0:
301,192,111182,1,0,0:0:0:0:
82,192,111332,1,0,0:0:0:0:
9,192,111332,1,0,0:0:0:0:
374,192,111482,1,0,0:0:0:0:
448,192,111482,1,0,0:0:0:0:
155,192,111632,1,0,0:0:0:0:
9,192,111632,1,0,0:0:0:0:
82,192,111632,1,0,0:0:0:0:
82,192,111932,1,0,0:0:0:0:
155,192,111932,1,0,0:0:0:0:
228,192,111932,1,0,0:0:0:0:
155,192,112232,1,0,0:0:0:0:
228,192,112232,1,0,0:0:0:0:
301,192,112232,1,0,0:0:0:0:
228,192,112532,1,0,0:0:0:0:
301,192,112532,1,0,0:0:0:0:
374,192,112532,1,0,0:0:0:0:
301,192,112832,1,0,0:0:0:0:
374,192,112832,1,0,0:0:0:0:
448,192,112832,1,0,0:0:0:0:
228,192,112982,1,0,0:0:0:0:
155,192,113132,1,0,0:0:0:0:
448,192,113132,1,0,0:0:0:0:
374,192,113282,1,0,0:0:0:0:
301,192,113432,1,0,0:0:0:0:
9,192,113432,1,0,0:0:0:0:
155,192,113582,1,0,0:0:0:0:
374,192,113732,1,0,0:0:0:0:
448,192,113732,1,0,0:0:0:0:
82,192,113882,1,0,0:0:0:0:
9,192,113882,1,0,0:0:0:0:
301,192,114032,1,0,0:0:0:0:
448,192,114032,1,0,0:0:0:0:
155,192,114182,1,0,0:0:0:0:
228,192,114332,1,0,0:0:0:0:
374,192,114332,1,0,0:0:0:0:
82,192,114482,1,0,0:0:0:0:
301,192,114632,1,0,0:0:0:0:
155,192,114632,1,0,0:0:0:0:
9,192,114782,1,0,0:0:0:0:
228,192,114932,1,0,0:0:0:0:
82,192,114932,1,0,0:0:0:0:
448,192,115082,1,0,0:0:0:0:
155,192,115232,1,0,0:0:0:0:
9,192,115232,1,0,0:0:0:0:
301,192,115382,1,0,0:0:0:0:
228,192,115532,1,0,0:0:0:0:
82,192,115532,1,0,0:0:0:0:
374,192,115682,1,0,0:0:0:0:
155,192,115832,1,0,0:0:0:0:
301,192,115832,1,0,0:0:0:0:
36,192,115982,1,0,0:0:0:0:
228,192,116132,1,0,0:0:0:0:
374,192,116132,1,0,0:0:0:0:
82,192,116282,1,0,0:0:0:0:
9,192,116282,1,0,0:0:0:0:
301,192,116432,1,0,0:0:0:0:
448,192,116432,1,0,0:0:0:0:
228,192,116582,1,0,0:0:0:0:
374,192,116732,1,0,0:0:0:0:
155,192,116732,1,0,0:0:0:0:
301,192,116882,1,0,0:0:0:0:
228,192,117032,1,0,0:0:0:0:
9,192,117032,1,0,0:0:0:0:
301,192,117182,1,0,0:0:0:0:
374,192,117332,1,0,0:0:0:0:
155,192,117332,1,0,0:0:0:0:
228,192,117482,1,0,0:0:0:0:
301,192,117632,1,0,0:0:0:0:
82,192,117632,1,0,0:0:0:0:
155,192,117782,1,0,0:0:0:0:
228,192,117932,1,0,0:0:0:0:
475,192,117932,1,0,0:0:0:0:
155,192,118082,1,0,0:0:0:0:
82,192,118232,1,0,0:0:0:0:
374,192,118232,1,0,0:0:0:0:
301,192,118382,1,0,0:0:0:0:
9,192,118532,1,0,0:0:0:0:
228,192,118532,1,0,0:0:0:0:
374,192,118682,1,0,0:0:0:0:
448,192,118682,1,0,0:0:0:0:
155,192,118832,1,0,0:0:0:0:
9,192,118832,1,0,0:0:0:0:
82,192,118832,1,0,0:0:0:0:
82,192,119132,1,0,0:0:0:0:
155,192,119132,1,0,0:0:0:0:
228,192,119132,1,0,0:0:0:0:
155,192,119432,1,0,0:0:0:0:
228,192,119432,1,0,0:0:0:0:
301,192,119432,1,0,0:0:0:0:
228,192,119732,1,0,0:0:0:0:
301,192,119732,1,0,0:0:0:0:
374,192,119732,1,0,0:0:0:0:
301,192,120032,1,0,0:0:0:0:
374,192,120032,1,0,0:0:0:0:
448,192,120032,1,0,0:0:0:0:
228,192,120182,1,0,0:0:0:0:
155,192,120332,1,0,0:0:0:0:
448,192,120332,1,0,0:0:0:0:
374,192,120482,1,0,0:0:0:0:
301,192,120632,1,0,0:0:0:0:
9,192,120632,1,0,0:0:0:0:
155,192,120782,1,0,0:0:0:0:
374,192,120932,1,0,0:0:0:0:
448,192,120932,1,0,0:0:0:0:
82,192,121082,1,0,0:0:0:0:
9,192,121082,1,0,0:0:0:0:
301,192,121232,1,0,0:0:0:0:
448,192,121232,1,0,0:0:0:0:
374,192,121232,1,0,0:0:0:0:
374,192,121532,1,0,0:0:0:0:
301,192,121532,1,0,0:0:0:0:
228,192,121532,1,0,0:0:0:0:
301,192,121832,1,0,0:0:0:0:
228,192,121832,1,0,0:0:0:0:
155,192,121832,1,0,0:0:0:0:
228,192,122132,1,0,0:0:0:0:
155,192,122132,1,0,0:0:0:0:
82,192,122132,1,0,0:0:0:0:
155,192,122432,1,0,0:0:0:0:
82,192,122432,1,0,0:0:0:0:
9,192,122432,1,0,0:0:0:0:
228,192,122582,1,0,0:0:0:0:
301,192,122732,1,0,0:0:0:0:
9,192,122732,1,0,0:0:0:0:
82,192,122882,1,0,0:0:0:0:
155,192,123032,1,0,0:0:0:0:
448,192,123032,1,0,0:0:0:0:
301,192,123182,1,0,0:0:0:0:
82,192,123332,1,0,0:0:0:0:
9,192,123332,1,0,0:0:0:0:
374,192,123482,1,0,0:0:0:0:
448,192,123482,1,0,0:0:0:0:
155,192,123632,1,0,0:0:0:0:
9,192,123632,1,0,0:0:0:0:
301,192,123782,1,0,0:0:0:0:
228,192,123932,1,0,0:0:0:0:
82,192,123932,1,0,0:0:0:0:
374,192,124082,1,0,0:0:0:0:
155,192,124232,1,0,0:0:0:0:
301,192,124232,1,0,0:0:0:0:
448,192,124382,1,0,0:0:0:0:
228,192,124532,1,0,0:0:0:0:
374,192,124532,1,0,0:0:0:0:
9,192,124682,1,0,0:0:0:0:
301,192,124832,1,0,0:0:0:0:
448,192,124832,1,0,0:0:0:0:
155,192,124982,1,0,0:0:0:0:
228,192,125132,1,0,0:0:0:0:
374,192,125132,1,0,0:0:0:0:
82,192,125282,1,0,0:0:0:0:
301,192,125432,1,0,0:0:0:0:
155,192,125432,1,0,0:0:0:0:
475,192,125582,1,0,0:0:0:0:
228,192,125732,1,0,0:0:0:0:
82,192,125732,1,0,0:0:0:0:
374,192,125882,1,0,0:0:0:0:
448,192,125882,1,0,0:0:0:0:
155,192,126032,1,0,0:0:0:0:
9,192,126032,1,0,0:0:0:0:
155,192,126182,1,0,0:0:0:0:
9,192,126182,1,0,0:0:0:0:
256,192,126332,1,0,0:0:0:0:
109,192,126482,1,0,0:0:0:0:
301,192,126632,1,0,0:0:0:0:
448,192,126632,1,0,0:0:0:0:
301,192,126782,1,0,0:0:0:0:
448,192,126782,1,0,0:0:0:0:
256,192,126932,1,0,0:0:0:0:
402,192,127082,1,0,0:0:0:0:
155,192,127232,1,0,0:0:0:0:
9,192,127232,1,0,0:0:0:0:
228,192,127382,1,0,0:0:0:0:
301,192,127532,1,0,0:0:0:0:
82,192,127532,1,0,0:0:0:0:
374,192,127682,1,0,0:0:0:0:
448,192,127832,1,0,0:0:0:0:
155,192,127832,1,0,0:0:0:0:
228,192,127982,1,0,0:0:0:0:
301,192,128132,1,0,0:0:0:0:
9,192,128132,1,0,0:0:0:0:
82,192,128282,1,0,0:0:0:0:
155,192,128432,1,0,0:0:0:0:
448,192,128432,1,0,0:0:0:0:
374,192,128732,1,0,0:0:0:0:
301,192,129032,1,0,0:0:0:0:
228,192,129332,1,0,0:0:0:0:
9,192,129632,1,0,0:0:0:0:
82,192,129932,1,0,0:0:0:0:
155,192,130232,1,0,0:0:0:0:
228,192,130532,1,0,0:0:0:0:
374,192,130832,1,0,0:0:0:0:
9,192,130832,1,0,0:0:0:0:
301,192,130982,1,0,0:0:0:0:
228,192,131132,1,0,0:0:0:0:
448,192,131132,1,0,0:0:0:0:
155,192,131282,1,0,0:0:0:0:
82,192,131432,1,0,0:0:0:0:
448,192,131432,1,0,0:0:0:0:
155,192,131582,1,0,0:0:0:0:
228,192,131732,1,0,0:0:0:0:
9,192,131732,1,0,0:0:0:0:
301,192,131882,1,0,0:0:0:0:
374,192,132032,1,0,0:0:0:0:
9,192,132032,1,0,0:0:0:0:
82,192,132182,1,0,0:0:0:0:
155,192,132332,1,0,0:0:0:0:
448,192,132332,1,0,0:0:0:0:
374,192,132482,1,0,0:0:0:0:
301,192,132632,1,0,0:0:0:0:
9,192,132632,1,0,0:0:0:0:
82,192,132932,1,0,0:0:0:0:
374,192,132932,1,0,0:0:0:0:
448,192,133232,1,0,0:0:0:0:
155,192,133232,1,0,0:0:0:0:
228,192,133382,1,0,0:0:0:0:
301,192,133532,1,0,0:0:0:0:
374,192,133682,1,0,0:0:0:0:
448,192,133832,1,0,0:0:0:0:
9,192,133832,1,0,0:0:0:0:
82,192,133982,1,0,0:0:0:0:
155,192,134132,1,0,0:0:0:0:
228,192,134282,1,0,0:0:0:0:
301,192,134432,1,0,0:0:0:0:
9,192,134432,1,0,0:0:0:0:
228,192,134582,1,0,0:0:0:0:
155,192,134732,1,0,0:0:0:0:
82,192,134882,1,0,0:0:0:0:
9,192,135032,1,0,0:0:0:0:
374,192,135032,1,0,0:0:0:0:
301,192,135182,1,0,0:0:0:0:
155,192,135332,1,0,0:0:0:0:
256,192,135332,1,0,0:0:0:0:
82,192,135482,1,0,0:0:0:0:
36,192,135482,1,0,0:0:0:0:
301,192,135632,1,0,0:0:0:0:
448,192,135632,1,0,0:0:0:0:
228,192,135782,1,0,0:0:0:0:
155,192,135932,1,0,0:0:0:0:
82,192,136082,1,0,0:0:0:0:
9,192,136232,1,0,0:0:0:0:
448,192,136232,1,0,0:0:0:0:
374,192,136382,1,0,0:0:0:0:
301,192,136532,1,0,0:0:0:0:
228,192,136682,1,0,0:0:0:0:
155,192,136832,1,0,0:0:0:0:
9,192,136832,1,0,0:0:0:0:
228,192,136982,1,0,0:0:0:0:
301,192,137132,1,0,0:0:0:0:
374,192,137282,1,0,0:0:0:0:
448,192,137432,1,0,0:0:0:0:
9,192,137432,1,0,0:0:0:0:
82,192,137582,1,0,0:0:0:0:
155,192,137732,1,0,0:0:0:0:
301,192,137732,1,0,0:0:0:0:
374,192,137882,1,0,0:0:0:0:
448,192,137882,1,0,0:0:0:0:
9,192,138032,1,0,0:0:0:0:
82,192,138032,1,0,0:0:0:0:
155,192,138182,1,0,0:0:0:0:
228,192,138332,1,0,0:0:0:0:
301,192,138482,1,0,0:0:0:0:
374,192,138632,1,0,0:0:0:0:
448,192,138632,1,0,0:0:0:0:
301,192,138782,1,0,0:0:0:0:
228,192,138932,1,0,0:0:0:0:
155,192,139082,1,0,0:0:0:0:
82,192,139232,1,0,0:0:0:0:
448,192,139232,1,0,0:0:0:0:
301,192,139382,1,0,0:0:0:0:
228,192,139532,1,0,0:0:0:0:
82,192,139682,1,0,0:0:0:0:
374,192,139832,1,0,0:0:0:0:
9,192,139832,1,0,0:0:0:0:
155,192,139982,1,0,0:0:0:0:
228,192,140132,1,0,0:0:0:0:
329,192,140132,1,0,0:0:0:0:
374,192,140282,1,0,0:0:0:0:
475,192,140282,1,0,0:0:0:0:
9,192,140432,1,0,0:0:0:0:
82,192,140432,1,0,0:0:0:0:
301,192,140582,1,0,0:0:0:0:
448,192,140582,1,0,0:0:0:0:
256,192,140732,1,0,0:0:0:0:
109,192,140882,1,0,0:0:0:0:
374,192,141032,1,0,0:0:0:0:
448,192,141032,1,0,0:0:0:0:
155,192,141182,1,0,0:0:0:0:
9,192,141182,1,0,0:0:0:0:
228,192,141332,1,0,0:0:0:0:
301,192,141482,1,0,0:0:0:0:
374,192,141632,1,0,0:0:0:0:
82,192,141632,1,0,0:0:0:0:
155,192,141782,1,0,0:0:0:0:
228,192,141932,1,0,0:0:0:0:
448,192,141932,1,0,0:0:0:0:
155,192,142082,1,0,0:0:0:0:
82,192,142232,1,0,0:0:0:0:
374,192,142232,1,0,0:0:0:0:
301,192,142382,1,0,0:0:0:0:
228,192,142532,1,0,0:0:0:0:
9,192,142532,1,0,0:0:0:0:
301,192,142682,1,0,0:0:0:0:
374,192,142832,1,0,0:0:0:0:
448,192,142832,1,0,0:0:0:0:
82,192,142832,1,0,0:0:0:0:
