osu file format v14

[General]
AudioFilename: 07 alternate.mp3
AudioLeadIn: 0
PreviewTime: 57870
Countdown: 0
SampleSet: Soft
StackLeniency: 0.4
Mode: 0
LetterboxInBreaks: 0
WidescreenStoryboard: 1

[Editor]
DistanceSpacing: 1
BeatDivisor: 1
GridSize: 32
TimelineZoom: 1

[Metadata]
Title:alternate
TitleUnicode:alternate
Artist:keeno
ArtistUnicode:keeno
Creator:mintong89
Version:Normal
Source:
Tags:Hatsune Miku Dark before light キーノ yf_bmp Sun Rainbow
BeatmapID:790414
BeatmapSetID:358685

[Difficulty]
HPDrainRate:3
CircleSize:3
OverallDifficulty:4
ApproachRate:4
SliderMultiplier:1.2
SliderTickRate:1

[Events]
//Background and Video events
0,0,"38235853_p0.jpg",0,0
//Break Periods
//Storyboard Layer 0 (Background)
//Storyboard Layer 1 (Fail)
//Storyboard Layer 2 (Pass)
//Storyboard Layer 3 (Foreground)
//Storyboard Sound Samples

[TimingPoints]
523,731.707317073171,4,2,2,5,1,0
12230,-100,4,2,2,10,0,0
33998,-100,4,2,1,55,0,0
57596,-133.333333333333,4,2,1,55,0,0
59059,-100,4,2,1,55,0,1
87596,-100,4,2,1,25,0,1
88327,-100,4,2,2,25,0,0

[Colours]
Combo1 : 251,204,166
Combo2 : 225,108,87
Combo3 : 164,165,107
SliderBorder : 255,255,255

[HitObjects]
67,86,523,6,0,P|115:66|194:69,1,120,2|0,0:0|0:0,0:0:0:0:
243,169,1986,2,0,P|299:156|356:97,1,120,2|0,0:0|0:0,0:0:0:0:
449,55,3449,6,0,P|465:120|449:192,1,120,2|0,0:0|0:0,0:0:0:0:
361,244,4913,1,2,0:0:0:0:
257,183,5644,1,0,0:0:0:0:
219,68,6376,6,0,P|182:65|91:97,1,120,2|0,0:0|0:0,0:0:0:0:
67,203,7840,2,0,P|103:224|142:295,1,120,2|0,0:0|0:0,0:0:0:0:
256,323,9303,2,0,P|318:336|467:254,1,240,2|2,0:0|0:0,0:0:0:0:
392,160,11498,2,0,L|402:97,1,60
378,45,12230,5,2,0:0:0:0:
275,107,12962,1,0,0:0:0:0:
179,34,13693,2,0,P|137:33|53:72,1,120,2|0,0:0|0:0,0:0:0:0:
45,180,15157,2,0,B|60:215|91:224|91:224|121:195|103:171|120:138|173:113|216:140,1,240,2|2,0:0|0:0,0:0:0:0:
303,217,17352,2,0,L|377:197,1,60,0|0,0:0|0:0,0:0:0:0:
414,227,18083,5,2,0:0:0:0:
467,119,18815,1,0,0:0:0:0:
355,75,19547,1,2,0:0:0:0:
297,180,20279,1,0,0:0:0:0:
195,243,21010,2,0,B|155:194|179:137|179:137|116:95|57:145,2,240,2|2|2,0:0|0:0|0:0,0:0:0:0:
297,180,24669,5,0,0:0:0:0:
410,217,25401,2,0,P|448:262|454:331,1,120,2|0,0:0|0:0,0:0:0:0:
337,300,26864,1,2,0:0:0:0:
280,194,27596,1,0,0:0:0:0:
328,84,28327,2,0,P|289:49|213:40,1,120,2|0,0:0|0:0,0:0:0:0:
135,120,29791,6,0,B|108:76|114:37|114:37|98:83|64:121|3:142,2,240,2|2|2,0:0|0:0|0:0,0:0:0:0:
227,196,33449,1,2,0:0:0:0:
327,131,34181,2,0,L|395:122,2,60,8|12|8,0:0|0:0|0:0,0:0:0:0:
227,196,35644,6,0,P|221:258|241:320,1,120,4|8,0:0|0:0,0:0:0:0:
356,321,37108,2,0,L|423:302,1,60,2|2,0:0|3:2,0:0:0:0:
462,268,37840,1,8,0:0:0:0:
392,170,38571,2,0,L|406:40,1,120,2|8,0:0|0:0,0:0:0:0:
292,93,40035,2,0,L|279:212,1,120,2|8,0:0|0:0,0:0:0:0:
190,293,41498,6,0,P|146:293|86:245,1,120,4|8,0:0|0:0,0:0:0:0:
131,136,42962,2,0,P|154:107|165:71,2,60,2|2|8,0:0|3:2|0:0,0:0:0:0:
237,191,44425,6,0,L|357:177,1,120,2|8,0:0|0:0,0:0:0:0:
452,249,45888,1,2,0:0:0:0:
465,129,46620,2,0,L|458:66,1,60,8|2,0:0|0:0,0:0:0:0:
409,34,47352,6,0,P|351:26|281:54,1,120,4|8,0:0|0:0,0:0:0:0:
270,162,48815,2,0,P|213:180|154:173,1,120,2|8,0:0|0:0,0:0:0:0:
111,130,49913,1,2,0:0:0:0:
63,166,50279,6,0,L|80:295,1,120,2|8,0:0|0:0,0:0:0:0:
185,339,51742,2,0,L|169:220,1,120,2|2,0:0|0:0,0:0:0:0:
200,168,52840,1,2,3:2:0:0:
243,127,53205,6,0,P|291:111|379:137,1,120,4|8,0:0|0:0,0:0:0:0:
365,243,54669,2,0,P|328:284|246:300,1,120,2|8,0:0|0:0,0:0:0:0:
169,232,56132,1,2,0:0:0:0:
198,115,56864,2,0,L|188:49,2,60,8|2|4,0:0|0:0|3:2,0:0:0:0:
198,115,59059,5,4,3:2:0:0:
289,192,59791,2,0,P|328:189|405:145,1,120,8|2,3:2|3:2,0:0:0:0:
433,102,60888,2,0,L|423:34,1,60,2|8,0:0|3:2,0:0:0:0:
315,93,61986,6,0,L|337:239,1,120,2|8,3:2|3:2,0:0:0:0:
242,291,63449,2,0,P|201:305|163:303,2,60,2|2|8,3:2|0:0|3:2,0:0:0:0:
143,222,64913,6,0,P|132:180|148:102,1,120,4|8,3:2|3:2,0:0:0:0:
261,74,66376,2,0,P|299:116|315:185,1,120,2|8,3:2|3:2,0:0:0:0:
315,236,67474,1,8,0:0:0:0:
357,278,67840,6,0,L|443:264,2,60,2|8|8,3:2|0:0|3:2,0:0:0:0:
254,340,69303,2,0,L|168:326,2,60,2|4|8,3:2|0:0|3:2,0:0:0:0:
238,220,70766,6,0,B|251:188|256:153|256:153|242:109|223:103,1,120,4|8,3:2|3:2,0:0:0:0:
347,135,72230,2,0,B|343:174|343:174|352:205|375:220|413:229,1,120,2|8,3:2|3:2,0:0:0:0:
439,338,73693,2,0,L|498:349,2,60,2|2|8,3:2|0:0|3:2,0:0:0:0:
337,273,75157,1,2,3:2:0:0:
393,167,75888,1,8,3:2:0:0:
331,63,76620,6,0,P|278:31|205:37,1,120,4|8,3:2|3:2,0:0:0:0:
200,149,78083,2,0,P|152:170|76:159,1,120,2|8,3:2|3:2,0:0:0:0:
160,69,79547,2,0,P|218:60|272:93,1,120,2|8,3:2|3:2,0:0:0:0:
338,187,81010,1,2,3:2:0:0:
437,120,81742,1,8,3:2:0:0:
472,234,82474,6,0,L|481:295,2,60,4|2|8,3:2|0:0|3:2,0:0:0:0:
354,256,83937,2,0,L|331:183,1,60,2|8,3:2|0:0,0:0:0:0:
351,140,84669,2,0,L|360:78,1,60,8|2,3:2|0:0,0:0:0:0:
308,48,85401,6,0,B|236:15|174:57|174:57|107:67|71:33,2,240,2|4|2,3:2|0:0|0:0,0:0:0:0:
