osu file format v14

[General]
AudioFilename: 07 alternate.mp3
AudioLeadIn: 0
PreviewTime: 57870
Countdown: 0
SampleSet: Soft
StackLeniency: 0.4
Mode: 0
LetterboxInBreaks: 0
WidescreenStoryboard: 1

[Editor]
DistanceSpacing: 1.4
BeatDivisor: 4
GridSize: 32
TimelineZoom: 1

[Metadata]
Title:alternate
TitleUnicode:alternate
Artist:keeno
ArtistUnicode:keeno
Creator:mintong89
Version:Hard
Source:
Tags:Hatsune Miku Dark before light キーノ yf_bmp Sun Rainbow
BeatmapID:789876
BeatmapSetID:358685

[Difficulty]
HPDrainRate:5
CircleSize:4
OverallDifficulty:5
ApproachRate:6
SliderMultiplier:1.4
SliderTickRate:1

[Events]
//Background and Video events
0,0,"38235853_p0.jpg",0,0
//Break Periods
//Storyboard Layer 0 (Background)
//Storyboard Layer 1 (Fail)
//Storyboard Layer 2 (Pass)
//Storyboard Layer 3 (Foreground)
//Storyboard Sound Samples

[TimingPoints]
523,731.707317073171,4,2,2,5,1,0
12230,-100,4,2,2,10,0,0
33998,-100,4,2,1,55,0,0
57596,-133.333333333333,4,2,1,55,0,0
59059,-100,4,2,1,55,0,1
88327,-100,4,2,2,25,0,0

[Colours]
Combo1 : 251,204,166
Combo2 : 225,108,87
Combo3 : 164,165,107
SliderBorder : 255,255,255

[HitObjects]
51,86,523,6,0,P|76:75|130:76,1,70,2|0,0:0|0:0,0:0:0:0:
194,155,1254,2,0,P|228:155|268:136,1,70
366,52,1986,1,2,0:0:0:0:
456,51,2352,1,0,0:0:0:0:
331,131,2718,1,0,0:0:0:0:
495,129,3084,1,0,0:0:0:0:
414,197,3450,6,0,P|406:223|410:269,1,70,2|0,0:0|0:0,0:0:0:0:
280,340,4181,2,0,P|288:297|283:259,1,70
210,173,4913,1,2,0:0:0:0:
115,270,5279,1,0,0:0:0:0:
79,143,5645,2,0,P|70:109|76:73,1,70,0|0,0:0|0:0,0:0:0:0:
252,31,6376,6,0,P|261:63|255:104,1,70,2|0,0:0|0:0,0:0:0:0:
314,201,7108,2,0,P|346:180|361:147,1,70,0|0,0:0|0:0,0:0:0:0:
417,51,7840,2,0,P|445:65|470:100,1,70,2|0,0:0|0:0,0:0:0:0:
446,218,8572,1,0,0:0:0:0:
486,325,8937,1,0,0:0:0:0:
346,269,9303,6,0,B|308:272|277:249|277:249|248:285|208:276,2,140,2|0|2,0:0|0:0|0:0,0:0:0:0:
203,163,11133,2,0,P|163:152|120:160,1,70
68,236,11864,1,0,0:0:0:0:
37,137,12230,6,0,P|30:100|36:64,1,70,2|0,0:0|0:0,0:0:0:0:
163,60,12962,2,0,L|274:49,1,105,0|0,0:0|0:0,0:0:0:0:
300,73,13693,2,0,L|370:66,1,70,2|0,0:0|0:0,0:0:0:0:
432,158,14425,1,0,0:0:0:0:
179,166,15157,6,0,P|175:198|188:238,1,70,2|0,0:0|0:0,0:0:0:0:
283,329,15889,1,0,0:0:0:0:
158,351,16254,1,0,0:0:0:0:
68,283,16620,2,0,B|112:240|165:249|165:249|154:232|157:209,1,140,2|0,0:0|0:0,0:0:0:0:
248,127,17718,2,0,P|259:163|248:203,1,70,0|2,0:0|0:0,0:0:0:0:
139,91,18450,5,0,0:0:0:0:
232,25,18815,2,0,P|265:23|314:40,1,70,0|0,0:0|0:0,0:0:0:0:
363,113,19547,2,0,P|400:121|460:98,1,70,2|0,0:0|0:0,0:0:0:0:
503,39,20279,1,0,0:0:0:0:
241,124,21011,6,0,P|240:173|251:208,1,70,2|0,0:0|0:0,0:0:0:0:
272,216,21559,2,0,P|237:212|168:235,1,105,0|0,0:0|0:0,0:0:0:0:
279,322,22474,2,0,P|331:318|356:304,1,70,2|0,0:0|0:0,0:0:0:0:
398,207,23206,2,0,P|430:220|456:245,1,70,0|0,0:0|0:0,0:0:0:0:
323,151,23937,6,0,B|317:115|317:114|328:67|323:2,2,140,2|0|2,0:0|0:0|0:0,0:0:0:0:
239,214,25767,2,0,P|212:196|190:149,1,70,0|0,0:0|0:0,0:0:0:0:
220,62,26498,1,0,0:0:0:0:
114,80,26864,6,0,P|89:84|39:71,1,70,2|0,0:0|0:0,0:0:0:0:
105,197,27596,2,0,P|131:186|179:185,1,70,0|0,0:0|0:0,0:0:0:0:
236,93,28328,1,2,0:0:0:0:
313,147,28693,1,0,0:0:0:0:
372,72,29059,1,0,0:0:0:0:
446,133,29425,1,0,0:0:0:0:
414,226,29791,6,0,P|419:268|434:304,1,70,2|0,0:0|0:0,0:0:0:0:
313,246,30523,2,0,P|301:210|302:168,1,70,0|0,0:0|0:0,0:0:0:0:
361,87,31254,1,2,0:0:0:0:
271,34,31620,1,0,0:0:0:0:
212,122,31986,1,0,0:0:0:0:
300,178,32352,1,0,0:0:0:0:
177,217,32718,6,0,P|134:218|68:201,1,105,2|0,0:0|0:0,0:0:0:0:
53,187,33450,1,2,0:0:0:0:
261,302,34181,2,0,L|284:334,2,35,8|2|12,0:0|0:0|0:0,0:0:0:0:
352,238,34913,2,0,L|347:191,1,35,8|2,0:0|0:0,0:0:0:0:
387,175,35279,2,0,L|396:135,1,35,2|2,0:0|0:0,0:0:0:0:
403,102,35645,6,0,P|370:75|307:56,1,105,4|2,0:0|0:0,0:0:0:0:
288,77,36376,2,0,P|249:82|214:75,1,70,8|2,0:0|0:0,0:0:0:0:
128,166,37108,2,0,L|51:159,2,70,2|2|8,0:0|3:2|0:0,0:0:0:0:
222,263,38206,1,2,0:0:0:0:
317,188,38572,6,0,P|349:180|392:186,1,70,2|2,0:0|0:0,0:0:0:0:
417,204,39120,2,0,L|429:248,1,35,2|8,0:0|0:0,0:0:0:0:
496,122,39669,2,0,L|486:83,1,35,2|8,0:0|0:0,0:0:0:0:
459,55,40035,1,2,0:0:0:0:
359,98,40401,1,2,3:2:0:0:
282,37,40767,1,8,0:0:0:0:
197,93,41133,1,2,0:0:0:0:
105,38,41498,6,0,P|92:51|64:137,1,105,4|2,0:0|0:0,0:0:0:0:
78,160,42230,2,0,P|81:194|75:234,1,70,8|2,0:0|0:0,0:0:0:0:
194,286,42962,2,0,P|188:244|192:211,2,70,2|2|8,0:0|3:2|0:0,0:0:0:0:
311,224,44059,1,2,0:0:0:0:
425,262,44425,6,0,P|463:237|476:213,1,70,2|2,0:0|0:0,0:0:0:0:
469,186,44974,2,0,L|475:146,1,35,2|8,0:0|0:0,0:0:0:0:
386,47,45523,1,2,0:0:0:0:
386,47,45706,1,8,0:0:0:0:
386,47,45889,2,0,L|316:57,1,70,2|2,0:0|3:2,0:0:0:0:
279,169,46620,2,0,L|349:159,1,70,8|2,0:0|0:0,0:0:0:0:
305,268,47352,6,0,P|250:268|207:230,1,105,4|2,0:0|0:0,0:0:0:0:
188,206,48084,2,0,P|184:172|190:129,1,70,8|2,0:0|0:0,0:0:0:0:
346,75,48815,2,0,P|352:103|345:153,1,70,2|2,0:0|3:2,0:0:0:0:
426,24,49547,2,0,P|443:59|445:97,1,70,8|2,0:0|0:0,0:0:0:0:
418,199,50279,6,0,P|413:236|429:310,1,105,2|2,0:0|0:0,0:0:0:0:
443,325,51011,2,0,P|403:319|365:333,1,70,8|2,0:0|0:0,0:0:0:0:
259,262,51742,1,2,0:0:0:0:
306,150,52108,1,2,3:2:0:0:
200,87,52474,1,2,0:0:0:0:
101,151,52840,1,2,3:2:0:0:
200,87,53206,6,0,P|227:58|237:14,1,70,4|2,0:0|0:0,0:0:0:0:
323,94,53937,2,0,P|346:115|428:141,1,105,8|8,0:0|0:0,0:0:0:0:
444,164,54669,2,0,L|458:239,1,70,2|2,0:0|3:2,0:0:0:0:
362,333,55401,2,0,L|349:264,1,70,8|8,0:0|0:0,0:0:0:0:
245,183,56133,6,0,L|198:197,2,35,2|2|8,0:0|0:0|0:0,0:0:0:0:
305,50,56864,2,0,L|338:40,4,35,8|2|2|8|4,0:0|0:0|0:0|0:0|3:2,0:0:0:0:
305,51,59059,5,4,3:2:0:0:
223,149,59425,2,0,P|217:187|228:228,1,70,2|8,0:0|3:2,0:0:0:0:
321,297,60157,1,2,0:0:0:0:
321,297,60340,1,8,0:0:0:0:
321,297,60523,2,0,P|361:289|399:296,1,70,2|2,3:2|0:0,0:0:0:0:
470,191,61254,2,0,P|430:188|394:168,1,70,8|2,3:2|0:0,0:0:0:0:
336,64,61986,5,2,3:2:0:0:
250,169,62352,1,2,0:0:0:0:
185,57,62718,1,8,3:2:0:0:
101,150,63083,1,2,0:0:0:0:
101,150,63266,1,8,0:0:0:0:
101,150,63449,2,0,P|95:195|106:237,1,70,2|2,3:2|0:0,0:0:0:0:
238,271,64181,2,0,P|230:235|209:206,1,70,8|8,3:2|0:0,0:0:0:0:
94,347,64913,6,0,L|167:342,1,70,4|2,3:2|0:0,0:0:0:0:
283,336,65644,2,0,P|309:305|317:267,1,70,8|2,3:2|0:0,0:0:0:0:
449,264,66376,1,2,3:2:0:0:
403,167,66742,1,2,0:0:0:0:
459,80,67108,1,8,3:2:0:0:
410,174,67474,5,8,0:0:0:0:
410,174,67657,1,2,0:0:0:0:
410,174,67840,2,0,L|306:160,1,105,2|2,3:2|0:0,0:0:0:0:
283,138,68571,2,0,P|278:97|290:54,1,70,8|2,3:2|0:0,0:0:0:0:
176,123,69303,2,0,P|184:168|167:231,1,105,2|2,3:2|0:0,0:0:0:0:
142,249,70035,2,0,L|86:235,2,35,8|2|2,3:2|0:0|0:0,0:0:0:0:
207,347,70766,6,0,L|294:331,1,70,4|2,3:2|0:0,0:0:0:0:
360,239,71498,1,8,3:2:0:0:
338,129,71864,1,2,0:0:0:0:
236,175,72230,2,0,P|228:135|233:106,1,70,2|2,3:2|0:0,0:0:0:0:
118,132,72962,2,0,P|122:83|136:51,1,70,8|2,3:2|0:0,0:0:0:0:
173,216,73693,6,0,L|116:166,1,70,2|2,3:2|0:0,0:0:0:0:
17,228,74425,2,0,L|30:305,1,70,8|2,3:2|0:0,0:0:0:0:
125,357,75157,1,2,3:2:0:0:
236,337,75523,1,2,0:0:0:0:
236,337,75705,1,2,0:0:0:0:
236,337,75888,1,8,3:2:0:0:
157,224,76254,5,2,0:0:0:0:
157,224,76437,1,8,0:0:0:0:
157,224,76620,2,0,L|268:202,1,105,4|2,3:2|0:0,0:0:0:0:
284,194,77352,2,0,P|295:153|287:116,1,70,8|2,3:2|0:0,0:0:0:0:
389,206,78083,2,0,P|382:247|393:281,2,70,2|2|8,3:2|0:0|3:2,0:0:0:0:
415,83,79181,1,2,0:0:0:0:
288,67,79547,6,0,P|254:44|236:18,1,70,2|2,3:2|0:0,0:0:0:0:
278,169,80279,2,0,P|241:154|210:120,1,70,8|2,3:2|0:0,0:0:0:0:
102,82,81010,2,0,L|107:122,2,35,2|2|8,3:2|0:0|0:0,0:0:0:0:
31,232,81742,2,0,L|26:197,2,35,8|8|2,3:2|0:0|0:0,0:0:0:0:
120,323,82474,5,4,3:2:0:0:
218,244,82840,2,0,P|260:233|293:238,1,70,2|8,0:0|3:2,0:0:0:0:
397,296,83571,1,2,0:0:0:0:
363,173,83937,1,2,3:2:0:0:
420,62,84303,2,0,P|446:39|497:29,1,70,2|8,0:0|3:2,0:0:0:0:
466,158,85035,1,2,0:0:0:0:
300,80,85401,6,0,P|255:76|172:111,1,105,2|2,3:2|0:0,0:0:0:0:
173,118,86132,2,0,L|119:101,2,35,8|8|2,3:2|0:0|0:0,0:0:0:0:
200,230,86864,2,0,P|241:239|347:189,1,140,4|0,0:0|0:0,0:0:0:0:
434,330,88327,1,2,0:0:0:0:
