osu file format v14

[General]
AudioFilename: 07 alternate.mp3
AudioLeadIn: 0
PreviewTime: 57870
Countdown: 0
SampleSet: Soft
StackLeniency: 0.4
Mode: 0
LetterboxInBreaks: 0
WidescreenStoryboard: 1

[Editor]
DistanceSpacing: 1.4
BeatDivisor: 4
GridSize: 32
TimelineZoom: 1

[Metadata]
Title:alternate
TitleUnicode:alternate
Artist:keeno
ArtistUnicode:keeno
Creator:mintong89
Version:Glare
Source:
Tags:Hatsune Miku Dark before light キーノ yf_bmp Sun Rainbow
BeatmapID:788676
BeatmapSetID:358685

[Difficulty]
HPDrainRate:6
CircleSize:4
OverallDifficulty:7
ApproachRate:7
SliderMultiplier:1.8
SliderTickRate:1

[Events]
//Background and Video events
0,0,"38235853_p0.jpg",0,0
//Break Periods
//Storyboard Layer 0 (Background)
//Storyboard Layer 1 (Fail)
//Storyboard Layer 2 (Pass)
//Storyboard Layer 3 (Foreground)
//Storyboard Sound Samples

[TimingPoints]
523.259259259259,731.707317073171,4,2,2,5,1,0
12230,-100,4,2,2,10,0,0
33998,-100,4,2,1,55,0,0
57596,-133.333333333333,4,2,1,55,0,0
59059,-100,4,2,1,55,0,1
88328,-100,4,2,2,25,0,0

[Colours]
Combo1 : 251,204,166
Combo2 : 225,108,87
Combo3 : 164,165,107
SliderBorder : 255,255,255

[HitObjects]
154,68,523,6,0,P|116:104|102:152,1,90,2|0,0:0|0:0,0:0:0:0:
323,229,1254,2,0,P|287:191|239:177,1,90
159,304,1986,1,2,0:0:0:0:
323,229,2352,1,0,0:0:0:0:
157,200,2718,1,0,0:0:0:0:
288,326,3084,1,0,0:0:0:0:
250,135,3450,6,0,P|209:101|144:92,1,90,2|0,0:0|0:0,0:0:0:0:
344,194,4181,2,0,P|359:145|346:83,1,90
485,29,4913,2,0,P|471:76|472:121,1,90,2|0,0:0|0:0,0:0:0:0:
505,219,5645,1,0,0:0:0:0:
352,54,6011,2,0,P|303:44|267:42,1,45
281,55,6376,6,0,P|299:91|302:159,1,90,2|0,0:0|0:0,0:0:0:0:
198,281,7108,2,0,P|192:230|199:185,1,90
305,337,7840,1,2,0:0:0:0:
268,124,8206,2,0,B|232:91|232:91|176:78,1,90
126,210,8937,1,0,0:0:0:0:
304,240,9303,6,0,B|342:232|342:232|381:194,1,90,2|0,0:0|0:0,0:0:0:0:
353,31,10035,2,0,B|362:71|362:71|399:107,1,90
265,126,10767,1,2,0:0:0:0:
203,72,11133,1,0,0:0:0:0:
113,40,11498,1,0,0:0:0:0:
19,63,11864,1,0,0:0:0:0:
66,230,12230,5,2,0:0:0:0:
66,230,12596,2,0,L|48:174,1,45
151,244,12962,2,0,B|196:233|196:233|239:205|245:161,1,135
241,130,13693,2,0,P|234:94|246:42,1,90,2|0,0:0|0:0,0:0:0:0:
323,93,14242,2,0,L|376:83,1,45
367,84,14791,5,0,0:0:0:0:
390,86,14974,1,0,0:0:0:0:
410,97,15157,2,0,P|456:97|498:74,1,90,2|0,0:0|0:0,0:0:0:0:
491,189,15706,2,0,P|478:243|492:284,1,90
502,296,16254,1,0,0:0:0:0:
376,270,16620,2,0,B|290:257|290:257|206:300,1,180,2|0,0:0|0:0,0:0:0:0:
141,215,17718,1,0,0:0:0:0:
141,215,18084,6,0,B|134:173|134:173|143:126,1,90,2|0,0:0|0:0,0:0:0:0:
262,29,18815,2,0,B|297:71|297:71|308:109|290:178,1,135
278,184,19547,2,0,P|332:193|381:171,1,90,2|0,0:0|0:0,0:0:0:0:
394,158,20096,2,0,L|401:101,1,45
394,158,20645,5,0,0:0:0:0:
417,179,20828,1,0,0:0:0:0:
441,199,21011,2,0,B|432:248|432:248|439:300|487:329,1,135,2|0,0:0|0:0,0:0:0:0:
380,333,21742,2,0,B|333:306|333:306|286:302|236:335,1,135
235,238,22474,2,0,P|250:191|244:148,1,90,2|0,0:0|0:0,0:0:0:0:
245,151,23206,2,0,L|298:159,1,45
352,89,23572,2,0,L|376:126,1,45
472,139,23937,5,2,0:0:0:0:
370,221,24303,1,0,0:0:0:0:
488,274,24669,1,0,0:0:0:0:
377,157,25035,1,0,0:0:0:0:
308,297,25401,1,2,0:0:0:0:
488,274,25767,1,0,0:0:0:0:
389,156,26133,1,0,0:0:0:0:
241,204,26498,1,0,0:0:0:0:
110,121,26864,6,0,P|106:73|115:26,1,90,2|0,0:0|0:0,0:0:0:0:
241,204,27596,2,0,P|247:259|231:317,1,90
246,95,28328,2,0,P|307:84|345:93,1,90,2|0,0:0|0:0,0:0:0:0:
429,115,29059,1,0,0:0:0:0:
353,282,29425,1,0,0:0:0:0:
353,282,29791,6,0,B|385:250|385:250|399:201,1,90,2|0,0:0|0:0,0:0:0:0:
237,197,30523,2,0,B|207:230|207:230|189:298,1,90
320,126,31254,1,2,0:0:0:0:
481,156,31620,1,0,0:0:0:0:
339,31,31986,2,0,P|280:26|216:40,1,90
190,98,32718,5,2,0:0:0:0:
214,169,33084,1,0,0:0:0:0:
190,98,33450,5,2,0:0:0:0:
240,242,33815,1,0,0:0:0:0:
186,317,33998,1,2,0:0:0:0:
165,311,34090,1,2,0:0:0:0:
138,308,34181,2,0,P|116:311|91:328,1,45,8|2,0:0|0:0,0:0:0:0:
79,237,34547,2,0,P|96:195|97:131,1,90,12|8,0:0|0:0,0:0:0:0:
181,179,35096,1,2,0:0:0:0:
260,159,35279,1,2,0:0:0:0:
287,79,35462,1,2,0:0:0:0:
363,118,35645,6,0,P|360:157|372:222,1,90,4|2,0:0|0:0,0:0:0:0:
424,272,36193,1,2,0:0:0:0:
350,317,36376,2,0,P|306:298|271:261,1,90,8|2,0:0|0:0,0:0:0:0:
257,195,36925,1,8,0:0:0:0:
207,133,37108,2,0,B|190:122|190:122|151:116,1,45,2|8,0:0|0:0,0:0:0:0:
131,248,37474,2,0,B|145:229|145:229|147:202,1,45,2|2,3:2|0:0,0:0:0:0:
78,53,37840,2,0,P|72:97|80:142,1,90,8|2,0:0|0:0,0:0:0:0:
231,297,38572,6,0,P|226:254|242:190,1,90,2|2,0:0|0:0,0:0:0:0:
316,225,39120,1,2,0:0:0:0:
379,168,39303,2,0,B|384:148|384:148|380:117,1,45,8|2,0:0|0:0,0:0:0:0:
262,46,39669,1,2,0:0:0:0:
288,132,39852,1,8,0:0:0:0:
172,205,40035,5,2,0:0:0:0:
195,122,40218,1,8,0:0:0:0:
149,46,40401,2,0,L|52:67,1,90,2|8,3:2|0:0,0:0:0:0:
27,148,40950,1,2,0:0:0:0:
74,218,41133,2,0,B|94:198|94:198|105:174,1,45,2|8,0:0|0:0,0:0:0:0:
180,160,41498,6,0,P|212:185|259:193,1,90,4|2,0:0|0:0,0:0:0:0:
335,154,42047,1,2,0:0:0:0:
413,191,42230,2,0,L|470:180,1,45,8|2,0:0|0:0,0:0:0:0:
423,281,42596,2,0,L|370:273,1,45,2|8,0:0|0:0,0:0:0:0:
239,302,42962,1,2,0:0:0:0:
296,223,43145,1,8,0:0:0:0:
251,148,43328,2,0,P|240:102|245:57,1,90,2|8,3:2|0:0,0:0:0:0:
244,60,44059,5,2,0:0:0:0:
238,52,44242,1,2,0:0:0:0:
231,45,44425,2,0,L|130:53,1,90,2|2,0:0|0:0,0:0:0:0:
102,137,44974,1,2,0:0:0:0:
157,208,45157,2,0,P|158:233|148:265,1,45,8|2,0:0|0:0,0:0:0:0:
212,326,45523,2,0,P|232:307|254:295,1,45,2|8,0:0|0:0,0:0:0:0:
276,184,45889,2,0,L|228:228,2,45,2|8|2,0:0|0:0|3:2,0:0:0:0:
445,262,46620,1,8,0:0:0:0:
417,189,46803,1,8,0:0:0:0:
449,118,46986,1,2,0:0:0:0:
374,126,47169,1,2,0:0:0:0:
322,71,47352,6,0,P|276:78|217:62,1,90,4|2,0:0|0:0,0:0:0:0:
92,141,48084,2,0,P|123:145|172:180,1,90,8|2,0:0|0:0,0:0:0:0:
183,254,48633,1,8,0:0:0:0:
246,206,48815,2,0,P|267:193|305:185,1,45,2|8,0:0|0:0,0:0:0:0:
298,262,49181,1,2,3:2:0:0:
444,211,49547,2,0,L|423:165,1,45,8|2,0:0|0:0,0:0:0:0:
476,94,49913,2,0,L|430:78,1,45,2|8,0:0|0:0,0:0:0:0:
344,119,50279,6,0,B|303:115|281:98|281:98|254:86|216:103,1,135,2|2,0:0|0:0,0:0:0:0:
144,140,51011,2,0,P|117:135|93:118,1,45,8|2,0:0|0:0,0:0:0:0:
210,187,51376,2,0,P|240:178|258:179,1,45,2|8,0:0|0:0,0:0:0:0:
117,251,51742,5,2,0:0:0:0:
285,324,52108,1,2,3:2:0:0:
375,162,52474,1,2,0:0:0:0:
208,84,52840,1,2,3:2:0:0:
141,128,53023,1,2,0:0:0:0:
74,88,53206,5,4,0:0:0:0:
227,223,53572,1,2,0:0:0:0:
29,158,53937,2,0,L|35:255,1,90,8|2,0:0|0:0,0:0:0:0:
89,299,54486,2,0,P|139:305|192:280,1,90,8|8,0:0|0:0,0:0:0:0:
227,223,55035,2,0,L|254:260,2,45,2|2|8,3:2|0:0|0:0,0:0:0:0:
145,122,55767,2,0,L|139:70,1,45,8|2,0:0|0:0,0:0:0:0:
211,32,56133,5,2,0:0:0:0:
255,106,56315,1,2,0:0:0:0:
331,59,56498,1,8,0:0:0:0:
369,140,56680,1,2,0:0:0:0:
446,95,56864,1,8,0:0:0:0:
489,174,57047,1,2,0:0:0:0:
489,174,57139,1,2,0:0:0:0:
489,174,57230,2,0,P|485:208|477:225,1,45,2|8,0:0|0:0,0:0:0:0:
365,272,57596,6,0,P|353:208|371:136,1,135.000005149842,4|0,3:2|0:0,0:0:0:0:
369,141,59059,6,0,P|339:130|300:86,1,90,4|2,3:2|0:0,0:0:0:0:
354,26,59608,1,2,0:0:0:0:
260,26,59791,2,0,L|196:32,1,45,8|2,3:2|0:0,0:0:0:0:
126,106,60157,2,0,L|171:118,1,45,2|8,0:0|0:0,0:0:0:0:
252,185,60523,1,2,3:2:0:0:
175,215,60706,1,8,0:0:0:0:
239,267,60889,1,2,0:0:0:0:
239,267,61254,5,8,3:2:0:0:
175,215,61437,1,8,0:0:0:0:
252,185,61620,2,0,P|250:151|245:129,1,45,2|8,0:0|0:0,0:0:0:0:
334,138,61986,2,0,P|370:120|403:68,1,90,2|2,3:2|0:0,0:0:0:0:
440,276,62718,2,0,P|431:232|440:188,1,90,8|2,3:2|0:0,0:0:0:0:
345,227,63267,2,0,L|322:282,2,45,8|2|8,0:0|3:2|0:0,0:0:0:0:
338,146,63815,1,2,0:0:0:0:
338,146,64181,1,8,3:2:0:0:
300,78,64364,1,2,0:0:0:0:
236,42,64547,1,8,0:0:0:0:
164,53,64730,1,8,0:0:0:0:
99,98,64913,6,0,P|57:106|3:84,1,90,4|2,3:2|0:0,0:0:0:0:
127,235,65645,2,0,P|162:222|223:229,1,90,8|2,3:2|0:0,0:0:0:0:
271,280,66193,1,8,0:0:0:0:
295,203,66376,2,0,P|286:176|289:152,1,45,2|8,3:2|0:0,0:0:0:0:
394,242,66742,2,0,P|398:182|376:139,1,90,2|8,0:0|3:2,0:0:0:0:
387,155,67474,5,8,0:0:0:0:
394,129,67657,1,2,0:0:0:0:
396,102,67840,2,0,L|386:53,1,45,2|2,3:2|0:0,0:0:0:0:
302,100,68206,2,0,L|286:147,1,45,8|2,0:0|0:0,0:0:0:0:
212,193,68572,1,8,3:2:0:0:
137,210,68754,1,8,0:0:0:0:
70,171,68937,1,2,0:0:0:0:
52,95,69120,1,8,0:0:0:0:
90,29,69303,2,0,L|134:6,2,45,2|2|4,3:2|0:0|0:0,0:0:0:0:
235,28,70035,2,0,P|229:57|233:93,1,45,8|8,3:2|0:0,0:0:0:0:
323,101,70401,2,0,P|319:78|311:57,1,45,2|8,0:0|0:0,0:0:0:0:
288,185,70767,6,0,L|391:169,1,90,4|2,3:2|0:0,0:0:0:0:
221,298,71498,2,0,L|324:282,1,90,8|2,3:2|0:0,0:0:0:0:
376,327,72047,1,8,0:0:0:0:
426,266,72230,2,0,P|431:244|428:211,1,45,2|8,3:2|0:0,0:0:0:0:
488,154,72596,2,0,P|473:132|453:117,1,45,2|2,0:0|0:0,0:0:0:0:
379,146,72962,2,0,P|368:101|381:51,1,90,8|2,3:2|0:0,0:0:0:0:
259,119,73693,6,0,P|270:164|257:214,1,90,2|2,3:2|0:0,0:0:0:0:
205,269,74242,1,2,0:0:0:0:
134,226,74425,2,0,P|105:230|77:249,1,45,8|2,3:2|0:0,0:0:0:0:
88,101,74791,2,0,P|103:123|121:136,1,45,2|8,0:0|0:0,0:0:0:0:
206,160,75157,2,0,P|246:133|287:121,1,90,2|2,3:2|0:0,0:0:0:0:
440,231,75889,2,0,P|406:209|376:163,1,90,8|2,3:2|0:0,0:0:0:0:
364,87,76437,1,8,0:0:0:0:
425,26,76620,5,4,3:2:0:0:
279,105,76986,1,2,0:0:0:0:
126,49,77352,2,0,P|96:50|64:63,1,45,8|2,3:2|0:0,0:0:0:0:
32,123,77718,1,2,0:0:0:0:
97,180,77901,1,8,0:0:0:0:
54,256,78084,2,0,L|63:306,2,45,2|2|8,3:2|0:0|0:0,0:0:0:0:
205,268,78815,2,0,L|187:178,1,90,8|2,3:2|0:0,0:0:0:0:
220,104,79364,1,8,0:0:0:0:
298,130,79547,6,0,P|335:127|382:92,1,90,2|2,3:2|0:0,0:0:0:0:
499,210,80279,2,0,P|463:199|398:212,1,90,8|2,3:2|0:0,0:0:0:0:
349,257,80828,1,8,0:0:0:0:
290,202,81011,1,2,3:2:0:0:
221,245,81193,2,0,L|175:225,2,45,2|8|2,0:0|0:0|0:0,0:0:0:0:
101,282,81742,2,0,P|87:249|88:228,1,45,8|8,3:2|0:0,0:0:0:0:
122,115,82108,2,0,P|129:146|122:171,1,45,2|8,0:0|0:0,0:0:0:0:
198,50,82474,6,0,P|216:79|221:137,1,90,4|2,3:2|0:0,0:0:0:0:
215,210,83023,1,2,0:0:0:0:
291,230,83206,2,0,L|352:219,1,45,8|2,3:2|0:0,0:0:0:0:
436,165,83572,2,0,L|392:144,1,45,2|8,0:0|0:0,0:0:0:0:
329,80,83937,1,2,3:2:0:0:
251,114,84120,1,2,0:0:0:0:
222,35,84303,1,8,0:0:0:0:
222,35,84669,5,8,0:0:0:0:
251,114,84852,1,8,0:0:0:0:
204,185,85035,1,2,0:0:0:0:
124,206,85218,1,8,0:0:0:0:
54,156,85401,5,2,3:2:0:0:
25,264,85584,1,2,0:0:0:0:
25,264,85675,1,2,0:0:0:0:
25,264,85767,2,0,L|37:325,1,45,8|2,0:0|0:0,0:0:0:0:
213,327,86133,1,8,3:2:0:0:
122,282,86315,1,8,0:0:0:0:
270,251,86498,2,0,P|299:249|328:265,1,45,2|8,0:0|0:0,0:0:0:0:
184,202,86864,6,0,B|183:154|212:121|212:121|165:97|172:37,1,180,4|0,0:0|0:0,0:0:0:0:
171,44,88328,1,2,0:0:0:0:
