osu file format v14

[General]
AudioFilename: audio.mp3
AudioLeadIn: 0
PreviewTime: 77982
Countdown: 0
SampleSet: Soft
StackLeniency: 0.7
Mode: 0
LetterboxInBreaks: 0
WidescreenStoryboard: 0

[Editor]
DistanceSpacing: 1.3
BeatDivisor: 4
GridSize: 4
TimelineZoom: 1

[Metadata]
Title:Eiya no Parade
TitleUnicode:永夜のパレード
Artist:keekihime * Yuumi & JUMA
ArtistUnicode:ケーキ姫☆優海&JUMA
Creator:assassincread
Version:Lunatic
Source:東方永夜抄 ~ Imperishable Night.
Tags:c81 Yagokoro Eirin Houraisan Kaguya night five colours Arte Refact DreaM117er touhou 東方Project 千年幻想郷 ~ history of the moon 竹取飛翔 ~ lunatic princess
BeatmapID:1480585
BeatmapSetID:593445

[Difficulty]
HPDrainRate:7
CircleSize:3.5
OverallDifficulty:7
ApproachRate:8
SliderMultiplier:1.8
SliderTickRate:1

[Events]
//Background and Video events
0,0,"BG.jpg",0,0
//Break Periods
//Storyboard Layer 0 (Background)
//Storyboard Layer 1 (Fail)
//Storyboard Layer 2 (Pass)
//Storyboard Layer 3 (Foreground)
//Storyboard Sound Samples

[TimingPoints]
3564,465.116279069767,4,2,2,60,1,0
16587,-100,4,1,0,40,0,0
17517,-100,4,2,3,80,0,0
18912,-100,4,2,1,80,0,0
19377,-100,4,2,2,80,0,0
19494,-100,4,2,1,80,0,0
21238,-100,4,2,2,80,0,0
21354,-100,4,2,1,80,0,0
23098,-100,4,2,2,80,0,0
23215,-100,4,2,1,80,0,0
24959,-100,4,2,2,80,0,0
25191,-100,4,2,1,80,0,0
25889,-100,4,2,3,80,0,0
26005,-100,4,2,1,80,0,0
26819,-100,4,2,2,80,0,0
26936,-100,4,2,1,80,0,0
28680,-100,4,2,2,80,0,0
28796,-100,4,2,1,80,0,0
30540,-100,4,2,2,80,0,0
30657,-100,4,2,1,80,0,0
32401,-100,4,2,2,80,0,0
32633,-100,4,2,1,80,0,0
33331,-100,4,2,3,80,0,0
33563,-100,4,2,1,80,0,0
34261,-100,4,2,2,80,0,0
34494,-100,4,2,1,80,0,0
36122,-100,4,2,2,80,0,0
36354,-100,4,2,1,80,0,0
37982,-100,4,2,2,80,0,0
38215,-100,4,2,1,80,0,0
39843,-100,4,2,2,80,0,0
40075,-100,4,2,1,80,0,0
40773,-100,4,2,3,80,0,0
41005,-100,4,2,1,80,0,0
41703,-100,4,2,2,80,0,0
41936,-100,4,2,1,80,0,0
43563,-100,4,2,2,80,0,0
43796,-100,4,2,1,80,0,0
44494,-100,4,2,3,80,0,0
44726,-100,4,2,1,80,0,0
45424,-100,4,2,2,80,0,0
45657,-100,4,2,1,80,0,0
47284,-100,4,2,2,80,0,0
47517,-100,4,2,1,80,0,0
48215,-133.333333333333,4,2,2,80,0,0
48331,-133.333333333333,4,2,4,60,0,0
63098,-133.333333333333,4,2,2,80,0,0
63563,-133.333333333333,4,2,4,60,0,0
77982,-100,4,2,5,70,0,0
91005,-100,4,2,4,70,0,0
92866,-100,4,2,3,80,0,1
93098,-100,4,2,6,80,0,1
107750,-100,4,2,3,80,0,1
107982,-100,4,2,6,80,0,1
122633,-100,4,2,3,70,0,0
123098,-100,4,2,1,70,0,0
123563,-100,4,2,2,70,0,0
123796,-100,4,2,1,70,0,0
125424,-100,4,2,2,70,0,0
125657,-100,4,2,1,70,0,0
127284,-100,4,2,2,70,0,0
127517,-100,4,2,1,70,0,0
129145,-100,4,2,2,70,0,0
129377,-100,4,2,1,70,0,0
130075,-100,4,2,3,70,0,0
130308,-100,4,2,1,70,0,0
131005,-100,4,2,2,70,0,0
131238,-100,4,2,1,70,0,0
132866,-100,4,2,2,70,0,0
133098,-100,4,2,1,70,0,0
133796,-100,4,2,3,70,0,0
134029,-100,4,2,1,70,0,0
134726,-100,4,2,2,70,0,0
134959,-100,4,2,1,70,0,0
135889,-100,4,2,1,40,0,0
136587,-100,4,2,7,15,0,0

[Colours]
Combo1 : 245,69,180
Combo2 : 160,66,255
Combo3 : 77,255,255
Combo4 : 255,255,32

[HitObjects]
72,64,3563,5,12,0:0:0:0:
440,64,4029,1,0,0:0:0:0:
152,256,4494,2,0,P|100:272|56:272,1,90
296,172,4959,2,0,P|340:164|396:164,1,90
200,176,5424,6,0,B|115:176|30:116|49:41|128:40|148:80|136:116,1,270
128,296,6354,2,0,B|100:276|80:316|128:352|176:336|216:304|228:272,1,180
52,128,7284,5,4,0:0:0:0:
404,88,7750,1,0,0:0:0:0:
284,72,7982,2,0,P|320:160|400:196,1,180
492,156,8680,1,0,0:0:0:0:
292,256,8912,6,0,P|192:244|96:268,1,180
16,300,9610,2,0,P|56:340|88:356,1,90
270,184,10075,2,0,P|166:212|106:272,1,180
448,276,11005,5,4,0:0:0:0:
64,108,11470,1,0,0:0:0:0:
352,104,11936,1,0,0:0:0:0:
252,68,12168,1,0,0:0:0:0:
352,104,12401,2,0,P|400:100|456:104,1,90
200,160,12866,6,0,B|-4:199|-28:136|12:68|52:96|64:144,1,270
88,312,13796,2,0,B|52:324|76:360|112:364|160:320|164:244,1,180
164,132,14494,1,0,0:0:0:0:
104,32,14726,1,12,0:0:0:0:
256,192,14843,12,0,16587,0:0:0:0:
256,332,17052,5,0,0:0:0:0:
56,80,17517,1,0,0:0:0:0:
456,80,17982,1,0,0:0:0:0:
80,248,18447,6,0,P|132:208|168:196,1,90,12|0,0:0|0:0,0:0:0:0:
428,268,18912,2,0,P|372:260|332:232,1,90,2|0,0:0|0:0,0:0:0:0:
200,80,19377,2,0,L|300:56,1,90,2|0,0:0|0:0,0:0:0:0:
476,104,19843,2,0,L|376:128,1,90,8|0,0:0|0:0,0:0:0:0:
108,192,20308,5,4,0:0:0:0:
296,244,20540,1,0,0:0:0:0:
104,280,20773,1,2,0:0:0:0:
256,128,21005,1,0,0:0:0:0:
432,200,21238,2,0,P|404:248|364:272,1,90,2|8,0:0|0:0,0:0:0:0:
104,280,21703,2,0,P|148:256|192:248,1,90,8|0,0:0|0:0,0:0:0:0:
424,328,22168,5,4,0:0:0:0:
296,176,22401,1,0,0:0:0:0:
440,196,22633,1,2,0:0:0:0:
280,308,22866,1,0,0:0:0:0:
108,200,23098,2,0,P|56:196|8:208,1,90,2|0,0:0|0:0,0:0:0:0:
184,64,23563,1,8,0:0:0:0:
300,204,23796,6,0,P|396:216|484:200,1,180
352,324,24494,2,0,P|292:328|252:324,1,90,2|0,0:0|0:0,0:0:0:0:
76,264,24959,1,2,0:0:0:0:
301,111,25191,5,0,0:0:0:0:
76,264,25424,1,8,0:0:0:0:
418,157,25889,6,0,P|428:113|417:71,1,90,12|0,0:0|0:0,0:0:0:0:
185,72,26354,2,0,P|173:115|185:159,1,90,2|0,0:0|0:0,0:0:0:0:
416,260,26819,2,0,P|357:231|318:221,1,90,2|0,0:0|0:0,0:0:0:0:
120,320,27284,2,0,P|181:298|216:278,1,90,8|0,0:0|0:0,0:0:0:0:
28,192,27750,5,4,0:0:0:0:
188,196,27982,1,0,0:0:0:0:
43,282,28215,1,2,0:0:0:0:
203,286,28447,1,0,0:0:0:0:
322,124,28680,2,0,P|378:124|438:132,1,90,2|0,0:0|0:0,0:0:0:0:
236,204,29145,2,0,P|180:204|120:212,1,90,8|0,0:0|0:0,0:0:0:0:
316,276,29610,5,4,0:0:0:0:
412,128,29843,1,0,0:0:0:0:
200,116,30075,2,0,P|144:111|85:96,1,90,2|0,0:0|0:0,0:0:0:0:
324,180,30540,2,0,P|372:208|419:246,1,90,2|0,0:0|0:0,0:0:0:0:
56,192,31005,1,8,0:0:0:0:
56,192,31238,1,0,0:0:0:0:
432,80,31703,5,0,0:0:0:0:
256,136,31936,1,2,0:0:0:0:
328,56,32168,1,0,0:0:0:0:
188,220,32401,1,2,0:0:0:0:
432,80,32633,5,8,0:0:0:0:
84,196,32866,1,8,0:0:0:0:
468,280,33331,6,0,P|408:276|372:280,1,90,12|0,0:0|0:0,0:0:0:0:
156,324,33796,2,0,P|204:312|248:280,1,90,2|0,0:0|0:0,0:0:0:0:
232,100,34261,1,2,0:0:0:0:
384,156,34494,1,0,0:0:0:0:
192,192,34726,1,8,0:0:0:0:
344,248,34959,1,0,0:0:0:0:
96,204,35191,6,0,P|52:164|32:136,1,90,4|0,0:0|0:0,0:0:0:0:
296,128,35657,2,0,P|340:124|412:128,1,90,2|0,0:0|0:0,0:0:0:0:
160,284,36122,2,0,P|204:288|276:284,1,90,2|8,0:0|0:0,0:0:0:0:
460,252,36587,2,0,P|416:248|344:252,1,90,8|0,0:0|0:0,0:0:0:0:
156,204,37052,5,4,0:0:0:0:
68,96,37284,1,0,0:0:0:0:
252,204,37517,1,2,0:0:0:0:
340,96,37750,1,0,0:0:0:0:
68,184,37982,1,2,0:0:0:0:
332,184,38215,1,0,0:0:0:0:
144,52,38447,5,8,0:0:0:0:
256,316,38680,1,0,0:0:0:0:
468,48,39145,5,0,0:0:0:0:
284,128,39377,2,0,P|236:132|184:120,1,90,2|0,0:0|0:0,0:0:0:0:
392,164,39843,2,0,P|440:160|492:172,1,90,2|8,0:0|0:0,0:0:0:0:
88,112,40308,1,8,0:0:0:0:
432,272,40773,5,12,0:0:0:0:
232,316,41005,1,0,0:0:0:0:
384,172,41238,1,2,0:0:0:0:
184,216,41470,1,0,0:0:0:0:
280,96,41703,2,0,P|320:68|364:48,1,90,2|0,0:0|0:0,0:0:0:0:
184,216,42168,1,8,0:0:0:0:
64,196,42401,1,0,0:0:0:0:
160,88,42633,6,0,P|100:84|48:84,1,90,4|0,0:0|0:0,0:0:0:0:
304,244,43098,2,0,P|364:248|416:248,1,90,2|0,0:0|0:0,0:0:0:0:
152,308,43563,1,2,0:0:0:0:
68,184,43796,1,8,0:0:0:0:
360,76,44029,1,8,0:0:0:0:
452,196,44262,1,0,0:0:0:0:
232,136,44494,6,0,P|180:128|136:124,1,90,4|0,0:0|0:0,0:0:0:0:
16,304,44959,2,0,P|64:288|104:264,1,90,2|0,0:0|0:0,0:0:0:0:
40,72,45424,1,2,0:0:0:0:
196,248,45657,1,0,0:0:0:0:
44,180,45889,1,8,0:0:0:0:
288,184,46122,1,0,0:0:0:0:
288,184,46587,5,0,0:0:0:0:
44,180,46820,1,2,0:0:0:0:
196,248,47052,1,0,0:0:0:0:
40,72,47285,1,2,0:0:0:0:
368,100,47517,5,8,0:0:0:0:
44,180,47750,2,0,P|92:144|128:128,1,90,8|0,0:0|0:0,0:0:0:0:
436,296,48215,6,0,P|388:304|356:300,2,67.5000025749208,14|2|0,0:0|0:0|0:0,0:0:0:0:
168,248,49145,2,0,P|96:236|24:244,1,135.000005149842
16,140,49843,1,2,0:0:0:0:
16,140,49959,1,0,0:0:0:0:
16,140,50075,1,0,0:0:0:0:
104,88,50308,6,0,P|144:88|176:88,1,67.5000025749208,2|0,0:0|0:0,0:0:0:0:
260,132,50773,1,2,0:0:0:0:
260,132,50889,1,0,0:0:0:0:
260,132,51005,1,0,0:0:0:0:
356,100,51238,1,2,0:0:0:0:
176,188,51470,1,0,0:0:0:0:
356,100,51703,1,2,0:0:0:0:
64,248,51936,5,8,0:0:0:0:
324,324,52401,1,8,0:0:0:0:
404,264,52633,1,2,0:0:0:0:
404,264,52750,1,0,0:0:0:0:
404,264,52866,1,8,0:0:0:0:
460,180,53098,1,2,0:0:0:0:
368,132,53331,2,0,P|320:128|272:132,1,67.5000025749208,8|2,0:0|0:0,0:0:0:0:
488,80,53796,5,8,0:0:0:0:
176,160,54261,1,8,0:0:0:0:
84,116,54494,1,2,0:0:0:0:
84,116,54610,1,0,0:0:0:0:
84,116,54726,1,8,0:0:0:0:
172,64,54959,1,2,0:0:0:0:
260,112,55191,2,0,P|304:116|344:116,1,67.5000025749208,8|2,0:0|0:0,0:0:0:0:
44,208,55657,5,8,0:0:0:0:
328,328,56122,1,8,0:0:0:0:
256,256,56354,1,2,0:0:0:0:
256,256,56470,1,0,0:0:0:0:
256,256,56587,1,8,0:0:0:0:
184,328,56819,1,2,0:0:0:0:
104,268,57052,2,0,P|64:260|32:256,1,67.5000025749208,8|2,0:0|0:0,0:0:0:0:
300,176,57517,5,8,0:0:0:0:
16,96,57982,1,8,0:0:0:0:
100,36,58215,1,2,0:0:0:0:
100,36,58331,1,0,0:0:0:0:
100,36,58447,1,8,0:0:0:0:
176,104,58680,1,2,0:0:0:0:
92,160,58912,2,0,P|92:200|96:232,1,67.5000025749208,8|2,0:0|0:0,0:0:0:0:
336,328,59377,5,8,0:0:0:0:
32,312,59843,1,8,0:0:0:0:
95,227,60075,1,2,0:0:0:0:
95,227,60191,1,0,0:0:0:0:
95,227,60308,1,8,0:0:0:0:
196,244,60540,1,2,0:0:0:0:
248,156,60773,2,0,P|216:144|180:144,1,67.5000025749208,8|2,0:0|0:0,0:0:0:0:
344,280,61238,5,8,0:0:0:0:
95,227,61470,1,8,0:0:0:0:
340,184,61703,1,8,0:0:0:0:
132,316,61936,1,8,0:0:0:0:
360,160,62401,5,8,0:0:0:0:
108,336,62633,2,0,P|64:324|32:300,1,67.5000025749208,8|0,0:0|0:0,0:0:0:0:
344,260,63098,6,0,P|424:248|488:252,1,135.000005149842,12|8,0:0|0:0,0:0:0:0:
488,148,63796,1,2,0:0:0:0:
488,148,63912,1,0,0:0:0:0:
488,148,64029,1,8,0:0:0:0:
408,88,64261,2,0,P|368:88|340:84,1,67.5000025749208,2|8,0:0|0:0,0:0:0:0:
152,172,64726,5,2,0:0:0:0:
152,172,64843,1,0,0:0:0:0:
152,172,64959,1,8,0:0:0:0:
280,188,65191,1,2,0:0:0:0:
184,56,65424,1,8,0:0:0:0:
52,240,65657,1,2,0:0:0:0:
176,260,65889,5,8,0:0:0:0:
176,260,66005,1,0,0:0:0:0:
176,260,66122,1,2,0:0:0:0:
80,120,66354,1,8,0:0:0:0:
176,260,66587,1,2,0:0:0:0:
352,164,66819,6,0,P|428:156|496:164,1,135.000005149842,8|8,0:0|0:0,0:0:0:0:
468,60,67517,1,2,0:0:0:0:
468,60,67633,1,0,0:0:0:0:
468,60,67750,1,8,0:0:0:0:
368,44,67982,2,0,P|328:44|296:56,1,67.5000025749208,2|8,0:0|0:0,0:0:0:0:
156,208,68447,5,2,0:0:0:0:
156,208,68563,1,0,0:0:0:0:
156,208,68680,1,8,0:0:0:0:
320,204,68912,1,2,0:0:0:0:
172,308,69145,2,0,P|128:304|84:280,1,67.5000025749208,8|2,0:0|0:0,0:0:0:0:
320,216,69610,2,0,P|364:220|408:244,1,67.5000025749208,8|2,0:0|0:0,0:0:0:0:
480,272,70075,1,8,0:0:0:0:
500,76,70308,1,2,0:0:0:0:
316,140,70540,6,0,P|236:148|168:140,1,135.000005149842,8|8,0:0|0:0,0:0:0:0:
100,84,71238,1,2,0:0:0:0:
100,84,71354,1,0,0:0:0:0:
100,84,71470,1,8,0:0:0:0:
12,136,71703,2,0,P|0:172|8:216,1,67.5000025749208,2|8,0:0|0:0,0:0:0:0:
128,332,72168,5,2,0:0:0:0:
128,332,72284,1,0,0:0:0:0:
128,332,72401,1,8,0:0:0:0:
208,168,72633,1,2,0:0:0:0:
20,300,72866,1,8,0:0:0:0:
100,136,73098,1,2,0:0:0:0:
236,364,73331,5,8,0:0:0:0:
236,364,73447,1,0,0:0:0:0:
236,364,73563,1,2,0:0:0:0:
308,268,73796,1,8,0:0:0:0:
188,256,74029,1,2,0:0:0:0:
380,160,74261,6,0,P|448:148|512:156,1,135.000005149842,8|8,0:0|0:0,0:0:0:0:
476,60,74959,1,2,0:0:0:0:
476,60,75075,1,0,0:0:0:0:
476,60,75191,1,8,0:0:0:0:
376,64,75424,2,0,P|340:72|312:88,1,67.5000025749208,2|8,0:0|0:0,0:0:0:0:
140,212,75889,5,2,0:0:0:0:
140,212,76005,1,0,0:0:0:0:
140,212,76122,1,8,0:0:0:0:
256,200,76354,1,2,0:0:0:0:
40,272,76587,1,8,0:0:0:0:
168,120,76819,5,2,0:0:0:0:
192,112,76936,1,2,0:0:0:0:
216,104,77052,1,8,0:0:0:0:
240,100,77168,1,2,0:0:0:0:
264,96,77284,1,2,0:0:0:0:
424,124,77517,2,0,L|336:152,1,67.5000025749208,8|2,0:0|0:0,0:0:0:0:
168,120,77982,5,4,0:0:0:0:
340,248,78215,1,0,1:0:0:0:
124,228,78447,1,10,0:0:0:0:
340,248,78680,1,0,1:0:0:0:
428,64,78912,1,4,0:0:0:0:
256,192,79145,1,0,1:0:0:0:
472,172,79377,1,10,0:0:0:0:
256,192,79610,1,0,1:0:0:0:
112,152,79843,6,0,P|136:104|148:68,1,90,4|0,0:0|1:0,0:0:0:0:
328,120,80308,2,0,P|376:144|412:156,1,90,10|0,0:0|1:0,0:0:0:0:
345,276,80773,2,0,P|388:291|428:312,1,90,4|8,0:0|1:0,0:0:0:0:
152,288,81238,2,0,P|194:273|234:252,1,90,10|0,0:0|1:0,0:0:0:0:
56,212,81703,5,4,0:0:0:0:
148,112,81936,1,0,1:0:0:0:
456,172,82168,1,10,0:0:0:0:
364,272,82401,1,0,1:0:0:0:
148,112,82633,1,4,0:0:0:0:
268,84,82866,1,0,1:0:0:0:
364,272,83098,1,10,0:0:0:0:
244,300,83331,1,0,1:0:0:0:
360,164,83563,6,0,P|408:160|452:148,1,90,4|0,0:0|1:0,0:0:0:0:
136,112,84029,2,0,P|88:132|56:160,1,90,10|0,0:0|1:0,0:0:0:0:
140,324,84494,2,0,P|160:276|160:228,1,90,4|0,0:0|1:0,0:0:0:0:
59,156,84959,1,10,0:0:0:0:
32,280,85191,1,8,1:0:0:0:
240,160,85424,5,4,0:0:0:0:
436,296,85657,1,0,1:0:0:0:
240,248,85889,1,10,0:0:0:0:
436,112,86122,1,0,1:0:0:0:
160,204,86354,1,4,0:0:0:0:
328,300,86587,1,8,1:0:0:0:
232,140,86819,1,10,0:0:0:0:
104,280,87052,1,0,1:0:0:0:
232,140,87284,6,0,L|252:44,1,90,4|0,0:0|1:0,0:0:0:0:
336,224,87750,2,0,L|428:192,1,90,10|0,0:0|1:0,0:0:0:0:
224,252,88215,1,4,0:0:0:0:
344,108,88447,1,8,1:0:0:0:
224,252,88680,1,10,0:0:0:0:
344,108,88912,1,0,1:0:0:0:
108,168,89145,6,0,P|88:212|84:264,1,90,4|0,0:0|1:0,0:0:0:0:
344,108,89610,2,0,P|300:88|248:84,1,90,10|0,0:0|1:0,0:0:0:0:
388,324,90075,2,0,P|408:280|412:228,1,90,4|0,0:0|1:0,0:0:0:0:
256,192,90540,1,10,0:0:0:0:
432,124,90773,1,8,1:0:0:0:
80,260,91005,5,8,0:0:0:0:
432,260,91470,1,0,0:0:0:0:
80,260,91936,5,8,0:0:0:0:
80,260,92052,1,8,0:0:0:0:
432,260,92284,1,8,0:0:0:0:
432,260,92401,2,0,P|460:228|504:200,1,90,8|0,0:0|0:0,0:0:0:0:
312,92,92866,6,0,P|264:92|208:96,1,90,4|0,0:0|0:0,0:0:0:0:
16,324,93331,2,0,P|68:312|116:280,1,90,10|0,0:0|0:0,0:0:0:0:
222,94,93796,1,4,0:0:0:0:
52,192,94029,1,0,0:0:0:0:
208,324,94261,2,0,P|268:324|300:308,1,90,10|0,0:0|0:0,0:0:0:0:
512,204,94726,6,0,P|420:184|320:212,1,180,4|10,0:0|0:0,0:0:0:0:
236,112,95424,1,0,0:0:0:0:
236,112,95540,1,0,0:0:0:0:
236,112,95657,1,4,0:0:0:0:
408,68,95889,5,8,0:0:0:0:
144,256,96122,1,10,0:0:0:0:
40,172,96354,1,0,0:0:0:0:
256,340,96587,5,4,0:0:0:0:
472,60,97052,1,10,0:0:0:0:
316,116,97284,2,0,P|264:120|208:112,1,90,0|4,0:0|0:0,0:0:0:0:
400,236,97750,2,0,P|452:232|508:240,1,90,0|10,0:0|0:0,0:0:0:0:
276,320,98215,5,0,0:0:0:0:
276,320,98331,1,0,0:0:0:0:
276,320,98447,2,0,P|216:304|168:272,1,90,4|0,0:0|0:0,0:0:0:0:
60,116,98912,2,0,P|120:132|168:164,1,90,10|0,0:0|0:0,0:0:0:0:
56,244,99377,1,4,0:0:0:0:
376,152,99610,5,8,0:0:0:0:
148,336,99843,1,10,0:0:0:0:
280,308,100075,1,0,0:0:0:0:
60,116,100308,5,4,0:0:0:0:
400,280,100773,1,10,0:0:0:0:
476,168,101005,1,0,0:0:0:0:
476,168,101122,1,0,0:0:0:0:
476,168,101238,1,4,0:0:0:0:
288,224,101470,1,0,0:0:0:0:
356,108,101703,2,0,P|388:64|436:40,1,90,10|0,0:0|0:0,0:0:0:0:
188,104,102168,6,0,P|96:96|4:120,1,180,4|10,0:0|0:0,0:0:0:0:
104,288,102866,1,0,0:0:0:0:
292,244,103098,6,0,P|340:236|392:244,1,90,4|8,0:0|0:0,0:0:0:0:
104,288,103563,2,0,P|56:296|4:288,1,90,10|0,0:0|0:0,0:0:0:0:
224,168,104029,5,4,0:0:0:0:
120,80,104261,1,0,0:0:0:0:
248,36,104494,1,10,0:0:0:0:
296,40,104610,1,4,0:0:0:0:
344,48,104726,1,0,0:0:0:0:
392,56,104843,1,0,0:0:0:0:
440,64,104959,1,4,0:0:0:0:
292,284,105191,5,0,0:0:0:0:
372,176,105424,1,10,0:0:0:0:
324,166,105540,1,4,0:0:0:0:
276,152,105657,1,0,0:0:0:0:
228,143,105773,1,0,0:0:0:0:
181,133,105889,1,4,0:0:0:0:
52,96,106122,1,0,0:0:0:0:
116,244,106354,6,0,P|144:288|184:320,1,90,10|0,0:0|0:0,0:0:0:0:
448,240,106819,1,8,0:0:0:0:
448,240,106936,2,0,P|400:232|352:232,1,90,14|8,0:0|0:0,0:0:0:0:
308,148,107284,2,0,L|340:100,1,45,14|0,0:0|0:0,0:0:0:0:
436,116,107517,2,0,L|404:164,1,45
208,248,107750,6,0,P|160:256|100:244,1,90,4|0,0:0|0:0,0:0:0:0:
392,40,108215,2,0,P|440:32|500:44,1,90,10|0,0:0|0:0,0:0:0:0:
308,148,108680,1,4,0:0:0:0:
184,96,108912,1,0,0:0:0:0:
308,148,109145,2,0,P|364:152|412:144,1,90,10|0,0:0|0:0,0:0:0:0:
132,196,109610,6,0,P|76:192|28:200,1,90,4|0,0:0|0:0,0:0:0:0:
96,88,110075,1,10,0:0:0:0:
224,260,110308,1,0,0:0:0:0:
224,260,110424,1,0,0:0:0:0:
224,260,110540,1,4,0:0:0:0:
420,136,110773,5,8,0:0:0:0:
92,284,111005,1,10,0:0:0:0:
8,176,111238,1,0,0:0:0:0:
224,260,111470,5,4,0:0:0:0:
480,80,111936,1,10,0:0:0:0:
356,148,112168,2,0,P|392:188|428:208,1,90,0|4,0:0|0:0,0:0:0:0:
180,144,112633,2,0,P|136:136|80:136,1,90,0|10,0:0|0:0,0:0:0:0:
252,312,113098,5,0,0:0:0:0:
252,312,113215,1,0,0:0:0:0:
252,312,113331,2,0,P|296:320|352:320,1,90,4|0,0:0|0:0,0:0:0:0:
488,136,113796,2,0,L|448:236,1,90,10|0,0:0|0:0,0:0:0:0:
284,128,114261,1,4,0:0:0:0:
404,44,114494,5,8,0:0:0:0:
168,212,114726,1,10,0:0:0:0:
56,132,114959,1,0,0:0:0:0:
284,304,115191,5,4,0:0:0:0:
480,84,115657,1,10,0:0:0:0:
348,60,115889,1,0,0:0:0:0:
348,60,116005,1,0,0:0:0:0:
348,60,116122,1,4,0:0:0:0:
460,184,116354,1,0,0:0:0:0:
328,160,116587,2,0,P|280:164|236:184,1,90,10|0,0:0|0:0,0:0:0:0:
28,312,117052,6,0,P|64:248|44:132,1,180,4|10,0:0|0:0,0:0:0:0:
180,72,117750,1,0,0:0:0:0:
180,72,117866,1,0,0:0:0:0:
180,72,117982,2,0,P|236:80|272:72,1,90,4|8,0:0|0:0,0:0:0:0:
488,232,118447,2,0,P|432:224|396:232,1,90,10|0,0:0|0:0,0:0:0:0:
208,336,118912,6,0,P|252:256|212:176,1,180,4|10,0:0|0:0,0:0:0:0:
60,236,119610,1,0,0:0:0:0:
60,236,119726,1,0,0:0:0:0:
60,236,119843,2,0,P|108:256|148:256,1,90,4|0,0:0|0:0,0:0:0:0:
320,64,120308,1,10,0:0:0:0:
144,120,120540,1,0,0:0:0:0:
144,120,120657,1,0,0:0:0:0:
144,120,120773,2,0,P|96:124|36:120,1,90,4|0,0:0|0:0,0:0:0:0:
396,248,121238,1,10,0:0:0:0:
256,192,121354,12,12,122633,0:0:0:0:
420,192,123098,5,2,0:0:0:0:
92,192,123563,1,2,0:0:0:0:
184,136,123796,1,0,0:0:0:0:
92,192,124029,2,0,P|48:204|0:212,1,90,8|0,0:0|0:0,0:0:0:0:
276,84,124494,6,0,P|368:80|472:112,1,180,4|2,0:0|0:0,0:0:0:0:
212,304,125424,1,2,0:0:0:0:
52,240,125657,1,8,0:0:0:0:
324,176,125889,2,0,P|376:160|440:160,1,90,8|0,0:0|0:0,0:0:0:0:
196,92,126354,6,0,P|104:72|12:76,1,180,4|2,0:0|0:0,0:0:0:0:
352,284,127284,2,0,P|400:264|440:220,1,90,2|0,0:0|0:0,0:0:0:0:
200,200,127750,2,0,P|152:196|108:200,1,90,8|0,0:0|0:0,0:0:0:0:
256,44,128215,5,4,0:0:0:0:
440,320,128680,1,2,0:0:0:0:
72,320,129145,1,2,0:0:0:0:
256,192,129377,1,8,0:0:0:0:
72,320,129610,2,0,P|28:292|4:256,1,90,8|0,0:0|0:0,0:0:0:0:
256,192,130075,6,0,P|352:172|444:184,1,180,12|2,0:0|0:0,0:0:0:0:
120,152,131005,1,2,0:0:0:0:
48,72,131238,1,0,0:0:0:0:
152,48,131470,2,0,P|208:48|256:64,1,90,8|0,0:0|0:0,0:0:0:0:
32,228,131936,5,4,0:0:0:0:
132,188,132168,1,0,0:0:0:0:
116,296,132401,1,2,0:0:0:0:
400,252,132866,1,2,0:0:0:0:
256,296,133098,1,8,0:0:0:0:
472,132,133331,2,0,P|436:88|392:64,1,90,8|0,0:0|0:0,0:0:0:0:
148,192,133796,6,0,P|260:192|328:164,1,180,4|2,0:0|0:0,0:0:0:0:
64,88,134726,1,2,0:0:0:0:
336,272,135191,1,8,0:0:0:0:
264,156,135424,2,0,P|228:184|208:224,1,90,0|4,0:0|0:0,0:0:0:0:
460,208,135889,2,0,P|432:172|392:152,1,90,0|2,0:0|0:0,0:0:0:0:
336,272,136354,1,0,0:0:0:0:
336,272,136587,1,8,0:0:0:0:
