osu file format v14

[General]
AudioFilename: audio.mp3
AudioLeadIn: 0
PreviewTime: 77982
Countdown: 0
SampleSet: Soft
StackLeniency: 0.7
Mode: 0
LetterboxInBreaks: 0
WidescreenStoryboard: 0

[Editor]
DistanceSpacing: 1.5
BeatDivisor: 4
GridSize: 4
TimelineZoom: 1.2

[Metadata]
Title:Eiya no Parade
TitleUnicode:永夜のパレード
Artist:keekihime * Yuumi & JUMA
ArtistUnicode:ケーキ姫☆優海&JUMA
Creator:assassincread
Version:Insane
Source:東方永夜抄 ~ Imperishable Night.
Tags:c81 Yagokoro Eirin Houraisan Kaguya night five colours Arte Refact DreaM117er touhou 東方Project 千年幻想郷 ~ history of the moon 竹取飛翔 ~ lunatic princess
BeatmapID:1255632
BeatmapSetID:593445

[Difficulty]
HPDrainRate:6
CircleSize:3
OverallDifficulty:6
ApproachRate:7
SliderMultiplier:1.6
SliderTickRate:2

[Events]
//Background and Video events
0,0,"BG.jpg",0,0
//Break Periods
//Storyboard Layer 0 (Background)
//Storyboard Layer 1 (Fail)
//Storyboard Layer 2 (Pass)
//Storyboard Layer 3 (Foreground)
//Storyboard Sound Samples

[TimingPoints]
3564,465.116279069767,4,2,2,60,1,0
16587,-100,4,1,0,40,0,0
17517,-100,4,2,3,80,0,0
18912,-100,4,2,1,80,0,0
19377,-100,4,2,2,80,0,0
19494,-100,4,2,1,80,0,0
21238,-100,4,2,2,80,0,0
21354,-100,4,2,1,80,0,0
23098,-100,4,2,2,80,0,0
23215,-100,4,2,1,80,0,0
24959,-100,4,2,2,80,0,0
25191,-100,4,2,1,80,0,0
25889,-100,4,2,3,80,0,0
26005,-100,4,2,1,80,0,0
26819,-100,4,2,2,80,0,0
26936,-100,4,2,1,80,0,0
28680,-100,4,2,2,80,0,0
28796,-100,4,2,1,80,0,0
30540,-100,4,2,2,80,0,0
30657,-100,4,2,1,80,0,0
32401,-100,4,2,2,80,0,0
32633,-100,4,2,1,80,0,0
33331,-100,4,2,3,80,0,0
33563,-100,4,2,1,80,0,0
34261,-100,4,2,2,80,0,0
34494,-100,4,2,1,80,0,0
36122,-100,4,2,2,80,0,0
36354,-100,4,2,1,80,0,0
37982,-100,4,2,2,80,0,0
38215,-100,4,2,1,80,0,0
39843,-100,4,2,2,80,0,0
40075,-100,4,2,1,80,0,0
40773,-100,4,2,3,80,0,0
41005,-100,4,2,1,80,0,0
41703,-100,4,2,2,80,0,0
41936,-100,4,2,1,80,0,0
43563,-100,4,2,2,80,0,0
43796,-100,4,2,1,80,0,0
44494,-100,4,2,3,80,0,0
44726,-100,4,2,1,80,0,0
45424,-100,4,2,2,80,0,0
45657,-100,4,2,1,80,0,0
47284,-100,4,2,2,80,0,0
47517,-100,4,2,1,80,0,0
48215,-133.333333333333,4,2,2,80,0,0
48331,-133.333333333333,4,2,4,60,0,0
63098,-133.333333333333,4,2,2,80,0,0
63563,-133.333333333333,4,2,4,60,0,0
77982,-100,4,2,5,70,0,0
91005,-100,4,2,4,70,0,0
92866,-100,4,2,3,80,0,1
93098,-100,4,2,6,80,0,1
107750,-100,4,2,3,80,0,1
107982,-100,4,2,6,80,0,1
122633,-100,4,2,3,70,0,0
123098,-100,4,2,1,70,0,0
123563,-100,4,2,2,70,0,0
123796,-100,4,2,1,70,0,0
125424,-100,4,2,2,70,0,0
125657,-100,4,2,1,70,0,0
127284,-100,4,2,2,70,0,0
127517,-100,4,2,1,70,0,0
129145,-100,4,2,2,70,0,0
129377,-100,4,2,1,70,0,0
130075,-100,4,2,3,70,0,0
130308,-100,4,2,1,70,0,0
131005,-100,4,2,2,70,0,0
131238,-100,4,2,1,70,0,0
132866,-100,4,2,2,70,0,0
133098,-100,4,2,1,70,0,0
133796,-100,4,2,3,70,0,0
134029,-100,4,2,1,70,0,0
134726,-100,4,2,2,70,0,0
134959,-100,4,2,1,70,0,0
135889,-100,4,2,1,40,0,0
136587,-100,4,2,7,15,0,0

[Colours]
Combo1 : 245,69,180
Combo2 : 160,66,255
Combo3 : 77,255,255
Combo4 : 255,255,32

[HitObjects]
116,88,3563,5,12,0:0:0:0:
396,88,4029,1,0,0:0:0:0:
104,252,4494,2,0,P|144:232|188:224,1,80
296,328,4959,2,0,P|251:325|209:310,1,80
400,244,5424,6,0,B|464:156|432:20|364:40|344:88,1,240
240,172,6354,2,0,B|202:120|222:33|266:46|273:67,1,160
64,104,7284,5,4,0:0:0:0:
336,68,7750,1,0,0:0:0:0:
432,84,7982,1,0,0:0:0:0:
200,288,8447,2,0,P|140:284|100:272,1,80
328,208,8912,6,0,P|400:200|496:212,1,160
400,300,9610,2,0,P|356:320|308:324,1,80
200,272,10075,2,0,B|149:216|98:110|144:18|235:39|200:125,1,320,0|4,0:0|0:0,0:0:0:0:
12,192,11470,5,0,0:0:0:0:
324,132,11936,2,0,P|368:120|416:120,1,80
504,256,12401,2,0,P|448:232|420:204,1,80
308,280,12866,6,0,B|344:341|399:295|364:224|275:206|217:211,1,240
68,312,13796,2,0,P|160:320|224:288,1,160
140,236,14494,1,0,0:0:0:0:
48,208,14726,1,12,0:0:0:0:
256,192,14843,12,0,16587,0:0:0:0:
256,320,17052,5,0,0:0:0:0:
104,116,17517,1,0,0:0:0:0:
408,116,17982,1,0,0:0:0:0:
128,208,18447,6,0,P|108:244|92:288,1,80,12|0,0:0|0:0,0:0:0:0:
296,232,18912,2,0,P|344:220|392:220,1,80,2|0,0:0|0:0,0:0:0:0:
192,120,19377,2,0,P|144:108|96:108,1,80,2|0,0:0|0:0,0:0:0:0:
344,64,19843,1,8,0:0:0:0:
132,224,20308,6,0,L|120:308,1,80,4|0,0:0|0:0,0:0:0:0:
280,208,20773,2,0,L|292:124,1,80,2|0,0:0|0:0,0:0:0:0:
152,64,21238,1,2,0:0:0:0:
280,208,21470,5,8,0:0:0:0:
60,228,21703,1,8,0:0:0:0:
360,168,22168,6,0,P|397:251|394:325,1,160,4|2,0:0|0:0,0:0:0:0:
252,128,23098,2,0,P|156:136|76:112,1,160,2|8,0:0|0:0,0:0:0:0:
324,76,23796,2,0,P|420:68|500:92,1,160
506,192,24494,2,0,P|462:180|430:152,1,80,2|0,0:0|0:0,0:0:0:0:
324,76,24959,1,2,0:0:0:0:
208,192,25191,5,8,0:0:0:0:
442,256,25424,1,8,0:0:0:0:
100,288,25889,6,0,P|44:280|0:280,1,80,12|0,0:0|0:0,0:0:0:0:
208,192,26354,2,0,P|292:204|380:188,1,160,2|2,0:0|0:0,0:0:0:0:
440,128,27052,1,0,0:0:0:0:
296,284,27284,1,8,0:0:0:0:
32,92,27750,6,0,P|80:76|116:72,1,80,4|0,0:0|0:0,0:0:0:0:
320,176,28215,2,0,P|236:184|148:152,1,160,2|2,0:0|0:0,0:0:0:0:
256,40,28912,5,8,0:0:0:0:
72,184,29145,1,8,0:0:0:0:
380,300,29610,6,0,P|424:280|448:256,1,80,4|0,0:0|0:0,0:0:0:0:
236,248,30075,2,0,P|184:240|132:248,1,80,2|0,0:0|0:0,0:0:0:0:
360,204,30540,1,2,0:0:0:0:
48,180,31005,1,8,0:0:0:0:
156,242,31238,6,0,P|168:156|136:88,1,160
268,132,31936,2,0,P|324:152|372:152,1,80,2|0,0:0|0:0,0:0:0:0:
336,40,32401,1,2,0:0:0:0:
138,91,32633,5,8,0:0:0:0:
344,153,32866,1,8,0:0:0:0:
20,296,33331,6,0,P|68:292|124:296,1,80,12|0,0:0|0:0,0:0:0:0:
248,184,33796,2,0,P|200:188|144:184,1,80,2|0,0:0|0:0,0:0:0:0:
328,328,34261,2,0,P|376:324|432:328,1,80,2|0,0:0|0:0,0:0:0:0:
216,304,34726,1,8,0:0:0:0:
456,88,35191,6,0,P|460:128|456:168,1,80,4|0,0:0|0:0,0:0:0:0:
292,208,35657,2,0,P|288:168|292:128,1,80,2|0,0:0|0:0,0:0:0:0:
96,188,36122,1,2,0:0:0:0:
292,208,36354,5,8,0:0:0:0:
96,88,36587,1,8,0:0:0:0:
372,288,37052,6,0,P|404:200|404:128,1,160,4|2,0:0|0:0,0:0:0:0:
88,46,37982,2,0,P|56:134|56:206,1,160,2|8,0:0|0:0,0:0:0:0:
248,148,38680,6,0,P|332:132|424:136,1,160
492,40,39377,2,0,P|448:48|412:48,1,80,2|0,0:0|0:0,0:0:0:0:
488,128,39843,1,2,0:0:0:0:
312,44,40075,5,8,0:0:0:0:
496,216,40308,1,8,0:0:0:0:
148,308,40773,6,0,P|104:312|56:300,1,80,12|0,0:0|0:0,0:0:0:0:
256,228,41238,2,0,P|336:212|420:232,1,160,2|2,0:0|0:0,0:0:0:0:
364,312,41936,5,0,0:0:0:0:
480,164,42168,1,8,0:0:0:0:
152,60,42633,6,0,P|112:56|52:60,1,80,4|0,0:0|0:0,0:0:0:0:
244,148,43098,2,0,P|332:156|408:140,1,160,2|2,0:0|0:0,0:0:0:0:
320,44,43796,5,8,0:0:0:0:
496,192,44029,1,8,0:0:0:0:
180,300,44494,6,0,P|144:276|100:256,1,80,4|0,0:0|0:0,0:0:0:0:
332,232,44959,2,0,P|384:216|420:212,1,80,2|0,0:0|0:0,0:0:0:0:
192,208,45424,1,2,0:0:0:0:
480,56,45889,1,8,0:0:0:0:
364,104,46122,6,0,P|272:112|184:88,1,160
36,176,46819,2,0,P|84:172|116:180,1,80,2|0,0:0|0:0,0:0:0:0:
76,56,47284,1,2,0:0:0:0:
228,204,47517,5,8,0:0:0:0:
424,124,47750,2,0,P|380:116|336:116,1,80,8|0,0:0|0:0,0:0:0:0:
148,264,48215,6,0,P|80:280|12:272,1,120.000004577637,12|0,0:0|0:0,0:0:0:0:
384,232,49145,2,0,P|424:232|456:240,2,60.0000022888184
296,260,49843,1,2,0:0:0:0:
64,108,50308,5,2,0:0:0:0:
144,68,50540,1,0,0:0:0:0:
136,156,50773,1,2,0:0:0:0:
56,196,51005,1,0,0:0:0:0:
364,208,51470,2,0,P|404:196|428:192,1,60.0000022888184,0|2,0:0|0:0,0:0:0:0:
256,308,51936,5,8,0:0:0:0:
112,120,52401,2,0,P|64:112|40:112,1,60.0000022888184,8|2,0:0|0:0,0:0:0:0:
256,76,52866,1,8,0:0:0:0:
112,264,53331,2,0,P|64:272|40:272,1,60.0000022888184,8|2,0:0|0:0,0:0:0:0:
256,308,53796,5,8,0:0:0:0:
400,120,54261,2,0,P|448:112|472:112,1,60.0000022888184,8|2,0:0|0:0,0:0:0:0:
256,76,54726,1,8,0:0:0:0:
400,264,55191,2,0,P|448:272|472:272,1,60.0000022888184,8|2,0:0|0:0,0:0:0:0:
256,308,55657,6,0,P|184:312|116:304,1,120.000004577637,8|8,0:0|0:0,0:0:0:0:
168,224,56354,1,2,0:0:0:0:
80,240,56587,1,8,0:0:0:0:
272,88,57052,1,8,0:0:0:0:
144,108,57284,2,0,L|176:48,1,60.0000022888184,2|8,0:0|0:0,0:0:0:0:
448,212,57982,5,8,0:0:0:0:
320,192,58214,2,0,L|352:252,1,60.0000022888184,2|8,0:0|0:0,0:0:0:0:
32,304,58912,2,0,P|64:300|100:280,1,60.0000022888184,8|2,0:0|0:0,0:0:0:0:
240,132,59377,6,0,P|168:116|120:112,1,120.000004577637,8|8,0:0|0:0,0:0:0:0:
32,120,60075,1,2,0:0:0:0:
84,196,60308,1,8,0:0:0:0:
364,64,60773,2,0,P|396:60|428:60,1,60.0000022888184,8|2,0:0|0:0,0:0:0:0:
272,184,61238,6,0,P|224:196|196:200,1,60.0000022888184,8|8,0:0|0:0,0:0:0:0:
436,272,61703,2,0,P|484:280|516:280,1,60.0000022888184,8|8,0:0|0:0,0:0:0:0:
160,252,62401,5,8,0:0:0:0:
356,140,62633,2,0,P|380:168|396:192,1,60.0000022888184,8|0,0:0|0:0,0:0:0:0:
192,120,63098,6,0,P|120:104|64:100,1,120.000004577637,12|8,0:0|0:0,0:0:0:0:
28,180,63796,1,2,0:0:0:0:
60,264,64029,2,0,P|92:276|136:276,1,60.0000022888184,8|2,0:0|0:0,0:0:0:0:
172,208,64494,2,0,P|140:196|96:196,1,60.0000022888184,8|2,0:0|0:0,0:0:0:0:
272,120,64959,6,0,P|336:108|400:124,1,120.000004577637,8|8,0:0|0:0,0:0:0:0:
460,172,65657,1,2,0:0:0:0:
420,252,65889,2,0,P|392:272|352:288,1,60.0000022888184,8|2,0:0|0:0,0:0:0:0:
280,276,66354,2,0,P|236:272|208:276,1,60.0000022888184,8|2,0:0|0:0,0:0:0:0:
72,324,66819,6,0,P|100:272|104:208,1,120.000004577637,8|8,0:0|0:0,0:0:0:0:
20,240,67517,1,2,0:0:0:0:
40,152,67750,2,0,P|68:132|92:124,1,60.0000022888184,8|2,0:0|0:0,0:0:0:0:
184,120,68215,2,0,P|176:83|159:59,1,60.0000022888184,8|2,0:0|0:0,0:0:0:0:
300,64,68680,5,8,0:0:0:0:
40,208,69145,1,8,0:0:0:0:
128,188,69377,1,2,0:0:0:0:
104,276,69610,1,8,0:0:0:0:
412,280,70075,2,0,P|448:272|476:256,1,60.0000022888184,8|2,0:0|0:0,0:0:0:0:
308,192,70540,6,0,P|224:168|184:164,1,120.000004577637,8|8,0:0|0:0,0:0:0:0:
104,188,71238,1,2,0:0:0:0:
32,132,71470,2,0,L|56:64,1,60.0000022888184,8|2,0:0|0:0,0:0:0:0:
140,88,71936,2,0,L|164:20,1,60.0000022888184,8|2,0:0|0:0,0:0:0:0:
312,80,72401,6,0,P|384:84|436:80,1,120.000004577637,8|8,0:0|0:0,0:0:0:0:
500,140,73098,1,2,0:0:0:0:
484,228,73331,2,0,P|456:256|428:284,1,60.0000022888184,8|2,0:0|0:0,0:0:0:0:
368,216,73796,2,0,P|388:196|408:176,1,60.0000022888184,8|2,0:0|0:0,0:0:0:0:
220,172,74261,6,0,B|176:132|80:156|140:188,1,120.000004577637,8|8,0:0|0:0,0:0:0:0:
176,248,74959,1,2,0:0:0:0:
264,252,75191,2,0,L|348:256,1,60.0000022888184,8|2,0:0|0:0,0:0:0:0:
348,344,75657,2,0,L|264:340,1,60.0000022888184,8|2,0:0|0:0,0:0:0:0:
480,216,76122,5,8,0:0:0:0:
124,264,76587,1,8,0:0:0:0:
440,88,77052,2,0,L|456:48,2,30.0000011444092,8|2|2,0:0|0:0|0:0,0:0:0:0:
364,136,77517,2,0,P|324:144|296:144,1,60.0000022888184,8|2,0:0|0:0,0:0:0:0:
64,136,77982,6,0,P|104:124|152:124,1,80,4|0,0:0|1:0,0:0:0:0:
312,240,78447,2,0,P|272:238|233:226,1,80,10|0,0:0|1:0,0:0:0:0:
440,216,78912,1,4,0:0:0:0:
120,296,79377,1,10,0:0:0:0:
392,84,79843,5,4,0:0:0:0:
248,76,80075,1,0,1:0:0:0:
360,168,80308,1,10,0:0:0:0:
216,164,80540,1,0,1:0:0:0:
328,252,80773,2,0,P|372:256|412:244,1,80,2|8,0:0|1:0,0:0:0:0:
216,164,81238,2,0,P|172:160|132:172,1,80,8|0,0:0|1:0,0:0:0:0:
392,84,81703,5,4,0:0:0:0:
76,324,82168,1,10,0:0:0:0:
256,256,82401,1,0,1:0:0:0:
64,236,82633,1,2,0:0:0:0:
304,56,83098,1,10,0:0:0:0:
184,120,83331,2,0,P|136:136|96:136,2,80,0|4|0,1:0|0:0|1:0,0:0:0:0:
304,56,84029,6,0,P|340:84|368:116,1,80,10|0,0:0|1:0,0:0:0:0:
140,292,84494,2,0,P|104:264|76:232,1,80,4|0,0:0|1:0,0:0:0:0:
236,200,84959,2,0,P|276:192|320:196,1,80,10|8,0:0|1:0,0:0:0:0:
88,104,85424,5,4,0:0:0:0:
392,288,85889,2,0,P|440:288|476:272,1,80,10|0,0:0|1:0,0:0:0:0:
236,200,86354,2,0,P|196:192|148:200,1,80,4|8,0:0|1:0,0:0:0:0:
48,248,86819,1,10,0:0:0:0:
152,100,87052,6,0,P|196:100|232:96,1,80,0|4,1:0|0:0,0:0:0:0:
408,40,87517,2,0,P|364:40|328:44,1,80,0|10,1:0|0:0,0:0:0:0:
196,176,87982,1,0,1:0:0:0:
344,284,88215,2,0,P|380:212|372:136,1,160,4|10,0:0|0:0,0:0:0:0:
276,120,88912,1,8,1:0:0:0:
468,56,89145,5,4,0:0:0:0:
156,164,89610,2,0,B|129:159|158:217|178:228,1,80,10|0,0:0|1:0,0:0:0:0:
356,164,90075,2,0,B|382:159|353:217|333:228,1,80,4|0,0:0|1:0,0:0:0:0:
96,304,90540,1,10,0:0:0:0:
256,176,90773,1,8,0:0:0:0:
416,304,91005,5,8,0:0:0:0:
96,304,91470,1,0,0:0:0:0:
316,128,91936,1,8,0:0:0:0:
316,128,92052,2,0,B|343:123|314:181|294:192,1,80,8|8,0:0|0:0,0:0:0:0:
196,128,92401,2,0,B|169:123|198:181|218:192,1,80,8|8,0:0|0:0,0:0:0:0:
424,144,92866,6,0,P|431:226|402:312,1,160,4|2,0:0|0:0,0:0:0:0:
216,124,93796,2,0,P|245:150|274:179,1,80,4|0,0:0|0:0,0:0:0:0:
88,236,94261,2,0,P|56:204|24:176,1,80,10|0,0:0|0:0,0:0:0:0:
216,124,94726,6,0,P|300:100|380:100,1,160,4|10,0:0|0:0,0:0:0:0:
460,64,95424,1,0,0:0:0:0:
444,160,95657,1,4,0:0:0:0:
216,124,95889,5,8,0:0:0:0:
428,256,96122,2,0,P|400:288|364:312,1,80,10|0,0:0|0:0,0:0:0:0:
136,272,96587,6,0,P|220:248|308:248,1,160,4|10,0:0|0:0,0:0:0:0:
408,136,97284,2,0,P|420:88|420:44,2,80,0|4|0,0:0|0:0|0:0,0:0:0:0:
296,136,97982,1,10,0:0:0:0:
408,252,98215,6,0,P|444:268|492:284,2,80,0|4|0,0:0|0:0|0:0,0:0:0:0:
324,296,98912,1,10,0:0:0:0:
256,228,99145,1,0,0:0:0:0:
188,296,99377,1,4,0:0:0:0:
16,168,99610,5,8,0:0:0:0:
256,228,99843,2,0,P|304:216|336:196,1,80,10|0,0:0|0:0,0:0:0:0:
172,96,100308,6,0,P|88:76|12:72,1,160,4|10,0:0|0:0,0:0:0:0:
364,116,101238,2,0,P|412:120|452:116,1,80,4|0,0:0|0:0,0:0:0:0:
256,180,101703,2,0,P|208:196|168:216,1,80,10|0,0:0|0:0,0:0:0:0:
384,296,102168,6,0,B|464:296|492:240|480:192|412:212,1,160,4|10,0:0|0:0,0:0:0:0:
348,204,102866,1,0,0:0:0:0:
404,124,103098,1,4,0:0:0:0:
176,168,103331,5,8,0:0:0:0:
356,40,103563,2,0,P|408:32|440:36,1,80,10|0,0:0|0:0,0:0:0:0:
264,100,104029,6,0,P|180:80|104:88,1,160,4|10,0:0|0:0,0:0:0:0:
64,104,104610,1,0,0:0:0:0:
64,104,104726,2,0,L|24:104,2,40,4|0|4,0:0|0:0|0:0,0:0:0:0:
120,192,105191,1,0,0:0:0:0:
216,192,105424,2,0,L|256:192,4,40,10|4|0|0|4,0:0|0:0|0:0|0:0|0:0,0:0:0:0:
412,304,106354,6,0,P|364:316|324:316,1,80,10|0,0:0|0:0,0:0:0:0:
112,276,106819,1,14,0:0:0:0:
112,276,106936,2,0,P|160:264|200:264,1,80,8|8,0:0|0:0,0:0:0:0:
244,332,107284,2,0,P|196:344|156:344,1,80,14|0,0:0|0:0,0:0:0:0:
336,168,107750,6,0,P|420:159|510:174,1,160,4|10,0:0|0:0,0:0:0:0:
172,168,108680,2,0,P|175:129|185:90,1,80,4|0,0:0|0:0,0:0:0:0:
356,192,109145,2,0,P|353:231|343:270,1,80,10|0,0:0|0:0,0:0:0:0:
100,324,109610,6,0,P|172:284|252:272,1,160,4|10,0:0|0:0,0:0:0:0:
260,176,110308,1,0,0:0:0:0:
164,192,110540,1,4,0:0:0:0:
308,88,110773,5,8,0:0:0:0:
72,164,111005,2,0,P|32:180|0:200,1,80,10|0,0:0|0:0,0:0:0:0:
144,312,111470,6,0,P|228:320|312:304,1,160,4|10,0:0|0:0,0:0:0:0:
416,228,112168,2,0,P|440:184|448:152,2,80,0|4|0,0:0|0:0|0:0,0:0:0:0:
312,204,112866,1,10,0:0:0:0:
128,140,113098,6,0,P|89:130|53:112,2,80,0|4|0,0:0|0:0|0:0,0:0:0:0:
200,76,113796,1,10,0:0:0:0:
288,112,114029,1,0,0:0:0:0:
364,52,114261,1,4,0:0:0:0:
212,172,114494,5,8,0:0:0:0:
452,96,114726,2,0,P|472:132|484:168,1,80,10|0,0:0|0:0,0:0:0:0:
312,292,115191,6,0,P|392:272|472:272,1,160,4|10,0:0|0:0,0:0:0:0:
160,284,116122,2,0,P|112:260|84:236,1,80,4|0,0:0|0:0,0:0:0:0:
280,164,116587,2,0,P|328:152|364:148,1,80,10|0,0:0|0:0,0:0:0:0:
156,151,117052,6,0,B|87:151|59:95|71:47|108:64,1,160,4|10,0:0|0:0,0:0:0:0:
204,72,117750,1,0,0:0:0:0:
292,32,117982,1,4,0:0:0:0:
156,151,118215,5,8,0:0:0:0:
380,68,118447,2,0,P|424:64|472:68,1,80,10|0,0:0|0:0,0:0:0:0:
280,228,118912,6,0,P|215:274|135:294,1,160,4|10,0:0|0:0,0:0:0:0:
36,228,119610,1,0,0:0:0:0:
48,108,119843,2,0,P|113:62|193:42,1,160,4|10,0:0|0:0,0:0:0:0:
288,112,120540,2,0,P|332:96|364:76,2,80,0|4|0,0:0|0:0|0:0,0:0:0:0:
164,168,121238,1,10,0:0:0:0:
256,192,121354,12,12,122633,0:0:0:0:
132,124,123098,5,2,0:0:0:0:
352,292,123563,2,0,P|292:284|252:288,1,80,2|0,0:0|0:0,0:0:0:0:
484,212,124029,1,8,0:0:0:0:
132,124,124494,5,4,0:0:0:0:
380,124,124959,1,2,0:0:0:0:
92,304,125424,1,2,0:0:0:0:
256,192,125657,1,8,0:0:0:0:
60,212,125889,1,8,0:0:0:0:
436,280,126354,6,0,P|460:248|480:208,1,80,4|0,0:0|0:0,0:0:0:0:
368,120,126819,1,2,0:0:0:0:
80,224,127284,2,0,P|115:193|145:177,1,80,2|0,0:0|0:0,0:0:0:0:
246,294,127750,2,0,P|201:288|166:268,1,80,8|0,0:0|0:0,0:0:0:0:
16,156,128215,5,4,0:0:0:0:
396,284,128680,2,0,P|436:208|380:148,1,160,2|2,0:0|0:0,0:0:0:0:
268,220,129377,1,8,0:0:0:0:
480,104,129610,1,8,0:0:0:0:
168,80,130075,6,0,P|120:72|72:56,1,80,12|0,0:0|0:0,0:0:0:0:
300,124,130540,2,0,P|261:134|222:140,1,80,2|0,0:0|0:0,0:0:0:0:
440,176,131005,1,2,0:0:0:0:
112,304,131470,1,8,0:0:0:0:
432,276,131936,6,0,P|380:272|332:272,1,80,4|0,0:0|0:0,0:0:0:0:
180,188,132401,2,0,P|232:192|280:192,1,80,2|0,0:0|0:0,0:0:0:0:
40,108,132866,1,2,0:0:0:0:
184,64,133098,1,8,0:0:0:0:
36,244,133331,1,8,0:0:0:0:
368,60,133796,6,0,P|440:93|500:145,1,160,4|2,0:0|0:0,0:0:0:0:
192,248,134726,1,2,0:0:0:0:
288,236,134959,1,0,0:0:0:0:
252,324,135191,1,8,0:0:0:0:
100,220,135424,2,0,P|52:212|8:208,1,80,0|4,0:0|0:0,0:0:0:0:
300,92,136122,6,0,P|348:84|392:80,1,80,2|0,0:0|0:0,0:0:0:0:
472,64,136587,1,8,0:0:0:0:
