osu file format v14

[General]
AudioFilename: audio.mp3
AudioLeadIn: 0
PreviewTime: 77982
Countdown: 0
SampleSet: Soft
StackLeniency: 0.7
Mode: 0
LetterboxInBreaks: 0
WidescreenStoryboard: 0

[Editor]
DistanceSpacing: 1.7
BeatDivisor: 4
GridSize: 4
TimelineZoom: 1.2

[Metadata]
Title:Eiya no Parade
TitleUnicode:永夜のパレード
Artist:keekihime * Yuumi & JUMA
ArtistUnicode:ケーキ姫☆優海&JUMA
Creator:assassincread
Version:Hard
Source:東方永夜抄 ~ Imperishable Night.
Tags:c81 Yagokoro Eirin Houraisan Kaguya night five colours Arte Refact DreaM117er touhou 東方Project 千年幻想郷 ~ history of the moon 竹取飛翔 ~ lunatic princess
BeatmapID:1257014
BeatmapSetID:593445

[Difficulty]
HPDrainRate:5
CircleSize:3
OverallDifficulty:5
ApproachRate:6
SliderMultiplier:1.4
SliderTickRate:2

[Events]
//Background and Video events
0,0,"BG.jpg",0,0
//Break Periods
//Storyboard Layer 0 (Background)
//Storyboard Layer 1 (Fail)
//Storyboard Layer 2 (Pass)
//Storyboard Layer 3 (Foreground)
//Storyboard Sound Samples

[TimingPoints]
3564,465.116279069767,4,2,2,60,1,0
16587,-100,4,1,0,40,0,0
17517,-100,4,2,3,80,0,0
18912,-100,4,2,1,80,0,0
19377,-100,4,2,2,80,0,0
19494,-100,4,2,1,80,0,0
21238,-100,4,2,2,80,0,0
21354,-100,4,2,1,80,0,0
23098,-100,4,2,2,80,0,0
23215,-100,4,2,1,80,0,0
24959,-100,4,2,2,80,0,0
25191,-100,4,2,1,80,0,0
25889,-100,4,2,3,80,0,0
26005,-100,4,2,1,80,0,0
26819,-100,4,2,2,80,0,0
26936,-100,4,2,1,80,0,0
28680,-100,4,2,2,80,0,0
28796,-100,4,2,1,80,0,0
30540,-100,4,2,2,80,0,0
30657,-100,4,2,1,80,0,0
32401,-100,4,2,2,80,0,0
32633,-100,4,2,1,80,0,0
33331,-100,4,2,3,80,0,0
33563,-100,4,2,1,80,0,0
34261,-100,4,2,2,80,0,0
34494,-100,4,2,1,80,0,0
36122,-100,4,2,2,80,0,0
36354,-100,4,2,1,80,0,0
37982,-100,4,2,2,80,0,0
38215,-100,4,2,1,80,0,0
39843,-100,4,2,2,80,0,0
40075,-100,4,2,1,80,0,0
40773,-100,4,2,3,80,0,0
41005,-100,4,2,1,80,0,0
41703,-100,4,2,2,80,0,0
41936,-100,4,2,1,80,0,0
43563,-100,4,2,2,80,0,0
43796,-100,4,2,1,80,0,0
44494,-100,4,2,3,80,0,0
44726,-100,4,2,1,80,0,0
45424,-100,4,2,2,80,0,0
45657,-100,4,2,1,80,0,0
47284,-100,4,2,2,80,0,0
47517,-100,4,2,1,80,0,0
48215,-133.333333333333,4,2,2,80,0,0
48331,-133.333333333333,4,2,4,60,0,0
63098,-133.333333333333,4,2,2,80,0,0
63563,-133.333333333333,4,2,4,60,0,0
77982,-100,4,2,5,70,0,0
91005,-100,4,2,4,70,0,0
92866,-100,4,2,3,80,0,1
93098,-100,4,2,6,80,0,1
107750,-100,4,2,3,80,0,1
107982,-100,4,2,6,80,0,1
122633,-100,4,2,3,70,0,0
123098,-100,4,2,1,70,0,0
123563,-100,4,2,2,70,0,0
123796,-100,4,2,1,70,0,0
125424,-100,4,2,2,70,0,0
125657,-100,4,2,1,70,0,0
127284,-100,4,2,2,70,0,0
127517,-100,4,2,1,70,0,0
129145,-100,4,2,2,70,0,0
129377,-100,4,2,1,70,0,0
130075,-100,4,2,3,70,0,0
130308,-100,4,2,1,70,0,0
131005,-100,4,2,2,70,0,0
131238,-100,4,2,1,70,0,0
132866,-100,4,2,2,70,0,0
133098,-100,4,2,1,70,0,0
133796,-100,4,2,3,70,0,0
134029,-100,4,2,1,70,0,0
134726,-100,4,2,2,70,0,0
134959,-100,4,2,1,70,0,0
135889,-100,4,2,1,40,0,0
136587,-100,4,2,7,15,0,0

[Colours]
Combo1 : 245,69,180
Combo2 : 160,66,255
Combo3 : 77,255,255
Combo4 : 255,255,32

[HitObjects]
200,104,3563,6,0,P|121:96|46:108,1,140,12|0,0:0|0:0,0:0:0:0:
140,268,4494,2,0,P|218:275|293:263,1,140
356,216,5191,1,0,0:0:0:0:
428,160,5424,6,0,B|480:88|376:60|280:96|236:184,1,280
360,308,6819,1,0,0:0:0:0:
80,232,7284,6,0,L|32:80,1,140,4|0,0:0|0:0,0:0:0:0:
112,44,7982,1,0,0:0:0:0:
288,96,8447,2,0,P|328:96|376:92,1,70
168,164,8912,6,0,B|127:182|165:220|216:228|257:201,1,140
340,192,9610,2,0,B|360:204|392:196|412:208,1,70
476,268,10075,2,0,B|492:300|432:348|372:256|268:272|204:336,1,280,0|4,0:0|0:0,0:0:0:0:
60,244,11470,5,0,0:0:0:0:
212,144,11936,2,0,P|224:104|224:64,1,70
148,28,12401,2,0,P|136:68|136:108,1,70
244,228,12866,6,0,B|281:308|173:316|86:262|60:167,1,280
200,60,14261,1,0,0:0:0:0:
464,108,14726,1,12,0:0:0:0:
256,192,14843,12,0,16587,0:0:0:0:
96,104,17052,5,0,0:0:0:0:
256,192,17517,1,0,0:0:0:0:
96,280,17982,1,0,0:0:0:0:
404,312,18447,6,0,L|488:272,1,70,12|0,0:0|0:0,0:0:0:0:
400,220,18912,2,0,P|320:196|244:188,1,140,2|2,0:0|0:0,0:0:0:0:
172,192,19610,1,0,0:0:0:0:
84,220,19843,1,8,0:0:0:0:
280,60,20308,6,0,P|349:70|415:91,1,140,4|2,0:0|0:0,0:0:0:0:
360,164,21005,1,0,0:0:0:0:
452,176,21238,1,2,0:0:0:0:
272,188,21470,5,8,0:0:0:0:
272,188,21703,1,8,0:0:0:0:
476,280,22168,6,0,P|440:288|396:292,1,70,4|0,0:0|0:0,0:0:0:0:
356,216,22633,2,0,P|404:156|464:112,1,140,2|2,0:0|0:0,0:0:0:0:
280,60,23563,5,8,0:0:0:0:
136,120,23796,2,0,P|96:128|56:128,2,70,0|4|0,0:0|0:0|0:0,0:0:0:0:
228,136,24494,2,0,P|242:167|248:202,2,70,2|0|2,0:0|0:0|0:0,0:0:0:0:
92,40,25191,5,8,0:0:0:0:
92,40,25424,1,8,0:0:0:0:
328,84,25889,6,0,P|372:96|400:112,1,70,12|0,0:0|0:0,0:0:0:0:
464,168,26354,2,0,P|428:248|392:296,1,140,2|2,0:0|0:0,0:0:0:0:
308,292,27052,1,0,0:0:0:0:
348,212,27284,1,8,0:0:0:0:
68,276,27750,6,0,P|28:192|24:120,1,140,4|2,0:0|0:0,0:0:0:0:
100,100,28447,1,0,0:0:0:0:
20,56,28680,1,2,0:0:0:0:
184,152,28912,5,8,0:0:0:0:
184,152,29145,1,8,0:0:0:0:
340,332,29610,6,0,P|392:324|428:300,1,70,4|0,0:0|0:0,0:0:0:0:
436,232,30075,2,0,P|380:164|324:128,1,140,2|2,0:0|0:0,0:0:0:0:
188,240,31005,5,8,0:0:0:0:
40,208,31238,2,0,P|20:176|8:140,2,70,0|4|0,0:0|0:0|0:0,0:0:0:0:
104,272,31936,2,0,P|80:296|44:316,2,70,2|0|2,0:0|0:0|0:0,0:0:0:0:
245,224,32633,5,8,0:0:0:0:
245,224,32866,1,8,0:0:0:0:
40,160,33331,6,0,L|108:208,1,70,12|0,0:0|0:0,0:0:0:0:
188,184,33796,2,0,L|256:232,1,70,2|0,0:0|0:0,0:0:0:0:
336,216,34261,1,2,0:0:0:0:
168,288,34726,1,8,0:0:0:0:
468,132,35191,6,0,L|400:84,1,70,4|0,0:0|0:0,0:0:0:0:
320,108,35656,2,0,L|252:60,1,70,2|0,0:0|0:0,0:0:0:0:
172,76,36121,1,2,0:0:0:0:
308,204,36354,5,8,0:0:0:0:
308,204,36587,1,8,0:0:0:0:
16,288,37052,6,0,P|52:268|80:248,1,70,4|0,0:0|0:0,0:0:0:0:
144,192,37517,2,0,P|100:136|28:96,1,140,2|2,0:0|0:0,0:0:0:0:
212,40,38447,5,8,0:0:0:0:
356,96,38680,2,0,P|392:76|416:52,2,70,0|4|0,0:0|0:0|0:0,0:0:0:0:
268,112,39377,2,0,P|284:148|312:176,2,70,2|0|2,0:0|0:0|0:0,0:0:0:0:
456,132,40075,5,8,0:0:0:0:
456,132,40308,1,8,0:0:0:0:
164,232,40773,6,0,P|189:200|203:169,1,70,12|0,0:0|0:0,0:0:0:0:
196,84,41238,2,0,P|165:65|134:50,1,70,2|0,0:0|0:0,0:0:0:0:
44,64,41703,1,2,0:0:0:0:
100,292,42168,1,8,0:0:0:0:
404,224,42633,6,0,P|364:220|332:208,1,70,4|0,0:0|0:0,0:0:0:0:
264,152,43098,2,0,P|294:133|325:118,1,70,2|0,0:0|0:0,0:0:0:0:
416,136,43563,1,2,0:0:0:0:
252,52,43796,5,8,0:0:0:0:
252,52,44029,1,8,0:0:0:0:
364,284,44494,6,0,P|404:280|440:268,1,70,4|0,0:0|0:0,0:0:0:0:
380,196,44959,2,0,P|308:204|232:224,1,140,2|2,0:0|0:0,0:0:0:0:
72,284,45889,5,8,0:0:0:0:
208,316,46122,2,0,P|244:316|288:308,2,70,0|4|0,0:0|0:0|0:0,0:0:0:0:
156,244,46819,2,0,P|160:204|168:164,2,70,2|0|0,0:0|0:0|0:0,0:0:0:0:
352,260,47517,5,8,0:0:0:0:
352,260,47750,1,8,0:0:0:0:
448,56,48215,5,12,0:0:0:0:
104,120,49145,2,0,P|52:172|28:200,1,105.000004005432
100,252,49843,1,2,0:0:0:0:
268,312,50308,5,2,0:0:0:0:
348,272,50540,1,0,0:0:0:0:
272,224,50773,1,2,0:0:0:0:
352,184,51005,1,0,0:0:0:0:
208,80,51470,2,0,P|180:80|140:80,1,52.5000020027161,0|2,0:0|0:0,0:0:0:0:
328,56,51936,6,0,P|388:52|456:56,1,105.000004005432,0|8,0:0|0:0,0:0:0:0:
308,180,52866,2,0,P|248:184|180:180,1,105.000004005432,0|8,0:0|0:0,0:0:0:0:
128,136,53563,1,2,0:0:0:0:
36,288,54029,5,2,0:0:0:0:
124,288,54261,2,0,L|200:288,2,52.5000020027161,8|2|0,0:0|0:0|0:0,0:0:0:0:
60,120,55191,2,0,P|32:88|12:76,1,52.5000020027161,8|2,0:0|0:0,0:0:0:0:
212,88,55657,6,0,P|268:72|320:64,1,105.000004005432,0|8,0:0|0:0,0:0:0:0:
468,152,56587,2,0,P|412:168|360:176,1,105.000004005432,0|8,0:0|0:0,0:0:0:0:
276,184,57284,1,2,0:0:0:0:
120,100,57750,5,2,0:0:0:0:
52,156,57982,2,0,P|36:176|16:208,2,52.5000020027161,8|2|0,0:0|0:0|0:0,0:0:0:0:
192,264,58912,2,0,P|160:288|132:296,1,52.5000020027161,8|2,0:0|0:0,0:0:0:0:
296,212,59377,6,0,P|360:200|412:204,1,105.000004005432,0|8,0:0|0:0,0:0:0:0:
484,232,60075,1,2,0:0:0:0:
496,144,60308,2,0,P|472:124|448:108,1,52.5000020027161,0|2,0:0|0:0,0:0:0:0:
368,84,60773,2,0,P|336:80|300:80,1,52.5000020027161,8|2,0:0|0:0,0:0:0:0:
172,172,61238,6,0,P|212:144|228:128,1,52.5000020027161,8|8,0:0|0:0,0:0:0:0:
56,72,61703,2,0,P|28:52|12:40,1,52.5000020027161,8|8,0:0|0:0,0:0:0:0:
216,248,62401,5,8,0:0:0:0:
396,216,62633,2,0,P|428:200|452:180,1,52.5000020027161,8|0,0:0|0:0,0:0:0:0:
280,116,63098,6,0,P|220:108|160:108,1,105.000004005432,12|8,0:0|0:0,0:0:0:0:
72,252,64029,2,0,P|32:244|8:244,2,52.5000020027161,0|2|8,0:0|0:0|0:0,0:0:0:0:
148,296,64726,1,2,0:0:0:0:
316,240,65191,5,2,0:0:0:0:
396,200,65424,2,0,P|436:192|460:192,2,52.5000020027161,8|2|0,0:0|0:0|0:0,0:0:0:0:
248,100,66354,2,0,L|208:56,1,52.5000020027161,8|2,0:0|0:0,0:0:0:0:
412,68,66819,6,0,L|456:32,2,52.5000020027161,0|2|8,0:0|0:0|0:0,0:0:0:0:
340,120,67517,1,2,0:0:0:0:
424,156,67750,2,0,P|448:188|460:204,1,52.5000020027161,0|2,0:0|0:0,0:0:0:0:
496,280,68215,1,8,0:0:0:0:
408,276,68447,1,2,0:0:0:0:
244,344,68912,5,2,0:0:0:0:
160,312,69145,2,0,P|136:304|104:300,1,52.5000020027161,8|2,0:0|0:0,0:0:0:0:
20,308,69610,1,0,0:0:0:0:
132,168,70075,2,0,P|120:144|112:120,1,52.5000020027161,8|0,0:0|0:0,0:0:0:0:
316,172,70540,6,0,P|396:172|428:168,1,105.000004005432,0|8,0:0|0:0,0:0:0:0:
392,84,71238,1,2,0:0:0:0:
480,100,71470,1,0,0:0:0:0:
304,64,71936,1,8,0:0:0:0:
220,36,72168,1,2,0:0:0:0:
120,184,72633,5,2,0:0:0:0:
64,116,72866,2,0,P|44:100|16:84,2,52.5000020027161,8|2|0,0:0|0:0|0:0,0:0:0:0:
152,272,73796,2,0,P|128:292|100:304,1,52.5000020027161,8|2,0:0|0:0,0:0:0:0:
300,256,74261,5,0,0:0:0:0:
148,160,74726,1,8,0:0:0:0:
232,124,74959,1,2,0:0:0:0:
160,72,75191,2,0,P|124:68|88:72,1,52.5000020027161,0|2,0:0|0:0,0:0:0:0:
38,124,75657,1,8,0:0:0:0:
38,124,75889,1,2,0:0:0:0:
164,252,76354,5,2,0:0:0:0:
84,292,76587,1,8,0:0:0:0:
160,340,76819,1,2,0:0:0:0:
336,304,77284,1,2,0:0:0:0:
264,241,77517,1,8,0:0:0:0:
266,146,77750,1,2,0:0:0:0:
124,124,77982,5,4,0:0:0:0:
396,96,78447,1,10,0:0:0:0:
116,288,78912,1,4,0:0:0:0:
388,260,79377,1,10,0:0:0:0:
236,160,79843,6,0,P|188:120|176:104,1,70,4|0,0:0|0:0,0:0:0:0:
252,52,80308,2,0,P|280:72|304:97,1,70,10|0,0:0|0:0,0:0:0:0:
324,188,80773,1,4,0:0:0:0:
144,196,81238,1,10,0:0:0:0:
420,120,81703,6,0,P|448:88|460:64,2,70,4|0|10,0:0|0:0|0:0,0:0:0:0:
332,100,82401,2,0,P|288:96|256:96,1,70,0|4,0:0|0:0,0:0:0:0:
116,200,83098,2,0,P|160:204|192:204,1,70,10|0,0:0|0:0,0:0:0:0:
156,116,83563,6,0,P|84:96|4:100,1,140,4|10,0:0|0:0,0:0:0:0:
76,272,84494,2,0,P|112:308|140:324,1,70,4|0,0:0|0:0,0:0:0:0:
284,264,84959,2,0,P|236:260|208:268,1,70,10|8,0:0|0:0,0:0:0:0:
416,200,85424,6,0,L|484:52,1,140,4|10,0:0|0:0,0:0:0:0:
292,84,86354,2,0,P|208:96|140:88,1,140,4|10,0:0|0:0,0:0:0:0:
64,84,87052,2,0,P|36:120|16:156,1,70,0|4,0:0|0:0,0:0:0:0:
64,320,87750,6,0,P|92:284|112:248,1,70,10|0,0:0|0:0,0:0:0:0:
148,184,88215,1,4,0:0:0:0:
296,288,88680,2,0,P|256:300|220:304,1,70,10|8,0:0|0:0,0:0:0:0:
368,164,89145,6,0,P|448:136|516:132,1,140,4|10,0:0|0:0,0:0:0:0:
216,88,90075,1,4,0:0:0:0:
456,276,90540,1,10,0:0:0:0:
170,241,91005,1,8,0:0:0:0:
424,108,91470,5,0,0:0:0:0:
48,52,91936,2,0,P|104:48|136:36,1,70,8|0,0:0|0:0,0:0:0:0:
192,144,92401,2,0,P|136:148|104:160,1,70,8|0,0:0|0:0,0:0:0:0:
284,280,92866,6,0,P|360:268|428:228,1,140,4|10,0:0|0:0,0:0:0:0:
328,80,93796,2,0,P|288:72|252:72,1,70
216,152,94261,2,0,P|250:159|285:160,1,70,10|0,0:0|0:0,0:0:0:0:
448,88,94726,6,0,P|484:164|488:224,1,140,4|10,0:0|0:0,0:0:0:0:
340,324,95657,2,0,P|368:280|388:264,1,70,0|8,0:0|0:0,0:0:0:0:
200,236,96122,2,0,P|156:228|112:232,1,70,10|0,0:0|0:0,0:0:0:0:
268,112,96587,6,0,P|340:68|412:48,1,140,4|10,0:0|0:0,0:0:0:0:
484,64,97284,1,0,0:0:0:0:
384,216,97750,2,0,P|440:236|476:244,1,70,0|10,0:0|0:0,0:0:0:0:
392,308,98215,2,0,P|356:324|316:340,1,70,0|4,0:0|0:0,0:0:0:0:
148,320,98912,6,0,P|184:304|224:288,1,70,10|0,0:0|0:0,0:0:0:0:
248,208,99377,2,0,P|284:192|324:176,1,70,0|8,0:0|0:0,0:0:0:0:
120,132,99843,2,0,P|88:120|56:100,1,70,10|0,0:0|0:0,0:0:0:0:
248,64,100308,6,0,P|328:48|400:44,1,140,4|10,0:0|0:0,0:0:0:0:
492,192,101238,2,0,P|452:236|424:252,1,70
376,180,101703,2,0,P|416:136|444:120,1,70,10|0,0:0|0:0,0:0:0:0:
216,144,102168,6,0,P|144:144|60:164,1,140,4|10,0:0|0:0,0:0:0:0:
320,328,103098,2,0,P|356:296|376:272,1,70,0|8,0:0|0:0,0:0:0:0:
208,252,103563,2,0,P|156:244|120:244,1,70,10|0,0:0|0:0,0:0:0:0:
320,184,104029,5,4,0:0:0:0:
180,68,104494,2,0,L|136:68,2,35,6|0|0,0:0|0:0|0:0,0:0:0:0:
272,68,104959,1,4,0:0:0:0:
412,184,105424,2,0,L|456:184,2,35,6|4|0,0:0|0:0|0:0,0:0:0:0:
320,184,105889,1,4,0:0:0:0:
52,96,106354,5,10,0:0:0:0:
212,324,106819,2,0,P|252:296|288:280,1,70,0|8,0:0|0:0,0:0:0:0:
96,244,107284,2,0,P|64:216|16:196,1,70,10|0,0:0|0:0,0:0:0:0:
200,124,107750,6,0,P|276:88|352:68,1,140,4|2,0:0|0:0,0:0:0:0:
464,196,108680,2,0,P|436:232|408:248,1,70
348,184,109145,2,0,P|367:155|396:135,1,70,10|0,0:0|0:0,0:0:0:0:
212,212,109610,6,0,P|132:232|56:236,1,140,4|10,0:0|0:0,0:0:0:0:
200,104,110540,2,0,P|244:116|276:120,1,70,0|8,0:0|0:0,0:0:0:0:
88,64,111005,2,0,P|48:76|8:92,1,70,10|0,0:0|0:0,0:0:0:0:
188,200,111470,6,0,P|265:216|336:204,1,140,4|10,0:0|0:0,0:0:0:0:
412,180,112168,1,0,0:0:0:0:
292,44,112633,2,0,L|224:88,1,70,0|10,0:0|0:0,0:0:0:0:
152,40,113098,2,0,L|84:84,1,70,0|4,0:0|0:0,0:0:0:0:
176,280,113796,6,0,P|132:260|100:256,1,70,10|0,0:0|0:0,0:0:0:0:
132,164,114261,2,0,P|172:176|216:172,1,70,0|8,0:0|0:0,0:0:0:0:
304,64,114726,2,0,P|264:76|228:96,1,70,10|0,0:0|0:0,0:0:0:0:
452,156,115191,6,0,P|476:80|476:4,1,140,4|10,0:0|0:0,0:0:0:0:
304,176,116122,2,0,P|332:220|352:232,1,70
436,240,116587,2,0,P|416:284|392:312,1,70,10|0,0:0|0:0,0:0:0:0:
216,344,117052,6,0,P|135:340|70:315,1,140,4|10,0:0|0:0,0:0:0:0:
12,260,117750,1,0,0:0:0:0:
98,233,117982,2,0,P|133:221|168:193,1,70,0|8,0:0|0:0,0:0:0:0:
224,88,118447,2,0,P|176:80|148:80,1,70,10|0,0:0|0:0,0:0:0:0:
368,112,118912,6,0,P|444:148|484:200,1,140,4|10,0:0|0:0,0:0:0:0:
408,248,119610,1,0,0:0:0:0:
492,280,119843,1,0,0:0:0:0:
312,304,120308,1,10,0:0:0:0:
228,272,120541,1,0,0:0:0:0:
300,216,120773,2,0,P|272:192|240:184,1,70,4|0,0:0|0:0,0:0:0:0:
432,116,121238,1,10,0:0:0:0:
256,192,121354,12,12,122633,0:0:0:0:
404,192,123098,5,2,0:0:0:0:
256,300,123563,1,2,0:0:0:0:
176,260,123796,1,0,0:0:0:0:
252,208,124029,1,8,0:0:0:0:
20,116,124494,5,4,0:0:0:0:
188,44,124959,1,2,0:0:0:0:
336,140,125424,2,0,P|384:148|424:144,1,70,2|8,0:0|0:0,0:0:0:0:
272,248,125889,2,0,P|224:256|184:252,1,70,8|0,0:0|0:0,0:0:0:0:
400,336,126354,6,0,P|456:280|480:208,1,140,4|2,0:0|0:0,0:0:0:0:
380,72,127284,1,2,0:0:0:0:
212,140,127750,1,8,0:0:0:0:
300,168,127982,2,0,P|344:180|372:184,1,70,0|4,0:0|0:0,0:0:0:0:
124,288,128680,6,0,P|76:276|44:272,1,70,2|0,0:0|0:0,0:0:0:0:
272,320,129145,2,0,P|224:332|192:336,1,70,2|0,0:0|0:0,0:0:0:0:
408,276,129610,1,8,0:0:0:0:
200,68,130075,6,0,P|116:64|52:80,1,140,12|2,0:0|0:0,0:0:0:0:
188,208,131005,1,2,0:0:0:0:
116,264,131238,1,0,0:0:0:0:
104,172,131470,1,8,0:0:0:0:
364,288,131936,6,0,P|440:256|500:248,1,140,4|2,0:0|0:0,0:0:0:0:
384,104,132866,2,0,P|340:104|288:112,1,70,2|8,0:0|0:0,0:0:0:0:
168,224,133331,2,0,P|220:208|248:188,1,70,8|0,0:0|0:0,0:0:0:0:
52,80,133796,5,4,0:0:0:0:
228,36,134261,1,2,0:0:0:0:
320,192,134726,1,2,0:0:0:0:
184,316,135191,1,8,0:0:0:0:
96,288,135424,6,0,P|60:288|16:296,2,70,0|4|0,0:0|0:0|0:0,0:0:0:0:
256,260,136122,2,0,P|300:248|336:240,1,70,2|0,0:0|0:0,0:0:0:0:
416,236,136587,1,8,0:0:0:0:
