osu file format v14

[General]
AudioFilename: audio.mp3
AudioLeadIn: 0
PreviewTime: 97937
Countdown: 0
SampleSet: None
StackLeniency: 0.5
Mode: 0
LetterboxInBreaks: 0
WidescreenStoryboard: 0

[Editor]
Bookmarks: 85079,168980,229805
DistanceSpacing: 1
BeatDivisor: 4
GridSize: 4
TimelineZoom: 1.72

[Metadata]
Title:Ange du Blanc Pur
TitleUnicode:Ange du Blanc Pur
Artist:ke-ji feat. nanahira
ArtistUnicode:ke-ji feat. nanahira
Creator:Mr kamfret
Version:soliquer
Source:
Tags:colery starely
BeatmapID:1300459
BeatmapSetID:616665

[Difficulty]
HPDrainRate:5.5
CircleSize:3.6
OverallDifficulty:8.6
ApproachRate:9.5
SliderMultiplier:1.82
SliderTickRate:2

[Events]
//Background and Video events
0,0,"ange du.jpg",0,0
//Break Periods
2,23990,28753
2,123981,137227
//Storyboard Layer 0 (Background)
//Storyboard Layer 1 (Fail)
//Storyboard Layer 2 (Pass)
//Storyboard Layer 3 (Foreground)
//Storyboard Sound Samples

[TimingPoints]
657,666.666666666667,4,3,0,10,1,0
1990,666.666666666667,4,3,0,10,1,0
1990,-100,4,2,0,50,0,0
2156,-100,4,3,0,10,0,0
2990,-100,4,2,0,50,0,0
3156,-100,4,3,0,10,0,0
3990,-100,4,2,0,50,0,0
4156,-100,4,3,0,10,0,0
4990,-100,4,2,0,50,0,0
5156,-100,4,3,0,10,0,0
5990,-100,4,2,0,50,0,0
6156,-100,4,3,0,10,0,0
6990,-100,4,2,0,50,0,0
7156,-100,4,3,0,10,0,0
7990,-100,4,2,0,50,0,0
8156,-100,4,3,0,10,0,0
8990,-100,4,2,0,50,0,0
9156,-100,4,3,0,10,0,0
9990,-100,4,2,0,50,0,0
10156,-100,4,3,0,10,0,0
10990,-100,4,2,0,50,0,0
11156,-100,4,3,0,10,0,0
11990,-100,4,2,0,50,0,0
12156,-100,4,3,0,10,0,0
12990,-100,4,2,0,50,0,0
13156,-100,4,3,0,10,0,0
13990,-100,4,2,0,50,0,0
14156,-100,4,3,0,10,0,0
14990,-100,4,2,0,50,0,0
15156,-100,4,3,0,10,0,0
15990,-100,4,2,0,50,0,0
16156,-100,4,3,0,10,0,0
16878,-100,4,2,0,50,0,0
17044,-100,4,3,0,10,0,0
17323,-222.222222222222,4,3,0,10,0,0
17824,-100,4,3,0,10,0,0
17990,-100,4,2,0,50,0,0
18101,-100,4,3,0,10,0,0
18434,-151.515151515152,4,3,0,10,0,0
18990,-100,4,2,0,50,0,0
19156,-100,4,3,0,10,0,0
19990,-100,4,2,0,50,0,0
20156,-100,4,3,0,10,0,0
20990,-100,4,2,0,50,0,0
21156,-100,4,3,0,10,0,0
21990,-100,4,2,0,50,0,0
22156,-100,4,3,0,10,0,0
23990,333.333333333333,4,3,0,10,1,0
27323,333.333333333333,4,3,0,10,1,0
32003,329.67032967033,4,3,0,80,1,0
32332,-100,4,3,0,50,0,0
32662,-100,4,3,0,80,0,0
32827,-100,4,3,0,50,0,0
33321,-100,4,3,0,80,0,0
33651,-100,4,3,0,50,0,0
33981,-100,4,3,0,80,0,0
34146,-100,4,3,0,50,0,0
34640,-100,4,3,0,80,0,0
34970,-100,4,3,0,50,0,0
35299,-100,4,3,0,80,0,0
35464,-100,4,3,0,50,0,0
35959,-100,4,3,0,80,0,0
36289,-100,4,3,0,50,0,0
36618,-100,4,3,0,80,0,0
36865,-100,4,3,0,50,0,0
36948,-100,4,3,0,50,0,0
37277,-100,4,3,0,80,0,0
37607,-100,4,3,0,50,0,0
37936,-100,4,3,0,80,0,0
38266,-100,4,3,0,50,0,0
38595,-100,4,3,0,80,0,0
38926,-100,4,3,0,59,0,0
39255,-100,4,3,0,80,0,0
39365,-100,4,3,0,50,0,0
39585,-100,4,3,0,80,0,0
39695,-100,4,3,0,50,0,0
39915,-100,4,3,0,80,0,0
40025,-100,4,3,0,50,0,0
40244,-100,4,3,0,50,0,0
40573,-100,4,3,0,80,0,0
40904,-100,4,3,0,50,0,0
41233,-100,4,3,0,80,0,0
41563,-100,4,3,0,50,0,0
41892,-100,4,3,0,80,0,0
42552,-100,4,2,0,80,0,0
42717,-100,4,3,0,80,0,0
42882,-100,4,3,0,50,0,0
43046,-100,4,2,0,80,0,0
43211,-100,4,3,0,80,0,0
43376,-100,4,3,0,50,0,0
43541,-100,4,2,0,80,0,0
43706,-100,4,3,0,80,0,0
43871,-100,4,3,0,50,0,0
44035,-100,4,2,0,80,0,0
44200,-100,4,3,0,80,0,0
44365,-100,4,3,0,50,0,0
44530,-100,4,2,0,80,0,0
44695,-100,4,3,0,80,0,0
44860,-100,4,3,0,50,0,0
45024,-100,4,2,0,80,0,0
45189,-100,4,3,0,80,0,0
45354,-100,4,3,0,50,0,0
45519,-100,4,2,0,80,0,0
46178,-100,4,2,0,80,0,0
46343,-100,4,3,0,80,0,0
46508,-100,4,3,0,50,0,0
46673,-100,4,2,0,80,0,0
46838,-100,4,3,0,80,0,0
47003,-100,4,3,0,50,0,0
47167,-100,4,2,0,80,0,0
47332,-100,4,3,0,80,0,0
47497,-100,4,3,0,50,0,0
47662,-100,4,2,0,80,0,0
47827,-100,4,3,0,80,0,0
47992,-100,4,3,0,50,0,0
50798,329.67032967033,4,3,0,50,1,0
54589,-133.333333333333,4,3,0,50,0,0
60358,-200,4,3,0,50,0,0
60688,-100,4,3,0,50,0,0
66952,-100,4,3,0,50,0,0
70248,-200,4,2,0,50,0,0
70578,-100,4,3,0,50,0,0
70743,-100,4,3,0,50,0,0
73710,-200,4,3,0,50,0,0
74039,-100,4,3,0,50,0,0
76347,-200,4,3,0,50,0,0
76676,-100,4,3,0,50,0,0
87391,-100,4,3,0,50,0,0
90688,-100,4,3,0,50,0,0
92996,-100,4,1,0,50,0,0
93160,-100,4,3,0,50,0,0
93325,-100,4,1,0,50,0,0
93489,-100,4,3,0,50,0,0
93655,-100,4,1,0,50,0,0
93819,-100,4,3,0,50,0,0
93985,-100,4,1,0,50,0,0
94149,-100,4,3,0,50,0,0
94314,-200,4,3,0,50,0,0
94644,-100,4,3,0,50,0,0
94974,-100,4,1,0,50,0,0
95138,-100,4,3,0,50,0,0
95633,-100,4,1,0,50,0,0
95797,-100,4,3,0,50,0,0
96127,-100,4,1,0,50,0,0
96291,-100,4,3,0,50,0,0
96622,-100,4,1,0,50,0,0
96786,-100,4,3,0,50,0,0
98270,-100,4,2,0,80,0,1
98353,-100,4,3,0,60,0,1
98435,-100,4,3,0,40,0,1
98517,-100,4,3,0,60,0,1
98600,-100,4,2,0,80,0,1
98683,-100,4,3,0,60,0,1
98765,-100,4,3,0,40,0,1
98847,-100,4,3,0,60,0,1
98930,-100,4,2,0,80,0,1
99013,-100,4,3,0,60,0,1
99095,-100,4,3,0,40,0,1
99177,-100,4,3,0,60,0,1
99259,-100,4,2,0,80,0,1
99342,-100,4,3,0,60,0,1
99424,-100,4,3,0,40,0,1
99506,-100,4,3,0,60,0,1
99589,-100,4,2,0,80,0,1
99672,-100,4,3,0,60,0,1
99754,-100,4,3,0,40,0,1
99836,-100,4,3,0,60,0,1
99919,-100,4,2,0,80,0,1
100002,-100,4,3,0,60,0,1
100084,-100,4,3,0,40,0,1
100166,-100,4,3,0,60,0,1
100248,-100,4,2,0,80,0,1
100331,-100,4,3,0,60,0,1
100413,-100,4,3,0,40,0,1
100495,-100,4,3,0,60,0,1
100578,-100,4,2,0,80,0,1
100660,-100,4,3,0,60,0,1
100742,-100,4,3,0,40,0,1
100824,-100,4,3,0,60,0,1
100908,-100,4,2,0,80,0,1
100991,-100,4,3,0,60,0,1
101072,-100,4,3,0,80,0,1
101155,-100,4,3,0,60,0,1
101237,-100,4,2,0,80,0,1
101320,-100,4,3,0,60,0,1
101402,-100,4,3,0,80,0,1
101485,-100,4,3,0,60,0,1
101567,-100,4,2,0,80,0,1
101650,-100,4,3,0,60,0,1
101732,-100,4,3,0,40,0,1
101814,-100,4,3,0,60,0,1
101897,-100,4,2,0,80,0,1
101980,-100,4,3,0,60,0,1
102062,-100,4,3,0,40,0,1
102144,-100,4,3,0,60,0,1
102226,-100,4,2,0,80,0,1
102309,-100,4,3,0,60,0,1
102391,-100,4,3,0,40,0,1
102473,-100,4,3,0,60,0,1
102556,-100,4,2,0,80,0,1
102639,-100,4,3,0,60,0,1
102721,-100,4,3,0,40,0,1
102803,-100,4,3,0,60,0,1
102886,-100,4,2,0,80,0,1
102969,-100,4,3,0,60,0,1
103051,-100,4,3,0,40,0,1
103133,-100,4,3,0,60,0,1
103215,-100,4,2,0,80,0,1
103298,-100,4,3,0,60,0,1
103380,-100,4,3,0,40,0,1
103462,-100,4,3,0,60,0,1
103545,-100,4,2,0,80,0,1
103628,-100,4,3,0,60,0,1
103710,-100,4,3,0,80,0,1
103792,-100,4,3,0,60,0,1
103875,-100,4,2,0,80,0,1
103958,-100,4,3,0,60,0,1
104040,-100,4,3,0,40,0,1
104122,-100,4,3,0,60,0,1
104204,-100,4,2,0,80,0,1
104287,-100,4,3,0,60,0,1
104369,-100,4,3,0,40,0,1
104451,-100,4,3,0,60,0,1
104534,-100,4,2,0,80,0,1
104617,-100,4,3,0,60,0,1
104699,-100,4,3,0,40,0,1
104781,-100,4,3,0,60,0,1
104864,-100,4,2,0,80,0,1
104947,-100,4,3,0,60,0,1
105029,-100,4,3,0,40,0,1
105111,-100,4,3,0,60,0,1
105193,-100,4,2,0,80,0,1
105276,-100,4,3,0,60,0,1
105358,-100,4,3,0,40,0,1
105440,-100,4,3,0,60,0,1
105523,-100,4,2,0,80,0,1
105606,-100,4,3,0,60,0,1
105688,-100,4,3,0,40,0,1
105770,-100,4,3,0,60,0,1
105853,-100,4,2,0,80,0,1
105936,-100,4,3,0,60,0,1
106018,-100,4,3,0,40,0,1
106100,-100,4,3,0,60,0,1
106182,-100,4,2,0,80,0,1
106265,-100,4,3,0,60,0,1
106347,-100,4,3,0,40,0,1
106429,-100,4,3,0,60,0,1
106512,-100,4,2,0,80,0,1
106595,-100,4,3,0,60,0,1
106677,-100,4,3,0,40,0,1
106759,-100,4,3,0,60,0,1
106842,-100,4,2,0,80,0,1
106925,-100,4,3,0,60,0,1
107007,-100,4,3,0,40,0,1
107089,-100,4,3,0,60,0,1
107171,-100,4,2,0,80,0,1
107254,-100,4,3,0,60,0,1
107336,-100,4,3,0,40,0,1
107418,-100,4,3,0,60,0,1
107501,-100,4,2,0,80,0,1
107584,-100,4,3,0,60,0,1
107666,-100,4,3,0,40,0,1
107748,-100,4,3,0,60,0,1
107831,-100,4,2,0,80,0,1
107914,-100,4,3,0,60,0,1
107996,-100,4,3,0,80,0,1
108079,-100,4,3,0,60,0,1
108160,-100,4,2,0,80,0,1
108243,-100,4,3,0,60,0,1
108325,-100,4,3,0,80,0,1
108408,-100,4,3,0,60,0,1
108490,-100,4,2,0,80,0,1
108573,-100,4,3,0,60,0,1
108655,-100,4,3,0,40,0,1
108737,-100,4,3,0,60,0,1
108820,-100,4,2,0,80,0,1
108903,-100,4,3,0,60,0,1
108985,-100,4,3,0,40,0,1
109067,-100,4,3,0,60,0,1
109149,-100,4,2,0,80,0,1
109232,-100,4,3,0,60,0,1
109314,-100,4,3,0,40,0,1
109396,-100,4,3,0,60,0,1
109479,-100,4,2,0,80,0,1
109562,-100,4,3,0,60,0,1
109644,-100,4,3,0,40,0,1
109726,-100,4,3,0,60,0,1
109809,-100,4,2,0,80,0,1
109892,-100,4,3,0,60,0,1
109974,-100,4,3,0,40,0,1
110056,-100,4,3,0,60,0,1
110138,-100,4,2,0,80,0,1
110221,-100,4,3,0,60,0,1
110303,-100,4,3,0,40,0,1
110385,-100,4,3,0,60,0,1
110468,-100,4,2,0,80,0,1
110551,-100,4,3,0,60,0,1
110633,-100,4,3,0,40,0,1
110715,-100,4,3,0,60,0,1
110798,-100,4,2,0,80,0,1
110881,-100,4,3,0,60,0,1
110963,-100,4,3,0,40,0,1
111045,-100,4,3,0,60,0,1
111127,-100,4,2,0,80,0,1
111210,-100,4,3,0,60,0,1
111292,-100,4,3,0,40,0,1
111374,-100,4,3,0,60,0,1
111457,-100,4,2,0,80,0,1
111540,-100,4,3,0,60,0,1
111622,-100,4,3,0,80,0,1
111704,-100,4,3,0,60,0,1
111787,-100,4,2,0,80,0,1
111870,-100,4,3,0,60,0,1
111952,-100,4,3,0,80,0,1
112034,-100,4,3,0,60,0,1
112116,-100,4,2,0,80,0,1
112199,-100,4,3,0,60,0,1
112281,-100,4,3,0,40,0,1
112363,-100,4,3,0,60,0,1
112446,-100,4,2,0,80,0,1
112529,-100,4,3,0,60,0,1
112611,-100,4,3,0,40,0,1
112693,-100,4,3,0,60,0,1
112776,-100,4,2,0,80,0,1
112859,-100,4,3,0,60,0,1
112941,-100,4,3,0,40,0,1
113023,-100,4,3,0,60,0,1
113105,-100,4,2,0,80,0,1
113188,-100,4,3,0,60,0,1
113270,-100,4,3,0,40,0,1
113352,-100,4,3,0,60,0,1
113435,-100,4,2,0,80,0,1
113518,-100,4,3,0,60,0,1
113600,-100,4,3,0,40,0,1
113682,-100,4,3,0,60,0,1
113765,-100,4,2,0,80,0,1
113848,-100,4,3,0,60,0,1
113930,-100,4,3,0,40,0,1
114012,-100,4,3,0,60,0,1
114094,-100,4,3,0,60,0,1
114177,-100,4,2,0,80,0,1
114259,-100,4,3,0,60,0,1
114342,-100,4,3,0,80,0,1
114424,-100,4,3,0,60,0,1
114507,-100,4,2,0,80,0,1
114589,-100,4,3,0,60,0,1
114672,-100,4,3,0,80,0,1
114754,-100,4,3,0,80,0,1
114837,-100,4,2,0,60,0,1
114919,-100,4,3,0,40,0,1
115001,-100,4,3,0,60,0,1
115083,-100,4,2,0,80,0,1
115166,-100,4,3,0,60,0,1
115248,-100,4,3,0,40,0,1
115330,-100,4,3,0,60,0,1
115413,-100,4,2,0,80,0,1
115496,-100,4,3,0,60,0,1
115578,-100,4,3,0,40,0,1
115660,-100,4,3,0,60,0,1
115743,-100,4,2,0,80,0,1
115826,-100,4,3,0,60,0,1
115908,-100,4,3,0,40,0,1
115990,-100,4,3,0,60,0,1
116072,-100,4,2,0,80,0,1
116155,-100,4,3,0,60,0,1
116237,-100,4,3,0,40,0,1
116319,-100,4,3,0,60,0,1
116402,-100,4,2,0,80,0,1
116485,-100,4,3,0,60,0,1
116567,-100,4,3,0,40,0,1
116649,-100,4,3,0,60,0,1
116732,-100,4,2,0,80,0,1
116815,-100,4,3,0,60,0,1
116897,-100,4,3,0,40,0,1
116979,-100,4,3,0,60,0,1
117061,-100,4,2,0,80,0,1
117144,-100,4,3,0,60,0,1
117226,-100,4,3,0,40,0,1
117308,-100,4,3,0,60,0,1
117391,-100,4,2,0,80,0,1
117474,-100,4,3,0,60,0,1
117556,-100,4,3,0,40,0,1
117638,-100,4,3,0,60,0,1
117721,-100,4,2,0,80,0,1
117804,-100,4,3,0,60,0,1
117886,-100,4,3,0,40,0,1
117968,-100,4,3,0,60,0,1
118050,-100,4,2,0,80,0,1
118133,-100,4,3,0,60,0,1
118215,-100,4,3,0,40,0,1
118297,-100,4,3,0,60,0,1
118380,-100,4,2,0,80,0,1
118463,-100,4,3,0,60,0,1
118545,-100,4,3,0,40,0,1
118627,-100,4,3,0,60,0,1
118710,-100,4,3,0,80,0,1
118793,-100,4,3,0,60,0,1
118875,-100,4,3,0,80,0,1
118958,-100,4,3,0,60,0,1
119039,-100,4,3,0,80,0,1
119122,-100,4,3,0,60,0,1
119204,-100,4,3,0,80,0,1
119287,-100,4,3,0,60,0,1
119369,-100,4,2,0,80,0,1
119452,-100,4,3,0,60,0,1
119534,-100,4,3,0,40,0,1
119616,-100,4,3,0,60,0,1
119699,-100,4,2,0,80,0,1
119782,-100,4,3,0,60,0,1
119864,-100,4,3,0,40,0,1
119946,-100,4,3,0,60,0,1
120028,-100,4,2,0,80,0,1
120111,-100,4,3,0,60,0,1
120193,-100,4,3,0,40,0,1
120275,-100,4,3,0,60,0,1
120358,-100,4,2,0,80,0,1
120441,-100,4,3,0,60,0,1
120523,-100,4,3,0,40,0,1
120605,-100,4,3,0,60,0,1
120688,-100,4,2,0,80,0,1
120771,-100,4,3,0,60,0,1
120853,-100,4,3,0,40,0,1
120935,-100,4,3,0,60,0,1
121017,-100,4,2,0,80,0,1
121100,-100,4,3,0,60,0,1
121182,-100,4,3,0,40,0,1
121264,-100,4,3,0,60,0,1
121347,-100,4,2,0,80,0,1
121430,-100,4,3,0,60,0,1
121512,-100,4,3,0,40,0,1
121594,-100,4,3,0,60,0,1
121677,-100,4,2,0,80,0,1
121760,-100,4,3,0,60,0,1
121842,-100,4,3,0,40,0,1
121924,-100,4,3,0,60,0,1
122007,-100,4,3,0,50,0,0
138490,-200,4,2,0,50,0,0
138820,-200,4,3,0,50,0,0
139479,-200,4,2,0,50,0,0
139726,-200,4,3,0,50,0,0
139809,-200,4,2,0,50,0,0
140138,-200,4,3,0,50,0,0
143105,-100,4,3,0,50,0,0
143765,-100,4,2,0,80,0,1
143848,-100,4,3,0,60,0,1
143930,-100,4,3,0,40,0,1
144012,-100,4,3,0,60,0,1
144094,-100,4,2,0,80,0,1
144177,-100,4,3,0,60,0,1
144259,-100,4,3,0,40,0,1
144341,-100,4,3,0,60,0,1
144424,-100,4,2,0,80,0,1
144507,-100,4,3,0,60,0,1
144589,-100,4,3,0,40,0,1
144671,-100,4,3,0,60,0,1
144754,-100,4,2,0,80,0,1
144837,-100,4,3,0,60,0,1
144919,-100,4,3,0,40,0,1
145001,-100,4,3,0,60,0,1
145083,-100,4,2,0,80,0,1
145166,-100,4,3,0,60,0,1
145248,-100,4,3,0,40,0,1
145330,-100,4,3,0,60,0,1
145413,-100,4,2,0,80,0,1
145496,-100,4,3,0,60,0,1
145578,-100,4,3,0,40,0,1
145660,-100,4,3,0,60,0,1
145743,-100,4,2,0,80,0,1
145826,-100,4,3,0,60,0,1
145908,-100,4,3,0,40,0,1
145990,-100,4,3,0,60,0,1
146072,-100,4,2,0,80,0,1
146155,-100,4,3,0,60,0,1
146237,-100,4,3,0,40,0,1
146319,-100,4,3,0,60,0,1
146402,-100,4,2,0,80,0,1
146485,-100,4,3,0,60,0,1
146567,-100,4,3,0,40,0,1
146649,-100,4,3,0,60,0,1
146732,-100,4,2,0,80,0,1
146814,-100,4,3,0,60,0,1
146897,-100,4,3,0,40,0,1
147061,-100,4,2,0,80,0,1
147144,-100,4,3,0,60,0,1
147226,-100,4,3,0,40,0,1
147308,-100,4,3,0,60,0,1
147391,-100,4,2,0,80,0,1
147474,-100,4,3,0,60,0,1
147556,-100,4,3,0,40,0,1
147638,-100,4,3,0,60,0,1
147721,-100,4,2,0,80,0,1
147804,-100,4,3,0,60,0,1
147886,-100,4,3,0,40,0,1
147968,-100,4,3,0,60,0,1
148050,-100,4,2,0,80,0,1
148133,-100,4,3,0,60,0,1
148215,-100,4,3,0,40,0,1
148297,-100,4,3,0,60,0,1
148380,-100,4,2,0,80,0,1
148463,-100,4,3,0,60,0,1
148545,-100,4,3,0,40,0,1
148627,-100,4,3,0,60,0,1
148710,-100,4,2,0,80,0,1
148793,-100,4,3,0,60,0,1
148875,-100,4,3,0,40,0,1
148957,-100,4,3,0,60,0,1
149039,-100,4,2,0,80,0,1
149122,-100,4,3,0,60,0,1
149204,-100,4,3,0,40,0,1
149286,-100,4,3,0,60,0,1
149369,-100,4,2,0,80,0,1
149452,-100,4,3,0,60,0,1
149534,-100,4,3,0,40,0,1
149616,-100,4,3,0,60,0,1
149699,-100,4,2,0,80,0,1
149782,-100,4,3,0,60,0,1
149864,-100,4,3,0,40,0,1
149946,-100,4,3,0,60,0,1
150028,-100,4,2,0,80,0,1
150111,-100,4,3,0,60,0,1
150193,-100,4,3,0,40,0,1
150275,-100,4,3,0,60,0,1
150358,-100,4,2,0,80,0,1
150441,-100,4,3,0,60,0,1
150523,-100,4,3,0,40,0,1
150605,-100,4,3,0,60,0,1
150688,-100,4,2,0,80,0,1
150771,-100,4,3,0,60,0,1
150853,-100,4,3,0,40,0,1
150935,-100,4,3,0,60,0,1
151017,-100,4,2,0,80,0,1
151100,-100,4,3,0,60,0,1
151182,-100,4,3,0,40,0,1
151264,-100,4,3,0,60,0,1
151347,-100,4,2,0,80,0,1
151430,-100,4,3,0,60,0,1
151512,-100,4,3,0,40,0,1
151594,-100,4,3,0,60,0,1
151677,-100,4,2,0,80,0,1
151760,-100,4,3,0,60,0,1
151842,-100,4,3,0,40,0,1
151924,-100,4,3,0,60,0,1
152007,-100,4,2,0,80,0,1
152090,-100,4,3,0,60,0,1
152172,-100,4,3,0,40,0,1
152254,-100,4,3,0,60,0,1
152336,-100,4,2,0,80,0,1
152419,-100,4,3,0,60,0,1
152501,-100,4,3,0,40,0,1
152583,-100,4,3,0,60,0,1
152666,-100,4,2,0,80,0,1
152749,-100,4,3,0,60,0,1
152831,-100,4,3,0,40,0,1
152913,-100,4,3,0,60,0,1
152996,-100,4,2,0,80,0,1
153079,-100,4,3,0,60,0,1
153161,-100,4,3,0,40,0,1
153243,-100,4,3,0,60,0,1
153325,-100,4,2,0,80,0,1
153408,-100,4,3,0,60,0,1
153490,-100,4,3,0,40,0,1
153572,-100,4,3,0,60,0,1
153655,-100,4,2,0,80,0,1
153738,-100,4,3,0,60,0,1
153820,-100,4,3,0,40,0,1
153902,-100,4,3,0,60,0,1
153985,-100,4,2,0,80,0,1
154068,-100,4,3,0,60,0,1
154150,-100,4,3,0,40,0,1
154232,-100,4,3,0,60,0,1
154314,-100,4,1,0,60,0,1
154644,-100,4,3,0,50,0,0
155963,-100,4,1,0,50,0,0
156210,-100,4,3,0,50,0,0
156952,-100,4,3,0,80,0,0
157282,-100,4,3,0,50,0,0
157612,-100,4,3,0,80,0,0
157777,-100,4,3,0,50,0,0
158270,-100,4,3,0,80,0,0
158600,-100,4,3,0,50,0,0
158930,-100,4,3,0,80,0,0
159095,-100,4,3,0,50,0,0
159589,-100,4,3,0,80,0,0
159919,-100,4,3,0,50,0,0
160249,-100,4,3,0,80,0,0
160414,-100,4,3,0,50,0,0
160908,-100,4,3,0,80,0,0
161238,-100,4,3,0,50,0,0
161568,-100,4,3,0,80,0,0
161733,-100,4,3,0,50,0,0
161897,-100,4,3,0,50,0,0
162226,-100,4,3,0,80,0,0
162556,-100,4,3,0,50,0,0
162885,-100,4,3,0,80,0,0
163215,-100,4,3,0,50,0,0
163544,-100,4,3,0,80,0,0
163875,-100,4,3,0,59,0,0
164204,-100,4,3,0,80,0,0
164314,-100,4,3,0,50,0,0
164534,-100,4,3,0,80,0,0
164644,-100,4,3,0,50,0,0
164864,-100,4,3,0,80,0,0
164974,-100,4,3,0,50,0,0
165193,-100,4,3,0,50,0,0
165193,-100,4,3,0,50,0,0
165522,-100,4,3,0,80,0,0
165853,-100,4,3,0,50,0,0
166182,-100,4,3,0,80,0,0
166512,-100,4,3,0,59,0,0
166841,-100,4,3,0,80,0,0
166951,-100,4,3,0,50,0,0
167171,-100,4,3,0,80,0,0
167281,-100,4,3,0,50,0,0
167501,-100,4,2,0,80,0,0
167666,-100,4,3,0,80,0,0
167831,-100,4,3,0,50,0,0
167996,-100,4,2,0,80,0,0
168161,-100,4,3,0,80,0,0
168326,-100,4,3,0,50,0,0
168490,-100,4,2,0,80,0,0
168655,-100,4,3,0,80,0,0
168820,-100,4,3,0,50,0,0
168985,-100,4,2,0,80,0,0
169150,-100,4,3,0,80,0,0
169315,-100,4,3,0,50,0,0
169479,-100,4,2,0,80,0,0
169644,-100,4,3,0,80,0,0
169809,-100,4,3,0,50,0,0
169974,-100,4,2,0,80,0,0
170139,-100,4,3,0,80,0,0
170304,-100,4,3,0,50,0,0
170468,-100,4,1,0,50,0,0
171127,-100,4,2,0,80,0,0
171292,-100,4,3,0,80,0,0
171457,-100,4,3,0,50,0,0
171622,-100,4,2,0,80,0,0
171787,-100,4,3,0,80,0,0
171952,-100,4,3,0,50,0,0
172116,-100,4,2,0,80,0,0
172281,-100,4,3,0,80,0,0
172446,-100,4,3,0,50,0,0
172611,-100,4,2,0,80,0,0
172776,-100,4,3,0,80,0,0
172941,-100,4,3,0,50,0,0
173105,-80,4,3,0,50,0,0
175743,-100,4,3,0,50,0,0
184974,-200,4,3,0,50,0,0
199479,-100,4,3,0,50,0,0
199479,-100,4,2,0,80,0,1
199562,-100,4,3,0,60,0,1
199644,-100,4,3,0,40,0,1
199726,-100,4,3,0,60,0,1
199809,-100,4,2,0,80,0,1
199892,-100,4,3,0,60,0,1
199974,-100,4,3,0,40,0,1
200056,-100,4,3,0,60,0,1
200138,-100,4,2,0,80,0,1
200221,-100,4,3,0,60,0,1
200303,-100,4,3,0,40,0,1
200385,-100,4,3,0,60,0,1
200468,-100,4,2,0,80,0,1
200551,-100,4,3,0,60,0,1
200633,-100,4,3,0,40,0,1
200715,-100,4,3,0,60,0,1
200798,-100,4,2,0,80,0,1
200881,-100,4,3,0,60,0,1
200963,-100,4,3,0,40,0,1
201045,-100,4,3,0,60,0,1
201127,-100,4,2,0,80,0,1
201210,-100,4,3,0,60,0,1
201292,-100,4,3,0,40,0,1
201374,-100,4,3,0,60,0,1
201457,-100,4,2,0,80,0,1
201540,-100,4,3,0,60,0,1
201622,-100,4,3,0,40,0,1
201704,-100,4,3,0,60,0,1
201787,-100,4,2,0,80,0,1
201870,-100,4,3,0,60,0,1
201952,-100,4,3,0,40,0,1
202034,-100,4,3,0,60,0,1
202116,-100,4,2,0,80,0,1
202199,-100,4,3,0,60,0,1
202281,-100,4,3,0,40,0,1
202363,-100,4,3,0,60,0,1
202446,-100,4,2,0,80,0,1
202529,-100,4,3,0,60,0,1
202611,-100,4,3,0,40,0,1
202693,-100,4,3,0,60,0,1
202776,-100,4,2,0,80,0,1
202859,-100,4,3,0,60,0,1
202941,-100,4,3,0,40,0,1
203023,-100,4,3,0,60,0,1
203105,-100,4,2,0,80,0,1
203188,-100,4,3,0,60,0,1
203270,-100,4,3,0,40,0,1
203352,-100,4,3,0,60,0,1
203435,-100,4,2,0,80,0,1
203518,-100,4,3,0,60,0,1
203600,-100,4,3,0,40,0,1
203682,-100,4,3,0,60,0,1
203765,-100,4,2,0,80,0,1
203848,-100,4,3,0,60,0,1
203930,-100,4,3,0,40,0,1
204012,-100,4,3,0,60,0,1
204094,-100,4,2,0,80,0,1
204177,-100,4,3,0,60,0,1
204259,-100,4,3,0,40,0,1
204341,-100,4,3,0,60,0,1
204424,-100,4,2,0,80,0,1
204507,-100,4,3,0,60,0,1
204589,-100,4,3,0,40,0,1
204671,-100,4,3,0,60,0,1
204754,-100,4,2,0,80,0,1
204837,-100,4,3,0,60,0,1
204919,-100,4,3,0,40,0,1
205001,-100,4,3,0,60,0,1
205083,-100,4,2,0,80,0,1
205166,-100,4,3,0,60,0,1
205248,-100,4,3,0,40,0,1
205330,-100,4,3,0,60,0,1
205413,-100,4,2,0,80,0,1
205496,-100,4,3,0,60,0,1
205578,-100,4,3,0,40,0,1
205660,-100,4,3,0,60,0,1
205743,-100,4,2,0,80,0,1
205826,-100,4,3,0,60,0,1
205908,-100,4,3,0,40,0,1
205990,-100,4,3,0,60,0,1
206072,-100,4,2,0,80,0,1
206155,-100,4,3,0,60,0,1
206237,-100,4,3,0,40,0,1
206319,-100,4,3,0,60,0,1
206402,-100,4,2,0,80,0,1
206485,-100,4,3,0,60,0,1
206567,-100,4,3,0,40,0,1
206649,-100,4,3,0,60,0,1
207391,-100,4,3,0,80,0,1
207391,-100,4,2,0,80,0,1
207474,-100,4,3,0,60,0,1
207556,-100,4,3,0,40,0,1
207638,-100,4,3,0,60,0,1
207721,-100,4,2,0,80,0,1
207804,-100,4,3,0,60,0,1
207886,-100,4,3,0,40,0,1
207968,-100,4,3,0,60,0,1
208050,-100,4,2,0,80,0,1
208133,-100,4,3,0,60,0,1
208215,-100,4,3,0,40,0,1
208297,-100,4,3,0,60,0,1
208380,-100,4,2,0,80,0,1
208463,-100,4,3,0,60,0,1
208545,-100,4,3,0,40,0,1
208627,-100,4,3,0,60,0,1
208710,-100,4,2,0,80,0,1
208793,-100,4,3,0,60,0,1
208875,-100,4,3,0,40,0,1
208957,-100,4,3,0,60,0,1
209039,-100,4,2,0,80,0,1
209122,-100,4,3,0,60,0,1
209204,-100,4,3,0,40,0,1
209286,-100,4,3,0,60,0,1
209369,-100,4,2,0,80,0,1
209452,-100,4,3,0,60,0,1
209534,-100,4,3,0,40,0,1
209616,-100,4,3,0,60,0,1
209699,-100,4,2,0,80,0,1
209782,-100,4,3,0,60,0,1
209864,-100,4,3,0,40,0,1
209946,-100,4,3,0,60,0,1
210028,-100,4,2,0,80,0,1
210111,-100,4,3,0,60,0,1
210193,-100,4,3,0,40,0,1
210275,-100,4,3,0,60,0,1
210358,-100,4,2,0,80,0,1
210441,-100,4,3,0,60,0,1
210523,-100,4,3,0,40,0,1
210605,-100,4,3,0,60,0,1
210688,-100,4,2,0,80,0,1
210771,-100,4,3,0,60,0,1
210853,-100,4,3,0,40,0,1
210935,-100,4,3,0,60,0,1
211017,-100,4,2,0,80,0,1
211100,-100,4,3,0,60,0,1
211182,-100,4,3,0,40,0,1
211264,-100,4,3,0,60,0,1
211347,-100,4,2,0,80,0,1
211430,-100,4,3,0,60,0,1
211512,-100,4,3,0,40,0,1
211594,-100,4,3,0,60,0,1
211677,-100,4,2,0,80,0,1
211760,-100,4,3,0,60,0,1
211842,-100,4,3,0,40,0,1
211924,-100,4,3,0,60,0,1
212007,-100,4,2,0,80,0,1
212090,-100,4,3,0,60,0,1
212172,-100,4,3,0,40,0,1
212254,-100,4,3,0,60,0,1
212336,-100,4,2,0,80,0,1
212419,-100,4,3,0,60,0,1
212501,-100,4,3,0,40,0,1
212583,-100,4,3,0,60,0,1
212666,-100,4,2,0,80,0,1
212749,-100,4,3,0,60,0,1
212831,-100,4,3,0,40,0,1
212913,-100,4,3,0,60,0,1
212996,-100,4,2,0,80,0,1
213079,-100,4,3,0,60,0,1
213161,-100,4,3,0,40,0,1
213243,-100,4,3,0,60,0,1
213325,-100,4,2,0,80,0,1
213408,-100,4,3,0,60,0,1
213490,-100,4,3,0,40,0,1
213572,-100,4,3,0,60,0,1
213655,-100,4,2,0,80,0,1
213738,-100,4,3,0,60,0,1
213820,-100,4,3,0,40,0,1
213902,-100,4,3,0,60,0,1
213985,-100,4,2,0,80,0,1
214068,-100,4,3,0,60,0,1
214150,-100,4,3,0,40,0,1
214232,-100,4,3,0,60,0,1
214314,-100,4,2,0,80,0,1
214397,-100,4,3,0,60,0,1
214479,-100,4,3,0,40,0,1
214561,-100,4,3,0,60,0,1
214644,-100,4,2,0,80,0,1
214727,-100,4,3,0,60,0,1
214809,-100,4,3,0,40,0,1
214891,-100,4,3,0,60,0,1
214974,-100,4,2,0,80,0,1
215057,-100,4,3,0,60,0,1
215139,-100,4,3,0,40,0,1
215221,-100,4,3,0,60,0,1
215303,-100,4,2,0,80,0,1
215386,-100,4,3,0,60,0,1
215468,-100,4,3,0,40,0,1
215550,-100,4,3,0,60,0,1
215633,-100,4,2,0,80,0,1
215716,-100,4,3,0,60,0,1
215798,-100,4,3,0,40,0,1
215880,-100,4,3,0,60,0,1
215963,-100,4,2,0,80,0,1
216046,-100,4,3,0,60,0,1
216128,-100,4,3,0,40,0,1
216210,-100,4,3,0,60,0,1
216292,-100,4,2,0,80,0,1
216375,-100,4,3,0,60,0,1
216457,-100,4,3,0,40,0,1
216539,-100,4,3,0,60,0,1
216622,-100,4,2,0,80,0,1
216705,-100,4,3,0,60,0,1
216787,-100,4,3,0,40,0,1
216869,-100,4,3,0,60,0,1
216952,-100,4,2,0,80,0,1
217035,-100,4,3,0,60,0,1
217117,-100,4,3,0,40,0,1
217199,-100,4,3,0,60,0,1
217281,-100,4,2,0,80,0,1
217364,-100,4,3,0,60,0,1
217446,-100,4,3,0,40,0,1
217528,-100,4,3,0,60,0,1
217611,-100,4,2,0,80,0,1
217694,-100,4,3,0,60,0,1
217776,-100,4,3,0,40,0,1
217858,-100,4,3,0,60,0,1
217941,-100,4,2,0,80,0,1
218024,-100,4,3,0,60,0,1
218106,-100,4,3,0,40,0,1
218188,-100,4,3,0,60,0,1
218270,-100,4,2,0,80,0,1
218353,-100,4,3,0,60,0,1
218435,-100,4,3,0,40,0,1
218517,-100,4,3,0,60,0,1
218600,-100,4,2,0,80,0,1
218683,-100,4,3,0,60,0,1
218765,-100,4,3,0,40,0,1
218847,-100,4,3,0,60,0,1
218930,-100,4,2,0,80,0,1
219013,-100,4,3,0,60,0,1
219095,-100,4,3,0,40,0,1
219177,-100,4,3,0,60,0,1
219259,-100,4,2,0,80,0,1
219342,-100,4,3,0,60,0,1
219424,-100,4,3,0,40,0,1
219506,-100,4,3,0,60,0,1
219588,-100,4,2,0,80,0,1
219671,-100,4,3,0,60,0,1
219753,-100,4,3,0,40,0,1
219835,-100,4,3,0,60,0,1
219918,-100,4,2,0,80,0,1
220001,-100,4,3,0,60,0,1
220083,-100,4,3,0,40,0,1
220165,-100,4,3,0,60,0,1
220248,-100,4,2,0,80,0,1
220331,-100,4,3,0,60,0,1
220413,-100,4,3,0,40,0,1
220495,-100,4,3,0,60,0,1
220578,-100,4,2,0,80,0,1
220661,-100,4,3,0,60,0,1
220743,-100,4,3,0,40,0,1
220825,-100,4,3,0,60,0,1
220907,-100,4,2,0,80,0,1
220990,-100,4,3,0,60,0,1
221072,-100,4,3,0,40,0,1
221154,-100,4,3,0,60,0,1
221237,-100,4,2,0,80,0,1
221320,-100,4,3,0,60,0,1
221402,-100,4,3,0,40,0,1
221484,-100,4,3,0,60,0,1
221567,-100,4,2,0,80,0,1
221650,-100,4,3,0,60,0,1
221732,-100,4,3,0,40,0,1
221814,-100,4,3,0,60,0,1
221897,-100,4,2,0,80,0,1
221980,-100,4,3,0,60,0,1
222062,-100,4,3,0,40,0,1
222144,-100,4,3,0,60,0,1
222226,-100,4,2,0,80,0,1
222309,-100,4,3,0,60,0,1
222391,-100,4,3,0,40,0,1
222473,-100,4,3,0,60,0,1
222556,-100,4,2,0,80,0,1
222639,-100,4,3,0,60,0,1
222721,-100,4,3,0,40,0,1
222803,-100,4,3,0,60,0,1
222886,-100,4,2,0,80,0,1
222969,-100,4,3,0,60,0,1
223051,-100,4,3,0,40,0,1
223133,-100,4,3,0,60,0,1
223215,-100,4,2,0,80,0,1
223298,-100,4,3,0,60,0,1
223380,-100,4,3,0,40,0,1
223462,-100,4,3,0,60,0,1
223544,-100,4,2,0,80,0,1
223627,-100,4,3,0,60,0,1
223709,-100,4,3,0,40,0,1
223791,-100,4,3,0,60,0,1
223874,-100,4,2,0,80,0,1
223957,-100,4,3,0,60,0,1
224039,-100,4,3,0,40,0,1
224121,-100,4,3,0,60,0,1
224204,-100,4,2,0,80,0,1
224287,-100,4,3,0,60,0,1
224369,-100,4,3,0,40,0,1
224451,-100,4,3,0,60,0,1
224534,-100,4,2,0,80,0,1
224617,-100,4,3,0,60,0,1
224699,-100,4,3,0,40,0,1
224781,-100,4,3,0,60,0,1
224863,-100,4,2,0,80,0,1
224946,-100,4,3,0,60,0,1
225028,-100,4,3,0,40,0,1
225110,-100,4,3,0,60,0,1
225193,-100,4,2,0,80,0,1
225276,-100,4,3,0,60,0,1
225358,-100,4,3,0,40,0,1
225440,-100,4,3,0,60,0,1
225523,-100,4,2,0,80,0,1
225606,-100,4,3,0,60,0,1
225688,-100,4,3,0,40,0,1
225770,-100,4,3,0,60,0,1
225853,-100,4,2,0,80,0,1
225936,-100,4,3,0,60,0,1
226018,-100,4,3,0,40,0,1
226100,-100,4,3,0,60,0,1
226182,-100,4,2,0,80,0,1
226265,-100,4,3,0,60,0,1
226347,-100,4,3,0,40,0,1
226429,-100,4,3,0,60,0,1
226512,-100,4,2,0,80,0,1
226595,-100,4,3,0,60,0,1
226677,-100,4,3,0,40,0,1
226759,-100,4,3,0,60,0,1
226842,-100,4,2,0,80,0,1
226925,-100,4,3,0,60,0,1
227007,-100,4,3,0,40,0,1
227089,-100,4,3,0,60,0,1
227171,-100,4,2,0,80,0,1
227254,-100,4,3,0,60,0,1
227336,-100,4,3,0,40,0,1
227418,-100,4,3,0,60,0,1
227500,-100,4,2,0,80,0,1
227583,-100,4,3,0,60,0,1
227665,-100,4,3,0,40,0,1
227747,-100,4,3,0,60,0,1
227830,-100,4,2,0,80,0,1
227913,-100,4,3,0,60,0,1
227995,-100,4,3,0,40,0,1
228077,-100,4,3,0,60,0,1
228160,-100,4,2,0,80,0,1
228243,-100,4,3,0,60,0,1
228325,-100,4,3,0,40,0,1
228407,-100,4,3,0,60,0,1
228490,-100,4,2,0,80,0,1
228573,-100,4,3,0,60,0,1
228655,-100,4,3,0,40,0,1
228737,-100,4,3,0,60,0,1
228819,-100,4,2,0,80,0,1
228902,-100,4,3,0,60,0,1
228984,-100,4,3,0,40,0,1
229066,-100,4,3,0,60,0,1
229149,-100,4,2,0,80,0,1
229232,-100,4,3,0,60,0,1
229314,-100,4,3,0,40,0,1
229396,-100,4,3,0,60,0,1
229479,-100,4,2,0,80,0,1
229562,-100,4,3,0,60,0,1
229644,-100,4,3,0,40,0,1
229726,-100,4,3,0,60,0,1
229809,-100,4,2,0,80,0,1
229892,-100,4,3,0,60,0,1
229974,-100,4,3,0,40,0,1
230056,-100,4,3,0,60,0,1
230138,-100,4,2,0,80,0,1
230221,-100,4,3,0,60,0,1
230303,-100,4,3,0,40,0,1
230385,-100,4,3,0,60,0,1
230468,-100,4,2,0,80,0,1
230551,-100,4,3,0,60,0,1
230633,-100,4,3,0,40,0,1
230715,-100,4,3,0,60,0,1
231017,-100,4,3,0,50,0,1
231127,-100,4,3,0,80,0,0
231457,-100,4,3,0,50,0,0
231786,-100,4,3,0,80,0,0
232116,-100,4,3,0,50,0,0
232335,-100,4,3,0,50,0,1
232445,-100,4,3,0,80,0,0
232776,-100,4,3,0,59,0,0
233105,-100,4,3,0,80,0,0
233215,-100,4,3,0,50,0,0
233435,-100,4,3,0,80,0,0
233545,-100,4,3,0,50,0,0
233654,-100,4,3,0,50,0,1
233765,-100,4,3,0,80,0,0
233875,-100,4,3,0,50,0,0
234094,-100,4,3,0,50,0,0
234094,-100,4,3,0,50,0,0
234423,-100,4,3,0,80,0,0
234754,-100,4,3,0,50,0,0
234973,-100,4,3,0,50,0,1
235083,-100,4,3,0,80,0,0
235413,-100,4,3,0,59,0,0
235742,-100,4,3,0,80,0,0
235852,-100,4,3,0,50,0,0
236072,-100,4,3,0,80,0,0
236182,-100,4,3,0,50,0,0
236291,-100,4,3,0,50,0,1
236402,-106.382978723404,4,3,0,60,0,0

[Colours]
Combo1 : 128,128,128
Combo2 : 128,128,128

[HitObjects]
256,192,657,12,0,1823,0:0:0:0:
443,83,1990,6,0,L|452:144,1,45.5
378,185,2323,2,0,L|370:119,1,45.5
361,19,2656,2,0,L|364:97,1,45.5
296,128,2990,2,0,L|290:67,1,45.5
207,47,3323,5,0,0:0:0:0:
207,138,3490,1,0,0:0:0:0:
270,202,3656,1,0,0:0:0:0:
270,293,3823,1,0,0:0:0:0:
179,281,3990,6,0,P|186:255|204:232,1,45.5
160,180,4323,2,0,P|188:172|215:173,1,45.5
232,100,4656,2,0,P|254:119|264:140,1,45.5
328,100,4990,2,0,P|334:126|328:152,1,45.5
392,184,5323,2,0,P|372:206|349:215,1,45.5
376,280,5657,2,0,P|349:282|324:275,1,45.5
296,340,5990,5,0,0:0:0:0:
240,253,6156,1,0,0:0:0:0:
365,191,6323,1,0,0:0:0:0:
313,256,6490,1,0,0:0:0:0:
217,122,6656,1,0,0:0:0:0:
282,174,6823,1,0,0:0:0:0:
138,164,6990,6,0,P|128:126|131:108,1,45.5
230,200,7323,2,0,P|240:238|237:256,1,45.5
217,122,7656,6,0,P|255:112|273:115,1,45.5
156,239,7989,2,0,P|118:249|100:246,1,45.5
220,271,8323,2,0,P|192:298|175:305,1,45.5
296,266,8656,2,0,P|285:303|274:317,1,45.5
355,226,8990,2,0,P|365:264|362:282,1,45.5
389,160,9323,2,0,P|416:187|423:204,1,45.5
383,88,9657,2,0,P|420:98|434:109,1,45.5
321,29,9990,5,0,0:0:0:0:
300,117,10156,1,0,0:0:0:0:
157,207,10323,1,0,0:0:0:0:
178,120,10489,1,0,0:0:0:0:
336,207,10656,5,0,0:0:0:0:
248,186,10822,1,0,0:0:0:0:
151,37,10989,1,0,0:0:0:0:
238,58,11155,1,0,0:0:0:0:
305,118,11323,6,0,L|331:171,1,45.5
454,122,11656,2,0,L|428:175,1,45.5
306,171,11990,6,0,L|317:235,1,45.5
447,174,12323,2,0,L|434:233,1,45.5
330,229,12656,6,0,L|328:288,1,45.5
419,227,12990,2,0,L|420:283,1,45.5
349,281,13324,6,0,L|335:346,1,45.5
397,278,13657,2,0,L|405:329,1,45.5
379,185,13990,5,0,0:0:0:0:
335,105,14156,1,0,0:0:0:0:
216,225,14323,5,0,0:0:0:0:
296,181,14489,1,0,0:0:0:0:
169,67,14656,5,0,0:0:0:0:
213,147,14822,1,0,0:0:0:0:
332,27,14989,5,0,0:0:0:0:
252,71,15155,1,0,0:0:0:0:
121,147,15323,6,0,L|137:195,1,45.5
228,217,15656,2,0,L|210:277,1,45.5
135,291,15990,2,0,P|158:337|196:340,1,60.6666666666667
256,340,16434,2,0,P|278:319|285:291,1,60.6666666666667
296,192,16878,2,0,P|273:146|235:143,1,60.6666666666667
148,148,17323,2,0,P|120:176|116:200,1,61.4249981254578
216,200,17990,5,0,0:0:0:0:
220,188,18101,1,0,0:0:0:0:
224,180,18212,1,0,0:0:0:0:
228,168,18323,1,0,0:0:0:0:
232,160,18434,6,0,B|226:142|235:120|262:106|303:114|331:135|337:177|335:213|311:260|241:322|241:322|166:295|122:260|102:216|98:185|98:157|116:131|154:121|191:142|192:168,1,640.639998044922
256,192,29323,12,0,31657,0:0:0:0:
426,81,32003,6,0,B|345:81|345:81|321:104|321:104|236:104,1,182
197,57,32497,5,0,0:0:0:0:
197,57,32579,1,0,0:0:0:0:
197,57,32662,2,0,P|173:111|194:159,1,91,12|0,0:0|0:0,0:0:0:0:
131,200,32992,2,0,P|86:169|100:250,1,182
201,223,33651,5,0,0:0:0:0:
201,223,33733,1,0,0:0:0:0:
201,223,33816,2,0,P|200:172|172:132,1,91,0|8,0:0|0:0,0:0:0:0:
407,168,34310,6,0,L|389:218,1,45.5
275,169,34475,2,0,L|293:219,1,45.5
341,284,34640,1,0,0:0:0:0:
341,284,34970,5,0,0:0:0:0:
311,317,35052,1,0,0:0:0:0:
267,329,35134,1,0,0:0:0:0:
225,315,35217,1,0,0:0:0:0:
196,281,35299,2,0,P|148:259|94:283,1,91,8|0,0:0|0:0,0:0:0:0:
54,201,35629,2,0,P|101:184|44:95,1,182
48,150,36288,6,0,L|215:112,1,136.5
311,120,36618,6,0,L|444:150,1,136.5,8|0,0:0|0:0,0:0:0:0:
245,64,36948,6,0,L|245:148,2,60.6666666666667
329,192,37277,1,8,0:0:0:0:
329,192,37607,6,0,L|329:276,2,60.6666666666667
171,193,37937,1,8,0:0:0:0:
171,193,38267,6,0,L|171:277,2,60.6666666666667
252,320,38596,1,8,0:0:0:0:
154,350,38926,6,0,P|126:333|115:296,2,60.6666666666667
347,349,39255,6,0,P|375:332|386:295,2,60.6666666666667,8|0|0,0:0|0:0|0:0,0:0:0:0:
252,240,39585,6,0,L|252:156,2,60.6666666666667
253,156,39915,5,0,0:0:0:0:
253,156,40244,6,0,L|252:93,2,60.6666666666667
345,98,40574,1,8,0:0:0:0:
345,98,40904,2,0,L|328:172,2,60.6666666666667
163,99,41233,1,8,0:0:0:0:
163,99,41563,2,0,L|181:175,2,60.6666666666667
400,183,41893,2,0,L|357:241,2,60.6666666666667
106,186,42222,2,0,L|152:234,2,60.6666666666667
380,323,42552,6,0,L|286:302,1,91,8|0,0:0|0:0,0:0:0:0:
112,326,42882,1,0,0:0:0:0:
112,326,43046,6,0,L|206:305,1,91,8|0,0:0|0:0,0:0:0:0:
431,222,43376,1,0,0:0:0:0:
431,222,43540,6,0,L|335:234,1,91,8|0,0:0|0:0,0:0:0:0:
68,222,43871,1,0,0:0:0:0:
68,222,44035,6,0,L|163:234,1,91,8|0,0:0|0:0,0:0:0:0:
353,93,44365,1,0,0:0:0:0:
353,93,44529,6,0,L|301:174,1,91,8|0,0:0|0:0,0:0:0:0:
155,89,44860,1,0,0:0:0:0:
155,89,45024,6,0,L|206:170,1,91,8|0,0:0|0:0,0:0:0:0:
251,64,45354,5,0,0:0:0:0:
258,189,45519,6,0,P|236:153|261:54,1,136.5
251,313,45849,6,0,P|273:277|248:178,1,136.5
171,327,46178,6,0,P|135:288|126:236,2,91,8|0|0,0:0|0:0|0:0,0:0:0:0:
331,321,46673,6,0,P|367:282|376:230,2,91,8|0|0,0:0|0:0|0:0,0:0:0:0:
55,219,47167,6,0,P|87:176|136:158,2,91,8|0|0,0:0|0:0|0:0,0:0:0:0:
451,216,47662,6,0,P|418:173|369:155,2,91,8|0|0,0:0|0:0|0:0,0:0:0:0:
267,76,48156,6,0,P|240:119|180:69,1,136.5
224,73,48486,6,0,L|226:229,1,136.5
226,299,48816,6,0,P|284:260|296:176,1,136.5
152,196,49145,6,0,P|164:256|226:299,1,136.5
124,116,49475,6,0,P|94:138|79:161,1,45.5
344,124,49640,2,0,P|374:146|389:169,1,45.5
184,48,49805,6,0,P|147:39|120:42,1,45.5
284,48,49970,2,0,P|320:39|347:42,1,45.5
232,144,50134,5,0,0:0:0:0:
221,146,50798,5,0,0:0:0:0:
173,237,50962,1,0,0:0:0:0:
323,297,51127,5,0,0:0:0:0:
269,213,51291,1,0,0:0:0:0:
137,319,51457,5,0,0:0:0:0:
231,312,51621,1,0,0:0:0:0:
64,355,51787,1,0,0:0:0:0:
64,355,51951,2,0,B|39:302|39:302|50:171,1,182
120,104,52446,5,0,0:0:0:0:
140,212,52611,1,0,0:0:0:0:
51,69,52776,2,0,P|85:34|139:31,1,91
187,151,53105,2,0,P|144:141|118:94,1,91
239,70,53435,5,0,0:0:0:0:
242,215,53600,1,0,0:0:0:0:
143,33,53765,1,0,0:0:0:0:
343,78,53929,1,0,0:0:0:0:
356,93,54259,5,0,0:0:0:0:
157,153,54424,1,0,0:0:0:0:
397,170,54589,2,0,B|432:137|432:137|433:44,1,136.5
314,143,55083,5,0,0:0:0:0:
469,219,55248,1,0,0:0:0:0:
413,306,55413,1,0,0:0:0:0:
321,327,55578,1,0,0:0:0:0:
230,274,55743,1,0,0:0:0:0:
350,218,55907,5,0,0:0:0:0:
245,353,56072,1,0,0:0:0:0:
248,168,56237,1,0,0:0:0:0:
240,280,56402,1,0,0:0:0:0:
114,172,56567,2,0,B|127:131|127:131|227:97,1,136.500005207062
291,155,57061,1,0,0:0:0:0:
155,35,57226,1,0,0:0:0:0:
167,41,57556,5,0,0:0:0:0:
375,101,57721,1,0,0:0:0:0:
425,188,57885,1,0,0:0:0:0:
384,279,58050,1,0,0:0:0:0:
322,193,58215,1,0,0:0:0:0:
468,290,58380,1,0,0:0:0:0:
289,286,58545,1,0,0:0:0:0:
244,146,58710,5,0,0:0:0:0:
210,337,58874,1,0,0:0:0:0:
171,186,59039,2,0,P|161:138|170:106,1,68.250002603531
252,60,59369,2,0,P|288:69|317:98,1,68.250002603531
317,178,59699,2,0,P|290:212|254:222,1,68.250002603531
324,327,60029,5,0,0:0:0:0:
324,327,60111,1,0,0:0:0:0:
324,327,60194,1,0,0:0:0:0:
180,273,60358,2,0,P|163:219|170:179,1,91
91,124,60852,5,0,0:0:0:0:
127,97,60934,1,0,0:0:0:0:
171,88,61016,1,0,0:0:0:0:
215,98,61099,1,0,0:0:0:0:
250,127,61181,1,0,0:0:0:0:
276,239,61347,5,0,0:0:0:0:
167,180,61512,1,0,0:0:0:0:
343,177,61677,1,0,0:0:0:0:
191,255,61841,1,0,0:0:0:0:
371,89,62006,1,0,0:0:0:0:
356,322,62171,1,0,0:0:0:0:
356,189,62336,1,0,0:0:0:0:
356,189,62419,1,0,0:0:0:0:
356,189,62501,1,0,0:0:0:0:
266,253,62666,2,0,P|247:204|256:154,1,91
243,71,62995,2,0,P|191:93|154:166,1,136.5
139,213,63325,5,0,0:0:0:0:
250,163,63490,1,0,0:0:0:0:
174,292,63655,1,0,0:0:0:0:
174,131,63819,1,0,0:0:0:0:
268,326,63984,1,0,0:0:0:0:
68,267,64149,1,0,0:0:0:0:
334,231,64314,1,0,0:0:0:0:
334,231,64396,1,0,0:0:0:0:
334,231,64479,1,0,0:0:0:0:
266,313,64644,1,0,0:0:0:0:
243,184,64808,1,0,0:0:0:0:
190,282,64973,1,0,0:0:0:0:
143,222,65138,1,0,0:0:0:0:
74,303,65303,6,0,P|64:239|95:196,1,91
241,135,65633,2,0,P|191:175|138:170,1,91
20,82,65962,6,0,P|74:115|88:166,1,91
180,88,66292,6,0,P|223:60|280:62,1,91
271,216,66622,6,0,P|243:173|245:116,1,91
417,136,66951,6,0,P|374:164|317:162,1,91
326,8,67281,6,0,P|354:51|352:108,1,91
343,241,67611,5,0,0:0:0:0:
326,261,67940,5,0,0:0:0:0:
308,285,68105,1,0,0:0:0:0:
275,154,68269,5,0,0:0:0:0:
293,130,68434,1,0,0:0:0:0:
366,182,68599,5,0,0:0:0:0:
390,200,68764,1,0,0:0:0:0:
236,236,68929,5,0,0:0:0:0:
212,218,69094,1,0,0:0:0:0:
401,300,69259,1,0,0:0:0:0:
189,202,69424,1,0,0:0:0:0:
347,147,69589,1,0,0:0:0:0:
249,359,69754,1,0,0:0:0:0:
167,314,70083,5,0,0:0:0:0:
167,314,70166,1,0,0:0:0:0:
167,314,70248,2,0,P|128:262|128:247,1,68.25
108,163,70578,6,0,B|167:163|167:163|188:182|188:182|238:182,1,136.5
333,166,70907,1,0,0:0:0:0:
241,109,71072,1,0,0:0:0:0:
325,265,71237,1,0,0:0:0:0:
426,177,71402,1,0,0:0:0:0:
333,166,71567,1,0,0:0:0:0:
474,244,71732,2,0,B|507:195|507:195|462:51,1,182
397,90,72226,2,0,L|427:181,1,91
368,282,72556,1,0,0:0:0:0:
336,179,72721,1,0,0:0:0:0:
306,325,72885,6,0,P|339:358|392:354,1,91
412,207,73215,5,0,0:0:0:0:
216,292,73380,1,0,0:0:0:0:
366,291,73545,1,0,0:0:0:0:
214,113,73710,1,0,0:0:0:0:
206,95,74039,5,0,0:0:0:0:
115,246,74204,1,0,0:0:0:0:
259,284,74369,2,0,B|354:248|361:339|463:285,1,182
296,347,74863,5,0,0:0:0:0:
404,218,75028,1,0,0:0:0:0:
373,133,75193,1,0,0:0:0:0:
299,82,75358,1,0,0:0:0:0:
207,93,75523,1,0,0:0:0:0:
302,175,75688,1,0,0:0:0:0:
245,18,75852,1,0,0:0:0:0:
217,228,76017,1,0,0:0:0:0:
376,56,76182,1,0,0:0:0:0:
153,164,76347,1,0,0:0:0:0:
142,180,76677,5,0,0:0:0:0:
272,297,76841,1,0,0:0:0:0:
239,138,77006,2,0,P|201:93|79:125,1,182
130,198,77501,5,0,0:0:0:0:
246,284,77666,1,0,0:0:0:0:
284,208,77830,1,0,0:0:0:0:
320,134,77995,1,0,0:0:0:0:
385,207,78160,1,0,0:0:0:0:
407,118,78325,5,0,0:0:0:0:
360,288,78490,2,0,L|296:218,1,91
139,158,78819,1,0,0:0:0:0:
139,158,78984,2,0,L|203:228,1,91
308,124,79314,2,0,L|238:188,1,91
181,343,79643,2,0,L|251:279,1,91
312,128,79973,2,0,L|243:198,1,91
362,61,80303,6,0,B|267:22|264:100|148:51,1,182
108,100,80715,1,0,0:0:0:0:
137,133,80797,1,0,0:0:0:0:
134,177,80880,1,0,0:0:0:0:
101,208,80962,1,0,0:0:0:0:
82,293,81127,6,0,L|172:303,1,91
334,297,81457,1,0,0:0:0:0:
232,214,81622,1,0,0:0:0:0:
278,360,81787,1,0,0:0:0:0:
378,215,81951,1,0,0:0:0:0:
184,308,82116,1,0,0:0:0:0:
404,312,82280,1,0,0:0:0:0:
404,312,82363,1,0,0:0:0:0:
404,312,82445,1,0,0:0:0:0:
284,352,82611,5,0,0:0:0:0:
264,208,82776,1,0,0:0:0:0:
320,272,82941,1,0,0:0:0:0:
272,192,83105,2,0,P|251:138|126:138,1,182
192,192,83600,5,0,0:0:0:0:
85,52,83765,1,0,0:0:0:0:
120,240,83929,1,0,0:0:0:0:
303,64,84094,1,0,0:0:0:0:
76,161,84259,1,0,0:0:0:0:
76,161,84341,1,0,0:0:0:0:
76,161,84424,1,0,0:0:0:0:
120,240,84589,1,0,0:0:0:0:
139,125,84754,1,0,0:0:0:0:
196,260,84918,1,0,0:0:0:0:
240,172,85083,6,0,P|284:213|288:271,1,91
344,312,85413,6,0,P|385:268|443:264,1,91
498,214,85743,6,0,P|454:173|450:115,1,91
396,43,86073,6,0,P|355:87|297:91,1,91
251,240,86402,6,0,P|243:180|277:133,1,91
151,26,86732,6,0,P|206:49|229:102,1,91
46,162,87061,6,0,P|92:133|151:146,1,91
75,304,87391,6,0,P|92:252|145:224,1,91
182,304,87721,5,0,0:0:0:0:
225,233,87885,1,0,0:0:0:0:
347,336,88050,5,0,0:0:0:0:
276,309,88215,1,0,0:0:0:0:
279,173,88380,5,0,0:0:0:0:
354,333,88545,1,0,0:0:0:0:
182,304,88710,5,0,0:0:0:0:
337,244,88874,1,0,0:0:0:0:
229,367,89039,5,0,0:0:0:0:
223,148,89204,1,0,0:0:0:0:
420,346,89369,5,0,0:0:0:0:
127,356,89534,1,0,0:0:0:0:
97,345,89863,6,0,L|137:299,1,45.5
176,245,90028,1,0,0:0:0:0:
331,140,90358,6,0,P|281:198|251:110,1,182
359,62,90852,5,0,0:0:0:0:
402,192,91017,2,0,P|366:246|319:264,1,91
166,167,91347,1,0,0:0:0:0:
206,250,91512,2,0,P|169:217|161:159,1,91
305,226,91841,5,0,0:0:0:0:
250,315,92006,1,0,0:0:0:0:
246,154,92171,1,0,0:0:0:0:
341,309,92336,1,0,0:0:0:0:
341,309,92418,1,0,0:0:0:0:
341,309,92501,1,0,0:0:0:0:
353,155,92666,1,0,0:0:0:0:
427,239,92830,1,0,0:0:0:0:
288,68,92995,6,0,L|189:119,1,91
107,244,93325,6,0,L|206:193,1,91
90,65,93655,6,0,L|141:164,1,91
302,256,93985,6,0,L|251:157,1,91
229,310,94314,6,0,P|275:338|328:328,1,91
390,226,94808,1,0,0:0:0:0:
297,261,94973,1,0,0:0:0:0:
452,300,95138,1,0,0:0:0:0:
456,280,95468,5,0,0:0:0:0:
380,96,95633,1,0,0:0:0:0:
292,268,95798,1,0,0:0:0:0:
460,184,95962,1,0,0:0:0:0:
292,176,96127,1,0,0:0:0:0:
456,280,96292,1,0,0:0:0:0:
296,96,96457,1,0,0:0:0:0:
292,268,96622,1,0,0:0:0:0:
464,100,96787,1,0,0:0:0:0:
247,217,96951,5,0,0:0:0:0:
235,260,97033,1,0,0:0:0:0:
248,303,97115,1,0,0:0:0:0:
280,334,97198,1,0,0:0:0:0:
324,344,97281,2,0,L|347:294,1,45.5
432,289,97446,2,0,P|417:257|394:229,1,45.5
462,168,97611,2,0,P|423:153|390:159,1,45.5
424,55,97776,2,0,P|394:54|363:73,1,45.5
293,41,97940,1,0,0:0:0:0:
384,228,98270,5,0,0:0:0:0:
349,256,98352,1,0,0:0:0:0:
305,268,98434,1,0,0:0:0:0:
260,261,98517,1,0,0:0:0:0:
223,236,98599,1,0,0:0:0:0:
181,217,98682,1,0,0:0:0:0:
136,215,98764,1,0,0:0:0:0:
93,228,98847,1,0,0:0:0:0:
64,260,98930,5,0,0:0:0:0:
63,300,99012,1,0,0:0:0:0:
97,329,99094,1,0,0:0:0:0:
141,326,99177,1,0,0:0:0:0:
172,294,99259,1,0,0:0:0:0:
183,250,99341,1,0,0:0:0:0:
178,205,99423,1,0,0:0:0:0:
157,165,99506,1,0,0:0:0:0:
130,126,99589,6,0,L|101:86,3,45.5
211,42,99919,2,0,L|190:88,3,45.5
297,136,100248,2,0,L|265:80,3,45.5
387,44,100578,2,0,L|353:101,3,45.5
436,138,100908,5,0,0:0:0:0:
468,183,100990,1,0,0:0:0:0:
466,239,101072,1,0,0:0:0:0:
432,283,101155,1,0,0:0:0:0:
378,298,101237,1,0,0:0:0:0:
337,278,101319,1,0,0:0:0:0:
292,272,101401,1,0,0:0:0:0:
248,281,101484,1,0,0:0:0:0:
207,302,101567,5,0,0:0:0:0:
162,307,101649,1,0,0:0:0:0:
120,291,101731,1,0,0:0:0:0:
90,257,101814,1,0,0:0:0:0:
79,214,101896,1,0,0:0:0:0:
90,170,101979,1,0,0:0:0:0:
120,136,102061,1,0,0:0:0:0:
160,116,102143,1,0,0:0:0:0:
204,122,102226,6,0,L|279:141,1,45.5
392,193,102391,1,0,0:0:0:0:
392,193,102474,1,0,0:0:0:0:
392,193,102556,2,0,L|315:180,1,45.5
188,221,102721,5,0,0:0:0:0:
188,221,102804,1,0,0:0:0:0:
188,221,102886,2,0,L|265:208,1,45.5
407,282,103050,5,0,0:0:0:0:
407,282,103133,1,0,0:0:0:0:
407,282,103215,2,0,L|330:269,1,45.5
247,302,103380,6,0,L|203:310,1,45.5
114,340,103545,5,0,0:0:0:0:
88,311,103627,1,0,0:0:0:0:
76,268,103709,1,0,0:0:0:0:
86,224,103792,1,0,0:0:0:0:
121,190,103875,1,0,0:0:0:0:
144,151,103957,1,0,0:0:0:0:
148,106,104039,1,0,0:0:0:0:
114,69,104122,1,0,0:0:0:0:
94,100,104204,5,0,0:0:0:0:
121,130,104286,1,0,0:0:0:0:
164,140,104368,1,0,0:0:0:0:
208,133,104451,1,0,0:0:0:0:
247,110,104534,1,0,0:0:0:0:
288,90,104616,1,0,0:0:0:0:
333,85,104698,1,0,0:0:0:0:
377,95,104781,1,0,0:0:0:0:
416,118,104864,6,0,L|454:159,3,45.5
356,267,105193,2,0,L|405:252,3,45.5
304,168,105523,2,0,L|357:176,3,45.5
203,271,105853,2,0,L|252:258,3,45.5
92,151,106182,5,0,0:0:0:0:
94,128,106264,1,0,0:0:0:0:
103,107,106346,1,0,0:0:0:0:
116,89,106429,1,0,0:0:0:0:
134,74,106511,1,0,0:0:0:0:
154,65,106594,1,0,0:0:0:0:
177,61,106676,1,0,0:0:0:0:
199,63,106758,1,0,0:0:0:0:
223,69,106841,6,0,P|234:100|233:133,1,45.5
346,101,107006,6,0,P|324:126|295:142,1,45.5
379,224,107171,6,0,P|346:218|318:201,1,45.5
288,315,107336,6,0,P|278:284|279:251,1,45.5
165,282,107501,6,0,P|187:257|216:241,1,45.5
132,159,107666,6,0,P|165:165|193:182,1,45.5
421,69,107831,5,0,0:0:0:0:
443,108,107913,1,0,0:0:0:0:
453,152,107995,1,0,0:0:0:0:
452,197,108078,1,0,0:0:0:0:
438,241,108160,5,0,0:0:0:0:
421,273,108242,1,0,0:0:0:0:
394,297,108324,1,0,0:0:0:0:
361,311,108407,1,0,0:0:0:0:
324,314,108490,1,0,0:0:0:0:
307,299,108572,1,0,0:0:0:0:
286,290,108654,1,0,0:0:0:0:
264,287,108737,1,0,0:0:0:0:
240,287,108820,5,0,0:0:0:0:
195,287,108902,1,0,0:0:0:0:
156,263,108984,1,0,0:0:0:0:
129,227,109067,1,0,0:0:0:0:
113,185,109149,1,0,0:0:0:0:
115,140,109232,1,0,0:0:0:0:
137,100,109314,1,0,0:0:0:0:
170,70,109396,1,0,0:0:0:0:
217,61,109479,1,0,0:0:0:0:
255,82,109561,1,0,0:0:0:0:
267,125,109643,1,0,0:0:0:0:
245,163,109726,1,0,0:0:0:0:
211,184,109808,1,0,0:0:0:0:
183,218,109890,1,0,0:0:0:0:
183,263,109972,1,0,0:0:0:0:
211,298,110055,1,0,0:0:0:0:
254,307,110138,6,0,P|290:295|303:280,1,45.5
365,312,110303,6,0,P|377:277|374:257,1,45.5
442,242,110468,6,0,P|423:209|406:199,1,45.5
434,136,110633,6,0,P|397:129|378:135,1,45.5
346,70,110798,6,0,P|317:93|310:112,1,45.5
242,99,110963,6,0,P|241:136|251:153,1,45.5
193,197,111127,6,0,P|221:221|240:224,1,45.5
254,307,111292,6,0,P|290:295|303:280,1,45.5
298,236,111457,5,0,0:0:0:0:
305,225,111539,1,0,0:0:0:0:
311,213,111621,1,0,0:0:0:0:
315,201,111704,1,0,0:0:0:0:
317,188,111786,1,0,0:0:0:0:
317,175,111869,1,0,0:0:0:0:
315,162,111951,1,0,0:0:0:0:
311,150,112033,1,0,0:0:0:0:
310,124,112116,5,0,0:0:0:0:
337,88,112198,1,0,0:0:0:0:
380,78,112280,1,0,0:0:0:0:
421,97,112363,1,0,0:0:0:0:
440,137,112446,1,0,0:0:0:0:
442,181,112528,1,0,0:0:0:0:
417,218,112610,1,0,0:0:0:0:
374,232,112693,1,0,0:0:0:0:
332,231,112776,1,0,0:0:0:0:
289,217,112858,5,0,0:0:0:0:
244,226,112940,1,0,0:0:0:0:
209,254,113023,1,0,0:0:0:0:
191,296,113105,1,0,0:0:0:0:
152,319,113187,1,0,0:0:0:0:
108,316,113269,1,0,0:0:0:0:
72,289,113352,1,0,0:0:0:0:
58,246,113435,5,0,0:0:0:0:
62,202,113517,1,0,0:0:0:0:
93,169,113599,1,0,0:0:0:0:
137,162,113682,1,0,0:0:0:0:
179,176,113765,1,0,0:0:0:0:
222,185,113847,1,0,0:0:0:0:
266,174,113929,1,0,0:0:0:0:
299,143,114012,1,0,0:0:0:0:
315,101,114094,5,0,0:0:0:0:
295,91,114176,1,0,0:0:0:0:
273,84,114258,1,0,0:0:0:0:
251,80,114341,1,0,0:0:0:0:
228,81,114424,1,0,0:0:0:0:
208,92,114506,1,0,0:0:0:0:
186,97,114588,1,0,0:0:0:0:
163,97,114671,1,0,0:0:0:0:
142,93,114754,5,0,0:0:0:0:
115,129,114836,1,0,0:0:0:0:
103,173,114918,1,0,0:0:0:0:
109,218,115001,1,0,0:0:0:0:
131,257,115083,1,0,0:0:0:0:
166,285,115165,1,0,0:0:0:0:
211,294,115247,1,0,0:0:0:0:
254,284,115330,1,0,0:0:0:0:
289,255,115413,6,0,L|314:300,3,45.5
418,252,115743,2,0,L|396:303,3,45.5
235,144,116072,6,0,L|259:188,3,45.5
464,138,116402,2,0,L|442:189,3,45.5
422,59,116732,6,0,P|393:81|385:101,1,45.5
357,177,116896,2,0,P|324:154|316:132,1,45.5
272,59,117061,6,0,P|243:81|235:101,1,45.5
205,176,117225,2,0,P|172:153|164:131,1,45.5
119,64,117391,6,0,P|96:90|86:115,1,45.5
159,286,117556,2,0,P|182:260|192:235,1,45.5
31,136,117721,6,0,P|42:168|58:190,1,45.5
266,231,117886,2,0,P|254:198|238:176,1,45.5
48,261,118050,6,0,P|82:268|109:264,1,45.5
248,105,118215,2,0,P|214:98|187:102,1,45.5
159,286,118380,6,0,P|182:260|192:235,1,45.5
119,64,118545,2,0,P|96:90|86:115,1,45.5
271,234,118710,5,0,0:0:0:0:
309,257,118792,1,0,0:0:0:0:
354,259,118874,1,0,0:0:0:0:
394,238,118957,1,0,0:0:0:0:
419,201,119039,1,0,0:0:0:0:
427,172,119121,1,0,0:0:0:0:
422,142,119203,1,0,0:0:0:0:
405,117,119286,1,0,0:0:0:0:
373,90,119369,6,0,L|338:119,1,45.5
216,133,119534,5,0,0:0:0:0:
216,133,119616,1,0,0:0:0:0:
216,133,119699,2,0,L|262:98,1,45.5
299,220,119864,5,0,0:0:0:0:
299,220,119946,1,0,0:0:0:0:
299,220,120029,2,0,L|264:174,1,45.5
271,25,120194,5,0,0:0:0:0:
271,25,120276,1,0,0:0:0:0:
271,25,120358,2,0,L|306:71,1,45.5
290,214,120523,5,0,0:0:0:0:
240,236,120605,1,0,0:0:0:0:
186,235,120687,1,0,0:0:0:0:
139,209,120770,1,0,0:0:0:0:
107,165,120852,1,0,0:0:0:0:
111,112,120934,1,0,0:0:0:0:
153,81,121016,1,0,0:0:0:0:
205,91,121099,1,0,0:0:0:0:
232,136,121182,1,0,0:0:0:0:
228,190,121264,1,0,0:0:0:0:
176,220,121347,5,0,0:0:0:0:
134,261,121429,1,0,0:0:0:0:
144,319,121511,1,0,0:0:0:0:
196,345,121594,1,0,0:0:0:0:
254,324,121677,1,0,0:0:0:0:
291,267,121759,1,0,0:0:0:0:
352,240,121841,1,0,0:0:0:0:
419,249,121924,1,0,0:0:0:0:
471,292,122006,1,12,0:0:0:0:
336,144,137831,6,0,L|368:212,2,60.6666666666667
336,144,138490,2,2,L|232:144,1,91,0|0,0:0|0:0,0:0:0:0:
180,80,138985,5,0,0:0:0:0:
152,168,139149,1,0,0:0:0:0:
92,100,139314,1,0,0:0:0:0:
68,188,139479,2,0,P|76:224|112:248,1,68.25
144,252,139809,2,0,L|248:264,1,91
304,204,140468,5,8,0:0:0:0:
320,287,140633,1,2,0:0:0:0:
221,178,140798,1,0,0:0:0:0:
367,141,140963,1,0,0:0:0:0:
88,48,141127,2,0,L|112:143,1,91,12|0,0:0|0:0,0:0:0:0:
144,252,141622,1,2,0:0:0:0:
144,252,141787,6,0,L|179:209,1,45.5
272,233,142116,5,2,0:0:0:0:
272,233,142281,2,0,L|238:273,1,45.5
354,269,142611,1,0,0:0:0:0:
354,269,142776,2,0,L|382:230,1,45.5,4|0,0:0|0:0,0:0:0:0:
407,90,143105,6,0,L|433:48,1,45.5
348,77,143270,6,0,L|348:27,1,45.5
297,82,143435,6,0,L|259:46,1,45.5
243,109,143600,6,0,L|188:98,1,45.5
208,164,143765,5,0,0:0:0:0:
171,183,143847,1,0,0:0:0:0:
152,216,143929,1,0,0:0:0:0:
148,256,144012,1,0,0:0:0:0:
176,284,144094,1,0,0:0:0:0:
218,299,144176,1,0,0:0:0:0:
263,294,144258,1,0,0:0:0:0:
301,270,144342,1,0,0:0:0:0:
345,258,144424,1,0,0:0:0:0:
390,266,144507,1,0,0:0:0:0:
433,258,144589,1,0,0:0:0:0:
461,224,144671,1,0,0:0:0:0:
459,180,144754,6,0,L|434:137,1,45.5
367,157,144919,2,0,L|364:109,1,45.5
281,126,145083,2,0,L|280:71,1,45.5
203,53,145248,5,0,0:0:0:0:
203,53,145331,1,0,0:0:0:0:
203,53,145413,6,0,L|143:53,1,45.5
23,107,145578,5,0,0:0:0:0:
23,107,145661,1,0,0:0:0:0:
23,107,145743,6,0,L|83:107,1,45.5
212,142,145908,5,0,0:0:0:0:
212,142,145991,1,0,0:0:0:0:
212,142,146073,6,0,L|152:142,1,45.5
32,196,146238,5,0,0:0:0:0:
32,196,146321,1,0,0:0:0:0:
32,196,146403,6,0,L|92:196,1,45.5
266,239,146567,5,0,0:0:0:0:
310,236,146649,1,0,0:0:0:0:
347,211,146731,1,0,0:0:0:0:
365,170,146814,1,0,0:0:0:0:
358,125,146897,1,0,0:0:0:0:
395,100,146979,1,0,0:0:0:0:
439,106,147061,1,0,0:0:0:0:
468,140,147144,1,0,0:0:0:0:
466,185,147226,1,0,0:0:0:0:
447,225,147308,1,0,0:0:0:0:
448,270,147391,6,0,L|466:324,1,45.5
371,279,147556,6,0,L|388:332,1,45.5
289,280,147721,6,0,L|306:333,1,45.5
211,288,147886,6,0,L|228:341,1,45.5
134,315,148050,5,0,0:0:0:0:
124,270,148132,1,0,0:0:0:0:
137,227,148214,1,0,0:0:0:0:
169,196,148297,1,0,0:0:0:0:
194,164,148380,1,0,0:0:0:0:
207,136,148462,1,0,0:0:0:0:
209,106,148544,1,0,0:0:0:0:
200,78,148627,1,0,0:0:0:0:
178,61,148710,1,0,0:0:0:0:
148,54,148792,1,0,0:0:0:0:
119,61,148874,1,0,0:0:0:0:
97,82,148957,1,0,0:0:0:0:
81,106,149039,5,0,0:0:0:0:
103,131,149121,1,0,0:0:0:0:
133,146,149203,1,0,0:0:0:0:
167,150,149286,1,0,0:0:0:0:
202,143,149369,1,0,0:0:0:0:
241,120,149451,1,0,0:0:0:0:
285,112,149533,1,0,0:0:0:0:
330,120,149616,1,0,0:0:0:0:
376,136,149699,6,0,P|410:131|435:117,3,45.5
332,203,150028,6,0,P|363:216|392:216,3,45.5
262,233,150358,5,0,0:0:0:0:
262,233,150441,1,0,0:0:0:0:
262,233,150523,6,0,P|282:260|307:274,1,45.5
186,218,150688,5,0,0:0:0:0:
186,218,150771,1,0,0:0:0:0:
186,218,150853,6,0,P|190:252|205:277,1,45.5
112,275,151017,5,0,0:0:0:0:
97,232,151099,1,0,0:0:0:0:
105,188,151181,1,0,0:0:0:0:
134,153,151264,1,0,0:0:0:0:
176,137,151347,1,0,0:0:0:0:
221,132,151429,1,0,0:0:0:0:
264,144,151512,1,0,0:0:0:0:
306,161,151594,1,0,0:0:0:0:
350,153,151677,6,0,L|406:121,3,45.5
471,230,152007,2,0,L|415:197,3,45.5
403,294,152336,5,0,0:0:0:0:
362,273,152418,1,0,0:0:0:0:
318,266,152500,1,0,0:0:0:0:
273,274,152583,1,0,0:0:0:0:
234,297,152666,1,0,0:0:0:0:
193,316,152748,1,0,0:0:0:0:
148,321,152830,1,0,0:0:0:0:
103,311,152913,1,0,0:0:0:0:
64,288,152996,6,0,L|86:236,1,45.5
175,235,153160,2,0,L|148:179,1,45.5
64,174,153325,6,0,L|85:121,1,45.5
196,130,153489,2,0,L|169:74,1,45.5
38,50,153655,1,0,0:0:0:0:
79,67,153737,1,0,0:0:0:0:
124,64,153819,1,0,0:0:0:0:
163,42,153902,1,0,0:0:0:0:
205,27,153984,1,0,0:0:0:0:
251,27,154066,1,0,0:0:0:0:
293,42,154149,1,0,0:0:0:0:
327,62,154231,1,0,0:0:0:0:
366,68,154314,6,0,P|419:82|443:95,1,60.6666666666667
372,152,154534,6,0,P|386:204|387:232,1,60.6666666666667
300,216,154754,6,0,P|261:254|238:269,1,60.6666666666667
224,179,154974,6,0,P|170:165|147:152,1,60.6666666666667
216,92,155193,6,0,P|201:39|200:11,1,60.6666666666667
286,44,155413,6,0,P|324:5|347:-9,1,60.6666666666667
368,68,155633,5,0,0:0:0:0:
384,244,155963,6,0,L|324:244,1,45.5
383,256,156127,2,0,B|255:254|255:254|208:218,1,182
148,316,156622,6,0,L|96:268,2,45.5
72,212,156951,6,0,B|172:180|152:260|260:216,1,182
388,264,157446,5,0,0:0:0:0:
388,264,157528,1,0,0:0:0:0:
388,264,157611,2,0,L|345:305,1,45.5,8|0,0:0|0:0,0:0:0:0:
400,172,157940,2,0,P|446:192|475:326,1,182,0|8,0:0|0:0,0:0:0:0:
309,220,158600,5,0,0:0:0:0:
297,176,158682,1,0,0:0:0:0:
309,133,158764,1,0,0:0:0:0:
341,101,158847,1,0,0:0:0:0:
385,89,158929,2,0,P|403:142|394:188,1,91,8|0,0:0|0:0,0:0:0:0:
220,182,159259,2,0,P|202:129|211:83,1,91
44,179,159589,2,0,P|66:127|116:196,1,182,8|0,0:0|0:0,0:0:0:0:
177,274,160083,5,0,0:0:0:0:
185,278,160166,1,0,0:0:0:0:
195,284,160248,2,0,P|222:244|224:191,1,91,8|0,0:0|0:0,0:0:0:0:
326,253,160578,2,0,P|324:306|387:243,1,182,0|8,0:0|0:0,0:0:0:0:
479,220,161237,5,0,0:0:0:0:
463,177,161319,1,0,0:0:0:0:
431,145,161401,1,0,0:0:0:0:
388,130,161484,1,0,0:0:0:0:
344,134,161567,2,0,P|301:158|298:219,1,91,8|0,0:0|0:0,0:0:0:0:
292,320,161897,6,0,L|348:268,2,60.6666666666667
172,336,162226,5,8,0:0:0:0:
172,336,162556,2,0,L|112:288,2,60.6666666666667
244,236,162886,1,8,0:0:0:0:
244,236,163215,2,0,L|244:148,2,60.6666666666667
244,112,163545,1,8,0:0:0:0:
244,112,163875,6,0,L|244:36,2,60.6666666666667
356,156,164204,2,0,L|356:88,2,60.6666666666667,8|0|0,0:0|0:0|0:0,0:0:0:0:
152,184,164534,2,0,L|152:108,2,60.6666666666667,8|0|0,0:0|0:0|0:0,0:0:0:0:
244,236,164864,1,8,0:0:0:0:
244,236,165193,6,0,L|244:328,2,60.6666666666667
248,152,165523,1,8,0:0:0:0:
248,152,165853,2,0,L|248:80,2,60.6666666666667
356,160,166182,1,8,0:0:0:0:
356,160,166512,2,0,L|356:232,2,60.6666666666667
240,296,166842,2,0,L|240:356,2,60.6666666666667,8|0|0,0:0|0:0|0:0,0:0:0:0:
136,152,167171,2,0,L|136:220,2,60.6666666666667,8|0|0,0:0|0:0|0:0,0:0:0:0:
317,58,167501,5,8,0:0:0:0:
317,58,167666,2,0,P|361:98|372:160,1,91
195,58,167995,5,8,0:0:0:0:
195,58,168160,2,0,P|151:98|140:160,1,91
430,103,168490,5,8,0:0:0:0:
430,103,168655,2,0,P|448:159|426:218,1,91
81,103,168984,5,8,0:0:0:0:
81,103,169149,2,0,P|62:159|84:218,1,91
464,201,169479,5,8,0:0:0:0:
464,201,169644,2,0,P|451:259|403:299,1,91
71,211,169973,5,8,0:0:0:0:
71,211,170138,2,0,P|83:269|131:309,1,91
313,306,170468,6,0,P|265:269|199:313,1,136.5
255,334,170798,6,0,L|254:187,1,136.5
323,97,171127,6,0,P|368:80|421:86,2,91,8|0|0,0:0|0:0|0:0,0:0:0:0:
189,97,171622,6,0,P|144:80|91:86,2,91,8|0|0,0:0|0:0|0:0,0:0:0:0:
355,186,172116,6,0,P|403:193|446:225,2,91,8|0|0,0:0|0:0|0:0,0:0:0:0:
157,186,172611,6,0,P|110:193|67:225,2,91,8|0|0,0:0|0:0|0:0,0:0:0:0:
365,275,173105,6,0,P|312:311|268:226,1,170.625
158,275,173435,6,0,P|211:311|255:226,1,170.625
237,151,173765,6,0,L|50:228,1,170.625
266,151,174094,6,0,L|453:228,1,170.625
373,102,174424,5,0,0:0:0:0:
346,91,174506,1,0,0:0:0:0:
320,81,174588,1,0,0:0:0:0:
293,70,174671,1,0,0:0:0:0:
267,60,174754,5,0,0:0:0:0:
241,70,174836,1,0,0:0:0:0:
214,81,174919,1,0,0:0:0:0:
188,91,175001,1,0,0:0:0:0:
161,102,175083,1,0,0:0:0:0:
432,120,175743,6,0,P|464:172|372:180,1,182,8|0,0:0|0:0,0:0:0:0:
332,112,176237,1,0,0:0:0:0:
288,192,176402,2,0,B|304:276|304:276|412:328,1,182,8|0,0:0|0:0,0:0:0:0:
468,264,176897,1,0,0:0:0:0:
400,324,177061,2,0,P|328:344|284:328,1,91,8|0,0:0|0:0,0:0:0:0:
228,308,177391,2,0,P|156:300|128:320,1,91
120,220,177721,2,0,L|104:112,1,91,8|0,0:0|0:0,0:0:0:0:
192,164,178050,2,0,L|208:68,1,91
308,104,178380,5,0,0:0:0:0:
376,204,178545,1,0,0:0:0:0:
413,95,178710,1,0,0:0:0:0:
264,200,178874,1,0,0:0:0:0:
476,176,179039,1,0,0:0:0:0:
330,310,179204,1,0,0:0:0:0:
308,104,179369,1,0,0:0:0:0:
435,310,179534,1,0,0:0:0:0:
264,204,179699,6,0,P|204:196|252:268,1,182,8|8,0:0|0:0,0:0:0:0:
354,200,180193,1,0,0:0:0:0:
200,344,180358,2,0,P|144:324|124:180,1,182,8|8,0:0|0:0,0:0:0:0:
172,112,180853,1,0,0:0:0:0:
260,88,181017,2,0,P|308:96|344:128,1,91,2|0,0:0|0:0,0:0:0:0:
370,201,181347,1,0,0:0:0:0:
416,68,181512,2,0,P|440:116|448:164,1,91,2|0,0:0|0:0,0:0:0:0:
442,247,181842,1,0,0:0:0:0:
368,208,182007,2,0,P|356:264|312:312,1,91,2|0,0:0|0:0,0:0:0:0:
248,276,182336,5,0,0:0:0:0:
242,298,182418,1,0,0:0:0:0:
230,316,182500,1,0,0:0:0:0:
211,330,182583,1,0,0:0:0:0:
190,336,182665,1,0,0:0:0:0:
167,334,182748,1,0,0:0:0:0:
146,325,182830,1,0,0:0:0:0:
130,309,182912,1,0,0:0:0:0:
121,289,182995,1,0,0:0:0:0:
119,266,183077,5,0,0:0:0:0:
124,244,183160,1,0,0:0:0:0:
137,226,183242,1,0,0:0:0:0:
156,213,183325,1,0,0:0:0:0:
178,207,183407,1,0,0:0:0:0:
200,210,183489,1,0,0:0:0:0:
221,219,183572,1,0,0:0:0:0:
237,236,183654,1,0,0:0:0:0:
400,132,184974,6,0,P|363:219|277:234,2,182
132,132,187611,6,0,P|168:219|254:234,2,182
284,40,190248,6,0,P|259:169|243:41,1,364
264,104,192886,6,0,L|264:288,1,182
285,302,193627,1,0,0:0:0:0:
274,334,193709,1,0,0:0:0:0:
241,334,193792,1,0,0:0:0:0:
229,302,193874,1,0,0:0:0:0:
415,282,194204,6,0,P|457:205|424:124,1,182
180,140,195193,1,0,0:0:0:0:
260,196,195523,2,0,P|222:229|204:280,1,91
120,256,196182,2,0,P|109:205|82:173,1,91
268,144,196842,6,0,L|260:104,2,30.3333333333333
348,160,197171,2,0,L|368:124,2,30.3333333333333
416,212,197501,2,0,L|452:176,2,30.3333333333333
420,300,197831,2,0,L|448:288,2,30.3333333333333
352,328,198160,2,0,P|312:328|244:208,1,182
160,248,199149,1,0,0:0:0:0:
160,248,199479,5,0,0:0:0:0:
151,203,199561,1,0,0:0:0:0:
165,160,199643,1,0,0:0:0:0:
197,129,199726,1,0,0:0:0:0:
241,117,199809,1,0,0:0:0:0:
284,131,199891,1,0,0:0:0:0:
315,163,199973,1,0,0:0:0:0:
328,207,200056,1,0,0:0:0:0:
320,251,200138,5,0,0:0:0:0:
334,301,200220,1,0,0:0:0:0:
375,332,200302,1,0,0:0:0:0:
427,331,200385,1,0,0:0:0:0:
469,299,200467,1,0,0:0:0:0:
482,249,200550,1,0,0:0:0:0:
461,201,200633,1,0,0:0:0:0:
442,160,200715,1,0,0:0:0:0:
437,115,200798,6,0,L|460:64,1,45.5
368,100,200963,5,0,0:0:0:0:
368,100,201045,1,0,0:0:0:0:
368,100,201127,2,0,L|384:44,1,45.5
292,84,201292,5,0,0:0:0:0:
292,84,201374,1,0,0:0:0:0:
292,84,201456,2,0,L|300:24,1,45.5
212,72,201622,5,0,0:0:0:0:
212,72,201704,1,0,0:0:0:0:
212,72,201786,2,0,L|212:16,1,45.5
136,80,201952,5,0,0:0:0:0:
136,80,202034,1,0,0:0:0:0:
136,80,202116,1,0,0:0:0:0:
95,100,202198,1,0,0:0:0:0:
67,136,202280,1,0,0:0:0:0:
56,179,202363,1,0,0:0:0:0:
65,224,202445,1,0,0:0:0:0:
91,261,202528,1,0,0:0:0:0:
129,284,202611,1,0,0:0:0:0:
173,288,202693,5,0,0:0:0:0:
207,259,202776,1,0,0:0:0:0:
245,235,202858,1,0,0:0:0:0:
290,226,202940,1,0,0:0:0:0:
334,234,203023,1,0,0:0:0:0:
373,257,203105,1,0,0:0:0:0:
378,301,203187,1,0,0:0:0:0:
348,334,203269,1,0,0:0:0:0:
304,335,203352,1,0,0:0:0:0:
274,303,203435,6,0,P|260:272|268:240,1,45.5
168,263,203600,2,0,P|188:235|220:226,1,45.5
150,152,203765,2,0,P|184:155|208:178,1,45.5
237,80,203930,2,0,P|252:112|244:144,1,45.5
336,92,204094,5,0,0:0:0:0:
337,103,204176,1,0,0:0:0:0:
338,114,204258,1,0,0:0:0:0:
338,125,204341,1,0,0:0:0:0:
336,137,204423,1,0,0:0:0:0:
333,148,204506,1,0,0:0:0:0:
329,158,204588,1,0,0:0:0:0:
323,168,204670,1,0,0:0:0:0:
317,178,204754,5,0,0:0:0:0:
288,195,204836,1,0,0:0:0:0:
254,202,204918,1,0,0:0:0:0:
221,198,205001,1,0,0:0:0:0:
189,185,205083,1,0,0:0:0:0:
146,174,205165,1,0,0:0:0:0:
109,197,205247,1,0,0:0:0:0:
101,241,205330,1,0,0:0:0:0:
127,277,205413,1,0,0:0:0:0:
165,300,205495,1,0,0:0:0:0:
210,306,205577,1,0,0:0:0:0:
253,293,205660,1,0,0:0:0:0:
287,264,205743,1,0,0:0:0:0:
327,245,205825,5,0,0:0:0:0:
367,264,205907,1,0,0:0:0:0:
378,307,205990,1,0,0:0:0:0:
353,343,206072,1,0,0:0:0:0:
309,346,206154,1,0,0:0:0:0:
279,315,206236,1,0,0:0:0:0:
285,271,206319,1,0,0:0:0:0:
327,245,206402,1,0,0:0:0:0:
362,236,206484,1,0,0:0:0:0:
384,208,206566,1,0,0:0:0:0:
386,172,206649,1,0,0:0:0:0:
367,142,206731,1,0,0:0:0:0:
337,124,206814,5,0,0:0:0:0:
315,117,206896,1,0,0:0:0:0:
292,116,206978,1,0,0:0:0:0:
270,121,207061,1,0,0:0:0:0:
256,132,207144,1,0,0:0:0:0:
242,139,207226,1,0,0:0:0:0:
232,150,207308,1,0,0:0:0:0:
223,164,207391,5,0,0:0:0:0:
198,208,207473,1,0,0:0:0:0:
152,231,207555,1,0,0:0:0:0:
102,221,207638,1,0,0:0:0:0:
66,184,207720,1,0,0:0:0:0:
59,134,207803,1,0,0:0:0:0:
83,89,207885,1,0,0:0:0:0:
129,66,207968,5,0,0:0:0:0:
188,56,208050,1,0,0:0:0:0:
247,69,208132,1,0,0:0:0:0:
296,105,208215,1,0,0:0:0:0:
353,122,208297,1,0,0:0:0:0:
412,109,208379,1,0,0:0:0:0:
457,69,208463,1,0,0:0:0:0:
415,53,208545,1,0,0:0:0:0:
372,64,208627,1,0,0:0:0:0:
346,98,208710,6,0,P|319:109|286:158,1,45.5
189,309,208875,2,0,P|215:297|249:249,1,45.5
403,184,209039,6,0,P|377:171|319:176,1,45.5
131,222,209204,2,0,P|156:234|215:229,1,45.5
374,282,209369,6,0,P|367:254|326:213,1,45.5
160,123,209534,2,0,P|167:150|208:192,1,45.5
274,337,209699,6,0,P|291:313|296:255,1,45.5
259,66,209864,2,0,P|242:89|237:147,1,45.5
260,228,210028,5,0,0:0:0:0:
292,258,210110,1,0,0:0:0:0:
336,259,210192,1,0,0:0:0:0:
370,230,210275,1,0,0:0:0:0:
375,185,210357,1,0,0:0:0:0:
350,149,210440,1,0,0:0:0:0:
306,139,210522,1,0,0:0:0:0:
268,161,210604,1,0,0:0:0:0:
253,202,210688,5,0,0:0:0:0:
221,234,210770,1,0,0:0:0:0:
178,247,210852,1,0,0:0:0:0:
134,238,210935,1,0,0:0:0:0:
100,208,211017,1,0,0:0:0:0:
78,170,211099,1,0,0:0:0:0:
84,125,211181,1,0,0:0:0:0:
116,94,211264,1,0,0:0:0:0:
156,88,211347,6,0,L|154:154,1,45.5
136,352,211512,6,0,L|138:286,1,45.5
264,164,211677,6,0,L|205:195,1,45.5
28,276,211841,6,0,L|86:244,1,45.5
260,296,212006,6,0,L|203:261,1,45.5
32,144,212171,6,0,L|88:178,1,45.5
136,352,212336,6,0,L|138:286,1,45.5
156,88,212501,6,0,L|154:154,1,45.5
349,197,212666,5,0,0:0:0:0:
321,162,212748,1,0,0:0:0:0:
320,118,212830,1,0,0:0:0:0:
346,82,212913,1,0,0:0:0:0:
388,69,212995,1,0,0:0:0:0:
430,84,213078,1,0,0:0:0:0:
454,123,213160,1,0,0:0:0:0:
456,167,213242,1,0,0:0:0:0:
431,204,213324,5,0,0:0:0:0:
388,216,213407,1,0,0:0:0:0:
349,197,213490,1,0,0:0:0:0:
309,175,213572,1,0,0:0:0:0:
264,171,213654,1,0,0:0:0:0:
221,185,213737,1,0,0:0:0:0:
187,214,213820,1,0,0:0:0:0:
160,249,213902,1,0,0:0:0:0:
164,294,213985,6,0,P|161:329|169:355,1,45.5
231,83,214149,2,0,P|234:48|226:22,1,45.5
244,287,214314,6,0,P|269:312|294:323,1,45.5
126,107,214478,2,0,P|101:82|76:71,1,45.5
308,220,214644,6,0,P|342:216|367:204,1,45.5
95,187,214808,2,0,P|60:190|35:202,1,45.5
289,134,214973,6,0,P|309:105|315:78,1,45.5
117,270,215137,2,0,P|96:298|90:325,1,45.5
334,293,215303,5,0,0:0:0:0:
372,316,215385,1,0,0:0:0:0:
416,309,215467,1,0,0:0:0:0:
446,276,215550,1,0,0:0:0:0:
448,232,215632,1,0,0:0:0:0:
421,196,215715,1,0,0:0:0:0:
378,186,215798,5,0,0:0:0:0:
338,205,215879,1,0,0:0:0:0:
319,246,215963,1,0,0:0:0:0:
297,285,216045,1,0,0:0:0:0:
257,304,216127,1,0,0:0:0:0:
212,297,216210,1,0,0:0:0:0:
180,265,216292,1,0,0:0:0:0:
172,222,216374,1,0,0:0:0:0:
194,183,216456,1,0,0:0:0:0:
237,169,216539,1,0,0:0:0:0:
278,186,216622,6,0,P|310:196|351:189,1,45.5
441,142,216787,2,0,P|409:132|368:139,1,45.5
321,73,216952,6,0,P|311:105|318:146,1,45.5
398,257,217117,2,0,P|408:225|401:184,1,45.5
324,72,217281,5,0,0:0:0:0:
291,62,217363,1,0,0:0:0:0:
257,60,217445,1,0,0:0:0:0:
224,67,217528,1,0,0:0:0:0:
193,83,217611,1,0,0:0:0:0:
172,92,217693,1,0,0:0:0:0:
150,96,217775,1,0,0:0:0:0:
127,96,217858,1,0,0:0:0:0:
103,95,217941,5,0,0:0:0:0:
136,124,218023,1,0,0:0:0:0:
154,166,218105,1,0,0:0:0:0:
151,211,218188,1,0,0:0:0:0:
129,250,218270,1,0,0:0:0:0:
103,286,218352,1,0,0:0:0:0:
115,328,218434,1,0,0:0:0:0:
156,345,218517,1,0,0:0:0:0:
194,323,218600,1,0,0:0:0:0:
234,301,218682,1,0,0:0:0:0:
279,295,218764,1,0,0:0:0:0:
323,305,218847,1,0,0:0:0:0:
365,333,218930,1,0,0:0:0:0:
408,340,219012,1,0,0:0:0:0:
445,315,219094,1,0,0:0:0:0:
456,272,219177,1,0,0:0:0:0:
434,234,219259,6,0,P|408:206|382:202,1,45.5
449,134,219424,5,0,0:0:0:0:
407,117,219506,1,0,0:0:0:0:
363,127,219589,2,0,P|332:155|310:190,1,45.5
238,299,219754,5,0,0:0:0:0:
279,315,219836,1,0,0:0:0:0:
323,305,219919,2,0,P|354:277|376:242,1,45.5
261,112,220083,5,0,0:0:0:0:
244,153,220165,1,0,0:0:0:0:
254,197,220248,2,0,P|281:228|316:250,1,45.5
426,323,220413,5,0,0:0:0:0:
442,282,220495,1,0,0:0:0:0:
432,238,220578,2,0,P|404:206|369:184,1,45.5
252,198,220743,5,0,0:0:0:0:
207,195,220825,1,0,0:0:0:0:
167,216,220908,1,0,0:0:0:0:
128,237,220990,1,0,0:0:0:0:
85,227,221072,1,0,0:0:0:0:
61,189,221155,1,0,0:0:0:0:
69,146,221237,1,0,0:0:0:0:
98,112,221319,1,0,0:0:0:0:
142,102,221401,1,0,0:0:0:0:
183,120,221485,1,0,0:0:0:0:
225,136,221567,1,0,0:0:0:0:
270,139,221649,1,0,0:0:0:0:
310,120,221732,1,0,0:0:0:0:
353,106,221814,1,0,0:0:0:0:
396,117,221897,6,0,L|384:168,1,45.5
391,289,222061,2,0,L|378:238,1,45.5
334,80,222226,6,0,L|314:130,1,45.5
324,316,222390,2,0,L|302:267,1,45.5
268,57,222556,6,0,L|246:106,1,45.5
243,329,222720,2,0,L|221:279,1,45.5
192,17,222885,6,0,L|172:67,1,45.5
166,363,223049,2,0,L|144:314,1,45.5
50,102,223215,5,0,0:0:0:0:
89,123,223297,1,0,0:0:0:0:
108,163,223379,1,0,0:0:0:0:
99,207,223462,1,0,0:0:0:0:
66,237,223544,1,0,0:0:0:0:
44,272,223627,5,0,0:0:0:0:
86,255,223709,1,0,0:0:0:0:
131,251,223791,1,0,0:0:0:0:
175,262,223875,1,0,0:0:0:0:
217,277,223957,1,0,0:0:0:0:
263,278,224039,1,0,0:0:0:0:
306,264,224122,1,0,0:0:0:0:
344,248,224204,1,0,0:0:0:0:
360,207,224286,1,0,0:0:0:0:
339,168,224368,1,0,0:0:0:0:
296,159,224451,1,0,0:0:0:0:
248,184,224534,6,0,P|220:200|200:232,1,45.5
304,128,224699,6,0,P|276:111|238:110,1,45.5
386,129,224863,6,0,P|386:96|368:63,1,45.5
406,205,225028,6,0,P|433:189|453:157,1,45.5
372,263,225193,6,0,P|399:279|437:280,1,45.5
296,242,225358,6,0,P|295:274|313:307,1,45.5
248,184,225523,6,0,P|220:200|200:232,1,45.5
183,98,225688,6,0,L|160:154,1,45.5
50,156,225853,5,0,0:0:0:0:
59,188,225935,1,0,0:0:0:0:
82,213,226017,1,0,0:0:0:0:
113,226,226100,1,0,0:0:0:0:
147,224,226182,1,0,0:0:0:0:
190,213,226264,1,0,0:0:0:0:
218,178,226346,1,0,0:0:0:0:
200,136,226429,1,0,0:0:0:0:
160,152,226512,5,0,0:0:0:0:
140,196,226594,1,0,0:0:0:0:
161,236,226676,1,0,0:0:0:0:
200,257,226759,1,0,0:0:0:0:
245,253,226842,1,0,0:0:0:0:
275,219,226924,1,0,0:0:0:0:
318,207,227006,1,0,0:0:0:0:
361,220,227089,1,0,0:0:0:0:
390,254,227171,6,0,P|394:278|386:310,1,45.5
288,26,227336,2,0,P|285:48|289:71,1,45.5
441,197,227501,6,0,P|461:210|480:236,1,45.5
201,111,227666,2,0,P|216:128|236:141,1,45.5
438,129,227831,6,0,P|462:125|494:133,1,45.5
193,229,227996,2,0,P|215:233|238:230,1,45.5
377,79,228160,6,0,P|389:59|416:40,1,45.5
286,314,228325,2,0,P|304:299|317:281,1,45.5
101,321,228490,5,0,0:0:0:0:
78,282,228572,1,0,0:0:0:0:
72,237,228654,1,0,0:0:0:0:
86,194,228737,1,0,0:0:0:0:
116,160,228820,5,0,0:0:0:0:
149,130,228902,1,0,0:0:0:0:
153,86,228984,1,0,0:0:0:0:
126,51,229067,1,0,0:0:0:0:
83,43,229149,1,0,0:0:0:0:
50,73,229231,1,0,0:0:0:0:
46,117,229313,1,0,0:0:0:0:
74,152,229396,1,0,0:0:0:0:
116,160,229479,5,0,0:0:0:0:
161,165,229561,1,0,0:0:0:0:
205,152,229644,1,0,0:0:0:0:
260,127,229726,1,0,0:0:0:0:
320,129,229808,1,0,0:0:0:0:
374,155,229891,1,0,0:0:0:0:
394,214,229974,1,0,0:0:0:0:
370,275,230056,1,0,0:0:0:0:
308,299,230138,1,0,0:0:0:0:
249,268,230221,1,0,0:0:0:0:
233,204,230303,1,0,0:0:0:0:
206,142,230385,1,0,0:0:0:0:
149,115,230467,5,0,0:0:0:0:
89,132,230549,1,0,0:0:0:0:
54,184,230632,1,0,0:0:0:0:
61,246,230714,1,0,0:0:0:0:
106,289,230798,1,0,0:0:0:0:
172,277,230880,1,0,0:0:0:0:
210,222,230962,1,0,0:0:0:0:
201,157,231045,1,0,0:0:0:0:
148,116,231127,1,0,0:0:0:0:
332,272,231457,6,0,P|322:307|294:329,2,60.6666666666667
407,208,231787,1,0,0:0:0:0:
407,208,232116,6,0,P|424:260|417:287,2,60.6666666666667
349,124,232446,1,0,0:0:0:0:
349,124,232776,6,0,L|374:60,2,60.6666666666667
246,102,233105,2,0,L|241:33,2,60.6666666666667
141,126,233435,2,0,L|109:59,2,60.6666666666667
76,208,233765,1,0,0:0:0:0:
76,208,234094,6,0,P|59:260|66:287,2,60.6666666666667
141,274,234424,1,0,0:0:0:0:
141,274,234754,6,0,P|151:309|179:331,2,60.6666666666667
246,282,235083,5,0,0:0:0:0:
246,282,235413,6,0,L|245:343,2,60.6666666666667
338,204,235743,2,0,L|382:268,2,60.6666666666667
156,217,236072,2,0,L|119:290,2,60.6666666666667
256,152,236402,6,0,B|324:0|500:16|500:16|504:92|436:108|436:108|460:152|460:152|432:196|392:192|392:192|392:248|496:272|432:376|432:376|292:344|256:260|256:260|248:248|248:248|264:232|264:232|248:216|248:216|264:192|264:192|244:176|244:176|256:160|256:160|256:152|256:152|184:0|12:20|12:20|16:96|64:112|64:112|36:164|36:164|76:212|128:200|128:200|128:268|24:300|96:380|96:380|224:344|256:260|256:260|256:132|256:132,1,2224.03996606384
