osu file format v14

[General]
AudioFilename: audio.mp3
AudioLeadIn: 0
PreviewTime: 98235
Countdown: 0
SampleSet: Normal
StackLeniency: 0.7
Mode: 0
LetterboxInBreaks: 0
WidescreenStoryboard: 1

[Editor]
Bookmarks: 51092,51751,52411,53070,53729,54389,55048,55707,56367,57026,57685,58345,59004,59664,60323,60982,61065,61147,61229,61312,62466,62548,62631,62795,62960,63125,64444,64526,64609,64773,64938,65103,70872,71532,72191,72850,73510,74169,74828,75488,76147,76806,77466,78125,78784,79444,80103,80762,80845,80927,81010,81092,81751,82246,82328,82411,82576,82740,82905,83729,84224,84306,84389,84554,84718,84883,89828,89911,89993,90653,91312,91971,92631,92960,93290,93620,93949,94279,94609,94938,95268,95598,96092,96587,96916,96999,97081,97164,97246,97328,97411,97493,97576,97905,98729,99059,99389,99718,100048,100378,100707,101037,101367,101696,102026,102356,102685,103015,103345,103674,104004,104334,104664,104993,105323,105653,105982,106312,106642,106971,107301,107631,107960,108125,108455,108784,108949,109279,109609,109938,110268,110598,110927,111257,111587,111916,112246,112576,112905,113235,113565,113894,114224,114554,114883,115213,115543,115872,116202,116532,116861,117191,117521,117850,118180,118510,118674,119004,119334,119664,119993,120323,120653,120982,121312,137795,137905,138015,138125,138949,139609,140103,140433,140598,140927,141751,142246,143070,143153,143235,143317,143400,143482,143894,144224,144554,144883,145213,145543,145872,146202,146532,146861,147191,147521,147850,148180,148510,148839,149169,149499,149828,150158,150488,150817,151147,151477,151806,152136,152466,152795,153125,153455,153784,154114,154389,154499,154718,154828,155598,155927,156010,156092,156174,156257,156587,156696,159224,159334,159444,161202,161861,161971,162081,162191,162521,162631,162740,162850,163180,163290,163400,163510,163839,163949,164059,164169,164279,164389,164499,164609,164718,164828,165158,165268,165378,165488,165817,165927,166037,166147,166477,166587,166696,166806,167136,176037,176696,177356,178015,178345,178674,179004,179334,179664,179993,180323,180653,180982,181477,181971,182301,182383,182466,182548,182631,182713,182795,182878,182960,183290,183372,193510,193592,193674,193757,193839,193922,197136,197246,197356,197466,197576,197685,199609,199938,200268,200598,200927,201257,201587,201916,202246,202576,202905,203235,203565,203894,204059,204718,205048,205378,205707,206037,206367,206696,207521,207850,208180,208510,208839,209169,209499,209828,210158,210488,210817,211147,211477,211806,212136,212466,212795,213125,213455,213784,214114,214444,214773,215103,215433,215762,216092,216422,216751,217081,217246,217576,217905,218235,218565,218894,219224,219554,219883,220213,220543,220872,221202,221532,221861,222191,222521,222850,223180,223510,223839,224169,224499,224828,225158,225488,225817,226147,226477,226806,227136,227466,227795,227878,227960,228043,228125,228207,228290,228372,228455,228784,229114,229444,229773,229938,230103,230433,231422,231532,231642,232081,232191,232301,232740,232850,232960,233070,233180,233290,233400,233510,233620,234059,234169,234279,234718,234828,234938,235378,235488,235598,235707,235817,235927,236037,236147,236257
DistanceSpacing: 1.2
BeatDivisor: 6
GridSize: 4
TimelineZoom: 1.7

[Metadata]
Title:Ange du Blanc Pur
TitleUnicode:Ange du Blanc Pur
Artist:ke-ji feat. nanahira
ArtistUnicode:ke-ji feat. ななひら
Creator:M o c h a
Version:Celestial
Source:
Tags:colory starry
BeatmapID:1033236
BeatmapSetID:484364

[Difficulty]
HPDrainRate:6
CircleSize:4
OverallDifficulty:8.3
ApproachRate:9.5
SliderMultiplier:1.4
SliderTickRate:1

[Events]
//Background and Video events
0,0,"maxresdefault.jpg",0,0
//Break Periods
2,23290,28765
2,122500,136895
2,183820,192610
//Storyboard Layer 0 (Background)
//Storyboard Layer 1 (Fail)
//Storyboard Layer 2 (Pass)
//Storyboard Layer 3 (Foreground)
//Storyboard Sound Samples

[TimingPoints]
651,666.666666666667,4,1,0,25,1,0
1984,-100,4,1,0,25,0,0
15317,-100,4,2,0,25,0,0
15984,329.67032967033,4,2,0,25,1,0
29664,329.67032967033,4,1,0,40,1,0
31971,-133.333333333333,4,1,0,45,0,0
42521,-66.6666666666667,4,1,0,45,0,0
50433,-100,4,1,0,45,0,0
61312,-153.846153846154,4,1,0,45,0,0
70543,-100,4,1,0,45,0,0
81092,-153.846153846154,4,1,0,45,0,0
90323,-100,4,1,0,45,0,0
97905,-200,4,1,0,45,0,0
98235,-100,4,1,0,25,0,1
121971,-153.846153846154,4,1,0,25,0,0
137795,-153.846153846154,4,1,0,25,0,0
143729,-100,4,1,0,25,0,0
155598,-153.846153846154,4,1,0,25,0,0
167466,-66.6666666666667,4,1,0,25,0,0
175707,-100,4,1,0,25,0,0
194169,-153.846153846154,4,1,0,25,0,0
199444,-100,4,1,0,25,0,1
231092,-100,4,1,0,25,0,0
236367,-153.846153846154,4,1,0,25,0,0

[HitObjects]
256,192,651,12,0,1651,0:0:0:0:
288,209,1984,6,0,P|322:239|374:239,1,70
294,122,2651,2,0,P|252:126|216:154,1,70
223,254,3317,1,0,0:0:0:0:
354,171,3651,2,0,L|399:146,1,35
508,84,3984,2,0,L|457:77,1,35
355,23,4317,2,0,L|318:23,2,35
354,171,4984,1,0,0:0:0:0:
286,90,5317,1,0,0:0:0:0:
188,50,5650,1,0,0:0:0:0:
90,89,5984,6,0,L|37:116,1,35
51,201,6317,2,0,L|14:222,2,35
152,141,6817,1,0,0:0:0:0:
225,236,6985,2,0,L|257:278,1,35
177,363,7317,2,0,L|116:363,1,35
63,283,7651,2,0,L|105:257,1,35
225,236,7984,5,0,0:0:0:0:
281,324,8317,1,0,0:0:0:0:
382,296,8650,1,0,0:0:0:0:
451,222,8984,2,0,L|475:196,1,35
482,315,9317,2,0,L|481:365,1,35
382,296,9650,1,0,0:0:0:0:
382,296,9984,6,0,L|332:273,1,35
360,185,10317,2,0,L|306:162,2,35
382,296,10817,1,0,0:0:0:0:
300,384,10984,2,0,L|237:384,1,35
168,309,11317,2,0,L|184:271,1,35
292,239,11650,2,0,L|336:259,1,35
424,301,11983,5,0,0:0:0:0:
484,214,12317,1,0,0:0:0:0:
424,127,12650,1,0,0:0:0:0:
321,148,12983,1,0,0:0:0:0:
323,253,13317,1,0,0:0:0:0:
449,214,13651,2,0,L|503:214,1,35
424,127,13984,2,0,L|379:128,1,35
314,73,14317,5,0,0:0:0:0:
408,31,14483,1,0,0:0:0:0:
424,127,14650,2,0,L|425:192,1,35
338,280,14984,2,0,L|338:243,1,35
429,329,15317,6,0,L|430:384,1,35
338,280,15650,1,0,0:0:0:0:
248,336,15817,1,0,0:0:0:0:
119,280,15984,6,0,L|158:280,1,35
373,280,16190,2,0,L|334:280,1,35
126,237,16396,2,0,L|167:267,1,35
366,237,16602,2,0,L|325:267,1,35
154,208,16849,6,0,L|172:257,1,35
338,208,17096,2,0,L|320:257,1,35
243,164,17343,6,0,L|243:207,1,35
323,131,17673,2,0,P|255:76|163:144,1,210
243,164,18291,2,0,L|243:194,51,23.3333333333333
256,192,29665,12,0,31643,0:0:0:0:
219,81,31971,6,0,L|289:59,1,70.0000026702882,4|0,0:0|0:0,0:0:0:0:
404,37,32301,1,0,0:0:0:0:
404,73,32411,1,0,0:0:0:0:
404,108,32521,1,0,0:0:0:0:
402,143,32632,2,0,P|365:154|325:142,1,70.0000026702882
152,94,32961,2,0,P|186:82|224:82,1,70.0000026702882
190,170,33291,6,0,L|189:247,1,70.0000026702882
89,294,33621,1,0,0:0:0:0:
89,259,33729,1,0,0:0:0:0:
89,223,33839,1,0,0:0:0:0:
88,186,33950,2,0,P|119:171|155:163,1,70.0000026702882
238,328,34280,2,0,P|198:337|148:323,1,70.0000026702882
189,239,34610,6,0,L|264:238,1,70.0000026702882
432,247,34939,1,0,0:0:0:0:
414,276,35048,1,0,0:0:0:0:
392,303,35158,1,0,0:0:0:0:
368,329,35269,2,0,P|330:317|312:285,1,70.0000026702882
352,129,35599,2,0,L|351:216,1,70.0000026702882
313,293,35928,6,0,P|270:313|218:306,1,78.7500030040742
124,274,36258,1,0,0:0:0:0:
114,240,36367,1,0,0:0:0:0:
105,205,36477,1,0,0:0:0:0:
101,169,36588,2,0,L|176:169,1,70.0000026702882
352,129,36917,1,0,0:0:0:0:
352,129,37026,1,0,0:0:0:0:
352,129,37136,1,0,0:0:0:0:
352,129,37247,6,0,P|392:129|447:145,1,70.0000026702882,4|0,0:0|0:0,0:0:0:0:
460,169,37576,1,0,0:0:0:0:
463,220,37685,1,0,0:0:0:0:
426,257,37795,1,0,0:0:0:0:
377,278,37906,2,0,P|338:283|310:298,1,70.0000026702882,4|0,0:0|0:0,0:0:0:0:
281,341,38236,1,0,0:0:0:0:
237,369,38345,1,0,0:0:0:0:
185,358,38455,1,0,0:0:0:0:
143,324,38566,6,0,P|139:285|150:242,1,70.0000026702882,4|0,0:0|0:0,0:0:0:0:
178,214,38895,1,0,0:0:0:0:
219,181,39004,1,0,0:0:0:0:
221,128,39114,1,0,0:0:0:0:
269,54,39225,5,4,0:0:0:0:
298,96,39334,1,0,0:0:0:0:
300,148,39444,1,0,0:0:0:0:
292,228,39554,1,4,0:0:0:0:
344,224,39664,1,0,0:0:0:0:
374,181,39773,1,0,0:0:0:0:
383,128,39884,6,0,P|384:87|367:40,1,70.0000026702882,4|0,0:0|0:0,0:0:0:0:
269,54,40214,2,0,L|234:46,2,35.0000013351441
383,128,40544,2,0,L|383:205,1,52.5000020027161,4|0,0:0|0:0,0:0:0:0:
230,133,40873,2,0,L|175:122,2,35.0000013351441
383,180,41203,2,0,L|384:258,1,70.0000026702882,4|0,0:0|0:0,0:0:0:0:
230,224,41532,1,0,0:0:0:0:
195,219,41642,1,0,0:0:0:0:
160,213,41751,1,0,0:0:0:0:
82,204,41861,5,4,0:0:0:0:
118,241,41971,1,0,0:0:0:0:
157,276,42081,1,0,0:0:0:0:
193,314,42191,2,0,P|235:322|287:297,1,78.7500030040742,4|0,0:0|0:0,0:0:0:0:
368,296,42521,6,0,P|357:357|314:389,1,105.000004005432
268,311,42851,1,0,0:0:0:0:
326,222,43015,2,0,P|375:207|423:227,1,105.000004005432
368,296,43346,1,0,0:0:0:0:
259,156,43511,6,0,P|283:208|346:218,1,105.000004005432
346,132,43840,1,0,0:0:0:0:
259,75,44004,2,0,P|203:89|182:149,1,105.000004005432
255,224,44335,1,0,0:0:0:0:
85,303,44499,6,0,P|111:254|163:234,1,105.000004005432
171,321,44829,1,0,0:0:0:0:
75,384,44993,2,0,P|25:359|3:308,1,105.000004005432
40,222,45324,1,0,0:0:0:0:
112,156,45489,2,0,L|217:157,1,105.000004005432
104,50,45818,2,0,L|-17:51,1,105.000004005432
112,156,46148,6,0,P|160:136|229:155,1,105.000004005432
174,224,46478,1,0,0:0:0:0:
40,222,46642,2,0,P|24:172|49:105,1,105.000004005432
121,64,46972,1,0,0:0:0:0:
279,38,47137,6,0,P|247:89|196:104,1,105.000004005432
121,64,47467,1,0,0:0:0:0:
239,182,47632,2,0,P|181:184|138:159,1,105.000004005432
121,64,47961,1,0,0:0:0:0:
206,103,48126,2,0,L|333:102,1,105.000004005432
434,183,48456,2,0,L|327:183,1,105.000004005432
166,184,48785,2,0,P|114:197|71:223,1,105.000004005432
0,384,49114,2,0,P|77:378|157:328,1,157.500006008148,0|0,0:0|0:0,0:3:0:0:
193,295,49445,5,0,0:0:0:0:
249,267,49527,1,0,0:0:0:0:
312,269,49610,1,0,0:0:0:0:
364,303,49692,1,0,0:0:0:0:
422,324,49774,1,0,0:0:0:0:
481,301,49857,1,0,0:0:0:0:
512,247,49939,1,0,0:0:0:0:
512,182,50022,1,0,0:0:0:0:
490,123,50104,1,4,0:0:0:0:
387,35,50763,6,0,P|357:65|346:108,1,70,4|0,0:0|0:0,0:0:0:0:
343,214,51093,1,8,0:0:0:0:
453,128,51258,1,0,0:0:0:0:
257,114,51422,1,0,0:0:0:0:
272,291,51587,1,0,0:0:0:0:
272,291,51917,6,0,L|304:357,1,70
395,366,52247,1,0,0:0:0:0:
387,221,52411,2,0,L|362:296,1,70,8|0,0:0|0:0,0:0:0:0:
466,279,52740,2,0,L|532:205,1,70
402,138,53071,6,0,P|367:138|324:159,1,70,8|0,0:0|0:0,0:0:0:0:
253,244,53401,1,0,0:0:0:0:
387,221,53566,1,0,0:0:0:0:
253,131,53729,1,8,0:0:0:0:
115,212,53895,1,0,0:0:0:0:
115,212,54225,6,0,L|40:254,1,70,0|8,0:0|0:0,0:0:0:0:
40,358,54555,2,0,L|110:317,1,70
195,259,54884,1,0,0:0:0:0:
312,200,55049,1,8,0:0:0:0:
184,140,55214,1,0,0:0:0:0:
184,140,55544,6,0,P|138:123|96:121,1,70,0|8,0:0|0:0,0:0:0:0:
4,160,55873,1,0,0:0:0:0:
122,217,56038,1,0,0:0:0:0:
48,72,56203,1,0,0:0:0:0:
38,233,56367,1,8,0:0:0:0:
211,219,56533,1,0,0:0:0:0:
211,219,56862,6,0,L|299:209,1,70,0|8,0:0|0:0,0:0:0:0:
448,151,57191,2,0,L|370:136,1,70
263,113,57521,1,0,0:0:0:0:
404,55,57685,1,8,0:0:0:0:
396,216,57850,1,0,0:0:0:0:
396,216,58180,1,0,0:0:0:0:
263,113,58345,1,8,0:0:0:0:
404,55,58510,1,0,0:0:0:0:
194,97,58674,6,0,L|262:112,1,70
404,55,59004,1,8,0:0:0:0:
240,214,59169,2,0,L|322:191,1,70
461,154,59500,1,0,0:0:0:0:
262,112,59664,1,8,0:0:0:0:
362,281,59828,6,0,L|415:220,1,70
404,55,60158,1,0,0:0:0:0:
262,112,60323,1,8,0:0:0:0:
407,228,60488,2,0,L|362:281,1,70
242,326,60818,1,0,0:0:0:0:
130,253,60983,5,8,0:0:0:0:
130,253,61066,1,8,0:0:0:0:
130,253,61148,1,8,0:0:0:0:
130,253,61230,1,8,0:0:0:0:
130,253,61313,6,0,L|11:253,1,113.749994792938,12|0,0:0|0:0,0:0:0:0:
0,231,61807,1,0,0:0:0:0:
62,105,61972,1,0,0:0:0:0:
130,253,62137,1,0,0:0:0:0:
216,141,62301,1,0,0:0:0:0:
75,183,62466,1,8,0:0:0:0:
75,183,62548,1,8,0:0:0:0:
75,183,62631,5,8,0:0:0:0:
138,53,62795,1,8,0:0:0:0:
217,230,62960,1,8,0:0:0:0:
313,99,63125,1,8,0:0:0:0:
142,230,63291,6,0,P|156:284|218:301,1,113.749994792938
333,242,63785,1,0,0:0:0:0:
406,74,63950,1,0,0:0:0:0:
467,235,64115,1,0,0:0:0:0:
286,150,64280,1,0,0:0:0:0:
485,138,64445,1,8,0:0:0:0:
485,138,64527,1,8,0:0:0:0:
485,138,64609,5,8,0:0:0:0:
324,237,64774,1,8,0:0:0:0:
295,59,64939,1,8,0:0:0:0:
430,215,65104,1,8,0:0:0:0:
265,209,65268,6,0,P|296:233|343:230,1,68.2499968757631,4|0,0:0|0:0,0:0:0:0:
184,180,65598,2,0,P|183:215|196:247,1,68.2499968757631
120,116,65927,2,0,P|103:145|100:179,1,68.2499968757631
117,30,66257,2,0,P|83:29|56:49,1,68.2499968757631
254,217,66587,6,0,P|222:241|175:238,1,68.2499968757631,4|0,0:0|0:0,0:0:0:0:
335,188,66917,2,0,P|335:223|322:255,1,68.2499968757631
399,124,67246,2,0,P|415:153|418:187,1,68.2499968757631
402,38,67576,2,0,P|435:37|462:57,1,68.2499968757631
507,189,67905,1,0,0:0:0:0:
323,253,68070,1,0,0:0:0:0:
329,69,68236,1,0,0:0:0:0:
512,229,68401,1,0,0:0:0:0:
286,254,68566,1,0,0:0:0:0:
353,55,68730,1,0,0:0:0:0:
495,265,68895,5,0,0:0:0:0:
223,195,69060,1,0,0:0:0:0:
507,144,69224,1,0,0:0:0:0:
324,366,69390,1,0,0:0:0:0:
172,94,69555,1,0,0:0:0:0:
509,48,69719,1,0,0:0:0:0:
509,48,70049,1,0,0:0:0:0:
509,48,70132,1,0,0:0:0:0:
509,48,70214,5,0,0:0:0:0:
183,302,70544,2,0,L|210:229,1,70,4|0,0:0|0:0,0:0:0:0:
240,103,70873,1,8,0:0:0:0:
314,231,71038,1,0,0:0:0:0:
144,180,71203,1,0,0:0:0:0:
332,163,71368,6,0,L|312:238,1,70,0|8,0:0|0:0,0:0:0:0:
240,103,71697,2,0,L|275:40,1,70
335,127,72027,1,0,0:0:0:0:
387,262,72192,2,0,P|403:223|397:189,1,70,8|0,0:0|0:0,0:0:0:0:
205,225,72522,2,0,P|242:240|281:231,1,70
160,121,72851,6,0,P|115:125|84:147,1,70,8|0,0:0|0:0,0:0:0:0:
70,312,73181,1,0,0:0:0:0:
141,196,73346,1,0,0:0:0:0:
199,308,73511,1,8,0:0:0:0:
72,209,73674,2,0,L|156:193,1,70
263,165,74005,1,0,0:0:0:0:
162,76,74170,5,8,0:0:0:0:
140,195,74335,2,0,P|148:238|179:264,1,70
314,232,74664,2,0,P|362:225|403:236,1,70,0|8,0:0|0:0,0:0:0:0:
313,330,74994,2,0,P|272:342|234:326,1,70
175,233,75324,1,0,0:0:0:0:
312,230,75489,5,8,0:0:0:0:
146,236,75654,1,0,0:0:0:0:
293,114,75818,1,0,0:0:0:0:
244,237,75983,1,0,0:0:0:0:
169,84,76147,1,8,0:0:0:0:
66,198,76313,2,0,P|54:244|65:275,1,70
161,333,76643,1,0,0:0:0:0:
326,158,76807,5,8,0:0:0:0:
244,237,76972,2,0,P|249:284|270:313,1,70
368,229,77302,2,0,P|401:194|409:161,1,70,0|8,0:0|0:0,0:0:0:0:
279,83,77632,2,0,P|247:107|239:148,1,70
328,160,77961,1,0,0:0:0:0:
145,114,78126,5,8,0:0:0:0:
251,218,78291,1,0,0:0:0:0:
194,91,78456,2,0,L|170:182,1,70
251,218,78785,1,8,0:0:0:0:
175,160,78950,2,0,L|153:240,1,70
193,307,79280,6,0,L|241:242,1,70,0|8,0:0|0:0,0:0:0:0:
323,289,79610,2,0,L|330:219,1,70
442,203,79939,2,0,L|393:134,1,70,0|8,0:0|0:0,0:0:0:0:
238,91,80269,2,0,P|192:133|197:208,1,140
300,177,80763,1,8,0:0:0:0:
300,177,80846,1,8,0:0:0:0:
300,177,80928,1,8,0:0:0:0:
300,177,81011,1,8,0:0:0:0:
300,177,81093,6,0,L|266:288,1,113.749994792938,12|0,0:0|0:0,0:0:0:0:
359,260,81588,1,0,0:0:0:0:
202,211,81752,1,8,0:0:0:0:
307,140,81917,1,0,0:0:0:0:
280,321,82082,5,4,0:0:0:0:
409,188,82247,1,8,0:0:0:0:
409,188,82329,1,8,0:0:0:0:
409,188,82412,1,8,0:0:0:0:
308,230,82577,1,8,0:0:0:0:
439,103,82740,1,8,0:0:0:0:
428,284,82906,1,8,0:0:0:0:
305,137,83071,6,0,L|288:18,1,113.749994792938,4|0,0:0|0:0,0:0:0:0:
374,59,83566,1,0,0:0:0:0:
176,183,83730,1,8,0:0:0:0:
211,47,83895,1,0,0:0:0:0:
295,227,84060,1,4,0:0:0:0:
131,91,84225,1,8,0:0:0:0:
131,91,84307,1,8,0:0:0:0:
131,91,84390,1,8,0:0:0:0:
66,173,84554,1,8,0:0:0:0:
240,131,84718,5,8,0:0:0:0:
62,54,84884,1,8,0:0:0:0:
146,255,85049,2,0,L|166:173,1,68.2499968757631,4|0,0:0|0:0,0:0:0:0:
244,248,85379,2,0,L|299:193,1,68.2499968757631
349,269,85708,2,0,L|422:241,1,68.2499968757631
422,339,86038,2,0,L|506:348,1,68.2499968757631
475,183,86367,6,0,L|485:99,1,68.2499968757631,4|0,0:0|0:0,0:0:0:0:
386,141,86697,2,0,L|354:69,1,68.2499968757631
280,123,87026,2,0,L|221:70,1,68.2499968757631
187,162,87356,2,0,L|105:140,1,68.2499968757631
25,205,87686,1,0,0:0:0:0:
117,46,87851,1,0,0:0:0:0:
236,224,88016,1,0,0:0:0:0:
11,96,88181,1,0,0:0:0:0:
253,96,88346,1,0,0:0:0:0:
114,296,88511,1,0,0:0:0:0:
39,25,88674,5,0,0:0:0:0:
319,169,88840,1,0,0:0:0:0:
0,294,89005,1,4,0:0:0:0:
177,13,89170,1,4,0:0:0:0:
293,323,89335,1,4,0:0:0:0:
7,97,89500,1,0,0:0:0:0:
7,97,89829,1,8,0:0:0:0:
7,97,89912,1,8,0:0:0:0:
7,97,89994,5,8,0:0:0:0:
189,198,90324,2,0,L|175:277,1,70,4|0,0:0|0:0,0:0:0:0:
362,193,90653,1,10,0:0:0:0:
139,121,90818,1,0,0:0:0:0:
376,125,90983,2,0,L|361:202,1,70
139,121,91313,5,10,0:0:0:0:
358,42,91478,1,0,0:0:0:0:
138,120,91642,2,0,L|129:190,1,70,8|0,0:0|0:0,0:0:0:0:
362,193,91971,2,0,L|360:273,1,70
129,190,92302,1,0,0:0:0:0:
129,190,92384,1,0,0:0:0:0:
129,190,92467,1,0,0:0:0:0:
360,262,92631,6,0,L|363:342,1,70,8|0,0:0|0:0,0:0:0:0:
129,232,92961,1,12,0:0:0:0:
129,232,93126,1,0,0:0:0:0:
372,108,93291,1,12,0:0:0:0:
372,108,93456,1,0,0:0:0:0:
129,86,93621,1,12,0:0:0:0:
349,253,93785,1,0,0:0:0:0:
255,46,93950,5,12,0:0:0:0:
225,324,94115,1,0,0:0:0:0:
393,86,94279,1,12,0:0:0:0:
81,255,94445,1,0,0:0:0:0:
407,216,94610,1,12,0:0:0:0:
60,100,94774,1,0,0:0:0:0:
333,322,94939,1,12,0:0:0:0:
207,33,95104,1,0,0:0:0:0:
171,328,95269,5,12,0:0:0:0:
116,21,95434,1,0,0:0:0:0:
254,349,95599,1,12,0:0:0:0:
20,181,95763,1,0,0:0:0:0:
405,143,95928,1,0,0:0:0:0:
0,280,96093,1,12,0:0:0:0:
403,240,96258,1,0,0:0:0:0:
170,27,96422,1,0,0:0:0:0:
171,328,96588,5,12,0:0:0:0:
170,27,96752,1,0,0:0:0:0:
273,268,96916,1,8,0:0:0:0:
295,327,96999,1,8,0:0:0:0:
351,354,97081,1,8,0:0:0:0:
414,353,97164,1,8,0:0:0:0:
471,327,97247,1,8,0:0:0:0:
511,279,97329,1,8,0:0:0:0:
512,215,97412,1,8,0:0:0:0:
498,153,97494,1,8,0:0:0:0:
468,97,97577,6,0,L|443:61,3,35,8|0|0|0,0:0|0:0|0:0|0:0,0:0:0:0:
233,53,97906,6,0,L|288:52,1,52.5,8|0,0:0|0:0,0:0:0:0:
118,104,98236,5,12,0:0:0:0:
79,134,98318,1,0,0:0:0:0:
56,177,98400,1,0,0:0:0:0:
53,226,98483,1,0,0:0:0:0:
68,272,98566,1,8,0:0:0:0:
105,302,98648,1,0,0:0:0:0:
152,311,98730,1,8,0:0:0:0:
201,307,98813,1,0,0:0:0:0:
242,282,98894,1,0,0:0:0:0:
273,243,98977,1,0,0:0:0:0:
270,194,99059,1,8,0:0:0:0:
278,145,99142,1,0,0:0:0:0:
302,101,99224,1,0,0:0:0:0:
340,70,99306,1,0,0:0:0:0:
388,61,99389,1,8,0:0:0:0:
430,85,99471,1,0,0:0:0:0:
459,124,99554,6,0,L|497:168,3,35,8|0|8|0,0:0|0:0|0:0|0:0,0:0:0:0:
413,221,99883,2,0,L|448:261,3,35,0|0|8|0,0:0|0:0|0:0|0:0,0:0:0:0:
362,315,100213,2,0,L|406:357,3,35,0|0|8|0,0:0|0:0|0:0|0:0,0:0:0:0:
259,304,100543,1,0,0:0:0:0:
210,302,100625,1,0,0:0:0:0:
160,301,100708,1,8,0:0:0:0:
111,303,100790,1,0,0:0:0:0:
62,307,100872,6,0,L|22:327,1,35,8|0,0:0|0:0,0:0:0:0:
193,207,101037,2,0,L|307:148,1,105,8|0,0:0|0:0,0:0:0:0:
9,156,101367,1,8,0:0:0:0:
338,223,101532,1,0,0:0:0:0:
369,188,101614,1,0,0:0:0:0:
369,140,101696,1,8,0:0:0:0:
338,102,101779,1,0,0:0:0:0:
295,79,101861,1,0,0:0:0:0:
247,91,101944,1,0,0:0:0:0:
212,127,102026,1,8,0:0:0:0:
220,177,102109,1,0,0:0:0:0:
261,203,102191,6,0,L|292:160,3,35,8|0|8|0,0:0|0:0|0:0|0:0,0:0:0:0:
212,127,102521,2,0,L|226:94,3,35,0|0|8|0,0:0|0:0|0:0|0:0,0:0:0:0:
134,59,102850,2,0,L|146:27,3,35,0|0|8|0,0:0|0:0|0:0|0:0,0:0:0:0:
47,131,103180,1,0,0:0:0:0:
46,179,103262,1,0,0:0:0:0:
47,228,103345,1,8,0:0:0:0:
49,276,103427,1,0,0:0:0:0:
51,325,103510,6,0,L|68:373,1,35,8|0,0:0|0:0,0:0:0:0:
164,271,103675,2,0,L|177:154,1,105,8|0,0:0|0:0,0:0:0:0:
253,347,104004,1,8,0:0:0:0:
98,120,104169,1,0,0:0:0:0:
120,76,104251,1,0,0:0:0:0:
164,54,104334,1,8,0:0:0:0:
212,59,104416,1,0,0:0:0:0:
244,96,104499,1,0,0:0:0:0:
262,141,104581,1,0,0:0:0:0:
303,167,104664,1,8,0:0:0:0:
349,151,104746,1,0,0:0:0:0:
373,108,104828,6,0,L|373:52,3,35,8|0|8|0,0:0|0:0|0:0|0:0,0:0:0:0:
459,316,105158,1,0,0:0:0:0:
200,270,105323,1,8,0:0:0:0:
374,107,105488,2,0,L|373:73,3,35,8|0|8|0,0:0|0:0|0:0|0:0,0:0:0:0:
459,316,105817,1,8,0:0:0:0:
200,270,105982,1,8,0:0:0:0:
374,107,106147,6,0,L|344:74,3,35,8|0|8|0,0:0|0:0|0:0|0:0,0:0:0:0:
459,316,106477,2,0,L|483:361,3,35,0|0|8|0,0:0|0:0|0:0|0:0,0:0:0:0:
201,142,106807,1,0,0:0:0:0:
446,44,106971,1,8,0:0:0:0:
173,229,107136,1,0,0:0:0:0:
512,101,107301,1,8,0:0:0:0:
139,314,107467,6,0,L|82:349,3,35,8|0|8|0,0:0|0:0|0:0|0:0,0:0:0:0:
438,270,107795,2,0,L|500:268,3,35,0|0|8|0,0:0|0:0|0:0|0:0,0:0:0:0:
81,171,108126,1,8,0:0:0:0:
83,208,108208,1,0,0:0:0:0:
84,247,108290,1,0,0:0:0:0:
86,284,108371,1,0,0:0:0:0:
139,314,108454,5,8,0:0:0:0:
142,251,108537,1,0,0:0:0:0:
144,188,108620,1,0,0:0:0:0:
144,125,108702,1,0,0:0:0:0:
128,64,108784,6,0,L|99:20,3,35,12|0|8|0,0:0|0:0|0:0|0:0,0:0:0:0:
247,49,109114,2,0,L|188:36,3,35,0|0|8|0,0:0|0:0|0:0|0:0,0:0:0:0:
399,100,109444,1,0,0:0:0:0:
442,124,109525,1,0,0:0:0:0:
465,167,109608,1,8,0:0:0:0:
461,215,109690,1,0,0:0:0:0:
434,254,109772,1,0,0:0:0:0:
401,289,109855,1,0,0:0:0:0:
393,336,109938,1,8,0:0:0:0:
425,373,110021,1,0,0:0:0:0:
473,382,110103,6,0,L|528:365,3,35,8|0|8|0,0:0|0:0|0:0|0:0,0:0:0:0:
297,356,110433,2,0,L|270:392,3,35,0|0|8|0,0:0|0:0|0:0|0:0,0:0:0:0:
171,266,110762,2,0,L|111:281,3,35,0|0|8|0,0:0|0:0|0:0|0:0,0:0:0:0:
216,132,111092,1,0,0:0:0:0:
176,102,111175,1,0,0:0:0:0:
127,98,111257,1,8,0:0:0:0:
88,128,111340,1,0,0:0:0:0:
70,173,111422,6,0,L|51:215,1,35,8|0,0:0|0:0,0:0:0:0:
155,370,111587,2,0,L|171:266,1,105,8|0,0:0|0:0,0:0:0:0:
209,31,111916,1,8,0:0:0:0:
294,279,112081,1,0,0:0:0:0:
336,304,112164,1,0,0:0:0:0:
384,298,112246,1,8,0:0:0:0:
422,268,112328,1,0,0:0:0:0:
442,223,112411,1,0,0:0:0:0:
420,179,112493,1,0,0:0:0:0:
384,144,112576,1,8,0:0:0:0:
341,120,112658,1,0,0:0:0:0:
299,94,112740,6,0,L|256:68,3,35,8|0|8|0,0:0|0:0|0:0|0:0,0:0:0:0:
398,47,113070,2,0,L|378:0,3,35,0|0|8|0,0:0|0:0|0:0|0:0,0:0:0:0:
351,225,113400,2,0,L|321:276,3,35,0|0|8|0,0:0|0:0|0:0|0:0,0:0:0:0:
398,47,113729,1,0,0:0:0:0:
348,48,113812,1,0,0:0:0:0:
299,49,113894,1,8,0:0:0:0:
249,49,113977,1,0,0:0:0:0:
200,49,114059,6,0,L|163:49,1,35,8|0,0:0|0:0,0:0:0:0:
41,132,114224,2,0,L|40:259,1,105,8|0,0:0|0:0,0:0:0:0:
180,350,114554,1,8,0:0:0:0:
250,188,114718,1,0,0:0:0:0:
245,138,114801,1,0,0:0:0:0:
216,98,114883,1,8,0:0:0:0:
167,88,114966,1,0,0:0:0:0:
120,103,115048,1,0,0:0:0:0:
71,112,115131,1,0,0:0:0:0:
30,84,115213,1,8,0:0:0:0:
15,37,115295,1,0,0:0:0:0:
48,0,115378,2,0,L|83:0,3,35,0|0|8|0,0:0|0:0|0:0|0:0,0:0:0:0:
308,38,115707,5,0,0:0:0:0:
142,203,115872,1,8,0:0:0:0:
83,0,116037,2,0,L|29:0,3,35,0|0|8|0,0:0|0:0|0:0|0:0,0:0:0:0:
308,38,116368,1,0,0:0:0:0:
142,203,116532,1,8,0:0:0:0:
83,0,116696,2,0,L|29:0,3,35,0|0|8|0,0:0|0:0|0:0|0:0,0:0:0:0:
332,106,117026,2,0,L|367:106,3,35,0|0|8|0,0:0|0:0|0:0|0:0,0:0:0:0:
50,140,117356,1,0,0:0:0:0:
352,201,117521,1,8,0:0:0:0:
0,219,117685,1,0,0:0:0:0:
398,293,117850,1,8,0:0:0:0:
132,76,118016,6,0,L|146:44,3,35,8|0|8|0,0:0|0:0|0:0|0:0,0:0:0:0:
216,339,118345,2,0,L|195:367,3,35,0|0|8|0,0:0|0:0|0:0|0:0,0:0:0:0:
269,168,118674,1,8,0:0:0:0:
234,152,118758,1,0,0:0:0:0:
201,134,118840,1,0,0:0:0:0:
165,120,118923,1,0,0:0:0:0:
130,163,119005,1,8,0:0:0:0:
132,189,119088,1,0,0:0:0:0:
135,215,119170,1,0,0:0:0:0:
138,243,119251,1,0,0:0:0:0:
142,265,119335,6,0,L|146:321,3,35,8|0|0|0,0:0|0:0|0:0|0:0,0:0:0:0:
40,305,119664,2,0,L|5:322,3,35,8|0|0|0,0:0|0:0|0:0|0:0,0:0:0:0:
97,143,119993,2,0,L|32:136,3,35,8|0|0|0,0:0|0:0|0:0|0:0,0:0:0:0:
36,108,120323,1,8,0:0:0:0:
70,84,120406,1,0,0:0:0:0:
100,68,120489,1,0,0:0:0:0:
133,52,120571,1,0,0:0:0:0:
177,38,120654,6,0,L|192:-4,3,35,8|0|0|0,0:0|0:0|0:0|0:0,0:0:0:0:
270,187,120982,2,0,L|266:230,3,35,8|0|0|0,0:0|0:0|0:0|0:0,0:0:0:0:
282,258,121313,1,8,0:0:0:0:
294,230,121395,1,0,0:0:0:0:
304,206,121478,1,0,0:0:0:0:
314,186,121560,1,0,0:0:0:0:
360,164,121643,5,0,0:0:0:0:
367,140,121725,1,0,0:0:0:0:
373,122,121807,1,0,0:0:0:0:
380,106,121890,1,0,0:0:0:0:
424,86,121971,2,0,L|424:188,1,90.9999958343508,4|0,0:0|0:0,0:0:0:0:
434,125,137795,6,8,L|435:157,2,30.3333319447836
392,80,138125,2,0,L|381:147,1,68.2499968757631,8|0,0:0|0:0,0:0:0:0:
454,38,138455,1,4,0:0:0:0:
454,38,138537,6,0,P|401:5|343:31,1,113.749994792938,4|8,0:0|0:0,0:0:0:0:
293,108,139114,2,0,P|275:149|224:178,1,90.9999958343508
135,15,139609,1,8,0:0:0:0:
115,113,139773,6,0,L|217:102,1,90.9999958343508,0|8,0:0|0:0,0:0:0:0:
375,115,140268,1,0,0:0:0:0:
305,229,140433,2,0,P|258:254|202:254,1,90.9999958343508,8|0,0:0|0:0,0:0:0:0:
93,203,140927,1,8,0:0:0:0:
38,301,141092,6,0,L|79:394,1,90.9999958343508
221,257,141587,2,0,L|183:174,1,90.9999958343508
138,72,142081,1,0,0:0:0:0:
93,203,142246,1,8,0:0:0:0:
276,135,142411,1,8,0:0:0:0:
45,116,142576,1,0,0:0:0:0:
221,257,142740,5,0,0:0:0:0:
238,41,142905,1,0,0:0:0:0:
93,203,143070,1,8,0:0:0:0:
69,203,143152,1,8,0:0:0:0:
40,203,143235,1,8,0:0:0:0:
99,308,143400,1,8,0:0:0:0:
128,308,143482,1,8,0:0:0:0:
155,309,143565,1,0,0:0:0:0:
330,316,143729,1,4,0:0:0:0:
330,316,143812,1,0,0:0:0:0:
330,316,143894,1,8,0:0:0:0:
473,338,144059,5,0,0:0:0:0:
482,135,144224,1,8,0:0:0:0:
474,86,144306,1,0,0:0:0:0:
441,49,144389,1,0,0:0:0:0:
394,33,144471,1,0,0:0:0:0:
345,41,144554,1,8,0:0:0:0:
307,72,144636,1,0,0:0:0:0:
296,119,144718,1,0,0:0:0:0:
255,147,144801,1,0,0:0:0:0:
206,139,144883,1,8,0:0:0:0:
176,99,144966,1,0,0:0:0:0:
140,65,145048,6,0,L|94:99,3,35,0|0|8|0,0:0|0:0|0:0|0:0,0:0:0:0:
70,112,145378,1,0,0:0:0:0:
45,154,145460,1,0,0:0:0:0:
51,202,145543,1,8,0:0:0:0:
87,234,145625,1,0,0:0:0:0:
135,231,145707,6,0,L|188:239,3,35,0|0|8|0,0:0|0:0|0:0|0:0,0:0:0:0:
208,266,146037,1,0,0:0:0:0:
193,313,146120,1,0,0:0:0:0:
207,359,146202,1,8,0:0:0:0:
252,375,146284,1,0,0:0:0:0:
299,361,146367,6,0,L|368:360,5,35,0|0|8|0|0|0,0:0|0:0|0:0|0:0|0:0|0:0,0:0:0:0:
403,290,146861,6,0,L|448:291,5,35,8|0|0|0|8|0,0:0|0:0|0:0|0:0|0:0|0:0,0:0:0:0:
477,260,147356,1,0,0:0:0:0:
492,213,147438,1,0,0:0:0:0:
471,168,147521,1,8,0:0:0:0:
431,139,147603,1,0,0:0:0:0:
383,148,147685,1,0,0:0:0:0:
349,183,147768,1,0,0:0:0:0:
345,231,147850,1,8,0:0:0:0:
308,263,147933,1,0,0:0:0:0:
260,273,148015,1,0,0:0:0:0:
215,251,148098,1,0,0:0:0:0:
196,206,148180,1,8,0:0:0:0:
208,158,148262,1,0,0:0:0:0:
230,114,148345,5,0,0:0:0:0:
207,140,148427,1,0,0:0:0:0:
186,168,148510,1,8,0:0:0:0:
165,196,148592,1,0,0:0:0:0:
146,226,148675,1,0,0:0:0:0:
125,253,148757,1,0,0:0:0:0:
107,283,148839,1,8,0:0:0:0:
88,312,148922,1,0,0:0:0:0:
75,344,149004,2,0,L|113:386,7,35,0|0|8|0|0|0|8|0,0:0|0:0|0:0|0:0|0:0|0:0|0:0|0:0,0:0:0:0:
134,369,149664,5,0,0:0:0:0:
168,367,149746,1,0,0:0:0:0:
193,343,149828,1,8,0:0:0:0:
204,309,149911,1,0,0:0:0:0:
196,274,149993,1,0,0:0:0:0:
171,248,150076,1,0,0:0:0:0:
139,233,150158,1,8,0:0:0:0:
104,233,150240,1,0,0:0:0:0:
69,224,150323,2,0,L|37:212,7,35,0|0|8|0|0|0|8|0,0:0|0:0|0:0|0:0|0:0|0:0|0:0|0:0,0:0:0:0:
25,178,150982,5,0,0:0:0:0:
52,155,151065,1,0,0:0:0:0:
86,149,151147,1,8,0:0:0:0:
120,149,151229,1,0,0:0:0:0:
152,134,151312,1,0,0:0:0:0:
176,108,151395,1,0,0:0:0:0:
174,73,151477,1,8,0:0:0:0:
157,42,151560,1,0,0:0:0:0:
127,22,151642,2,0,L|72:4,7,35,0|0|8|0|0|0|8|0,0:0|0:0|0:0|0:0|0:0|0:0|0:0|0:0,0:0:0:0:
62,27,152301,5,0,0:0:0:0:
39,53,152383,1,0,0:0:0:0:
35,88,152466,1,8,0:0:0:0:
46,120,152548,1,0,0:0:0:0:
74,140,152631,1,0,0:0:0:0:
108,143,152713,1,0,0:0:0:0:
142,138,152795,1,8,0:0:0:0:
170,117,152878,1,0,0:0:0:0:
191,89,152960,2,0,L|243:86,7,35,0|0|8|0|0|0|8|0,0:0|0:0|0:0|0:0|0:0|0:0|0:0|0:0,0:0:0:0:
259,98,153620,5,0,0:0:0:0:
281,124,153702,1,0,0:0:0:0:
314,134,153784,1,8,0:0:0:0:
349,129,153867,1,0,0:0:0:0:
381,116,153949,1,0,0:0:0:0:
407,92,154032,1,0,0:0:0:0:
419,59,154114,1,8,0:0:0:0:
408,25,154196,1,0,0:0:0:0:
378,5,154279,6,0,L|343:3,3,35,4|0|0|0,0:0|0:0|0:0|0:0,0:0:0:0:
466,128,154609,2,0,L|519:129,2,46.6666666666667,0|8|8,0:0|0:0|0:0,0:0:0:0:
398,213,154938,2,0,L|329:213,2,46.6666666666667
466,297,155268,2,0,L|513:297,2,46.6666666666667
344,346,155598,6,0,P|314:348|284:345,1,60.6666638895672,12|0,0:0|0:0,0:0:0:0:
263,322,155927,1,8,0:0:0:0:
246,296,156037,1,8,0:0:0:0:
215,294,156147,1,8,0:0:0:0:
186,304,156257,2,0,L|161:362,1,45.4999979171754,8|0,0:0|0:0,0:0:0:0:
122,353,156587,1,8,0:0:0:0:
121,322,156696,1,8,0:0:0:0:
119,291,156806,1,8,0:0:0:0:
117,260,156916,2,4,L|111:192,1,60.6666638895672,12|0,0:0|0:0,0:0:0:0:
103,95,157246,5,8,0:0:0:0:
103,95,157356,1,8,0:0:0:0:
103,95,157466,1,8,0:0:0:0:
103,95,157576,2,0,L|33:113,1,60.6666638895672,12|0,0:0|0:0,0:0:0:0:
235,183,157905,2,0,L|295:205,1,60.6666638895672
257,31,158235,2,0,L|198:9,1,60.6666638895672,4|0,0:0|0:0,0:0:0:0:
312,119,158565,5,8,0:0:0:0:
312,119,158674,1,8,0:0:0:0:
312,119,158784,1,8,0:0:0:0:
313,121,158894,2,0,L|374:121,1,60.6666638895672,12|0,0:0|0:0,0:0:0:0:
491,42,159224,2,0,L|431:27,1,60.6666638895672
216,53,159554,2,0,L|213:139,1,60.6666638895672,4|0,0:0|0:0,0:0:0:0:
282,247,159883,5,8,0:0:0:0:
282,247,159993,1,8,0:0:0:0:
282,247,160103,1,8,0:0:0:0:
282,247,160213,2,0,L|348:263,1,60.6666638895672,12|0,0:0|0:0,0:0:0:0:
473,347,160543,2,0,L|402:361,1,60.6666638895672
215,343,160872,2,0,L|181:275,1,60.6666638895672,4|0,0:0|0:0,0:0:0:0:
113,189,161202,5,8,0:0:0:0:
113,189,161312,1,8,0:0:0:0:
113,189,161422,1,8,0:0:0:0:
113,189,161532,2,0,L|111:268,1,60.6666638895672,4|0,0:0|0:0,0:0:0:0:
22,361,161861,1,8,0:0:0:0:
23,330,161971,1,8,0:0:0:0:
24,299,162081,1,8,0:0:0:0:
25,268,162191,2,0,L|29:181,1,60.6666638895672,12|0,0:0|0:0,0:0:0:0:
87,46,162521,5,8,0:0:0:0:
103,71,162631,1,8,0:0:0:0:
120,95,162740,1,8,0:0:0:0:
138,118,162850,2,0,L|215:119,1,60.6666638895672,12|0,0:0|0:0,0:0:0:0:
344,112,163180,1,8,0:0:0:0:
359,86,163290,1,8,0:0:0:0:
375,60,163400,1,8,0:0:0:0:
390,34,163510,2,0,L|475:33,1,60.6666638895672,12|0,0:0|0:0,0:0:0:0:
482,185,163839,5,8,0:0:0:0:
482,215,163949,1,8,0:0:0:0:
482,245,164059,1,8,0:0:0:0:
452,273,164169,1,12,0:0:0:0:
436,299,164279,1,8,0:0:0:0:
415,321,164389,1,8,0:0:0:0:
385,328,164499,1,12,0:0:0:0:
355,322,164609,1,8,0:0:0:0:
328,308,164718,1,8,0:0:0:0:
303,289,164828,2,0,L|222:289,1,60.6666638895672,12|0,0:0|0:0,0:0:0:0:
280,197,165158,5,8,0:0:0:0:
310,197,165268,1,8,0:0:0:0:
337,184,165378,1,8,0:0:0:0:
355,159,165488,2,0,P|324:137|276:132,1,60.6666638895672,12|0,0:0|0:0,0:0:0:0:
162,103,165817,1,8,0:0:0:0:
168,132,165927,1,8,0:0:0:0:
156,160,166037,1,8,0:0:0:0:
132,179,166147,2,0,P|99:169|69:141,1,60.6666638895672,12|0,0:0|0:0,0:0:0:0:
61,58,166477,5,8,0:0:0:0:
61,58,166587,1,8,0:0:0:0:
61,58,166696,1,8,0:0:0:0:
57,88,166806,1,12,0:0:0:0:
56,118,166916,1,0,0:0:0:0:
56,148,167026,1,0,0:0:0:0:
57,178,167136,1,0,0:0:0:0:
64,207,167246,1,0,0:0:0:0:
80,232,167356,1,0,0:0:0:0:
95,253,167466,6,0,P|144:235|196:238,1,105.000004005432,4|0,0:0|0:0,0:0:0:0:
265,354,167795,1,0,0:0:0:0:
335,237,167960,2,0,P|391:222|449:231,1,105.000004005432
512,326,168290,1,0,0:0:0:0:
383,320,168455,2,0,P|339:277|337:227,1,105.000004005432
446,143,168784,1,0,0:0:0:0:
315,125,168949,6,0,P|313:72|335:25,1,105.000004005432
432,70,169279,1,0,0:0:0:0:
315,125,169444,2,0,P|266:142|217:126,1,105.000004005432
164,28,169773,1,0,0:0:0:0:
116,125,169938,2,0,P|65:138|16:124,1,105.000004005432
39,30,170268,1,0,0:0:0:0:
116,125,170433,6,0,L|119:275,1,140.000005340576,4|0,0:0|0:0,0:0:0:0:
1,369,170762,2,0,L|-4:200,1,140.000005340576,4|0,0:0|0:0,0:0:0:0:
118,264,171092,2,0,P|172:283|226:272,1,105.000004005432,4|0,0:0|0:0,0:0:0:0:
256,176,171422,1,0,0:0:0:0:
338,93,171587,6,0,P|388:109|428:144,1,105.000004005432
420,250,171916,1,0,0:0:0:0:
218,275,172081,2,0,P|166:282|118:264,1,105.000004005432,4|0,0:0|0:0,0:0:0:0:
0,229,172411,1,0,0:0:0:0:
115,124,172576,2,0,P|132:75|133:23,1,105.000004005432
15,63,172905,1,0,0:0:0:0:
0,229,173070,6,0,P|60:239|104:221,1,105.000004005432
207,81,173400,2,0,P|257:56|315:64,1,105.000004005432
453,206,173729,2,0,P|393:230|350:219,1,105.000004005432
160,153,174059,2,0,P|125:114|145:29,1,140.000005340576
202,7,174389,1,0,0:0:0:0:
269,11,174471,1,0,0:0:0:0:
313,63,174554,1,0,0:0:0:0:
311,130,174636,1,0,0:0:0:0:
268,183,174718,5,0,0:0:0:0:
238,244,174801,1,0,0:0:0:0:
250,310,174883,1,0,0:0:0:0:
297,359,174966,1,0,0:0:0:0:
363,370,175048,1,4,0:0:0:0:
362,369,175707,6,0,P|425:356|483:296,1,140,4|8,0:0|0:0,0:0:0:0:
481,173,176202,1,0,0:0:0:0:
343,202,176367,2,0,L|379:279,1,70
481,173,176696,1,8,0:0:0:0:
333,41,176861,1,0,0:0:0:0:
237,185,177026,6,0,L|248:274,1,70
481,173,177356,2,0,L|429:119,1,70,8|0,0:0|0:0,0:0:0:0:
255,50,177685,1,0,0:0:0:0:
224,47,177768,1,0,0:0:0:0:
187,58,177850,1,0,0:0:0:0:
157,217,178015,2,0,L|146:148,1,70,8|0,0:0|0:0,0:0:0:0:
135,34,178345,5,12,0:0:0:0:
369,170,178510,1,0,0:0:0:0:
102,106,178674,1,12,0:0:0:0:
348,244,178839,1,0,0:0:0:0:
75,172,179004,1,12,0:0:0:0:
324,313,179169,1,0,0:0:0:0:
45,239,179334,1,12,0:0:0:0:
302,384,179499,1,0,0:0:0:0:
45,239,179664,5,12,0:0:0:0:
291,149,179828,1,0,0:0:0:0:
302,384,179993,1,12,0:0:0:0:
45,239,180158,1,0,0:0:0:0:
291,149,180323,1,12,0:0:0:0:
302,384,180488,1,0,0:0:0:0:
45,235,180653,1,12,0:0:0:0:
284,53,180817,1,0,0:0:0:0:
368,325,180982,5,12,0:0:0:0:
24,310,181147,1,0,0:0:0:0:
198,44,181312,1,0,0:0:0:0:
429,242,181477,1,12,0:0:0:0:
77,380,181642,1,0,0:0:0:0:
119,25,181806,1,0,0:0:0:0:
426,290,181971,1,12,0:0:0:0:
0,193,182136,1,0,0:0:0:0:
461,203,182301,5,8,0:0:0:0:
510,266,182383,1,8,0:0:0:0:
498,346,182466,1,8,0:0:0:0:
424,376,182548,1,8,0:0:0:0:
353,335,182631,1,8,0:0:0:0:
329,258,182713,1,8,0:0:0:0:
261,214,182795,1,8,0:0:0:0:
186,232,182878,1,8,0:0:0:0:
126,285,182960,6,0,P|117:333|142:371,1,93.3333333333333,8|0,0:0|0:0,0:0:0:0:
237,304,183290,2,0,L|265:194,1,93.3333333333333,8|0,0:0|0:0,0:0:0:0:
296,28,183620,5,4,0:0:0:0:
260,88,193510,5,8,0:0:0:0:
243,94,193592,1,8,0:0:0:0:
227,101,193674,1,8,0:0:0:0:
210,107,193757,1,8,0:0:0:0:
193,113,193839,1,8,0:0:0:0:
177,121,193922,1,8,0:0:0:0:
44,179,194169,6,0,P|28:248|101:314,1,159.249992710114,4|0,0:0|0:0,0:0:0:0:
152,270,194828,1,0,0:0:0:0:
244,264,194993,2,0,L|222:332,1,68.2499968757631
312,359,195323,1,0,0:0:0:0:
396,320,195488,6,0,L|363:256,1,68.2499968757631,4|0,0:0|0:0,0:0:0:0:
242,163,195817,2,0,L|324:197,1,68.2499968757631
449,119,196147,2,0,L|401:167,1,68.2499968757631,4|0,0:0|0:0,0:0:0:0:
224,78,196477,2,0,L|304:112,1,68.2499968757631
487,46,196806,6,0,P|434:38|387:69,1,90.9999958343508,4|8,0:0|0:0,0:0:0:0:
382,85,197246,1,8,0:0:0:0:
367,118,197356,1,8,0:0:0:0:
355,152,197466,1,8,0:0:0:0:
315,253,197685,1,8,0:0:0:0:
258,98,197960,1,0,0:0:0:0:
219,261,198125,6,0,P|188:274|154:270,1,68.2499968757631
68,110,198455,2,0,P|97:95|143:104,1,68.2499968757631
315,253,198784,2,0,P|310:285|283:322,1,68.2499968757631
73,175,199114,2,0,P|62:136|76:95,1,68.2499968757631
356,164,199444,1,12,0:0:0:0:
390,170,199526,5,0,0:0:0:0:
411,197,199609,1,8,0:0:0:0:
419,230,199691,1,0,0:0:0:0:
412,264,199773,1,0,0:0:0:0:
390,291,199856,1,0,0:0:0:0:
357,303,199938,1,8,0:0:0:0:
322,295,200021,1,0,0:0:0:0:
292,276,200103,6,0,L|279:325,2,35,0|0|8,0:0|0:0|0:0,0:0:0:0:
263,255,200350,1,0,0:0:0:0:
227,251,200433,1,0,0:0:0:0:
195,265,200515,1,0,0:0:0:0:
174,293,200598,1,8,0:0:0:0:
170,327,200680,1,0,0:0:0:0:
177,361,200762,6,0,L|216:379,3,35,8|0|8|0,0:0|0:0|0:0|0:0,0:0:0:0:
74,332,201092,2,0,L|84:381,3,35,0|0|8|0,0:0|0:0|0:0|0:0,0:0:0:0:
22,219,201422,1,0,0:0:0:0:
16,184,201504,1,0,0:0:0:0:
29,151,201587,1,8,0:0:0:0:
59,134,201669,1,0,0:0:0:0:
93,133,201751,6,0,L|120:169,3,35,0|0|8|0,0:0|0:0|0:0|0:0,0:0:0:0:
236,144,202081,2,0,L|262:181,3,35,8|0|8|0,0:0|0:0|0:0|0:0,0:0:0:0:
242,44,202411,1,0,0:0:0:0:
268,21,202493,1,0,0:0:0:0:
302,14,202576,1,8,0:0:0:0:
335,22,202658,1,0,0:0:0:0:
350,65,202740,6,0,L|401:74,3,35,0|0|8|0,0:0|0:0|0:0|0:0,0:0:0:0:
410,177,203070,2,0,L|459:181,3,35,0|0|8|0,0:0|0:0|0:0|0:0,0:0:0:0:
321,277,203400,2,0,L|276:276,3,35,8|0|8|0,0:0|0:0|0:0|0:0,0:0:0:0:
260,356,203729,2,0,L|200:355,3,35,0|0|8|0,0:0|0:0|0:0|0:0,0:0:0:0:
395,354,204059,1,8,0:0:0:0:
450,344,204142,1,0,0:0:0:0:
483,299,204224,1,0,0:0:0:0:
480,243,204306,1,0,0:0:0:0:
445,198,204389,1,8,0:0:0:0:
396,226,204471,1,0,0:0:0:0:
352,262,204554,1,0,0:0:0:0:
306,293,204636,1,0,0:0:0:0:
264,329,204718,6,0,L|203:329,3,35,8|0|0|0,0:0|0:0|0:0|0:0,0:0:0:0:
124,326,205048,2,0,L|110:358,3,35,8|0|0|0,0:0|0:0|0:0|0:0,0:0:0:0:
32,288,205378,2,0,L|-30:310,3,35,8|0|0|0,0:0|0:0|0:0|0:0,0:0:0:0:
112,54,205707,1,8,0:0:0:0:
62,80,205790,1,0,0:0:0:0:
37,130,205872,1,0,0:0:0:0:
55,183,205955,1,0,0:0:0:0:
92,224,206037,6,0,L|150:209,3,35,8|0|0|0,0:0|0:0|0:0|0:0,0:0:0:0:
224,250,206367,2,0,L|252:219,3,35,8|0|0|0,0:0|0:0|0:0|0:0,0:0:0:0:
364,260,206696,1,8,0:0:0:0:
387,229,206779,1,8,0:0:0:0:
410,198,206861,1,8,0:0:0:0:
432,165,206944,1,8,0:0:0:0:
456,136,207026,1,8,0:0:0:0:
477,102,207109,1,8,0:0:0:0:
478,63,207191,1,8,0:0:0:0:
465,27,207273,1,8,0:0:0:0:
436,2,207356,5,12,0:0:0:0:
369,3,207438,1,0,0:0:0:0:
308,30,207521,1,8,0:0:0:0:
273,86,207603,1,0,0:0:0:0:
275,152,207685,1,0,0:0:0:0:
275,218,207768,1,0,0:0:0:0:
235,271,207850,1,8,0:0:0:0:
171,293,207933,1,0,0:0:0:0:
105,284,208015,1,0,0:0:0:0:
51,243,208098,1,0,0:0:0:0:
30,180,208180,1,8,0:0:0:0:
39,114,208262,1,0,0:0:0:0:
89,69,208345,1,0,0:0:0:0:
151,46,208427,1,0,0:0:0:0:
218,49,208510,1,8,0:0:0:0:
273,86,208592,1,0,0:0:0:0:
316,136,208674,6,0,L|360:132,3,35,8|0|8|0,0:0|0:0|0:0|0:0,0:0:0:0:
401,213,209004,2,0,L|436:212,3,35,0|0|8|0,0:0|0:0|0:0|0:0,0:0:0:0:
487,254,209334,1,0,0:0:0:0:
504,317,209416,1,0,0:0:0:0:
471,375,209499,1,8,0:0:0:0:
404,375,209581,1,0,0:0:0:0:
346,340,209664,1,0,0:0:0:0:
327,276,209746,1,0,0:0:0:0:
279,229,209828,1,8,0:0:0:0:
212,223,209911,1,0,0:0:0:0:
153,255,209993,6,0,P|134:274|115:295,1,35,8|0,0:0|0:0,0:0:0:0:
343,125,210158,2,0,P|342:73|299:35,1,105,8|0,0:0|0:0,0:0:0:0:
61,149,210488,1,8,0:0:0:0:
233,328,210653,1,0,0:0:0:0:
296,345,210735,1,0,0:0:0:0:
359,327,210817,1,8,0:0:0:0:
407,280,210900,1,0,0:0:0:0:
428,217,210982,1,0,0:0:0:0:
422,150,211065,1,0,0:0:0:0:
388,93,211147,1,8,0:0:0:0:
329,58,211229,1,0,0:0:0:0:
266,34,211312,6,0,L|228:-7,3,35,8|0|8|0,0:0|0:0|0:0|0:0,0:0:0:0:
111,50,211642,2,0,L|82:9,3,35,0|0|8|0,0:0|0:0|0:0|0:0,0:0:0:0:
24,15,211971,1,0,0:0:0:0:
9,80,212054,1,0,0:0:0:0:
29,142,212136,1,8,0:0:0:0:
82,180,212218,1,0,0:0:0:0:
148,183,212301,1,0,0:0:0:0:
209,207,212383,1,0,0:0:0:0:
228,270,212466,1,8,0:0:0:0:
227,336,212548,1,0,0:0:0:0:
176,380,212631,6,0,L|135:385,1,35,8|0,0:0|0:0,0:0:0:0:
365,268,212795,2,0,P|416:267|455:226,1,105,8|0,0:0|0:0,0:0:0:0:
273,58,213125,1,8,0:0:0:0:
110,286,213290,1,0,0:0:0:0:
163,324,213372,1,0,0:0:0:0:
229,326,213455,1,8,0:0:0:0:
278,282,213537,1,0,0:0:0:0:
295,217,213620,1,0,0:0:0:0:
306,151,213702,1,0,0:0:0:0:
357,109,213784,1,8,0:0:0:0:
423,112,213867,1,0,0:0:0:0:
474,154,213949,6,0,P|498:205|499:264,1,105,8|0,0:0|0:0,0:0:0:0:
329,384,214279,1,0,0:0:0:0:
183,183,214444,1,8,0:0:0:0:
420,227,214609,2,0,P|413:289|364:341,1,105
95,292,214938,1,0,0:0:0:0:
201,61,215103,1,8,0:0:0:0:
339,257,215268,5,0,0:0:0:0:
70,178,215433,1,8,0:0:0:0:
362,142,215598,1,0,0:0:0:0:
166,340,215762,1,8,0:0:0:0:
201,61,215927,1,0,0:0:0:0:
358,292,216092,5,8,0:0:0:0:
111,94,216257,1,0,0:0:0:0:
417,20,216422,1,8,0:0:0:0:
485,327,216587,6,0,L|487:374,3,35,8|0|8|0,0:0|0:0|0:0|0:0,0:0:0:0:
358,292,216916,2,0,L|356:328,3,35,0|0|8|0,0:0|0:0|0:0|0:0,0:0:0:0:
296,174,217246,1,8,0:0:0:0:
296,174,217328,1,0,0:0:0:0:
296,174,217411,1,0,0:0:0:0:
296,174,217493,1,0,0:0:0:0:
296,174,217576,1,8,0:0:0:0:
230,182,217658,1,0,0:0:0:0:
185,231,217740,1,0,0:0:0:0:
201,295,217823,1,0,0:0:0:0:
249,339,217905,6,0,L|296:362,3,35,12|0|0|0,0:0|0:0|0:0|0:0,0:0:0:0:
356,269,218235,2,0,L|412:270,3,35,8|0|0|0,0:0|0:0|0:0|0:0,0:0:0:0:
455,232,218565,1,8,0:0:0:0:
487,166,218647,1,0,0:0:0:0:
479,93,218729,1,0,0:0:0:0:
431,35,218812,1,0,0:0:0:0:
364,5,218894,1,8,0:0:0:0:
291,21,218977,1,0,0:0:0:0:
237,70,219059,1,0,0:0:0:0:
200,134,219142,1,0,0:0:0:0:
192,206,219224,6,0,L|193:266,3,35,8|0|0|0,0:0|0:0|0:0|0:0,0:0:0:0:
62,171,219554,2,0,L|61:128,3,35,8|0|0|0,0:0|0:0|0:0|0:0,0:0:0:0:
93,70,219883,1,8,0:0:0:0:
154,28,219966,1,0,0:0:0:0:
227,29,220048,1,0,0:0:0:0:
288,70,220131,1,0,0:0:0:0:
316,137,220213,1,8,0:0:0:0:
317,210,220295,1,0,0:0:0:0:
345,278,220378,1,0,0:0:0:0:
409,312,220460,1,0,0:0:0:0:
474,278,220543,6,0,L|523:253,3,35,8|0|0|0,0:0|0:0|0:0|0:0,0:0:0:0:
467,379,220872,2,0,L|416:399,3,35,8|0|0|0,0:0|0:0|0:0|0:0,0:0:0:0:
361,381,221202,1,8,0:0:0:0:
290,361,221284,1,0,0:0:0:0:
239,306,221367,1,0,0:0:0:0:
215,236,221449,1,0,0:0:0:0:
225,162,221532,1,8,0:0:0:0:
266,101,221614,1,0,0:0:0:0:
335,77,221696,1,0,0:0:0:0:
406,95,221779,1,0,0:0:0:0:
456,148,221861,6,0,L|480:180,3,35,8|0|0|0,0:0|0:0|0:0|0:0,0:0:0:0:
434,24,222191,2,0,L|376:6,3,35,8|0|0|0,0:0|0:0|0:0|0:0,0:0:0:0:
327,1,222521,1,8,0:0:0:0:
255,17,222603,1,0,0:0:0:0:
194,58,222685,1,0,0:0:0:0:
158,122,222768,1,0,0:0:0:0:
147,194,222850,1,8,0:0:0:0:
170,264,222933,1,0,0:0:0:0:
159,336,223015,1,0,0:0:0:0:
97,376,223098,1,0,0:0:0:0:
27,353,223180,6,0,L|-17:321,3,35,8|0|0|0,0:0|0:0|0:0|0:0,0:0:0:0:
88,278,223510,2,0,L|58:222,3,35,8|0|0|0,0:0|0:0|0:0|0:0,0:0:0:0:
74,174,223839,1,8,0:0:0:0:
106,107,223922,1,0,0:0:0:0:
161,59,224004,1,0,0:0:0:0:
234,48,224087,1,0,0:0:0:0:
303,70,224169,1,8,0:0:0:0:
351,125,224251,1,0,0:0:0:0:
381,192,224334,1,0,0:0:0:0:
390,264,224416,1,0,0:0:0:0:
380,337,224499,6,0,L|373:392,3,35,8|0|0|0,0:0|0:0|0:0|0:0,0:0:0:0:
285,281,224828,2,0,L|286:246,3,35,8|0|0|0,0:0|0:0|0:0|0:0,0:0:0:0:
289,172,225158,1,8,0:0:0:0:
252,108,225240,1,0,0:0:0:0:
182,81,225323,1,0,0:0:0:0:
109,92,225405,1,0,0:0:0:0:
52,139,225488,1,8,0:0:0:0:
29,208,225570,1,0,0:0:0:0:
51,278,225653,1,0,0:0:0:0:
108,323,225735,1,0,0:0:0:0:
177,345,225817,6,0,L|229:366,3,35,8|0|0|0,0:0|0:0|0:0|0:0,0:0:0:0:
167,212,226147,6,0,L|136:176,3,35,8|0|0|0,0:0|0:0|0:0|0:0,0:0:0:0:
151,111,226477,1,8,0:0:0:0:
192,50,226559,1,0,0:0:0:0:
263,31,226642,1,0,0:0:0:0:
327,65,226724,1,0,0:0:0:0:
368,125,226806,1,8,0:0:0:0:
382,197,226889,1,0,0:0:0:0:
359,266,226971,1,0,0:0:0:0:
315,326,227054,1,0,0:0:0:0:
253,362,227136,6,0,L|203:325,7,35,8|0|0|0|8|0|0|0,0:0|0:0|0:0|0:0|0:0|0:0|0:0|0:0,0:0:0:0:
163,300,227795,1,8,0:0:0:0:
107,250,227878,1,8,0:0:0:0:
51,202,227960,1,8,0:0:0:0:
31,130,228043,1,8,0:0:0:0:
55,61,228125,1,8,0:0:0:0:
115,20,228207,1,8,0:0:0:0:
187,32,228290,1,8,0:0:0:0:
228,92,228372,1,8,0:0:0:0:
244,164,228455,6,0,L|256:208,7,35,8|0|0|0|8|0|0|0,0:0|0:0|0:0|0:0|0:0|0:0|0:0|0:0,0:0:0:0:
264,164,229114,1,8,0:0:0:0:
282,96,229196,1,8,0:0:0:0:
315,36,229279,1,8,0:0:0:0:
391,22,229361,1,8,0:0:0:0:
450,61,229444,1,8,0:0:0:0:
475,132,229526,1,8,0:0:0:0:
457,202,229609,1,8,0:0:0:0:
401,250,229691,1,8,0:0:0:0:
345,300,229774,1,8,0:0:0:0:
283,341,229857,6,0,L|254:361,7,35
182,348,230515,1,8,0:0:0:0:
142,285,230598,1,8,0:0:0:0:
175,219,230680,1,8,0:0:0:0:
240,186,230762,1,8,0:0:0:0:
310,208,230845,1,8,0:0:0:0:
383,210,230927,1,8,0:0:0:0:
440,163,231010,1,8,0:0:0:0:
440,89,231092,6,0,P|394:69|346:75,1,93.3333333333333,12|0,0:0|0:0,0:0:0:0:
240,186,231422,1,8,0:0:0:0:
230,241,231532,1,8,0:0:0:0:
237,296,231642,1,8,0:0:0:0:
275,335,231751,2,0,P|320:344|366:330,1,93.3333333333333
495,154,232081,1,8,0:0:0:0:
445,181,232191,1,8,0:0:0:0:
391,160,232301,1,8,0:0:0:0:
363,111,232411,6,0,P|316:106|255:112,1,93.3333333333333,4|0,0:0|0:0,0:0:0:0:
170,187,232740,1,8,0:0:0:0:
170,187,232850,1,8,0:0:0:0:
170,187,232960,1,8,0:0:0:0:
168,243,233070,1,8,0:0:0:0:
153,297,233180,1,8,0:0:0:0:
107,330,233290,1,8,0:0:0:0:
51,338,233400,1,8,0:0:0:0:
6,304,233510,1,8,0:0:0:0:
0,248,233620,1,8,0:0:0:0:
5,192,233729,6,0,P|6:141|24:90,1,93.3333333333333,4|0,0:0|0:0,0:0:0:0:
166,40,234059,1,8,0:0:0:0:
166,40,234169,1,8,0:0:0:0:
166,40,234279,1,8,0:0:0:0:
166,40,234389,2,0,P|208:46|269:44,1,93.3333333333333
472,99,234718,1,8,0:0:0:0:
472,99,234828,1,8,0:0:0:0:
472,99,234938,1,8,0:0:0:0:
472,99,235048,6,0,P|480:149|482:199,1,93.3333333333333,4|0,0:0|0:0,0:0:0:0:
485,237,235378,1,8,0:0:0:0:
486,253,235488,1,8,0:0:0:0:
485,266,235598,1,8,0:0:0:0:
466,310,235707,1,8,0:0:0:0:
455,326,235817,1,8,0:0:0:0:
444,343,235927,1,8,0:0:0:0:
375,360,236037,1,8,0:0:0:0:
304,349,236147,1,8,0:0:0:0:
236,331,236257,1,8,0:0:0:0:
173,304,236367,6,0,B|168:213|168:213|76:201|76:201|156:153|156:153|138:69|138:69|203:129|203:129|283:81|283:81|244:161|244:161|313:225|313:225|224:217|224:217|177:314,1,909.999958343508,4|0,0:0|0:0,0:0:0:0:
