osu file format v14

[General]
AudioFilename: audio.mp3
AudioLeadIn: 0
PreviewTime: 182901
Countdown: 0
SampleSet: Normal
StackLeniency: 0.7
Mode: 1
LetterboxInBreaks: 0
WidescreenStoryboard: 0

[Editor]
DistanceSpacing: 0.5
BeatDivisor: 6
GridSize: 32
TimelineZoom: 2.699999

[Metadata]
Title:Ange du blanc Pur
TitleUnicode:Ange du blanc Pur
Artist:ke-ji feat. Nanahira
ArtistUnicode:ke-ji feat. Nanahira
Creator:Labyr
Version:Inner Oni
Source:
Tags:Colory Starry
BeatmapID:963041
BeatmapSetID:448754

[Difficulty]
HPDrainRate:6
CircleSize:5
OverallDifficulty:5
ApproachRate:6
SliderMultiplier:1.4
SliderTickRate:1

[Events]
//Background and Video events
0,0,"background.jpg",0,120
//Break Periods
//Storyboard Layer 0 (Background)
//Storyboard Layer 1 (Fail)
//Storyboard Layer 2 (Pass)
//Storyboard Layer 3 (Foreground)
//Storyboard Sound Samples

[TimingPoints]
31640,329.67032967033,4,1,0,100,1,0
42189,329.67032967033,3,1,0,100,1,0
45815,329.67032967033,3,1,0,100,1,0
50431,329.67032967033,4,1,0,100,1,0
60980,329.67032967033,3,1,0,100,1,0
64936,329.67032967033,4,1,0,100,1,0
80760,329.67032967033,3,1,0,100,1,0
84716,329.67032967033,4,1,0,100,1,0
97902,-100,4,1,0,100,0,1
121639,329.67032967033,6,1,0,100,1,0
138123,329.67032967033,4,1,0,100,1,0
167133,329.67032967033,3,1,0,100,1,0
170759,329.67032967033,3,1,0,100,1,0
175374,329.67032967033,4,1,0,100,1,0
207022,-100,4,1,0,100,0,1
230758,-100,4,1,0,100,0,0

[HitObjects]
256,192,31639,5,4,0:0:0:0:
256,192,32299,1,0,0:0:0:0:
256,192,32958,1,8,0:0:0:0:
256,192,33618,1,0,0:0:0:0:
256,192,33947,1,8,0:0:0:0:
256,192,34057,1,0,0:0:0:0:
256,192,34167,1,0,0:0:0:0:
256,192,34277,1,8,0:0:0:0:
256,192,34936,1,0,0:0:0:0:
256,192,35596,1,8,0:0:0:0:
256,192,35925,1,0,0:0:0:0:
256,192,36035,1,0,0:0:0:0:
256,192,36145,1,0,0:0:0:0:
256,192,36255,1,8,0:0:0:0:
256,192,36585,1,8,0:0:0:0:
256,192,36694,1,8,0:0:0:0:
256,192,36804,1,8,0:0:0:0:
256,192,36914,1,4,0:0:0:0:
256,192,37244,1,8,0:0:0:0:
256,192,37354,1,0,0:0:0:0:
256,192,37464,1,0,0:0:0:0:
256,192,37574,1,8,0:0:0:0:
256,192,37903,1,8,0:0:0:0:
256,192,38013,1,8,0:0:0:0:
256,192,38123,1,8,0:0:0:0:
256,192,38233,1,0,0:0:0:0:
256,192,38563,1,8,0:0:0:0:
256,192,38672,1,0,0:0:0:0:
256,192,38782,1,0,0:0:0:0:
256,192,38892,1,8,0:0:0:0:
256,192,39002,1,0,0:0:0:0:
256,192,39112,1,0,0:0:0:0:
256,192,39222,1,8,0:0:0:0:
256,192,39332,1,8,0:0:0:0:
256,192,39442,1,8,0:0:0:0:
256,192,39552,1,0,0:0:0:0:
256,192,39881,1,8,0:0:0:0:
256,192,39991,1,0,0:0:0:0:
256,192,40101,1,0,0:0:0:0:
256,192,40211,1,8,0:0:0:0:
256,192,40541,1,8,0:0:0:0:
256,192,40650,1,8,0:0:0:0:
256,192,40760,1,8,0:0:0:0:
256,192,40870,1,0,0:0:0:0:
256,192,41200,1,8,0:0:0:0:
256,192,41310,1,0,0:0:0:0:
256,192,41420,1,0,0:0:0:0:
256,192,41530,1,8,0:0:0:0:
256,192,41639,1,8,0:0:0:0:
256,192,41749,1,8,0:0:0:0:
256,192,41859,1,0,0:0:0:0:
256,192,42189,1,4,0:0:0:0:
256,192,42353,1,0,0:0:0:0:
256,192,42436,1,0,0:0:0:0:
256,192,42518,1,0,0:0:0:0:
256,192,42683,1,8,0:0:0:0:
256,192,42848,1,0,0:0:0:0:
256,192,42930,1,0,0:0:0:0:
256,192,43013,1,0,0:0:0:0:
256,192,43178,1,8,0:0:0:0:
256,192,43342,1,0,0:0:0:0:
256,192,43425,1,0,0:0:0:0:
256,192,43507,1,8,0:0:0:0:
256,192,43672,1,8,0:0:0:0:
256,192,43837,1,0,0:0:0:0:
256,192,43919,1,0,0:0:0:0:
256,192,44002,1,8,0:0:0:0:
256,192,44167,1,8,0:0:0:0:
256,192,44331,1,0,0:0:0:0:
256,192,44496,1,8,0:0:0:0:
256,192,44661,1,8,0:0:0:0:
256,192,44743,1,8,0:0:0:0:
256,192,44826,1,0,0:0:0:0:
256,192,44991,1,0,0:0:0:0:
256,192,45156,1,8,0:0:0:0:
256,192,45238,1,8,0:0:0:0:
256,192,45320,1,0,0:0:0:0:
256,192,45403,1,0,0:0:0:0:
256,192,45485,1,8,0:0:0:0:
256,192,45815,1,4,0:0:0:0:
256,192,45979,1,0,0:0:0:0:
256,192,46062,1,0,0:0:0:0:
256,192,46144,1,0,0:0:0:0:
256,192,46309,1,8,0:0:0:0:
256,192,46474,1,0,0:0:0:0:
256,192,46556,1,0,0:0:0:0:
256,192,46639,1,0,0:0:0:0:
256,192,46804,1,8,0:0:0:0:
256,192,46968,1,0,0:0:0:0:
256,192,47051,1,0,0:0:0:0:
256,192,47133,1,8,0:0:0:0:
256,192,47298,1,8,0:0:0:0:
256,192,47463,1,0,0:0:0:0:
256,192,47545,1,0,0:0:0:0:
256,192,47628,1,8,0:0:0:0:
256,192,47793,1,8,0:0:0:0:
256,192,47957,1,0,0:0:0:0:
256,192,48122,1,8,0:0:0:0:
256,192,48205,1,0,0:0:0:0:
256,192,48287,1,0,0:0:0:0:
256,192,48369,1,0,0:0:0:0:
256,192,48452,1,8,0:0:0:0:
256,192,48617,1,0,0:0:0:0:
256,192,48782,1,8,0:0:0:0:
256,192,48946,1,0,0:0:0:0:
256,192,49029,1,0,0:0:0:0:
256,192,49111,1,8,0:0:0:0:
256,192,49221,1,0,0:0:0:0:
256,192,49331,1,8,0:0:0:0:
256,192,49441,1,8,0:0:0:0:
256,192,49551,1,0,0:0:0:0:
256,192,49661,1,0,0:0:0:0:
256,192,49771,1,8,0:0:0:0:
256,192,50430,1,4,0:0:0:0:
256,192,50760,1,8,0:0:0:0:
256,192,50925,1,0,0:0:0:0:
256,192,51255,1,0,0:0:0:0:
256,192,51420,1,8,0:0:0:0:
256,192,51584,1,0,0:0:0:0:
256,192,51914,1,0,0:0:0:0:
256,192,52079,1,8,0:0:0:0:
256,192,52409,1,0,0:0:0:0:
256,192,52573,1,0,0:0:0:0:
256,192,52738,1,8,0:0:0:0:
256,192,53068,1,0,0:0:0:0:
256,192,53233,1,0,0:0:0:0:
256,192,53398,1,8,0:0:0:0:
256,192,53562,1,0,0:0:0:0:
256,192,53892,1,0,0:0:0:0:
256,192,54057,1,8,0:0:0:0:
256,192,54222,1,0,0:0:0:0:
256,192,54551,1,0,0:0:0:0:
256,192,54716,1,8,0:0:0:0:
256,192,54881,1,8,0:0:0:0:
256,192,55046,1,0,0:0:0:0:
256,192,55211,1,0,0:0:0:0:
256,192,55376,1,8,0:0:0:0:
256,192,55705,1,0,0:0:0:0:
256,192,55870,1,0,0:0:0:0:
256,192,56035,1,8,0:0:0:0:
256,192,56200,1,0,0:0:0:0:
256,192,56529,1,0,0:0:0:0:
256,192,56694,1,8,0:0:0:0:
256,192,56859,1,0,0:0:0:0:
256,192,57189,1,0,0:0:0:0:
256,192,57354,1,8,0:0:0:0:
256,192,57683,1,0,0:0:0:0:
256,192,57848,1,0,0:0:0:0:
256,192,58013,1,8,0:0:0:0:
256,192,58178,1,8,0:0:0:0:
256,192,58343,1,0,0:0:0:0:
256,192,58672,1,8,0:0:0:0:
256,192,58837,1,0,0:0:0:0:
256,192,59167,1,0,0:0:0:0:
256,192,59332,1,8,0:0:0:0:
256,192,59496,1,0,0:0:0:0:
256,192,59826,1,0,0:0:0:0:
256,192,59991,1,8,0:0:0:0:
256,192,60156,1,8,0:0:0:0:
256,192,60321,1,0,0:0:0:0:
256,192,60485,1,8,0:0:0:0:
256,192,60568,1,8,0:0:0:0:
256,192,60650,1,8,0:0:0:0:
256,192,60815,1,8,0:0:0:0:
256,192,60980,1,4,0:0:0:0:
256,192,61309,1,8,0:0:0:0:
256,192,61474,1,0,0:0:0:0:
256,192,61556,1,0,0:0:0:0:
256,192,61639,1,8,0:0:0:0:
256,192,61804,1,0,0:0:0:0:
256,192,61969,1,8,0:0:0:0:
256,192,62133,1,8,0:0:0:0:
256,192,62216,1,8,0:0:0:0:
256,192,62298,1,0,0:0:0:0:
256,192,62463,1,0,0:0:0:0:
256,192,62628,1,8,0:0:0:0:
256,192,62793,1,0,0:0:0:0:
256,192,62875,1,0,0:0:0:0:
256,192,62958,1,8,0:0:0:0:
256,192,63122,1,0,0:0:0:0:
256,192,63287,1,8,0:0:0:0:
256,192,63452,1,0,0:0:0:0:
256,192,63534,1,8,0:0:0:0:
256,192,63617,1,0,0:0:0:0:
256,192,63782,1,0,0:0:0:0:
256,192,63947,1,8,0:0:0:0:
256,192,64111,1,8,0:0:0:0:
256,192,64194,1,8,0:0:0:0:
256,192,64276,1,0,0:0:0:0:
256,192,64441,1,0,0:0:0:0:
256,192,64606,1,8,0:0:0:0:
256,192,64936,1,4,0:0:0:0:
256,192,65100,1,0,0:0:0:0:
256,192,65265,1,8,0:0:0:0:
256,192,65430,1,0,0:0:0:0:
256,192,65512,1,0,0:0:0:0:
256,192,65595,1,0,0:0:0:0:
256,192,65760,1,0,0:0:0:0:
256,192,65925,1,8,0:0:0:0:
256,192,66089,1,0,0:0:0:0:
256,192,66254,1,0,0:0:0:0:
256,192,66337,1,0,0:0:0:0:
256,192,66419,1,0,0:0:0:0:
256,192,66584,1,8,0:0:0:0:
256,192,66749,1,0,0:0:0:0:
256,192,66914,1,8,0:0:0:0:
256,192,67078,1,0,0:0:0:0:
256,192,67161,1,0,0:0:0:0:
256,192,67243,1,8,0:0:0:0:
256,192,67408,1,0,0:0:0:0:
256,192,67573,1,8,0:0:0:0:
256,192,67738,1,0,0:0:0:0:
256,192,67903,1,0,0:0:0:0:
256,192,68067,1,8,0:0:0:0:
256,192,68232,1,0,0:0:0:0:
256,192,68397,1,0,0:0:0:0:
256,192,68562,1,8,0:0:0:0:
256,192,68727,1,0,0:0:0:0:
256,192,68892,1,12,0:0:0:0:
256,192,69056,1,4,0:0:0:0:
256,192,69221,1,4,0:0:0:0:
256,192,69386,1,12,0:0:0:0:
256,192,69716,1,0,0:0:0:0:
256,192,69798,1,0,0:0:0:0:
256,192,69881,1,8,0:0:0:0:
256,192,70210,1,4,0:0:0:0:
256,192,70375,1,0,0:0:0:0:
256,192,70540,1,8,0:0:0:0:
256,192,70705,1,0,0:0:0:0:
256,192,71034,1,0,0:0:0:0:
256,192,71199,1,8,0:0:0:0:
256,192,71364,1,0,0:0:0:0:
256,192,71694,1,0,0:0:0:0:
256,192,71859,1,8,0:0:0:0:
256,192,72188,1,0,0:0:0:0:
256,192,72353,1,0,0:0:0:0:
256,192,72518,1,8,0:0:0:0:
256,192,72683,1,8,0:0:0:0:
256,192,72848,1,0,0:0:0:0:
256,192,73012,1,0,0:0:0:0:
256,192,73177,1,8,0:0:0:0:
256,192,73342,1,0,0:0:0:0:
256,192,73672,1,0,0:0:0:0:
256,192,73837,1,8,0:0:0:0:
256,192,74001,1,0,0:0:0:0:
256,192,74331,1,0,0:0:0:0:
256,192,74496,1,8,0:0:0:0:
256,192,74661,1,8,0:0:0:0:
256,192,74826,1,0,0:0:0:0:
256,192,74990,1,0,0:0:0:0:
256,192,75155,1,8,0:0:0:0:
256,192,75320,1,8,0:0:0:0:
256,192,75485,1,0,0:0:0:0:
256,192,75650,1,0,0:0:0:0:
256,192,75815,1,8,0:0:0:0:
256,192,75979,1,0,0:0:0:0:
256,192,76309,1,0,0:0:0:0:
256,192,76474,1,8,0:0:0:0:
256,192,76639,1,0,0:0:0:0:
256,192,76968,1,0,0:0:0:0:
256,192,77133,1,8,0:0:0:0:
256,192,77463,1,0,0:0:0:0:
256,192,77628,1,0,0:0:0:0:
256,192,77793,1,8,0:0:0:0:
256,192,77957,1,8,0:0:0:0:
256,192,78122,1,0,0:0:0:0:
256,192,78287,1,0,0:0:0:0:
256,192,78452,1,8,0:0:0:0:
256,192,78617,1,0,0:0:0:0:
256,192,78946,1,0,0:0:0:0:
256,192,79111,1,8,0:0:0:0:
256,192,79276,1,0,0:0:0:0:
256,192,79441,1,0,0:0:0:0:
256,192,79606,1,0,0:0:0:0:
256,192,79688,1,0,0:0:0:0:
256,192,79771,1,8,0:0:0:0:
256,192,79936,1,8,0:0:0:0:
256,192,80100,1,0,0:0:0:0:
256,192,80265,1,8,0:0:0:0:
256,192,80348,1,8,0:0:0:0:
256,192,80430,1,8,0:0:0:0:
256,192,80595,1,8,0:0:0:0:
256,192,80760,1,4,0:0:0:0:
256,192,81089,1,8,0:0:0:0:
256,192,81254,1,0,0:0:0:0:
256,192,81336,1,0,0:0:0:0:
256,192,81419,1,8,0:0:0:0:
256,192,81584,1,0,0:0:0:0:
256,192,81749,1,8,0:0:0:0:
256,192,81831,1,0,0:0:0:0:
256,192,81913,1,8,0:0:0:0:
256,192,81996,1,8,0:0:0:0:
256,192,82078,1,0,0:0:0:0:
256,192,82243,1,0,0:0:0:0:
256,192,82408,1,8,0:0:0:0:
256,192,82573,1,0,0:0:0:0:
256,192,82655,1,0,0:0:0:0:
256,192,82738,1,8,0:0:0:0:
256,192,82902,1,0,0:0:0:0:
256,192,83067,1,8,0:0:0:0:
256,192,83150,1,0,0:0:0:0:
256,192,83232,1,0,0:0:0:0:
256,192,83314,1,8,0:0:0:0:
256,192,83397,1,0,0:0:0:0:
256,192,83562,1,0,0:0:0:0:
256,192,83727,1,8,0:0:0:0:
256,192,83891,1,8,0:0:0:0:
256,192,83974,1,8,0:0:0:0:
256,192,84056,1,0,0:0:0:0:
256,192,84221,1,0,0:0:0:0:
256,192,84386,1,8,0:0:0:0:
256,192,84716,1,4,0:0:0:0:
256,192,84880,1,0,0:0:0:0:
256,192,85045,1,8,0:0:0:0:
256,192,85210,1,0,0:0:0:0:
256,192,85292,1,0,0:0:0:0:
256,192,85375,1,0,0:0:0:0:
256,192,85540,1,0,0:0:0:0:
256,192,85705,1,8,0:0:0:0:
256,192,85869,1,0,0:0:0:0:
256,192,86034,1,0,0:0:0:0:
256,192,86117,1,0,0:0:0:0:
256,192,86199,1,0,0:0:0:0:
256,192,86364,1,8,0:0:0:0:
256,192,86529,1,0,0:0:0:0:
256,192,86694,1,8,0:0:0:0:
256,192,86858,1,0,0:0:0:0:
256,192,86941,1,0,0:0:0:0:
256,192,87023,1,8,0:0:0:0:
256,192,87188,1,0,0:0:0:0:
256,192,87353,1,8,0:0:0:0:
256,192,87518,1,0,0:0:0:0:
256,192,87683,1,0,0:0:0:0:
256,192,87847,1,8,0:0:0:0:
256,192,88012,1,0,0:0:0:0:
256,192,88177,1,0,0:0:0:0:
256,192,88342,1,8,0:0:0:0:
256,192,88507,1,0,0:0:0:0:
256,192,88672,1,12,0:0:0:0:
256,192,88836,1,4,0:0:0:0:
256,192,89001,1,12,0:0:0:0:
256,192,89166,1,12,0:0:0:0:
256,192,89496,1,0,0:0:0:0:
256,192,89578,1,0,0:0:0:0:
256,192,89661,1,8,0:0:0:0:
256,192,89990,1,4,0:0:0:0:
256,192,90320,1,8,0:0:0:0:
256,192,90485,1,8,0:0:0:0:
256,192,90567,1,8,0:0:0:0:
256,192,90650,1,0,0:0:0:0:
256,192,90814,1,0,0:0:0:0:
256,192,90979,1,8,0:0:0:0:
256,192,91062,1,8,0:0:0:0:
256,192,91144,1,0,0:0:0:0:
256,192,91226,1,0,0:0:0:0:
256,192,91309,1,8,0:0:0:0:
256,192,91474,1,0,0:0:0:0:
256,192,91639,1,8,0:0:0:0:
256,192,91803,1,0,0:0:0:0:
256,192,91886,1,0,0:0:0:0:
256,192,91968,1,8,0:0:0:0:
256,192,92133,1,0,0:0:0:0:
256,192,92298,1,8,0:0:0:0:
256,192,92463,1,8,0:0:0:0:
256,192,92628,1,4,0:0:0:0:
256,192,92792,1,0,0:0:0:0:
256,192,92957,1,8,0:0:0:0:
256,192,93122,1,0,0:0:0:0:
256,192,93205,1,0,0:0:0:0:
256,192,93287,1,8,0:0:0:0:
256,192,93452,1,0,0:0:0:0:
256,192,93617,1,8,0:0:0:0:
256,192,93699,1,8,0:0:0:0:
256,192,93781,1,0,0:0:0:0:
256,192,93946,1,8,0:0:0:0:
256,192,94111,1,0,0:0:0:0:
256,192,94276,1,8,0:0:0:0:
256,192,94358,1,0,0:0:0:0:
256,192,94441,1,8,0:0:0:0:
256,192,94523,1,8,0:0:0:0:
256,192,94606,1,0,0:0:0:0:
256,192,94770,1,0,0:0:0:0:
256,192,94935,1,8,0:0:0:0:
256,192,95265,1,12,0:0:0:0:
256,192,95430,1,0,0:0:0:0:
256,192,95595,1,0,0:0:0:0:
256,192,95759,1,12,0:0:0:0:
256,192,95924,1,0,0:0:0:0:
256,192,96089,1,0,0:0:0:0:
256,192,96254,1,12,0:0:0:0:
256,192,96419,1,0,0:0:0:0:
256,192,96584,1,8,0:0:0:0:
256,192,96666,1,8,0:0:0:0:
256,192,96748,1,8,0:0:0:0:
256,192,96831,1,8,0:0:0:0:
256,192,96913,1,0,0:0:0:0:
256,192,96996,1,0,0:0:0:0:
256,192,97078,1,0,0:0:0:0:
256,192,97161,1,0,0:0:0:0:
256,192,97243,1,8,0:0:0:0:
256,192,97408,1,0,0:0:0:0:
256,192,97573,1,12,0:0:0:0:
256,192,97902,1,4,0:0:0:0:
256,192,98067,1,0,0:0:0:0:
256,192,98150,1,0,0:0:0:0:
256,192,98232,1,8,0:0:0:0:
256,192,98314,1,0,0:0:0:0:
256,192,98397,1,0,0:0:0:0:
256,192,98479,1,0,0:0:0:0:
256,192,98562,1,8,0:0:0:0:
256,192,98644,1,0,0:0:0:0:
256,192,98726,1,0,0:0:0:0:
256,192,98809,1,8,0:0:0:0:
256,192,98891,1,0,0:0:0:0:
256,192,98974,1,0,0:0:0:0:
256,192,99056,1,8,0:0:0:0:
256,192,99139,1,0,0:0:0:0:
256,192,99221,1,8,0:0:0:0:
256,192,99303,1,0,0:0:0:0:
256,192,99386,1,0,0:0:0:0:
256,192,99468,1,0,0:0:0:0:
256,192,99551,1,8,0:0:0:0:
256,192,99633,1,8,0:0:0:0:
256,192,99716,1,0,0:0:0:0:
256,192,99798,1,0,0:0:0:0:
256,192,99880,1,8,0:0:0:0:
256,192,99963,1,0,0:0:0:0:
256,192,100045,1,0,0:0:0:0:
256,192,100128,1,0,0:0:0:0:
256,192,100210,1,8,0:0:0:0:
256,192,100292,1,8,0:0:0:0:
256,192,100375,1,0,0:0:0:0:
256,192,100457,1,0,0:0:0:0:
256,192,100540,1,8,0:0:0:0:
256,192,100622,1,0,0:0:0:0:
256,192,100705,1,8,0:0:0:0:
256,192,100787,1,8,0:0:0:0:
256,192,100869,1,0,0:0:0:0:
256,192,100952,1,0,0:0:0:0:
256,192,101034,1,8,0:0:0:0:
256,192,101117,1,0,0:0:0:0:
256,192,101199,1,8,0:0:0:0:
256,192,101281,1,0,0:0:0:0:
256,192,101364,1,0,0:0:0:0:
256,192,101446,1,8,0:0:0:0:
256,192,101529,1,0,0:0:0:0:
256,192,101611,1,0,0:0:0:0:
256,192,101694,1,8,0:0:0:0:
256,192,101776,1,0,0:0:0:0:
256,192,101858,1,8,0:0:0:0:
256,192,101941,1,0,0:0:0:0:
256,192,102023,1,0,0:0:0:0:
256,192,102106,1,0,0:0:0:0:
256,192,102188,1,8,0:0:0:0:
256,192,102270,1,8,0:0:0:0:
256,192,102353,1,0,0:0:0:0:
256,192,102435,1,0,0:0:0:0:
256,192,102518,1,8,0:0:0:0:
256,192,102600,1,0,0:0:0:0:
256,192,102683,1,0,0:0:0:0:
256,192,102765,1,0,0:0:0:0:
256,192,102847,1,8,0:0:0:0:
256,192,102930,1,8,0:0:0:0:
256,192,103012,1,0,0:0:0:0:
256,192,103095,1,0,0:0:0:0:
256,192,103177,1,8,0:0:0:0:
256,192,103342,1,8,0:0:0:0:
256,192,103507,1,0,0:0:0:0:
256,192,103589,1,0,0:0:0:0:
256,192,103672,1,8,0:0:0:0:
256,192,103836,1,8,0:0:0:0:
256,192,104001,1,0,0:0:0:0:
256,192,104084,1,8,0:0:0:0:
256,192,104166,1,0,0:0:0:0:
256,192,104248,1,0,0:0:0:0:
256,192,104331,1,8,0:0:0:0:
256,192,104496,1,8,0:0:0:0:
256,192,104661,1,0,0:0:0:0:
256,192,104743,1,0,0:0:0:0:
256,192,104825,1,8,0:0:0:0:
256,192,104990,1,0,0:0:0:0:
256,192,105155,1,8,0:0:0:0:
256,192,105237,1,8,0:0:0:0:
256,192,105320,1,0,0:0:0:0:
256,192,105402,1,0,0:0:0:0:
256,192,105485,1,8,0:0:0:0:
256,192,105650,1,8,0:0:0:0:
256,192,105814,1,0,0:0:0:0:
256,192,105897,1,0,0:0:0:0:
256,192,105979,1,0,0:0:0:0:
256,192,106062,1,0,0:0:0:0:
256,192,106144,1,8,0:0:0:0:
256,192,106309,1,0,0:0:0:0:
256,192,106391,1,0,0:0:0:0:
256,192,106474,1,8,0:0:0:0:
256,192,106639,1,0,0:0:0:0:
256,192,106803,1,8,0:0:0:0:
256,192,106968,1,8,0:0:0:0:
256,192,107051,1,8,0:0:0:0:
256,192,107133,1,0,0:0:0:0:
256,192,107298,1,8,0:0:0:0:
256,192,107463,1,0,0:0:0:0:
256,192,107545,1,0,0:0:0:0:
256,192,107628,1,8,0:0:0:0:
256,192,107792,1,8,0:0:0:0:
256,192,107875,1,8,0:0:0:0:
256,192,107957,1,8,0:0:0:0:
256,192,108040,1,0,0:0:0:0:
256,192,108122,1,0,0:0:0:0:
256,192,108287,1,8,0:0:0:0:
256,192,108452,1,4,0:0:0:0:
256,192,108617,1,0,0:0:0:0:
256,192,108699,1,0,0:0:0:0:
256,192,108781,1,8,0:0:0:0:
256,192,108864,1,0,0:0:0:0:
256,192,108946,1,0,0:0:0:0:
256,192,109029,1,0,0:0:0:0:
256,192,109111,1,8,0:0:0:0:
256,192,109194,1,8,0:0:0:0:
256,192,109276,1,0,0:0:0:0:
256,192,109358,1,8,0:0:0:0:
256,192,109441,1,8,0:0:0:0:
256,192,109523,1,0,0:0:0:0:
256,192,109606,1,8,0:0:0:0:
256,192,109688,1,0,0:0:0:0:
256,192,109770,1,8,0:0:0:0:
256,192,109853,1,0,0:0:0:0:
256,192,109935,1,0,0:0:0:0:
256,192,110018,1,0,0:0:0:0:
256,192,110100,1,8,0:0:0:0:
256,192,110183,1,8,0:0:0:0:
256,192,110265,1,0,0:0:0:0:
256,192,110347,1,0,0:0:0:0:
256,192,110430,1,8,0:0:0:0:
256,192,110512,1,0,0:0:0:0:
256,192,110595,1,0,0:0:0:0:
256,192,110677,1,0,0:0:0:0:
256,192,110759,1,8,0:0:0:0:
256,192,110842,1,8,0:0:0:0:
256,192,110924,1,0,0:0:0:0:
256,192,111007,1,0,0:0:0:0:
256,192,111089,1,8,0:0:0:0:
256,192,111172,1,0,0:0:0:0:
256,192,111254,1,8,0:0:0:0:
256,192,111336,1,8,0:0:0:0:
256,192,111419,1,0,0:0:0:0:
256,192,111501,1,0,0:0:0:0:
256,192,111584,1,8,0:0:0:0:
256,192,111666,1,0,0:0:0:0:
256,192,111748,1,8,0:0:0:0:
256,192,111831,1,8,0:0:0:0:
256,192,111913,1,0,0:0:0:0:
256,192,111996,1,8,0:0:0:0:
256,192,112078,1,8,0:0:0:0:
256,192,112161,1,0,0:0:0:0:
256,192,112243,1,8,0:0:0:0:
256,192,112325,1,0,0:0:0:0:
256,192,112408,1,8,0:0:0:0:
256,192,112490,1,0,0:0:0:0:
256,192,112573,1,0,0:0:0:0:
256,192,112655,1,0,0:0:0:0:
256,192,112737,1,8,0:0:0:0:
256,192,112820,1,8,0:0:0:0:
256,192,112902,1,0,0:0:0:0:
256,192,112985,1,0,0:0:0:0:
256,192,113067,1,8,0:0:0:0:
256,192,113150,1,0,0:0:0:0:
256,192,113232,1,0,0:0:0:0:
256,192,113314,1,0,0:0:0:0:
256,192,113397,1,8,0:0:0:0:
256,192,113479,1,8,0:0:0:0:
256,192,113562,1,0,0:0:0:0:
256,192,113644,1,0,0:0:0:0:
256,192,113726,1,8,0:0:0:0:
256,192,113891,1,8,0:0:0:0:
256,192,114056,1,0,0:0:0:0:
256,192,114139,1,0,0:0:0:0:
256,192,114221,1,8,0:0:0:0:
256,192,114386,1,8,0:0:0:0:
256,192,114551,1,0,0:0:0:0:
256,192,114633,1,8,0:0:0:0:
256,192,114716,1,0,0:0:0:0:
256,192,114798,1,0,0:0:0:0:
256,192,114880,1,8,0:0:0:0:
256,192,115045,1,8,0:0:0:0:
256,192,115210,1,0,0:0:0:0:
256,192,115292,1,0,0:0:0:0:
256,192,115375,1,8,0:0:0:0:
256,192,115540,1,0,0:0:0:0:
256,192,115705,1,8,0:0:0:0:
256,192,115787,1,8,0:0:0:0:
256,192,115869,1,0,0:0:0:0:
256,192,115952,1,0,0:0:0:0:
256,192,116034,1,8,0:0:0:0:
256,192,116199,1,8,0:0:0:0:
256,192,116364,1,0,0:0:0:0:
256,192,116446,1,0,0:0:0:0:
256,192,116529,1,0,0:0:0:0:
256,192,116611,1,0,0:0:0:0:
256,192,116694,1,8,0:0:0:0:
256,192,116858,1,0,0:0:0:0:
256,192,117023,1,8,0:0:0:0:
256,192,117188,1,0,0:0:0:0:
256,192,117270,1,0,0:0:0:0:
256,192,117353,1,8,0:0:0:0:
256,192,117518,1,8,0:0:0:0:
256,192,117600,1,8,0:0:0:0:
256,192,117683,1,0,0:0:0:0:
256,192,117765,1,0,0:0:0:0:
256,192,117847,1,8,0:0:0:0:
256,192,118012,1,0,0:0:0:0:
256,192,118177,1,8,0:0:0:0:
256,192,118342,1,8,0:0:0:0:
256,192,118424,1,8,0:0:0:0:
256,192,118507,1,8,0:0:0:0:
256,192,118589,1,0,0:0:0:0:
256,192,118672,1,0,0:0:0:0:
256,192,118836,1,8,0:0:0:0:
256,192,119001,1,4,0:0:0:0:
256,192,119166,1,0,0:0:0:0:
256,192,119248,1,0,0:0:0:0:
256,192,119331,1,8,0:0:0:0:
256,192,119413,1,0,0:0:0:0:
256,192,119496,1,0,0:0:0:0:
256,192,119578,1,0,0:0:0:0:
256,192,119661,1,8,0:0:0:0:
256,192,119743,1,0,0:0:0:0:
256,192,119825,1,0,0:0:0:0:
256,192,119908,1,0,0:0:0:0:
256,192,119990,1,8,0:0:0:0:
256,192,120073,1,0,0:0:0:0:
256,192,120155,1,8,0:0:0:0:
256,192,120237,1,8,0:0:0:0:
256,192,120320,1,8,0:0:0:0:
256,192,120402,1,0,0:0:0:0:
256,192,120485,1,0,0:0:0:0:
256,192,120567,1,0,0:0:0:0:
256,192,120650,1,8,0:0:0:0:
256,192,120732,1,0,0:0:0:0:
256,192,120814,1,0,0:0:0:0:
256,192,120897,1,0,0:0:0:0:
256,192,120979,1,8,0:0:0:0:
256,192,121062,1,0,0:0:0:0:
256,192,121144,1,8,0:0:0:0:
256,192,121226,1,8,0:0:0:0:
256,192,121309,1,0,0:0:0:0:
256,192,121391,1,0,0:0:0:0:
256,192,121474,1,8,0:0:0:0:
256,192,121639,1,4,0:0:0:0:
256,192,122957,1,0,0:0:0:0:
256,192,123617,1,8,0:0:0:0:
256,192,125595,1,8,0:0:0:0:
256,192,126913,1,0,0:0:0:0:
256,192,127573,1,8,0:0:0:0:
256,192,129551,1,0,0:0:0:0:
256,192,130869,1,8,0:0:0:0:
256,192,131529,1,0,0:0:0:0:
256,192,132847,1,8,0:0:0:0:
256,192,133177,1,0,0:0:0:0:
256,192,133507,1,8,0:0:0:0:
256,192,134825,1,0,0:0:0:0:
256,192,135485,1,8,0:0:0:0:
256,192,137463,1,8,0:0:0:0:
256,192,137573,1,8,0:0:0:0:
256,192,137682,1,8,0:0:0:0:
256,192,137792,1,0,0:0:0:0:
256,192,138122,1,12,0:0:0:0:
256,192,138617,1,0,0:0:0:0:
256,192,138782,1,8,0:0:0:0:
256,192,139112,1,8,0:0:0:0:
256,192,139276,1,0,0:0:0:0:
256,192,139441,1,8,0:0:0:0:
256,192,139771,1,0,0:0:0:0:
256,192,140101,1,8,0:0:0:0:
256,192,140265,1,8,0:0:0:0:
256,192,140430,1,0,0:0:0:0:
256,192,140595,1,8,0:0:0:0:
256,192,140760,1,0,0:0:0:0:
256,192,141254,1,0,0:0:0:0:
256,192,141419,1,8,0:0:0:0:
256,192,141749,1,0,0:0:0:0:
256,192,141914,1,8,0:0:0:0:
256,192,142079,1,0,0:0:0:0:
256,192,142243,1,0,0:0:0:0:
256,192,142573,1,0,0:0:0:0:
256,192,142738,1,8,0:0:0:0:
256,192,142820,1,8,0:0:0:0:
256,192,142903,1,8,0:0:0:0:
256,192,142985,1,8,0:0:0:0:
256,192,143068,1,8,0:0:0:0:
256,192,143150,1,8,0:0:0:0:
256,192,143232,1,8,0:0:0:0:
256,192,143397,1,4,0:0:0:0:
256,192,143562,1,8,0:0:0:0:
256,192,143727,1,0,0:0:0:0:
256,192,143809,1,0,0:0:0:0:
256,192,143892,1,8,0:0:0:0:
256,192,144057,1,0,0:0:0:0:
256,192,144221,1,8,0:0:0:0:
256,192,144304,1,0,0:0:0:0:
256,192,144469,1,0,0:0:0:0:
256,192,144551,1,8,0:0:0:0:
256,192,144633,1,8,0:0:0:0:
256,192,144716,1,0,0:0:0:0:
256,192,144881,1,8,0:0:0:0:
256,192,145046,1,0,0:0:0:0:
256,192,145128,1,0,0:0:0:0:
256,192,145210,1,8,0:0:0:0:
256,192,145375,1,0,0:0:0:0:
256,192,145458,1,0,0:0:0:0:
256,192,145540,1,8,0:0:0:0:
256,192,145623,1,0,0:0:0:0:
256,192,145787,1,0,0:0:0:0:
256,192,145870,1,8,0:0:0:0:
256,192,146035,1,0,0:0:0:0:
256,192,146199,1,8,0:0:0:0:
256,192,146282,1,8,0:0:0:0:
256,192,146364,1,0,0:0:0:0:
256,192,146529,1,8,0:0:0:0:
256,192,146694,1,0,0:0:0:0:
256,192,146776,1,0,0:0:0:0:
256,192,146859,1,8,0:0:0:0:
256,192,146941,1,8,0:0:0:0:
256,192,147024,1,0,0:0:0:0:
256,192,147188,1,8,0:0:0:0:
256,192,147353,1,0,0:0:0:0:
256,192,147436,1,0,0:0:0:0:
256,192,147518,1,8,0:0:0:0:
256,192,147683,1,0,0:0:0:0:
256,192,147848,1,8,0:0:0:0:
256,192,148013,1,0,0:0:0:0:
256,192,148095,1,0,0:0:0:0:
256,192,148177,1,8,0:0:0:0:
256,192,148260,1,0,0:0:0:0:
256,192,148425,1,0,0:0:0:0:
256,192,148507,1,8,0:0:0:0:
256,192,148590,1,8,0:0:0:0:
256,192,148672,1,0,0:0:0:0:
256,192,148837,1,8,0:0:0:0:
256,192,149002,1,0,0:0:0:0:
256,192,149084,1,0,0:0:0:0:
256,192,149166,1,8,0:0:0:0:
256,192,149331,1,0,0:0:0:0:
256,192,149496,1,8,0:0:0:0:
256,192,149579,1,0,0:0:0:0:
256,192,149743,1,0,0:0:0:0:
256,192,149826,1,8,0:0:0:0:
256,192,149991,1,0,0:0:0:0:
256,192,150155,1,8,0:0:0:0:
256,192,150238,1,8,0:0:0:0:
256,192,150320,1,0,0:0:0:0:
256,192,150485,1,8,0:0:0:0:
256,192,150650,1,0,0:0:0:0:
256,192,150815,1,8,0:0:0:0:
256,192,150897,1,0,0:0:0:0:
256,192,151062,1,0,0:0:0:0:
256,192,151144,1,8,0:0:0:0:
256,192,151309,1,0,0:0:0:0:
256,192,151474,1,8,0:0:0:0:
256,192,151639,1,0,0:0:0:0:
256,192,151721,1,0,0:0:0:0:
256,192,151804,1,8,0:0:0:0:
256,192,151969,1,0,0:0:0:0:
256,192,152133,1,8,0:0:0:0:
256,192,152216,1,8,0:0:0:0:
256,192,152298,1,0,0:0:0:0:
256,192,152381,1,0,0:0:0:0:
256,192,152463,1,8,0:0:0:0:
256,192,152628,1,0,0:0:0:0:
256,192,152793,1,8,0:0:0:0:
256,192,152958,1,0,0:0:0:0:
256,192,153040,1,0,0:0:0:0:
256,192,153123,1,8,0:0:0:0:
256,192,153287,1,0,0:0:0:0:
256,192,153370,1,0,0:0:0:0:
256,192,153452,1,8,0:0:0:0:
256,192,153535,1,8,0:0:0:0:
256,192,153617,1,0,0:0:0:0:
256,192,153782,1,8,0:0:0:0:
256,192,153947,1,0,0:0:0:0:
256,192,154057,1,0,0:0:0:0:
256,192,154166,1,0,0:0:0:0:
256,192,154276,1,8,0:0:0:0:
256,192,154386,1,0,0:0:0:0:
256,192,154496,1,0,0:0:0:0:
256,192,154606,1,8,0:0:0:0:
256,192,154716,1,0,0:0:0:0:
256,192,154826,1,0,0:0:0:0:
256,192,154936,1,8,0:0:0:0:
256,192,155046,1,8,0:0:0:0:
256,192,155155,1,8,0:0:0:0:
256,192,155265,1,0,0:0:0:0:
256,192,155595,1,8,0:0:0:0:
256,192,155677,1,8,0:0:0:0:
256,192,155760,1,0,0:0:0:0:
256,192,155842,1,0,0:0:0:0:
256,192,155925,1,8,0:0:0:0:
256,192,156090,1,0,0:0:0:0:
256,192,156254,1,8,0:0:0:0:
256,192,156337,1,8,0:0:0:0:
256,192,156419,1,8,0:0:0:0:
256,192,156584,1,4,0:0:0:0:
256,192,157243,1,0,0:0:0:0:
256,192,157903,1,8,0:0:0:0:
256,192,158562,1,0,0:0:0:0:
256,192,158892,1,8,0:0:0:0:
256,192,158974,1,0,0:0:0:0:
256,192,159139,1,0,0:0:0:0:
256,192,159221,1,8,0:0:0:0:
256,192,159881,1,0,0:0:0:0:
256,192,160540,1,8,0:0:0:0:
256,192,160870,1,0,0:0:0:0:
256,192,161199,1,8,0:0:0:0:
256,192,161529,1,8,0:0:0:0:
256,192,161639,1,8,0:0:0:0:
256,192,161749,1,8,0:0:0:0:
256,192,161859,1,4,0:0:0:0:
256,192,162188,1,8,0:0:0:0:
256,192,162298,1,0,0:0:0:0:
256,192,162408,1,0,0:0:0:0:
256,192,162518,1,8,0:0:0:0:
256,192,162848,1,8,0:0:0:0:
256,192,162958,1,8,0:0:0:0:
256,192,163068,1,8,0:0:0:0:
256,192,163177,1,0,0:0:0:0:
256,192,163507,1,8,0:0:0:0:
256,192,163617,1,0,0:0:0:0:
256,192,163727,1,0,0:0:0:0:
256,192,163837,1,8,0:0:0:0:
256,192,163947,1,0,0:0:0:0:
256,192,164057,1,0,0:0:0:0:
256,192,164166,1,8,0:0:0:0:
256,192,164276,1,8,0:0:0:0:
256,192,164386,1,8,0:0:0:0:
256,192,164496,1,0,0:0:0:0:
256,192,164826,1,8,0:0:0:0:
256,192,164936,1,0,0:0:0:0:
256,192,165040,1,0,0:0:0:0:
256,192,165155,1,8,0:0:0:0:
256,192,165485,1,8,0:0:0:0:
256,192,165595,1,8,0:0:0:0:
256,192,165705,1,8,0:0:0:0:
256,192,165815,1,0,0:0:0:0:
256,192,166144,1,8,0:0:0:0:
256,192,166254,1,0,0:0:0:0:
256,192,166364,1,0,0:0:0:0:
256,192,166447,1,8,0:0:0:0:
256,192,166584,1,8,0:0:0:0:
256,192,166694,1,8,0:0:0:0:
256,192,166804,1,0,0:0:0:0:
256,192,167133,1,4,0:0:0:0:
256,192,167297,1,0,0:0:0:0:
256,192,167380,1,0,0:0:0:0:
256,192,167462,1,0,0:0:0:0:
256,192,167627,1,8,0:0:0:0:
256,192,167792,1,0,0:0:0:0:
256,192,167874,1,0,0:0:0:0:
256,192,167957,1,0,0:0:0:0:
256,192,168122,1,8,0:0:0:0:
256,192,168286,1,0,0:0:0:0:
256,192,168369,1,0,0:0:0:0:
256,192,168451,1,8,0:0:0:0:
256,192,168616,1,8,0:0:0:0:
256,192,168781,1,0,0:0:0:0:
256,192,168863,1,0,0:0:0:0:
256,192,168946,1,8,0:0:0:0:
256,192,169111,1,8,0:0:0:0:
256,192,169275,1,0,0:0:0:0:
256,192,169440,1,8,0:0:0:0:
256,192,169605,1,8,0:0:0:0:
256,192,169687,1,8,0:0:0:0:
256,192,169770,1,0,0:0:0:0:
256,192,169935,1,0,0:0:0:0:
256,192,170100,1,8,0:0:0:0:
256,192,170182,1,8,0:0:0:0:
256,192,170264,1,0,0:0:0:0:
256,192,170347,1,0,0:0:0:0:
256,192,170429,1,8,0:0:0:0:
256,192,170759,1,4,0:0:0:0:
256,192,170923,1,0,0:0:0:0:
256,192,171006,1,0,0:0:0:0:
256,192,171088,1,0,0:0:0:0:
256,192,171253,1,8,0:0:0:0:
256,192,171418,1,0,0:0:0:0:
256,192,171500,1,0,0:0:0:0:
256,192,171583,1,0,0:0:0:0:
256,192,171748,1,8,0:0:0:0:
256,192,171912,1,0,0:0:0:0:
256,192,171995,1,0,0:0:0:0:
256,192,172077,1,8,0:0:0:0:
256,192,172242,1,8,0:0:0:0:
256,192,172407,1,0,0:0:0:0:
256,192,172489,1,0,0:0:0:0:
256,192,172572,1,8,0:0:0:0:
256,192,172737,1,8,0:0:0:0:
256,192,172901,1,0,0:0:0:0:
256,192,173066,1,8,0:0:0:0:
256,192,173149,1,0,0:0:0:0:
256,192,173231,1,0,0:0:0:0:
256,192,173313,1,0,0:0:0:0:
256,192,173396,1,8,0:0:0:0:
256,192,173561,1,0,0:0:0:0:
256,192,173726,1,8,0:0:0:0:
256,192,173890,1,0,0:0:0:0:
256,192,173973,1,0,0:0:0:0:
256,192,174055,1,8,0:0:0:0:
256,192,174165,1,0,0:0:0:0:
256,192,174275,1,8,0:0:0:0:
256,192,174385,1,8,0:0:0:0:
256,192,174495,1,0,0:0:0:0:
256,192,174605,1,0,0:0:0:0:
256,192,174715,1,8,0:0:0:0:
256,192,175374,1,4,0:0:0:0:
256,192,175703,1,8,0:0:0:0:
256,192,175868,1,8,0:0:0:0:
256,192,175950,1,8,0:0:0:0:
256,192,176033,1,0,0:0:0:0:
256,192,176198,1,0,0:0:0:0:
256,192,176363,1,8,0:0:0:0:
256,192,176445,1,8,0:0:0:0:
256,192,176527,1,0,0:0:0:0:
256,192,176610,1,0,0:0:0:0:
256,192,176692,1,8,0:0:0:0:
256,192,176857,1,0,0:0:0:0:
256,192,177022,1,8,0:0:0:0:
256,192,177187,1,0,0:0:0:0:
256,192,177269,1,0,0:0:0:0:
256,192,177352,1,8,0:0:0:0:
256,192,177434,1,8,0:0:0:0:
256,192,177516,1,0,0:0:0:0:
256,192,177599,1,0,0:0:0:0:
256,192,177681,1,8,0:0:0:0:
256,192,177846,1,8,0:0:0:0:
256,192,178011,1,4,0:0:0:0:
256,192,178176,1,0,0:0:0:0:
256,192,178341,1,8,0:0:0:0:
256,192,178505,1,0,0:0:0:0:
256,192,178588,1,0,0:0:0:0:
256,192,178670,1,8,0:0:0:0:
256,192,178835,1,0,0:0:0:0:
256,192,178917,1,0,0:0:0:0:
256,192,179000,1,8,0:0:0:0:
256,192,179082,1,8,0:0:0:0:
256,192,179165,1,0,0:0:0:0:
256,192,179330,1,8,0:0:0:0:
256,192,179494,1,0,0:0:0:0:
256,192,179659,1,8,0:0:0:0:
256,192,179742,1,0,0:0:0:0:
256,192,179824,1,8,0:0:0:0:
256,192,179906,1,8,0:0:0:0:
256,192,179989,1,0,0:0:0:0:
256,192,180071,1,0,0:0:0:0:
256,192,180154,1,0,0:0:0:0:
256,192,180319,1,8,0:0:0:0:
256,192,180648,1,12,0:0:0:0:
256,192,180813,1,0,0:0:0:0:
256,192,180978,1,0,0:0:0:0:
256,192,181143,1,12,0:0:0:0:
256,192,181308,1,0,0:0:0:0:
256,192,181472,1,0,0:0:0:0:
256,192,181637,1,12,0:0:0:0:
256,192,181802,1,0,0:0:0:0:
256,192,181967,1,8,0:0:0:0:
256,192,182049,1,8,0:0:0:0:
256,192,182132,1,8,0:0:0:0:
256,192,182214,1,8,0:0:0:0:
256,192,182297,1,0,0:0:0:0:
256,192,182379,1,0,0:0:0:0:
256,192,182461,1,0,0:0:0:0:
256,192,182544,1,0,0:0:0:0:
256,192,182626,1,8,0:0:0:0:
256,192,182791,1,0,0:0:0:0:
256,192,182956,1,8,0:0:0:0:
256,192,183011,1,8,0:0:0:0:
256,192,183066,1,8,0:0:0:0:
256,192,183121,1,0,0:0:0:0:
256,192,183286,1,4,0:0:0:0:
256,192,184604,1,0,0:0:0:0:
256,192,185264,1,8,0:0:0:0:
256,192,185923,1,0,0:0:0:0:
256,192,187242,1,8,0:0:0:0:
256,192,187901,1,8,0:0:0:0:
256,192,188560,1,0,0:0:0:0:
256,192,189879,1,8,0:0:0:0:
256,192,191198,1,0,0:0:0:0:
256,192,191857,1,0,0:0:0:0:
256,192,192516,1,8,0:0:0:0:
256,192,193176,1,8,0:0:0:0:
256,192,193258,1,8,0:0:0:0:
256,192,193341,1,8,0:0:0:0:
256,192,193423,1,8,0:0:0:0:
256,192,193505,1,0,0:0:0:0:
256,192,193588,1,0,0:0:0:0:
256,192,193670,1,0,0:0:0:0:
256,192,193753,1,0,0:0:0:0:
256,192,193835,1,8,0:0:0:0:
256,192,194494,1,8,0:0:0:0:
256,192,194742,1,0,0:0:0:0:
256,192,194989,1,8,0:0:0:0:
256,192,195154,1,8,0:0:0:0:
256,192,195483,1,0,0:0:0:0:
256,192,195813,1,8,0:0:0:0:
256,192,196143,1,8,0:0:0:0:
256,192,196472,1,0,0:0:0:0:
256,192,196802,1,8,0:0:0:0:
256,192,196912,1,8,0:0:0:0:
256,192,197022,1,8,0:0:0:0:
256,192,197132,1,0,0:0:0:0:
256,192,197379,1,0,0:0:0:0:
256,192,197626,1,8,0:0:0:0:
256,192,197791,1,0,0:0:0:0:
256,192,198121,1,8,0:0:0:0:
256,192,198450,1,0,0:0:0:0:
256,192,198780,1,12,0:0:0:0:
256,192,199110,1,4,0:0:0:0:
256,192,199275,1,8,0:0:0:0:
256,192,199439,1,0,0:0:0:0:
256,192,199522,1,0,0:0:0:0:
256,192,199604,1,8,0:0:0:0:
256,192,199769,1,8,0:0:0:0:
256,192,199934,1,0,0:0:0:0:
256,192,200016,1,8,0:0:0:0:
256,192,200099,1,0,0:0:0:0:
256,192,200181,1,0,0:0:0:0:
256,192,200264,1,8,0:0:0:0:
256,192,200428,1,8,0:0:0:0:
256,192,200593,1,0,0:0:0:0:
256,192,200676,1,0,0:0:0:0:
256,192,200758,1,8,0:0:0:0:
256,192,200923,1,0,0:0:0:0:
256,192,201088,1,8,0:0:0:0:
256,192,201170,1,8,0:0:0:0:
256,192,201253,1,0,0:0:0:0:
256,192,201335,1,0,0:0:0:0:
256,192,201417,1,8,0:0:0:0:
256,192,201582,1,8,0:0:0:0:
256,192,201747,1,0,0:0:0:0:
256,192,201830,1,0,0:0:0:0:
256,192,201912,1,0,0:0:0:0:
256,192,201994,1,0,0:0:0:0:
256,192,202077,1,8,0:0:0:0:
256,192,202242,1,0,0:0:0:0:
256,192,202406,1,8,0:0:0:0:
256,192,202571,1,0,0:0:0:0:
256,192,202654,1,0,0:0:0:0:
256,192,202736,1,8,0:0:0:0:
256,192,202819,1,0,0:0:0:0:
256,192,202901,1,8,0:0:0:0:
256,192,202983,1,8,0:0:0:0:
256,192,203066,1,0,0:0:0:0:
256,192,203231,1,8,0:0:0:0:
256,192,203395,1,0,0:0:0:0:
256,192,203478,1,0,0:0:0:0:
256,192,203560,1,8,0:0:0:0:
256,192,203725,1,8,0:0:0:0:
256,192,203808,1,8,0:0:0:0:
256,192,203890,1,8,0:0:0:0:
256,192,203972,1,0,0:0:0:0:
256,192,204055,1,0,0:0:0:0:
256,192,204220,1,8,0:0:0:0:
256,192,204384,1,4,0:0:0:0:
256,192,204549,1,0,0:0:0:0:
256,192,204632,1,0,0:0:0:0:
256,192,204714,1,8,0:0:0:0:
256,192,204797,1,0,0:0:0:0:
256,192,204879,1,0,0:0:0:0:
256,192,204961,1,0,0:0:0:0:
256,192,205044,1,8,0:0:0:0:
256,192,205126,1,0,0:0:0:0:
256,192,205209,1,0,0:0:0:0:
256,192,205291,1,0,0:0:0:0:
256,192,205374,1,8,0:0:0:0:
256,192,205456,1,0,0:0:0:0:
256,192,205538,1,8,0:0:0:0:
256,192,205621,1,8,0:0:0:0:
256,192,205703,1,8,0:0:0:0:
256,192,205786,1,0,0:0:0:0:
256,192,205868,1,0,0:0:0:0:
256,192,205950,1,0,0:0:0:0:
256,192,206033,1,8,0:0:0:0:
256,192,206115,1,0,0:0:0:0:
256,192,206198,1,0,0:0:0:0:
256,192,206280,1,0,0:0:0:0:
256,192,206363,1,8,0:0:0:0:
256,192,206445,1,0,0:0:0:0:
256,192,206527,1,8,0:0:0:0:
256,192,206610,1,8,0:0:0:0:
256,192,206692,1,0,0:0:0:0:
256,192,206775,1,0,0:0:0:0:
256,192,206857,1,8,0:0:0:0:
256,192,207022,1,4,0:0:0:0:
256,192,207187,1,0,0:0:0:0:
256,192,207269,1,0,0:0:0:0:
256,192,207352,1,8,0:0:0:0:
256,192,207434,1,0,0:0:0:0:
256,192,207516,1,0,0:0:0:0:
256,192,207599,1,0,0:0:0:0:
256,192,207681,1,8,0:0:0:0:
256,192,207764,1,0,0:0:0:0:
256,192,207846,1,0,0:0:0:0:
256,192,207928,1,8,0:0:0:0:
256,192,208011,1,0,0:0:0:0:
256,192,208093,1,0,0:0:0:0:
256,192,208176,1,8,0:0:0:0:
256,192,208258,1,0,0:0:0:0:
256,192,208341,1,8,0:0:0:0:
256,192,208423,1,0,0:0:0:0:
256,192,208505,1,0,0:0:0:0:
256,192,208588,1,0,0:0:0:0:
256,192,208670,1,8,0:0:0:0:
256,192,208753,1,8,0:0:0:0:
256,192,208835,1,0,0:0:0:0:
256,192,208917,1,0,0:0:0:0:
256,192,209000,1,8,0:0:0:0:
256,192,209082,1,0,0:0:0:0:
256,192,209165,1,0,0:0:0:0:
256,192,209247,1,0,0:0:0:0:
256,192,209330,1,8,0:0:0:0:
256,192,209412,1,8,0:0:0:0:
256,192,209494,1,0,0:0:0:0:
256,192,209577,1,0,0:0:0:0:
256,192,209659,1,8,0:0:0:0:
256,192,209742,1,0,0:0:0:0:
256,192,209824,1,8,0:0:0:0:
256,192,209906,1,8,0:0:0:0:
256,192,209989,1,0,0:0:0:0:
256,192,210071,1,0,0:0:0:0:
256,192,210154,1,8,0:0:0:0:
256,192,210236,1,0,0:0:0:0:
256,192,210319,1,8,0:0:0:0:
256,192,210401,1,0,0:0:0:0:
256,192,210483,1,0,0:0:0:0:
256,192,210566,1,8,0:0:0:0:
256,192,210648,1,0,0:0:0:0:
256,192,210731,1,0,0:0:0:0:
256,192,210813,1,8,0:0:0:0:
256,192,210895,1,0,0:0:0:0:
256,192,210978,1,8,0:0:0:0:
256,192,211060,1,0,0:0:0:0:
256,192,211143,1,0,0:0:0:0:
256,192,211225,1,0,0:0:0:0:
256,192,211308,1,8,0:0:0:0:
256,192,211390,1,8,0:0:0:0:
256,192,211472,1,0,0:0:0:0:
256,192,211555,1,0,0:0:0:0:
256,192,211637,1,8,0:0:0:0:
256,192,211720,1,0,0:0:0:0:
256,192,211802,1,0,0:0:0:0:
256,192,211884,1,0,0:0:0:0:
256,192,211967,1,8,0:0:0:0:
256,192,212049,1,8,0:0:0:0:
256,192,212132,1,0,0:0:0:0:
256,192,212214,1,0,0:0:0:0:
256,192,212297,1,8,0:0:0:0:
256,192,212379,1,0,0:0:0:0:
256,192,212461,1,8,0:0:0:0:
256,192,212544,1,8,0:0:0:0:
256,192,212626,1,0,0:0:0:0:
256,192,212709,1,0,0:0:0:0:
256,192,212791,1,8,0:0:0:0:
256,192,212874,1,0,0:0:0:0:
256,192,212956,1,8,0:0:0:0:
256,192,213038,1,8,0:0:0:0:
256,192,213121,1,0,0:0:0:0:
256,192,213203,1,8,0:0:0:0:
256,192,213286,1,8,0:0:0:0:
256,192,213368,1,0,0:0:0:0:
256,192,213450,1,8,0:0:0:0:
256,192,213533,1,0,0:0:0:0:
256,192,213615,1,8,0:0:0:0:
256,192,213698,1,0,0:0:0:0:
256,192,213780,1,0,0:0:0:0:
256,192,213863,1,0,0:0:0:0:
256,192,213945,1,8,0:0:0:0:
256,192,214027,1,8,0:0:0:0:
256,192,214110,1,0,0:0:0:0:
256,192,214192,1,0,0:0:0:0:
256,192,214275,1,8,0:0:0:0:
256,192,214357,1,0,0:0:0:0:
256,192,214439,1,0,0:0:0:0:
256,192,214522,1,0,0:0:0:0:
256,192,214604,1,8,0:0:0:0:
256,192,214687,1,8,0:0:0:0:
256,192,214769,1,0,0:0:0:0:
256,192,214852,1,0,0:0:0:0:
256,192,214934,1,8,0:0:0:0:
256,192,215016,1,0,0:0:0:0:
256,192,215099,1,8,0:0:0:0:
256,192,215181,1,8,0:0:0:0:
256,192,215264,1,0,0:0:0:0:
256,192,215346,1,0,0:0:0:0:
256,192,215428,1,8,0:0:0:0:
256,192,215511,1,0,0:0:0:0:
256,192,215593,1,8,0:0:0:0:
256,192,215676,1,8,0:0:0:0:
256,192,215758,1,8,0:0:0:0:
256,192,215841,1,8,0:0:0:0:
256,192,215923,1,0,0:0:0:0:
256,192,216005,1,8,0:0:0:0:
256,192,216088,1,8,0:0:0:0:
256,192,216170,1,0,0:0:0:0:
256,192,216253,1,8,0:0:0:0:
256,192,216335,1,0,0:0:0:0:
256,192,216417,1,0,0:0:0:0:
256,192,216500,1,8,0:0:0:0:
256,192,216582,1,0,0:0:0:0:
256,192,216665,1,0,0:0:0:0:
256,192,216747,1,8,0:0:0:0:
256,192,216830,1,0,0:0:0:0:
256,192,216912,1,8,0:0:0:0:
256,192,216994,1,8,0:0:0:0:
256,192,217077,1,8,0:0:0:0:
256,192,217159,1,8,0:0:0:0:
256,192,217242,1,0,0:0:0:0:
256,192,217324,1,0,0:0:0:0:
256,192,217406,1,8,0:0:0:0:
256,192,217571,1,4,0:0:0:0:
256,192,217736,1,8,0:0:0:0:
256,192,217901,1,0,0:0:0:0:
256,192,217983,1,0,0:0:0:0:
256,192,218066,1,8,0:0:0:0:
256,192,218231,1,0,0:0:0:0:
256,192,218395,1,8,0:0:0:0:
256,192,218478,1,8,0:0:0:0:
256,192,218560,1,0,0:0:0:0:
256,192,218643,1,0,0:0:0:0:
256,192,218725,1,8,0:0:0:0:
256,192,218890,1,0,0:0:0:0:
256,192,219055,1,8,0:0:0:0:
256,192,219220,1,0,0:0:0:0:
256,192,219302,1,0,0:0:0:0:
256,192,219384,1,8,0:0:0:0:
256,192,219549,1,0,0:0:0:0:
256,192,219632,1,0,0:0:0:0:
256,192,219714,1,8,0:0:0:0:
256,192,219797,1,8,0:0:0:0:
256,192,219879,1,0,0:0:0:0:
256,192,220044,1,8,0:0:0:0:
256,192,220209,1,0,0:0:0:0:
256,192,220374,1,8,0:0:0:0:
256,192,220538,1,8,0:0:0:0:
256,192,220621,1,8,0:0:0:0:
256,192,220703,1,0,0:0:0:0:
256,192,220868,1,8,0:0:0:0:
256,192,221033,1,0,0:0:0:0:
256,192,221115,1,0,0:0:0:0:
256,192,221198,1,8,0:0:0:0:
256,192,221280,1,8,0:0:0:0:
256,192,221363,1,0,0:0:0:0:
256,192,221527,1,8,0:0:0:0:
256,192,221692,1,0,0:0:0:0:
256,192,221857,1,8,0:0:0:0:
256,192,221939,1,8,0:0:0:0:
256,192,222022,1,8,0:0:0:0:
256,192,222104,1,0,0:0:0:0:
256,192,222187,1,8,0:0:0:0:
256,192,222352,1,0,0:0:0:0:
256,192,222516,1,8,0:0:0:0:
256,192,222599,1,0,0:0:0:0:
256,192,222681,1,8,0:0:0:0:
256,192,222764,1,8,0:0:0:0:
256,192,222846,1,0,0:0:0:0:
256,192,223011,1,8,0:0:0:0:
256,192,223176,1,0,0:0:0:0:
256,192,223258,1,0,0:0:0:0:
256,192,223341,1,8,0:0:0:0:
256,192,223505,1,8,0:0:0:0:
256,192,223670,1,0,0:0:0:0:
256,192,223753,1,8,0:0:0:0:
256,192,223835,1,0,0:0:0:0:
256,192,223917,1,0,0:0:0:0:
256,192,224000,1,8,0:0:0:0:
256,192,224165,1,8,0:0:0:0:
256,192,224330,1,0,0:0:0:0:
256,192,224412,1,0,0:0:0:0:
256,192,224494,1,8,0:0:0:0:
256,192,224577,1,8,0:0:0:0:
256,192,224659,1,0,0:0:0:0:
256,192,224824,1,8,0:0:0:0:
256,192,224906,1,8,0:0:0:0:
256,192,224989,1,0,0:0:0:0:
256,192,225071,1,0,0:0:0:0:
256,192,225154,1,8,0:0:0:0:
256,192,225319,1,8,0:0:0:0:
256,192,225483,1,0,0:0:0:0:
256,192,225566,1,0,0:0:0:0:
256,192,225648,1,0,0:0:0:0:
256,192,225731,1,0,0:0:0:0:
256,192,225813,1,8,0:0:0:0:
256,192,225978,1,0,0:0:0:0:
256,192,226060,1,0,0:0:0:0:
256,192,226143,1,8,0:0:0:0:
256,192,226308,1,0,0:0:0:0:
256,192,226472,1,8,0:0:0:0:
256,192,226637,1,8,0:0:0:0:
256,192,226720,1,8,0:0:0:0:
256,192,226802,1,0,0:0:0:0:
256,192,226967,1,8,0:0:0:0:
256,192,227132,1,0,0:0:0:0:
256,192,227214,1,0,0:0:0:0:
256,192,227297,1,8,0:0:0:0:
256,192,227379,1,0,0:0:0:0:
256,192,227461,1,8,0:0:0:0:
256,192,227544,1,8,0:0:0:0:
256,192,227626,1,8,0:0:0:0:
256,192,227709,1,0,0:0:0:0:
256,192,227791,1,0,0:0:0:0:
256,192,227956,1,8,0:0:0:0:
256,192,228121,1,4,0:0:0:0:
256,192,228286,1,0,0:0:0:0:
256,192,228368,1,0,0:0:0:0:
256,192,228450,1,8,0:0:0:0:
256,192,228533,1,0,0:0:0:0:
256,192,228615,1,0,0:0:0:0:
256,192,228698,1,0,0:0:0:0:
256,192,228780,1,8,0:0:0:0:
256,192,228863,1,0,0:0:0:0:
256,192,228945,1,0,0:0:0:0:
256,192,229027,1,0,0:0:0:0:
256,192,229110,1,8,0:0:0:0:
256,192,229192,1,0,0:0:0:0:
256,192,229275,1,8,0:0:0:0:
256,192,229357,1,8,0:0:0:0:
256,192,229439,1,8,0:0:0:0:
256,192,229522,1,0,0:0:0:0:
256,192,229604,1,0,0:0:0:0:
256,192,229687,1,0,0:0:0:0:
256,192,229769,1,8,0:0:0:0:
256,192,229852,1,0,0:0:0:0:
256,192,229934,1,0,0:0:0:0:
256,192,230016,1,0,0:0:0:0:
256,192,230099,1,8,0:0:0:0:
256,192,230181,1,0,0:0:0:0:
256,192,230264,1,8,0:0:0:0:
256,192,230346,1,8,0:0:0:0:
256,192,230428,1,0,0:0:0:0:
256,192,230511,1,0,0:0:0:0:
256,192,230593,1,8,0:0:0:0:
256,192,230758,1,4,0:0:0:0:
256,192,231088,1,8,0:0:0:0:
256,192,231198,1,0,0:0:0:0:
256,192,231308,1,0,0:0:0:0:
256,192,231417,1,8,0:0:0:0:
256,192,231747,1,8,0:0:0:0:
256,192,231857,1,8,0:0:0:0:
256,192,231967,1,8,0:0:0:0:
256,192,232077,1,0,0:0:0:0:
256,192,232406,1,8,0:0:0:0:
256,192,232516,1,0,0:0:0:0:
256,192,232626,1,0,0:0:0:0:
256,192,232736,1,8,0:0:0:0:
256,192,232846,1,0,0:0:0:0:
256,192,232956,1,0,0:0:0:0:
256,192,233066,1,8,0:0:0:0:
256,192,233176,1,8,0:0:0:0:
256,192,233286,1,8,0:0:0:0:
256,192,233395,1,0,0:0:0:0:
256,192,233725,1,8,0:0:0:0:
256,192,233835,1,0,0:0:0:0:
256,192,233945,1,0,0:0:0:0:
256,192,234055,1,8,0:0:0:0:
256,192,234384,1,8,0:0:0:0:
256,192,234494,1,8,0:0:0:0:
256,192,234604,1,8,0:0:0:0:
256,192,234714,1,0,0:0:0:0:
256,192,235044,1,8,0:0:0:0:
256,192,235154,1,0,0:0:0:0:
256,192,235264,1,0,0:0:0:0:
256,192,235374,1,8,0:0:0:0:
256,192,235483,1,0,0:0:0:0:
256,192,235593,1,0,0:0:0:0:
256,192,235703,1,8,0:0:0:0:
256,192,235813,1,0,0:0:0:0:
256,192,235923,1,8,0:0:0:0:
256,192,236033,1,8,0:0:0:0:
256,192,236198,12,0,239989,0:0:0:0:
