osu file format v14

[General]
AudioFilename: audio.mp3
AudioLeadIn: 0
PreviewTime: 183573
Countdown: 0
SampleSet: Soft
StackLeniency: 0.7
Mode: 3
LetterboxInBreaks: 0
SpecialStyle: 0
WidescreenStoryboard: 1

[Editor]
DistanceSpacing: 0.7
BeatDivisor: 6
GridSize: 32
TimelineZoom: 2.1

[Metadata]
Title:Ange du Blanc Pur
TitleUnicode:Ange du Blanc Pur
Artist:ke-ji feat. Nanahira
ArtistUnicode:ke-ji feat. ななひら
Creator:secXcscX
Version:Insane
Source:
Tags:japanese metal しらこいし shirakoishi rock jrock j-rock confetto colory starry 4th album CFCD-0009
BeatmapID:4133546
BeatmapSetID:1989721

[Difficulty]
HPDrainRate:8.2
CircleSize:4
OverallDifficulty:7.8
ApproachRate:5
SliderMultiplier:1.4
SliderTickRate:1

[Events]
//Background and Video events
0,0,"bg.jpg",0,0
//Break Periods
//Storyboard Layer 0 (Background)
//Storyboard Layer 1 (Fail)
//Storyboard Layer 2 (Pass)
//Storyboard Layer 3 (Foreground)
//Storyboard Layer 4 (Overlay)
//Storyboard Sound Samples
Sample,69672,0,"soft-hitfinish.wav",25
Sample,82365,0,"soft-hitfinish.wav",25
Sample,198408,0,"soft-hitfinish.wav",25
Sample,199068,0,"soft-hitfinish.wav",25

[TimingPoints]
2275,333.333333333333,4,2,1,22,1,0
2275,-99.009900990099,4,2,1,22,0,0
16274,372.670807453416,4,2,1,22,1,0
16274,-88.4955752212389,4,2,1,22,0,0
16646,483.870967741935,4,2,1,22,1,0
16646,-68.0272108843537,4,2,1,22,0,0
16887,545.454545454546,4,2,1,22,1,0
16887,-60.6060606060606,4,2,1,22,0,0
17159,416.666666666667,4,2,1,22,1,0
17159,-79.3650793650794,4,2,1,22,0,0
17367,600,4,2,1,22,1,0
17367,-54.9450549450549,4,2,1,22,0,0
17967,833.333333333333,4,2,1,22,1,0
17967,-39.6825396825397,4,2,1,22,0,0
18383,869.565217391304,4,2,1,22,1,0
18383,-38.0228136882129,4,2,1,22,0,0
19252,1016.94915254237,4,2,1,22,1,0
19252,-32.4675324675325,4,2,1,22,0,0
20268,1000,4,2,1,22,1,0
20268,-33.003300330033,4,2,1,22,0,0
24268,333.333333333333,4,2,1,22,1,0
24268,-99.009900990099,4,2,1,22,0,0
32257,329.67032967033,4,2,1,22,1,0
42806,329.67032967033,3,2,1,22,1,0
46432,329.67032967033,3,2,1,22,1,0
48410,329.67032967033,4,2,1,22,1,0
61596,329.67032967033,3,2,1,22,1,0
65552,329.67032967033,4,2,1,22,1,0
81376,329.67032967033,3,2,1,22,1,0
85332,329.67032967033,4,2,1,22,1,0
122255,329.67032967033,6,2,1,22,1,0
136101,329.67032967033,4,2,1,22,1,0
167749,329.67032967033,3,2,1,22,1,0
171376,329.67032967033,3,2,1,22,1,0
173354,329.67032967033,4,2,1,22,1,0

[HitObjects]
64,192,2274,128,4,2941:0:0:0:0:
192,192,2274,128,0,2608:0:0:0:0:
448,192,2274,1,0,0:0:0:0:
448,192,2608,128,0,3274:0:0:0:0:
320,192,2941,128,0,3274:0:0:0:0:
64,192,3274,128,0,3941:0:0:0:0:
192,192,3608,128,0,3941:0:0:0:0:
320,192,3941,128,0,4274:0:0:0:0:
64,192,4274,128,0,4941:0:0:0:0:
448,192,4274,128,0,4608:0:0:0:0:
192,192,4608,128,0,5274:0:0:0:0:
320,192,4941,128,0,5274:0:0:0:0:
64,192,5274,128,0,5941:0:0:0:0:
192,192,5608,128,0,5941:0:0:0:0:
320,192,5941,128,0,6274:0:0:0:0:
64,192,6274,128,0,6941:0:0:0:0:
448,192,6274,128,0,6608:0:0:0:0:
192,192,6608,128,0,6941:0:0:0:0:
320,192,6774,128,0,6941:0:0:0:0:
448,192,6941,128,0,7274:0:0:0:0:
64,192,7274,128,0,7941:0:0:0:0:
192,192,7608,128,0,7941:0:0:0:0:
320,192,7941,128,0,8274:0:0:0:0:
64,192,8274,128,0,8608:0:0:0:0:
448,192,8274,128,0,8941:0:0:0:0:
192,192,8608,128,0,8941:0:0:0:0:
320,192,8941,128,0,9608:0:0:0:0:
448,192,9274,128,0,9608:0:0:0:0:
64,192,9608,128,0,10274:0:0:0:0:
192,192,9941,128,0,10274:0:0:0:0:
320,192,10274,128,0,10608:0:0:0:0:
448,192,10274,128,0,10941:0:0:0:0:
192,192,10441,128,0,10774:0:0:0:0:
64,192,10608,128,0,10774:0:0:0:0:
320,192,10774,128,0,11108:0:0:0:0:
192,192,10941,128,0,11108:0:0:0:0:
448,192,11108,128,0,11441:0:0:0:0:
320,192,11274,128,0,11441:0:0:0:0:
64,192,11441,128,0,11608:0:0:0:0:
192,192,11608,128,0,11941:0:0:0:0:
320,192,11941,128,0,12274:0:0:0:0:
64,192,12274,128,0,12941:0:0:0:0:
448,192,12274,128,0,12608:0:0:0:0:
192,192,12608,128,0,13274:0:0:0:0:
320,192,12941,128,0,13274:0:0:0:0:
64,192,13274,128,0,13941:0:0:0:0:
192,192,13608,128,0,13941:0:0:0:0:
320,192,13941,128,0,14274:0:0:0:0:
64,192,14274,128,0,14608:0:0:0:0:
448,192,14274,128,0,14941:0:0:0:0:
320,192,14608,128,0,14941:0:0:0:0:
192,192,14774,128,0,14941:0:0:0:0:
64,192,14941,128,0,15274:0:0:0:0:
448,192,15274,128,0,15941:0:0:0:0:
320,192,15441,128,0,15941:0:0:0:0:
192,192,15608,128,0,15941:0:0:0:0:
64,192,15941,128,0,16274:0:0:0:0:
320,192,16274,1,0,0:0:0:0:
448,192,16274,128,0,16646:0:0:0:0:
64,192,16646,128,0,17159:0:0:0:0:
320,192,17159,128,0,17667:0:0:0:0:
64,192,17667,128,0,18383:0:0:0:0:
448,192,18383,128,0,21768:0:0:0:0:
192,192,19252,1,0,0:0:0:70:Ticking Clock A.wav
192,192,20268,1,0,0:0:0:70:Ticking Clock A.wav
192,192,21268,1,0,0:0:0:70:Ticking Clock A.wav
192,192,22268,1,0,0:0:0:70:Ticking Clock A.wav
64,192,24268,128,0,24768:0:0:0:0:
448,192,24268,1,0,0:0:0:0:
64,192,25184,1,0,0:0:0:0:
64,192,27601,128,0,28101:0:0:0:0:
448,192,27601,1,0,0:0:0:0:
64,192,28517,1,0,0:0:0:0:
320,192,29601,128,0,31601:0:0:0:0:
64,192,32257,1,4,0:0:0:0:
320,192,32257,1,2,0:0:0:0:
448,192,32257,128,0,32586:0:0:0:0:
64,192,32586,1,0,0:0:0:0:
192,192,32586,1,0,0:0:0:0:
448,192,32696,1,0,0:0:0:0:
192,192,32806,1,0,0:0:0:0:
320,192,32806,1,0,0:0:0:0:
64,192,32916,128,2,33575:0:0:0:0:
448,192,32916,1,0,0:0:0:0:
192,192,33246,128,0,33575:0:0:0:0:
320,192,33575,1,2,0:0:0:0:
448,192,33575,128,0,33905:0:0:0:0:
64,192,33905,1,0,0:0:0:0:
192,192,33905,1,0,0:0:0:0:
448,192,34015,1,0,0:0:0:0:
192,192,34125,1,0,0:0:0:0:
320,192,34125,1,0,0:0:0:0:
64,192,34235,1,2,0:0:0:0:
448,192,34235,128,0,34894:0:0:0:0:
64,192,34564,1,8,0:0:0:0:
192,192,34674,1,8,0:0:0:0:
320,192,34784,1,8,0:0:0:0:
64,192,34894,128,2,35224:0:0:0:0:
192,192,34894,1,0,0:0:0:0:
320,192,35224,1,0,0:0:0:0:
448,192,35224,1,0,0:0:0:0:
64,192,35333,1,0,0:0:0:0:
192,192,35443,1,0,0:0:0:0:
320,192,35443,1,0,0:0:0:0:
64,192,35553,128,2,36213:0:0:0:0:
448,192,35553,1,0,0:0:0:0:
192,192,35883,128,0,36213:0:0:0:0:
320,192,36213,1,2,0:0:0:0:
448,192,36213,128,0,36542:0:0:0:0:
64,192,36542,1,8,0:0:0:0:
192,192,36542,1,0,0:0:0:0:
448,192,36652,1,0,0:0:0:0:
192,192,36762,1,0,0:0:0:0:
320,192,36762,1,0,0:0:0:0:
64,192,36872,1,2,0:0:0:0:
448,192,36872,1,0,0:0:0:0:
320,192,37037,1,0,0:0:0:0:
64,192,37202,1,8,0:0:0:0:
192,192,37202,1,0,0:0:0:0:
320,192,37311,1,8,0:0:0:0:
448,192,37311,1,0,0:0:0:0:
192,192,37421,1,8,0:0:0:0:
64,192,37531,128,2,37861:0:0:0:0:
320,192,37531,1,0,0:0:0:25:soft-hitfinish.wav
448,192,37531,1,0,0:0:0:0:
320,192,37861,1,8,0:0:0:0:
448,192,37861,1,0,0:0:0:0:
64,192,37971,1,8,0:0:0:0:
192,192,37971,1,0,0:0:0:0:
320,192,38081,1,8,0:0:0:0:
64,192,38191,128,2,38520:0:0:0:0:
448,192,38191,1,0,0:0:0:25:soft-hitfinish.wav
320,192,38520,1,8,0:0:0:0:
448,192,38520,1,0,0:0:0:0:
64,192,38630,1,8,0:0:0:0:
192,192,38740,1,8,0:0:0:0:
320,192,38740,1,0,0:0:0:0:
64,192,38850,1,2,0:0:0:0:
448,192,38850,128,0,39180:0:0:0:25:soft-hitfinish.wav
64,192,39180,1,8,0:0:0:0:
192,192,39180,1,0,0:0:0:0:
320,192,39289,1,8,0:0:0:0:
448,192,39289,1,0,0:0:0:0:
192,192,39399,1,8,0:0:0:0:
64,192,39509,1,2,0:0:0:0:
448,192,39509,1,0,0:0:0:25:soft-hitfinish.wav
192,192,39619,1,8,0:0:0:0:
320,192,39619,1,0,0:0:0:0:
64,192,39729,1,8,0:0:0:0:
320,192,39839,1,2,0:0:0:0:
448,192,39839,1,0,0:0:0:25:soft-hitfinish.wav
64,192,39949,1,8,0:0:0:0:
192,192,39949,1,0,0:0:0:0:
320,192,40059,1,8,0:0:0:0:
64,192,40169,128,2,40498:0:0:0:0:
448,192,40169,1,0,0:0:0:25:soft-hitfinish.wav
192,192,40498,1,8,0:0:0:0:
320,192,40498,1,0,0:0:0:0:
64,192,40608,1,8,0:0:0:0:
448,192,40608,1,0,0:0:0:0:
320,192,40718,1,8,0:0:0:0:
64,192,40828,128,2,41158:0:0:0:0:
192,192,40828,1,0,0:0:0:25:soft-hitfinish.wav
320,192,41158,1,8,0:0:0:0:
448,192,41158,1,0,0:0:0:0:
64,192,41267,1,8,0:0:0:0:
192,192,41267,1,0,0:0:0:0:
320,192,41377,1,8,0:0:0:0:
64,192,41487,1,2,0:0:0:0:
448,192,41487,128,0,41817:0:0:0:25:soft-hitfinish.wav
64,192,41817,1,8,0:0:0:0:
192,192,41817,1,0,0:0:0:0:
320,192,41927,1,8,0:0:0:0:
448,192,41927,1,0,0:0:0:0:
64,192,42037,1,8,0:0:0:0:
192,192,42147,1,2,0:0:0:0:
320,192,42147,1,0,0:0:0:25:soft-hitfinish.wav
64,192,42257,1,0,0:0:0:0:
448,192,42257,1,0,0:0:0:0:
320,192,42366,1,8,0:0:0:0:
192,192,42476,128,2,42806:0:0:0:0:
448,192,42476,1,0,0:0:0:25:soft-hitfinish.wav
64,192,42806,1,4,0:0:0:0:
320,192,42806,1,8,0:0:0:0:
448,192,42806,1,0,0:0:0:0:
448,192,42970,1,0,0:0:0:0:
320,192,43053,1,0,0:0:0:0:
64,192,43135,1,0,0:0:0:0:
192,192,43218,1,0,0:0:0:0:
320,192,43300,1,8,0:0:0:0:
448,192,43300,1,0,0:0:0:0:
320,192,43465,1,0,0:0:0:0:
192,192,43547,1,0,0:0:0:0:
64,192,43630,1,0,0:0:0:0:
192,192,43712,1,0,0:0:0:0:
320,192,43795,1,8,0:0:0:0:
448,192,43795,1,0,0:0:0:0:
448,192,43959,1,0,0:0:0:0:
320,192,44042,1,0,0:0:0:0:
192,192,44124,1,0,0:0:0:0:
320,192,44207,1,0,0:0:0:0:
64,192,44289,1,8,0:0:0:0:
448,192,44289,1,0,0:0:0:0:
64,192,44454,1,0,0:0:0:0:
192,192,44536,1,0,0:0:0:0:
320,192,44619,1,0,0:0:0:0:
192,192,44701,1,0,0:0:0:0:
64,192,44784,1,8,0:0:0:0:
448,192,44784,1,0,0:0:0:0:
64,192,44948,1,0,0:0:0:0:
320,192,45031,1,0,0:0:0:0:
192,192,45113,1,0,0:0:0:0:
64,192,45196,1,0,0:0:0:0:
320,192,45278,1,8,0:0:0:0:
448,192,45278,1,0,0:0:0:0:
320,192,45443,1,0,0:0:0:0:
192,192,45525,1,0,0:0:0:0:
320,192,45608,1,0,0:0:0:0:
448,192,45690,1,0,0:0:0:0:
64,192,45773,128,8,45937:0:0:0:0:
192,192,45773,128,0,45937:0:0:0:25:soft-hitfinish.wav
192,192,46102,128,8,46267:0:0:0:0:
320,192,46102,128,0,46267:0:0:0:25:soft-hitfinish.wav
64,192,46432,1,4,0:0:0:0:
320,192,46432,1,8,0:0:0:0:
448,192,46432,1,0,0:0:0:0:
64,192,46596,1,0,0:0:0:0:
448,192,46679,1,0,0:0:0:0:
320,192,46761,1,0,0:0:0:0:
192,192,46844,1,0,0:0:0:0:
64,192,46926,1,8,0:0:0:0:
448,192,46926,1,0,0:0:0:0:
448,192,47091,1,0,0:0:0:0:
320,192,47173,1,0,0:0:0:0:
64,192,47256,1,0,0:0:0:0:
192,192,47338,1,0,0:0:0:0:
320,192,47421,1,8,0:0:0:0:
448,192,47421,1,0,0:0:0:0:
448,192,47585,1,0,0:0:0:0:
64,192,47668,1,0,0:0:0:0:
192,192,47750,1,0,0:0:0:0:
320,192,47833,1,0,0:0:0:0:
64,192,47915,1,8,0:0:0:0:
448,192,47915,1,0,0:0:0:0:
64,192,48080,1,0,0:0:0:0:
192,192,48162,1,0,0:0:0:0:
448,192,48245,1,0,0:0:0:0:
320,192,48327,1,0,0:0:0:0:
64,192,48410,128,8,48739:0:0:0:0:
192,192,48410,1,0,0:0:0:0:
448,192,48574,1,0,0:0:0:0:
320,192,48739,1,8,0:0:0:0:
448,192,48739,128,0,49069:0:0:0:0:
192,192,48904,1,0,0:0:0:0:
64,192,49069,1,8,0:0:0:0:
192,192,49069,128,0,49399:0:0:0:0:
320,192,49234,1,0,0:0:0:0:
320,192,49399,128,8,49728:0:0:0:0:
448,192,49399,1,0,0:0:0:0:
64,192,49563,1,0,0:0:0:0:
64,192,49728,128,8,50058:0:0:0:0:
192,192,49728,1,0,0:0:0:0:
448,192,49948,1,8,0:0:0:0:
192,192,50058,1,8,0:0:0:0:
320,192,50058,1,0,0:0:0:0:
64,192,50168,1,8,0:0:0:0:
448,192,50168,1,0,0:0:0:0:
320,192,50278,1,8,0:0:0:0:
64,192,50388,1,2,0:0:0:0:
192,192,50388,1,0,0:0:0:25:soft-hitfinish.wav
448,192,50388,1,0,0:0:0:0:
64,192,51047,128,4,51377:0:0:0:0:
320,192,51047,1,8,0:0:0:0:
448,192,51047,1,0,0:0:0:0:
320,192,51377,1,2,0:0:0:0:
448,192,51377,1,0,0:0:0:0:
320,192,51541,1,8,0:0:0:0:
448,192,51541,1,0,0:0:0:0:
192,192,51706,1,0,0:0:0:0:
320,192,51706,1,0,0:0:0:0:
192,192,51871,1,8,0:0:0:0:
320,192,51871,1,0,0:0:0:0:
64,192,52036,1,2,0:0:0:0:
192,192,52036,1,0,0:0:0:0:
448,192,52036,128,0,52366:0:0:0:0:
64,192,52201,128,8,52366:0:0:0:0:
192,192,52201,128,0,52366:0:0:0:0:
192,192,52530,1,8,0:0:0:0:
320,192,52530,1,0,0:0:0:0:
64,192,52695,1,2,0:0:0:0:
192,192,52695,1,0,0:0:0:0:
448,192,52695,128,0,53025:0:0:0:0:
64,192,52860,128,8,53025:0:0:0:0:
192,192,52860,128,0,53025:0:0:0:0:
192,192,53190,1,8,0:0:0:0:
320,192,53190,1,0,0:0:0:0:
64,192,53355,1,2,0:0:0:0:
192,192,53355,1,0,0:0:0:0:
448,192,53355,1,0,0:0:0:0:
64,192,53519,128,8,53684:0:0:0:0:
192,192,53519,128,0,53684:0:0:0:0:
320,192,53684,1,8,0:0:0:0:
448,192,53684,1,0,0:0:0:0:
320,192,53849,1,8,0:0:0:0:
448,192,53849,1,0,0:0:0:0:
64,192,54014,128,2,54344:0:0:0:0:
192,192,54014,1,0,0:0:0:0:
448,192,54014,1,0,0:0:0:0:
192,192,54179,128,8,54344:0:0:0:0:
448,192,54179,128,0,54344:0:0:0:0:
320,192,54508,1,8,0:0:0:0:
448,192,54508,1,0,0:0:0:0:
64,192,54673,128,2,55003:0:0:0:0:
192,192,54673,1,0,0:0:0:0:
448,192,54673,1,0,0:0:0:0:
192,192,54838,128,8,55003:0:0:0:0:
448,192,54838,128,0,55003:0:0:0:0:
320,192,55168,1,8,0:0:0:0:
448,192,55168,1,0,0:0:0:0:
64,192,55333,128,2,55662:0:0:0:0:
192,192,55333,1,0,0:0:0:0:
448,192,55333,1,0,0:0:0:0:
192,192,55497,128,8,55662:0:0:0:0:
448,192,55497,128,0,55662:0:0:0:0:
320,192,55827,1,8,0:0:0:0:
448,192,55827,1,0,0:0:0:0:
64,192,55992,1,2,0:0:0:0:
192,192,55992,1,0,0:0:0:0:
448,192,55992,1,0,0:0:0:0:
192,192,56157,128,8,56322:0:0:0:0:
448,192,56157,128,0,56322:0:0:0:0:
64,192,56322,1,8,0:0:0:0:
320,192,56322,1,0,0:0:0:0:
64,192,56486,1,8,0:0:0:0:
320,192,56486,1,0,0:0:0:0:
64,192,56651,1,2,0:0:0:0:
192,192,56651,1,0,0:0:0:0:
448,192,56651,128,0,56981:0:0:0:0:
64,192,56816,128,8,56981:0:0:0:0:
192,192,56816,128,0,56981:0:0:0:0:
64,192,57146,1,8,0:0:0:0:
320,192,57146,1,0,0:0:0:0:
64,192,57311,1,2,0:0:0:0:
192,192,57311,1,0,0:0:0:0:
448,192,57311,128,0,57640:0:0:0:0:
64,192,57475,128,8,57640:0:0:0:0:
192,192,57475,128,0,57640:0:0:0:0:
64,192,57805,1,8,0:0:0:0:
320,192,57805,1,0,0:0:0:0:
64,192,57970,1,2,0:0:0:0:
192,192,57970,1,0,0:0:0:0:
448,192,57970,128,0,58300:0:0:0:0:
64,192,58135,128,8,58300:0:0:0:0:
192,192,58135,128,0,58300:0:0:0:0:
64,192,58464,1,8,0:0:0:0:
320,192,58464,1,0,0:0:0:0:
64,192,58629,1,2,0:0:0:0:
192,192,58629,1,0,0:0:0:0:
448,192,58629,1,0,0:0:0:0:
64,192,58794,128,8,58959:0:0:0:0:
192,192,58794,128,0,58959:0:0:0:0:
320,192,58959,1,8,0:0:0:0:
448,192,58959,1,0,0:0:0:0:
320,192,59124,1,8,0:0:0:0:
448,192,59124,1,0,0:0:0:0:
64,192,59289,1,2,0:0:0:0:
192,192,59289,1,0,0:0:0:0:
448,192,59289,128,0,59618:0:0:0:0:
192,192,59453,128,8,59618:0:0:0:0:
320,192,59453,128,0,59618:0:0:0:0:
320,192,59783,1,8,0:0:0:0:
448,192,59783,1,0,0:0:0:0:
64,192,59948,1,2,0:0:0:0:
192,192,59948,1,0,0:0:0:0:
448,192,59948,128,0,60278:0:0:0:0:
192,192,60113,128,8,60278:0:0:0:0:
320,192,60113,128,0,60278:0:0:0:0:
320,192,60442,1,8,0:0:0:0:
448,192,60442,1,0,0:0:0:0:
64,192,60607,1,2,0:0:0:0:
192,192,60607,1,0,0:0:0:0:
448,192,60607,128,0,60937:0:0:0:0:
192,192,60772,128,8,60937:0:0:0:0:
320,192,60772,128,0,60937:0:0:0:0:
320,192,61102,1,8,0:0:0:0:
448,192,61102,1,0,0:0:0:0:
64,192,61267,1,2,0:0:0:0:
192,192,61267,1,0,0:0:0:0:
320,192,61349,1,2,0:0:0:0:
448,192,61349,1,0,0:0:0:0:
64,192,61431,1,2,0:0:0:0:
192,192,61431,1,0,0:0:0:0:
320,192,61514,1,2,0:0:0:0:
64,192,61596,128,4,61760:0:0:0:0:
192,192,61596,128,2,61760:0:0:0:0:
448,192,61596,128,0,61760:0:0:0:0:
320,192,61760,1,0,0:0:0:0:
64,192,61925,128,8,62090:0:0:0:0:
448,192,61925,128,0,62090:0:0:0:0:
192,192,62090,1,0,0:0:0:0:
320,192,62255,128,8,62420:0:0:0:0:
448,192,62255,128,0,62420:0:0:0:0:
64,192,62420,1,0,0:0:0:0:
192,192,62585,128,8,62749:0:0:0:0:
448,192,62585,128,0,62749:0:0:0:25:soft-hitfinish.wav
320,192,62749,1,2,0:0:0:0:
64,192,62832,1,2,0:0:0:0:
192,192,62832,1,0,0:0:0:0:
320,192,62914,1,2,0:0:0:0:
448,192,62914,1,0,0:0:0:0:
192,192,63079,1,8,0:0:0:0:
320,192,63079,1,0,0:0:0:0:
64,192,63244,1,8,0:0:0:0:
192,192,63244,1,0,0:0:0:0:
64,192,63409,1,8,0:0:0:0:
448,192,63409,1,0,0:0:0:0:
320,192,63574,128,2,63738:0:0:0:0:
448,192,63574,128,0,63738:0:0:0:25:soft-hitfinish.wav
64,192,63738,1,0,0:0:0:0:
192,192,63903,128,8,64068:0:0:0:0:
320,192,63903,128,0,64068:0:0:0:25:soft-hitfinish.wav
448,192,64068,1,0,0:0:0:0:
64,192,64233,128,8,64398:0:0:0:0:
192,192,64233,128,0,64398:0:0:0:0:
320,192,64398,1,8,0:0:0:0:
64,192,64563,128,8,64727:0:0:0:0:
448,192,64563,128,0,64727:0:0:0:25:soft-hitfinish.wav
320,192,64727,1,2,0:0:0:0:
64,192,64810,1,2,0:0:0:0:
192,192,64810,1,0,0:0:0:0:
320,192,64892,1,2,0:0:0:0:
448,192,64892,1,0,0:0:0:0:
64,192,65057,1,8,0:0:0:0:
448,192,65057,1,0,0:0:0:0:
64,192,65222,1,8,0:0:0:0:
192,192,65222,1,0,0:0:0:0:
192,192,65387,1,8,0:0:0:0:
320,192,65387,1,0,0:0:0:0:
64,192,65552,1,4,0:0:0:0:
320,192,65552,1,2,0:0:0:0:
448,192,65552,1,0,0:0:0:0:
320,192,65881,1,8,0:0:0:0:
448,192,65881,1,0,0:0:0:0:
64,192,66211,1,8,0:0:0:0:
192,192,66211,1,0,0:0:0:0:
64,192,66541,1,8,0:0:0:0:
192,192,66541,1,0,0:0:0:0:
320,192,66870,1,8,0:0:0:0:
448,192,66870,1,0,0:0:0:0:
192,192,67200,1,8,0:0:0:0:
320,192,67200,1,0,0:0:0:0:
64,192,67530,1,8,0:0:0:0:
192,192,67530,1,0,0:0:0:0:
64,192,67859,1,8,0:0:0:0:
448,192,67859,1,0,0:0:0:0:
64,192,68189,1,8,0:0:0:0:
448,192,68189,1,0,0:0:0:0:
192,192,68271,1,0,0:0:0:0:
320,192,68354,1,8,0:0:0:0:
448,192,68436,1,0,0:0:0:0:
320,192,68519,1,8,0:0:0:0:
192,192,68601,1,0,0:0:0:0:
64,192,68683,1,2,0:0:0:0:
448,192,68683,1,0,0:0:0:0:
64,192,68848,1,2,0:0:0:0:
192,192,68848,1,0,0:0:0:0:
320,192,68848,1,0,0:0:0:0:
320,192,69013,1,2,0:0:0:0:
448,192,69013,1,0,0:0:0:0:
64,192,69178,1,2,0:0:0:0:
192,192,69178,1,0,0:0:0:0:
448,192,69178,1,0,0:0:0:0:
192,192,69343,1,2,0:0:0:0:
320,192,69343,1,0,0:0:0:0:
64,192,69508,1,4,0:0:0:0:
320,192,69508,1,8,0:0:0:0:
448,192,69508,1,0,0:0:0:0:
192,192,69672,1,2,0:0:0:0:
320,192,69755,1,0,0:0:0:0:
64,192,69837,1,4,0:0:0:0:
448,192,69837,1,8,0:0:0:0:
64,192,70002,1,2,0:0:0:0:
192,192,70002,1,0,0:0:0:25:soft-hitfinish.wav
448,192,70002,1,0,0:0:0:0:
192,192,70332,1,8,0:0:0:0:
448,192,70332,1,0,0:0:0:0:
320,192,70414,1,8,0:0:0:0:
64,192,70497,128,2,70826:0:0:0:0:
192,192,70497,1,0,0:0:0:0:
192,192,70826,128,4,71156:0:0:0:0:
320,192,70826,1,8,0:0:0:0:
448,192,70826,1,0,0:0:0:0:
64,192,71156,1,2,0:0:0:0:
448,192,71156,1,0,0:0:0:0:
64,192,71321,1,8,0:0:0:0:
448,192,71321,1,0,0:0:0:0:
192,192,71486,1,0,0:0:0:0:
448,192,71486,1,0,0:0:0:0:
192,192,71650,1,8,0:0:0:0:
448,192,71650,1,0,0:0:0:0:
64,192,71815,1,2,0:0:0:0:
192,192,71815,1,0,0:0:0:0:
448,192,71815,128,0,72145:0:0:0:0:
64,192,71980,128,8,72145:0:0:0:0:
192,192,71980,128,0,72145:0:0:0:0:
192,192,72310,1,8,0:0:0:0:
448,192,72310,1,0,0:0:0:0:
64,192,72475,1,2,0:0:0:0:
192,192,72475,1,0,0:0:0:0:
448,192,72475,128,0,72804:0:0:0:0:
64,192,72639,128,8,72804:0:0:0:0:
192,192,72639,128,0,72804:0:0:0:0:
192,192,72969,1,8,0:0:0:0:
448,192,72969,1,0,0:0:0:0:
64,192,73134,1,2,0:0:0:0:
192,192,73134,1,0,0:0:0:0:
448,192,73134,1,0,0:0:0:0:
64,192,73299,128,8,73464:0:0:0:0:
192,192,73299,128,0,73464:0:0:0:0:
320,192,73464,1,8,0:0:0:0:
448,192,73464,1,0,0:0:0:0:
320,192,73628,1,8,0:0:0:0:
448,192,73628,1,0,0:0:0:0:
64,192,73793,1,2,0:0:0:0:
192,192,73793,128,0,74123:0:0:0:0:
448,192,73793,1,0,0:0:0:0:
64,192,73958,128,8,74123:0:0:0:0:
448,192,73958,128,0,74123:0:0:0:0:
320,192,74288,1,8,0:0:0:0:
448,192,74288,1,0,0:0:0:0:
64,192,74453,1,2,0:0:0:0:
192,192,74453,128,0,74782:0:0:0:0:
448,192,74453,1,0,0:0:0:0:
64,192,74617,128,8,74782:0:0:0:0:
448,192,74617,128,0,74782:0:0:0:0:
320,192,74947,1,8,0:0:0:0:
448,192,74947,1,0,0:0:0:0:
64,192,75112,1,2,0:0:0:0:
192,192,75112,128,0,75442:0:0:0:0:
448,192,75112,1,0,0:0:0:0:
64,192,75277,128,8,75442:0:0:0:0:
448,192,75277,128,0,75442:0:0:0:0:
320,192,75606,1,8,0:0:0:0:
448,192,75606,1,0,0:0:0:0:
64,192,75771,1,2,0:0:0:0:
192,192,75771,1,0,0:0:0:0:
448,192,75771,1,0,0:0:0:0:
64,192,75936,128,8,76101:0:0:0:0:
448,192,75936,128,0,76101:0:0:0:0:
192,192,76101,1,8,0:0:0:0:
320,192,76101,1,0,0:0:0:0:
64,192,76266,1,8,0:0:0:0:
320,192,76266,1,0,0:0:0:0:
64,192,76431,1,2,0:0:0:0:
320,192,76431,1,0,0:0:0:0:
448,192,76431,128,0,76760:0:0:0:0:
64,192,76595,128,8,76760:0:0:0:0:
192,192,76595,128,0,76760:0:0:0:0:
64,192,76925,1,8,0:0:0:0:
320,192,76925,1,0,0:0:0:0:
64,192,77090,1,2,0:0:0:0:
320,192,77090,1,0,0:0:0:0:
448,192,77090,128,0,77420:0:0:0:0:
64,192,77255,128,8,77420:0:0:0:0:
192,192,77255,128,0,77420:0:0:0:0:
64,192,77584,1,8,0:0:0:0:
320,192,77584,1,0,0:0:0:0:
64,192,77749,1,2,0:0:0:0:
320,192,77749,1,0,0:0:0:0:
448,192,77749,128,0,78079:0:0:0:0:
64,192,77914,128,8,78079:0:0:0:0:
192,192,77914,128,0,78079:0:0:0:0:
64,192,78244,1,8,0:0:0:0:
320,192,78244,1,0,0:0:0:0:
64,192,78409,1,2,0:0:0:0:
320,192,78409,1,0,0:0:0:0:
448,192,78409,1,0,0:0:0:0:
64,192,78573,128,8,78738:0:0:0:0:
192,192,78573,128,0,78738:0:0:0:0:
320,192,78738,1,8,0:0:0:0:
448,192,78738,1,0,0:0:0:0:
320,192,78903,1,8,0:0:0:0:
448,192,78903,1,0,0:0:0:0:
64,192,79068,1,2,0:0:0:0:
192,192,79068,1,0,0:0:0:0:
448,192,79068,128,0,79398:0:0:0:0:
64,192,79233,128,8,79398:0:0:0:0:
192,192,79233,128,0,79398:0:0:0:0:
320,192,79562,1,8,0:0:0:0:
448,192,79562,1,0,0:0:0:0:
64,192,79727,1,2,0:0:0:0:
192,192,79727,1,0,0:0:0:0:
448,192,79727,128,0,80057:0:0:0:0:
64,192,79892,128,8,80057:0:0:0:0:
192,192,79892,128,0,80057:0:0:0:0:
320,192,80222,1,8,0:0:0:0:
448,192,80222,1,0,0:0:0:0:
64,192,80387,1,2,0:0:0:0:
192,192,80387,1,0,0:0:0:0:
448,192,80387,128,0,80716:0:0:0:0:
64,192,80552,128,8,80716:0:0:0:0:
192,192,80552,128,0,80716:0:0:0:0:
320,192,80881,1,8,0:0:0:0:
448,192,80881,1,0,0:0:0:0:
64,192,81046,1,2,0:0:0:0:
192,192,81046,1,0,0:0:0:0:
320,192,81128,1,2,0:0:0:0:
448,192,81128,1,0,0:0:0:0:
64,192,81211,1,2,0:0:0:0:
192,192,81211,1,0,0:0:0:0:
320,192,81293,1,2,0:0:0:0:
64,192,81376,128,8,81540:0:0:0:0:
192,192,81376,128,4,81540:0:0:0:0:
448,192,81376,128,0,81540:0:0:0:0:
320,192,81540,1,0,0:0:0:0:
64,192,81705,128,8,81870:0:0:0:0:
448,192,81705,128,0,81870:0:0:0:0:
320,192,81870,1,0,0:0:0:0:
64,192,82035,128,8,82200:0:0:0:0:
192,192,82035,128,0,82200:0:0:0:0:
448,192,82200,1,0,0:0:0:0:
64,192,82365,128,8,82529:0:0:0:0:
320,192,82365,128,0,82529:0:0:0:0:
192,192,82529,1,2,0:0:0:0:
320,192,82612,1,2,0:0:0:0:
448,192,82612,1,0,0:0:0:0:
64,192,82694,1,2,0:0:0:0:
192,192,82694,1,0,0:0:0:0:
192,192,82859,1,8,0:0:0:0:
320,192,82859,1,0,0:0:0:0:
320,192,83024,1,8,0:0:0:0:
448,192,83024,1,0,0:0:0:0:
64,192,83189,1,8,0:0:0:0:
448,192,83189,1,0,0:0:0:0:
64,192,83354,128,8,83518:0:0:0:0:
192,192,83354,128,0,83518:0:0:0:25:soft-hitfinish.wav
448,192,83518,1,0,0:0:0:0:
192,192,83683,128,8,83848:0:0:0:0:
320,192,83683,128,0,83848:0:0:0:25:soft-hitfinish.wav
64,192,83848,1,0,0:0:0:0:
320,192,84013,128,8,84178:0:0:0:0:
448,192,84013,128,0,84178:0:0:0:0:
192,192,84178,1,8,0:0:0:0:
64,192,84343,128,8,84507:0:0:0:0:
448,192,84343,128,0,84507:0:0:0:0:
192,192,84507,1,2,0:0:0:0:
320,192,84590,1,2,0:0:0:0:
448,192,84590,1,0,0:0:0:0:
64,192,84672,1,2,0:0:0:0:
192,192,84672,1,0,0:0:0:0:
64,192,84837,1,8,0:0:0:0:
448,192,84837,1,0,0:0:0:0:
320,192,85002,1,8,0:0:0:0:
448,192,85002,1,0,0:0:0:0:
192,192,85167,1,8,0:0:0:0:
320,192,85167,1,0,0:0:0:0:
64,192,85332,1,2,0:0:0:0:
192,192,85332,1,0,0:0:0:25:soft-hitfinish.wav
448,192,85332,1,0,0:0:0:0:
64,192,85661,1,8,0:0:0:0:
192,192,85661,1,0,0:0:0:0:
320,192,85991,1,8,0:0:0:0:
448,192,85991,1,0,0:0:0:0:
320,192,86321,1,8,0:0:0:0:
448,192,86321,1,0,0:0:0:0:
64,192,86650,1,8,0:0:0:0:
192,192,86650,1,0,0:0:0:0:
192,192,86980,1,8,0:0:0:0:
320,192,86980,1,0,0:0:0:0:
320,192,87310,1,8,0:0:0:0:
448,192,87310,1,0,0:0:0:0:
64,192,87639,1,8,0:0:0:0:
448,192,87639,1,0,0:0:0:0:
64,192,87969,1,8,0:0:0:0:
448,192,87969,1,0,0:0:0:0:
320,192,88051,1,0,0:0:0:0:
448,192,88134,1,8,0:0:0:0:
64,192,88216,1,0,0:0:0:0:
192,192,88299,1,8,0:0:0:0:
64,192,88381,1,0,0:0:0:0:
320,192,88463,1,2,0:0:0:0:
448,192,88463,1,0,0:0:0:0:
64,192,88628,1,2,0:0:0:0:
192,192,88628,1,0,0:0:0:0:
448,192,88628,1,0,0:0:0:0:
192,192,88793,1,2,0:0:0:0:
320,192,88793,1,0,0:0:0:0:
64,192,88958,1,2,0:0:0:0:
320,192,88958,1,0,0:0:0:0:
448,192,88958,1,0,0:0:0:0:
192,192,89123,1,2,0:0:0:0:
448,192,89123,1,0,0:0:0:0:
64,192,89288,1,4,0:0:0:0:
192,192,89288,1,8,0:0:0:0:
320,192,89288,1,0,0:0:0:0:
320,192,89452,1,2,0:0:0:0:
64,192,89617,1,4,0:0:0:0:
192,192,89617,1,8,0:0:0:0:
448,192,89617,1,0,0:0:0:0:
192,192,89782,1,2,0:0:0:0:
320,192,89782,1,0,0:0:0:0:
64,192,90112,1,8,0:0:0:0:
448,192,90112,1,0,0:0:0:0:
192,192,90194,1,0,0:0:0:0:
320,192,90277,128,8,90606:0:0:0:0:
448,192,90277,1,0,0:0:0:0:
64,192,90606,128,4,90936:0:0:0:0:
192,192,90606,1,8,0:0:0:0:
448,192,90606,1,0,0:0:0:0:
320,192,90771,128,0,91101:0:0:0:0:
192,192,90936,128,2,91101:0:0:0:0:
448,192,90936,1,0,0:0:0:0:
448,192,91101,1,0,0:0:0:0:
64,192,91266,1,8,0:0:0:0:
448,192,91266,128,0,91595:0:0:0:0:
192,192,91430,128,8,91760:0:0:0:0:
64,192,91595,1,2,0:0:0:0:
320,192,91595,128,0,91760:0:0:0:0:
64,192,91760,1,0,0:0:0:0:
192,192,91925,1,8,0:0:0:0:
448,192,91925,128,0,92090:0:0:0:0:
192,192,92090,1,8,0:0:0:0:
320,192,92090,1,0,0:0:0:0:
64,192,92255,128,2,92419:0:0:0:0:
448,192,92255,1,0,0:0:0:0:
448,192,92419,1,0,0:0:0:0:
64,192,92584,1,8,0:0:0:0:
320,192,92584,128,0,92749:0:0:0:0:
192,192,92667,1,8,0:0:0:0:
64,192,92749,1,8,0:0:0:0:
448,192,92749,1,0,0:0:0:0:
192,192,92914,128,2,93079:0:0:0:0:
320,192,92914,1,0,0:0:0:0:
320,192,93079,1,0,0:0:0:0:
64,192,93244,1,2,0:0:0:0:
192,192,93244,1,0,0:0:0:25:soft-hitfinish.wav
448,192,93244,128,0,93408:0:0:0:0:
64,192,93408,1,8,0:0:0:0:
320,192,93408,1,0,0:0:0:0:
192,192,93573,1,2,0:0:0:0:
320,192,93573,128,0,93738:0:0:0:0:
64,192,93738,1,8,0:0:0:0:
448,192,93738,1,0,0:0:0:0:
192,192,93903,128,2,94068:0:0:0:0:
320,192,93903,1,0,0:0:0:0:
64,192,94068,1,8,0:0:0:0:
448,192,94068,1,0,0:0:0:0:
64,192,94233,128,2,94397:0:0:0:0:
320,192,94233,1,0,0:0:0:0:
192,192,94397,1,8,0:0:0:0:
448,192,94397,1,0,0:0:0:0:
320,192,94562,1,2,0:0:0:0:
448,192,94562,128,0,94727:0:0:0:0:
64,192,94727,1,8,0:0:0:0:
192,192,94727,1,0,0:0:0:0:
192,192,94892,1,2,0:0:0:0:
320,192,94892,128,0,95057:0:0:0:0:
64,192,95057,1,8,0:0:0:0:
448,192,95057,1,0,0:0:0:0:
64,192,95222,1,2,0:0:0:0:
192,192,95222,128,0,95386:0:0:0:0:
320,192,95386,1,8,0:0:0:0:
448,192,95386,1,0,0:0:0:0:
64,192,95551,128,8,95716:0:0:0:0:
448,192,95551,1,0,0:0:0:0:
192,192,95716,1,8,0:0:0:0:
320,192,95716,1,0,0:0:0:0:
64,192,95881,1,2,0:0:0:0:
192,192,95881,1,0,0:0:0:25:soft-hitfinish.wav
448,192,95881,1,0,0:0:0:0:
192,192,96046,1,8,0:0:0:0:
320,192,96046,1,0,0:0:0:0:
320,192,96211,1,8,0:0:0:0:
448,192,96211,1,0,0:0:0:0:
64,192,96375,1,2,0:0:0:0:
192,192,96375,1,0,0:0:0:25:soft-hitfinish.wav
448,192,96375,1,0,0:0:0:0:
192,192,96540,1,8,0:0:0:0:
320,192,96540,1,0,0:0:0:0:
320,192,96705,1,8,0:0:0:0:
448,192,96705,1,0,0:0:0:0:
64,192,96870,1,2,0:0:0:0:
192,192,96870,1,0,0:0:0:25:soft-hitfinish.wav
448,192,96870,1,0,0:0:0:0:
192,192,97035,1,8,0:0:0:0:
320,192,97035,1,0,0:0:0:0:
320,192,97200,1,2,0:0:0:0:
448,192,97200,1,0,0:0:0:0:
64,192,97282,1,2,0:0:0:0:
192,192,97282,1,0,0:0:0:0:
320,192,97364,1,2,0:0:0:0:
448,192,97364,1,0,0:0:0:0:
192,192,97447,1,2,0:0:0:0:
64,192,97529,1,2,0:0:0:0:
448,192,97529,1,0,0:0:0:0:
192,192,97612,1,2,0:0:0:0:
320,192,97612,1,0,0:0:0:0:
64,192,97694,1,2,0:0:0:0:
448,192,97694,1,0,0:0:0:0:
320,192,97777,1,2,0:0:0:0:
64,192,97859,128,2,98024:0:0:0:0:
192,192,97859,1,0,0:0:0:0:
448,192,97941,128,0,98024:0:0:0:0:
320,192,98024,128,0,98106:0:0:0:0:
192,192,98106,128,0,98189:0:0:0:0:
64,192,98189,128,0,98353:0:0:0:0:
448,192,98189,128,0,98353:0:0:0:0:
192,192,98353,1,0,0:0:0:0:
64,192,98518,1,4,0:0:0:0:
320,192,98518,1,8,0:0:0:0:
448,192,98518,1,0,0:0:0:0:
192,192,98683,1,0,0:0:0:0:
320,192,98766,1,0,0:0:0:0:
64,192,98848,1,8,0:0:0:0:
448,192,98848,1,0,0:0:0:0:
320,192,98930,1,8,0:0:0:0:
192,192,99013,1,2,0:0:0:0:
64,192,99095,1,8,0:0:0:0:
320,192,99178,1,8,0:0:0:0:
448,192,99178,1,0,0:0:0:0:
192,192,99260,1,8,0:0:0:0:
320,192,99342,1,2,0:0:0:0:
448,192,99425,1,8,0:0:0:0:
64,192,99507,1,8,0:0:0:0:
192,192,99507,1,0,0:0:0:0:
448,192,99590,1,8,0:0:0:0:
320,192,99672,1,2,0:0:0:0:
192,192,99755,1,8,0:0:0:0:
64,192,99837,1,8,0:0:0:0:
448,192,99837,128,0,100002:0:0:0:0:
192,192,99919,1,8,0:0:0:0:
320,192,100002,1,2,0:0:0:0:
448,192,100084,1,8,0:0:0:0:
64,192,100167,128,8,100332:0:0:0:0:
320,192,100167,1,0,0:0:0:0:
192,192,100249,1,8,0:0:0:0:
448,192,100332,1,2,0:0:0:0:
320,192,100414,1,8,0:0:0:0:
64,192,100496,1,8,0:0:0:0:
192,192,100496,128,0,100661:0:0:0:0:
448,192,100579,1,8,0:0:0:0:
320,192,100661,1,2,0:0:0:0:
64,192,100744,1,8,0:0:0:0:
192,192,100826,1,8,0:0:0:0:
320,192,100826,128,0,100991:0:0:0:0:
448,192,100908,1,8,0:0:0:0:
64,192,100991,1,2,0:0:0:0:
192,192,101073,1,8,0:0:0:0:
320,192,101156,1,8,0:0:0:0:
448,192,101156,128,0,101321:0:0:0:0:
64,192,101238,1,8,0:0:0:0:
192,192,101321,1,2,0:0:0:0:
320,192,101403,1,8,0:0:0:0:
64,192,101485,1,8,0:0:0:0:
448,192,101485,1,0,0:0:0:0:
192,192,101568,1,8,0:0:0:0:
64,192,101650,1,2,0:0:0:0:
320,192,101733,1,8,0:0:0:0:
192,192,101815,1,8,0:0:0:0:
448,192,101815,1,0,0:0:0:0:
320,192,101897,1,8,0:0:0:0:
64,192,101980,1,2,0:0:0:0:
192,192,102062,1,8,0:0:0:0:
320,192,102145,1,8,0:0:0:0:
448,192,102145,1,0,0:0:0:0:
192,192,102227,1,8,0:0:0:0:
320,192,102310,1,2,0:0:0:0:
64,192,102392,1,8,0:0:0:0:
192,192,102474,128,8,102639:0:0:0:0:
448,192,102474,1,0,0:0:0:0:
320,192,102557,1,8,0:0:0:0:
64,192,102639,1,2,0:0:0:0:
192,192,102722,1,8,0:0:0:0:
320,192,102804,128,8,102969:0:0:0:0:
448,192,102804,1,0,0:0:0:0:
64,192,102886,1,8,0:0:0:0:
192,192,102969,1,2,0:0:0:0:
448,192,103051,1,8,0:0:0:0:
64,192,103134,128,8,103299:0:0:0:0:
320,192,103134,1,0,0:0:0:0:
192,192,103216,1,8,0:0:0:0:
320,192,103299,1,2,0:0:0:0:
64,192,103381,1,8,0:0:0:0:
192,192,103463,1,8,0:0:0:0:
448,192,103463,128,0,103628:0:0:0:0:
320,192,103546,1,8,0:0:0:0:
192,192,103628,1,2,0:0:0:0:
64,192,103711,1,8,0:0:0:0:
320,192,103793,128,8,103958:0:0:0:0:
448,192,103793,1,0,0:0:0:0:
64,192,103875,1,8,0:0:0:0:
192,192,103958,1,2,0:0:0:0:
320,192,104040,1,8,0:0:0:0:
64,192,104123,1,8,0:0:0:0:
448,192,104123,1,0,0:0:0:0:
192,192,104205,1,8,0:0:0:0:
320,192,104288,1,2,0:0:0:0:
448,192,104370,1,8,0:0:0:0:
64,192,104452,1,8,0:0:0:0:
192,192,104452,1,0,0:0:0:0:
320,192,104535,1,8,0:0:0:0:
192,192,104617,1,2,0:0:0:0:
64,192,104700,1,8,0:0:0:0:
320,192,104782,1,8,0:0:0:0:
448,192,104782,1,0,0:0:0:0:
64,192,104864,1,8,0:0:0:0:
192,192,104947,1,2,0:0:0:0:
320,192,105029,1,8,0:0:0:0:
64,192,105112,128,8,105277:0:0:0:0:
448,192,105112,1,0,0:0:0:0:
320,192,105194,1,8,0:0:0:0:
192,192,105277,1,2,0:0:0:0:
64,192,105359,1,8,0:0:0:0:
192,192,105441,1,8,0:0:0:0:
448,192,105441,128,0,105606:0:0:0:0:
320,192,105524,1,8,0:0:0:0:
64,192,105606,1,2,0:0:0:0:
192,192,105689,1,8,0:0:0:0:
320,192,105771,128,8,105936:0:0:0:0:
448,192,105771,1,0,0:0:0:0:
64,192,105853,1,8,0:0:0:0:
192,192,105936,1,2,0:0:0:0:
448,192,106018,1,8,0:0:0:0:
192,192,106101,128,8,106266:0:0:0:0:
320,192,106101,1,0,0:0:0:0:
64,192,106183,1,8,0:0:0:0:
448,192,106266,1,2,0:0:0:0:
320,192,106348,1,8,0:0:0:0:
64,192,106430,128,8,106595:0:0:0:0:
192,192,106430,1,0,0:0:0:0:
448,192,106513,1,8,0:0:0:0:
320,192,106595,1,2,0:0:0:0:
192,192,106678,1,8,0:0:0:0:
64,192,106760,128,8,106925:0:0:0:0:
448,192,106760,1,0,0:0:0:0:
320,192,106842,1,8,0:0:0:0:
448,192,106925,1,2,0:0:0:0:
192,192,107007,1,8,0:0:0:0:
320,192,107090,1,8,0:0:0:0:
448,192,107090,128,0,107255:0:0:0:0:
192,192,107172,1,8,0:0:0:0:
64,192,107255,1,2,0:0:0:0:
320,192,107337,1,8,0:0:0:0:
64,192,107419,1,8,0:0:0:0:
448,192,107419,128,0,107584:0:0:0:0:
192,192,107502,1,8,0:0:0:0:
320,192,107584,1,2,0:0:0:0:
448,192,107667,1,8,0:0:0:0:
192,192,107749,1,8,0:0:0:0:
320,192,107749,128,0,107914:0:0:0:0:
64,192,107832,1,8,0:0:0:0:
448,192,107914,1,2,0:0:0:0:
320,192,107996,1,8,0:0:0:0:
64,192,108079,1,8,0:0:0:0:
192,192,108079,1,0,0:0:0:0:
320,192,108161,1,8,0:0:0:0:
448,192,108244,1,2,0:0:0:0:
192,192,108326,1,8,0:0:0:0:
64,192,108408,1,8,0:0:0:0:
448,192,108408,1,0,0:0:0:0:
320,192,108491,1,8,0:0:0:0:
64,192,108573,1,8,0:0:0:0:
448,192,108573,1,0,0:0:0:0:
192,192,108656,1,8,0:0:0:0:
64,192,108738,1,8,0:0:0:0:
448,192,108738,1,0,0:0:0:0:
320,192,108821,1,8,0:0:0:0:
64,192,108903,1,8,0:0:0:0:
448,192,108903,1,0,0:0:0:0:
192,192,108985,1,8,0:0:0:0:
64,192,109068,1,4,0:0:0:0:
320,192,109068,1,8,0:0:0:0:
448,192,109068,1,0,0:0:0:0:
192,192,109233,1,2,0:0:0:0:
448,192,109315,1,8,0:0:0:0:
64,192,109397,1,8,0:0:0:0:
320,192,109397,1,0,0:0:0:0:
448,192,109480,1,8,0:0:0:0:
192,192,109562,1,2,0:0:0:0:
320,192,109645,1,8,0:0:0:0:
64,192,109727,1,8,0:0:0:0:
448,192,109727,1,0,0:0:0:0:
192,192,109810,1,8,0:0:0:0:
320,192,109892,1,2,0:0:0:0:
64,192,109974,1,8,0:0:0:0:
192,192,110057,1,8,0:0:0:0:
448,192,110057,1,0,0:0:0:0:
320,192,110139,1,8,0:0:0:0:
64,192,110222,1,2,0:0:0:0:
192,192,110304,1,8,0:0:0:0:
320,192,110386,1,8,0:0:0:0:
448,192,110386,128,0,110551:0:0:0:0:
192,192,110469,1,8,0:0:0:0:
64,192,110551,1,2,0:0:0:0:
448,192,110634,1,8,0:0:0:0:
64,192,110716,128,8,110881:0:0:0:0:
192,192,110716,1,0,0:0:0:0:
320,192,110799,1,8,0:0:0:0:
448,192,110881,1,2,0:0:0:0:
320,192,110963,1,8,0:0:0:0:
64,192,111046,1,8,0:0:0:0:
192,192,111046,128,0,111211:0:0:0:0:
448,192,111128,1,8,0:0:0:0:
320,192,111211,1,2,0:0:0:0:
192,192,111293,1,8,0:0:0:0:
320,192,111375,128,8,111540:0:0:0:0:
448,192,111375,1,0,0:0:0:0:
64,192,111458,1,8,0:0:0:0:
192,192,111540,1,2,0:0:0:0:
320,192,111623,1,8,0:0:0:0:
192,192,111705,1,8,0:0:0:0:
448,192,111705,128,0,111870:0:0:0:0:
64,192,111788,1,8,0:0:0:0:
192,192,111870,1,2,0:0:0:0:
320,192,111952,1,8,0:0:0:0:
64,192,112035,1,8,0:0:0:0:
448,192,112035,1,0,0:0:0:0:
320,192,112117,1,8,0:0:0:0:
64,192,112200,1,2,0:0:0:0:
192,192,112282,1,8,0:0:0:0:
64,192,112364,1,8,0:0:0:0:
320,192,112364,1,0,0:0:0:0:
448,192,112447,1,8,0:0:0:0:
320,192,112529,1,2,0:0:0:0:
64,192,112612,1,8,0:0:0:0:
192,192,112694,1,8,0:0:0:0:
448,192,112694,1,0,0:0:0:0:
320,192,112777,1,8,0:0:0:0:
192,192,112859,1,2,0:0:0:0:
64,192,112941,1,8,0:0:0:0:
192,192,113024,128,8,113189:0:0:0:0:
448,192,113024,1,0,0:0:0:0:
320,192,113106,1,8,0:0:0:0:
448,192,113189,1,2,0:0:0:0:
64,192,113271,1,8,0:0:0:0:
192,192,113353,1,8,0:0:0:0:
320,192,113353,128,0,113518:0:0:0:0:
448,192,113436,1,8,0:0:0:0:
64,192,113518,1,2,0:0:0:0:
320,192,113601,1,8,0:0:0:0:
64,192,113683,128,8,113848:0:0:0:0:
192,192,113683,1,0,0:0:0:0:
448,192,113766,1,8,0:0:0:0:
320,192,113848,1,2,0:0:0:0:
192,192,113930,1,8,0:0:0:0:
320,192,114013,1,8,0:0:0:0:
448,192,114013,128,0,114178:0:0:0:0:
64,192,114095,1,8,0:0:0:0:
192,192,114178,1,2,0:0:0:0:
448,192,114260,1,8,0:0:0:0:
192,192,114342,1,8,0:0:0:0:
320,192,114342,128,0,114507:0:0:0:0:
64,192,114425,1,8,0:0:0:0:
192,192,114507,1,2,0:0:0:0:
448,192,114590,1,8,0:0:0:0:
64,192,114672,1,8,0:0:0:0:
320,192,114672,1,0,0:0:0:0:
192,192,114755,1,8,0:0:0:0:
448,192,114837,1,2,0:0:0:0:
320,192,114919,1,8,0:0:0:0:
64,192,115002,1,8,0:0:0:0:
192,192,115002,1,0,0:0:0:0:
320,192,115084,1,8,0:0:0:0:
192,192,115167,1,2,0:0:0:0:
64,192,115249,1,8,0:0:0:0:
320,192,115332,1,8,0:0:0:0:
448,192,115332,1,0,0:0:0:0:
64,192,115414,1,8,0:0:0:0:
448,192,115496,1,2,0:0:0:0:
192,192,115579,1,8,0:0:0:0:
64,192,115661,128,8,115826:0:0:0:0:
320,192,115661,1,0,0:0:0:0:
448,192,115744,1,8,0:0:0:0:
320,192,115826,1,2,0:0:0:0:
64,192,115908,1,8,0:0:0:0:
192,192,115991,1,8,0:0:0:0:
448,192,115991,128,0,116156:0:0:0:0:
320,192,116073,1,8,0:0:0:0:
64,192,116156,1,2,0:0:0:0:
192,192,116238,1,8,0:0:0:0:
320,192,116321,128,8,116485:0:0:0:0:
448,192,116321,1,0,0:0:0:0:
64,192,116403,1,8,0:0:0:0:
192,192,116485,1,2,0:0:0:0:
448,192,116568,1,8,0:0:0:0:
192,192,116650,128,8,116815:0:0:0:0:
320,192,116650,1,0,0:0:0:0:
64,192,116733,1,8,0:0:0:0:
448,192,116815,1,2,0:0:0:0:
320,192,116897,1,8,0:0:0:0:
64,192,116980,128,8,117145:0:0:0:0:
192,192,116980,1,0,0:0:0:0:
448,192,117062,1,8,0:0:0:0:
320,192,117145,1,2,0:0:0:0:
192,192,117227,1,8,0:0:0:0:
64,192,117310,128,8,117474:0:0:0:0:
448,192,117310,1,0,0:0:0:0:
320,192,117392,1,8,0:0:0:0:
448,192,117474,1,2,0:0:0:0:
192,192,117557,1,8,0:0:0:0:
320,192,117639,1,8,0:0:0:0:
448,192,117639,128,0,117804:0:0:0:0:
64,192,117722,1,8,0:0:0:0:
192,192,117804,1,2,0:0:0:0:
320,192,117886,1,8,0:0:0:0:
192,192,117969,1,8,0:0:0:0:
448,192,117969,128,0,118134:0:0:0:0:
64,192,118051,1,8,0:0:0:0:
192,192,118134,1,2,0:0:0:0:
448,192,118216,1,8,0:0:0:0:
64,192,118299,1,8,0:0:0:0:
320,192,118299,128,0,118463:0:0:0:0:
192,192,118381,1,8,0:0:0:0:
448,192,118463,1,2,0:0:0:0:
192,192,118546,1,8,0:0:0:0:
64,192,118628,1,8,0:0:0:0:
448,192,118628,1,0,0:0:0:0:
320,192,118711,1,8,0:0:0:0:
448,192,118793,1,2,0:0:0:0:
64,192,118875,1,8,0:0:0:0:
320,192,118958,1,8,0:0:0:0:
448,192,118958,1,0,0:0:0:0:
192,192,119040,1,8,0:0:0:0:
320,192,119123,1,8,0:0:0:0:
448,192,119123,1,0,0:0:0:0:
64,192,119205,1,8,0:0:0:0:
320,192,119288,1,8,0:0:0:0:
448,192,119288,1,0,0:0:0:0:
192,192,119370,1,8,0:0:0:0:
320,192,119452,1,8,0:0:0:0:
448,192,119452,1,0,0:0:0:0:
64,192,119535,1,8,0:0:0:0:
192,192,119617,128,2,120771:0:0:0:0:
320,192,119617,1,0,0:0:0:0:
448,192,119617,1,0,0:0:0:0:
64,192,119947,1,2,0:0:0:0:
448,192,120029,1,8,0:0:0:0:
320,192,120112,1,8,0:0:0:0:
64,192,120194,1,8,0:0:0:0:
448,192,120277,1,2,0:0:0:0:
320,192,120359,1,8,0:0:0:0:
64,192,120441,1,8,0:0:0:0:
448,192,120524,1,8,0:0:0:0:
320,192,120606,1,2,0:0:0:0:
64,192,120689,1,8,0:0:0:0:
320,192,120771,128,8,120936:0:0:0:0:
448,192,120853,128,8,120936:0:0:0:0:
64,192,120936,1,2,0:0:0:0:
192,192,120936,1,0,0:0:0:0:
320,192,121018,1,8,0:0:0:0:
64,192,121101,1,8,0:0:0:0:
448,192,121101,1,0,0:0:0:0:
320,192,121183,1,8,0:0:0:0:
64,192,121266,1,2,0:0:0:0:
192,192,121266,1,0,0:0:0:0:
320,192,121348,1,8,0:0:0:0:
64,192,121430,1,8,0:0:0:0:
448,192,121430,1,0,0:0:0:0:
320,192,121513,1,8,0:0:0:0:
64,192,121595,128,2,121678:0:0:0:0:
192,192,121595,128,0,121678:0:0:0:0:
320,192,121678,128,8,121760:0:0:0:0:
64,192,121760,128,8,121842:0:0:0:0:
448,192,121842,128,8,121925:0:0:0:0:
192,192,121925,128,8,122007:0:0:0:0:
320,192,121925,128,0,122007:0:0:0:0:
448,192,122007,128,8,122090:0:0:0:0:
64,192,122090,128,8,122172:0:0:0:0:
320,192,122172,128,8,122255:0:0:0:0:
64,192,122255,1,4,0:0:0:0:
192,192,122255,1,0,0:0:0:0:
448,192,122255,1,0,0:0:0:0:
320,192,124233,1,0,0:0:0:0:
64,192,126211,1,0,0:0:0:0:
320,192,128189,1,0,0:0:0:0:
192,192,130167,1,0,0:0:0:0:
448,192,132145,1,0,0:0:0:0:
320,192,134123,1,0,0:0:0:0:
192,192,136101,1,0,0:0:0:0:
320,192,138079,1,8,0:0:0:0:
448,192,138079,1,0,0:0:0:0:
64,192,138188,1,8,0:0:0:0:
192,192,138188,1,0,0:0:0:0:
320,192,138298,1,8,0:0:0:0:
448,192,138298,1,0,0:0:0:0:
64,192,138408,1,8,0:0:0:0:
192,192,138408,128,2,138738:0:0:0:0:
64,192,138738,1,4,0:0:0:0:
320,192,138738,1,0,0:0:0:0:
448,192,138738,128,0,139232:0:0:0:0:
64,192,139068,1,0,0:0:0:0:
192,192,139232,1,8,0:0:0:0:
320,192,139232,1,0,0:0:0:0:
64,192,139397,1,2,0:0:0:0:
320,192,139397,1,0,0:0:0:0:
448,192,139397,1,0,0:0:0:0:
192,192,139562,128,0,139727:0:0:0:0:
64,192,139727,1,0,0:0:0:0:
448,192,139727,128,0,139892:0:0:0:0:
192,192,139892,1,8,0:0:0:0:
320,192,139892,128,0,140057:0:0:0:0:
64,192,140057,128,8,140551:0:0:0:0:
448,192,140057,1,0,0:0:0:0:
320,192,140386,1,8,0:0:0:0:
448,192,140386,1,0,0:0:0:0:
192,192,140551,128,0,141046:0:0:0:0:
64,192,140716,1,2,0:0:0:0:
448,192,140716,1,0,0:0:0:0:
64,192,140881,1,2,0:0:0:0:
448,192,140881,1,0,0:0:0:0:
320,192,141046,128,0,141375:0:0:0:0:
64,192,141210,1,2,0:0:0:0:
192,192,141210,1,0,0:0:0:0:
64,192,141375,1,8,0:0:0:0:
448,192,141375,128,0,142035:0:0:0:0:
192,192,141705,1,0,0:0:0:0:
192,192,141870,1,8,0:0:0:0:
320,192,141870,1,0,0:0:0:0:
64,192,142035,1,2,0:0:0:0:
320,192,142035,1,0,0:0:0:0:
64,192,142364,1,8,0:0:0:0:
192,192,142364,1,0,0:0:0:0:
64,192,142529,1,2,0:0:0:0:
320,192,142529,1,0,0:0:0:0:
448,192,142529,1,0,0:0:0:0:
192,192,142694,1,8,0:0:0:0:
448,192,142694,1,0,0:0:0:0:
64,192,142859,128,8,143188:0:0:0:0:
192,192,143024,1,0,0:0:0:0:
448,192,143024,128,0,143353:0:0:0:0:
320,192,143188,128,8,143518:0:0:0:0:
64,192,143353,1,2,0:0:0:0:
192,192,143353,1,0,0:0:0:0:
448,192,143436,1,2,0:0:0:0:
64,192,143518,1,2,0:0:0:0:
192,192,143601,1,2,0:0:0:0:
320,192,143683,1,8,0:0:0:0:
448,192,143683,1,0,0:0:0:0:
64,192,143765,1,8,0:0:0:0:
192,192,143848,1,8,0:0:0:0:
320,192,143848,1,0,0:0:0:0:
448,192,143930,1,8,0:0:0:0:
64,192,144013,128,4,144342:0:0:0:0:
192,192,144013,1,8,0:0:0:0:
320,192,144013,1,0,0:0:0:0:
448,192,144177,128,2,144342:0:0:0:0:
192,192,144342,1,8,0:0:0:0:
320,192,144342,1,0,0:0:0:0:
64,192,144425,1,8,0:0:0:0:
320,192,144507,128,2,144672:0:0:0:0:
448,192,144507,128,0,144672:0:0:0:0:
64,192,144672,1,8,0:0:0:0:
192,192,144672,1,0,0:0:0:0:
448,192,144754,1,8,0:0:0:0:
192,192,144837,128,2,145002:0:0:0:0:
320,192,144837,128,0,145002:0:0:0:0:
64,192,145002,1,8,0:0:0:0:
448,192,145002,1,0,0:0:0:0:
320,192,145084,1,8,0:0:0:0:
64,192,145166,128,2,145331:0:0:0:0:
192,192,145166,128,0,145331:0:0:0:0:
320,192,145331,1,8,0:0:0:0:
448,192,145331,1,0,0:0:0:0:
64,192,145414,1,8,0:0:0:0:
192,192,145496,1,2,0:0:0:0:
320,192,145496,1,0,0:0:0:0:
64,192,145661,1,8,0:0:0:0:
448,192,145661,1,0,0:0:0:0:
320,192,145743,1,8,0:0:0:0:
64,192,145826,1,2,0:0:0:0:
192,192,145826,1,0,0:0:0:0:
320,192,145991,1,8,0:0:0:0:
448,192,145991,1,0,0:0:0:0:
64,192,146073,1,8,0:0:0:0:
192,192,146155,1,2,0:0:0:0:
320,192,146155,1,0,0:0:0:0:
64,192,146320,1,8,0:0:0:0:
448,192,146320,1,0,0:0:0:0:
192,192,146403,1,8,0:0:0:0:
320,192,146485,1,2,0:0:0:0:
448,192,146485,1,0,0:0:0:0:
192,192,146650,1,8,0:0:0:0:
448,192,146650,128,0,146980:0:0:0:0:
64,192,146815,128,2,146980:0:0:0:0:
192,192,146980,1,8,0:0:0:0:
320,192,146980,1,0,0:0:0:0:
448,192,147062,1,8,0:0:0:0:
64,192,147144,128,2,147309:0:0:0:0:
192,192,147144,128,0,147309:0:0:0:0:
320,192,147309,1,8,0:0:0:0:
448,192,147309,1,0,0:0:0:0:
64,192,147392,1,8,0:0:0:0:
192,192,147474,128,2,147639:0:0:0:0:
320,192,147474,128,0,147639:0:0:0:0:
64,192,147639,1,8,0:0:0:0:
448,192,147639,1,0,0:0:0:0:
192,192,147721,1,8,0:0:0:0:
320,192,147804,128,2,147969:0:0:0:0:
448,192,147804,128,0,147969:0:0:0:0:
64,192,147969,1,8,0:0:0:0:
192,192,147969,128,0,148051:0:0:0:0:
448,192,148051,128,8,148133:0:0:0:0:
64,192,148133,1,2,0:0:0:0:
192,192,148133,128,0,148216:0:0:0:0:
448,192,148216,128,8,148298:0:0:0:0:
64,192,148298,1,8,0:0:0:0:
320,192,148298,128,0,148381:0:0:0:0:
192,192,148381,128,8,148463:0:0:0:0:
320,192,148463,128,2,148546:0:0:0:0:
448,192,148463,1,0,0:0:0:0:
192,192,148546,128,8,148628:0:0:0:0:
64,192,148628,128,8,148710:0:0:0:0:
320,192,148628,1,0,0:0:0:0:
448,192,148710,128,8,148793:0:0:0:0:
64,192,148793,128,2,148875:0:0:0:0:
320,192,148793,1,0,0:0:0:0:
448,192,148875,128,8,148958:0:0:0:0:
64,192,148958,1,8,0:0:0:0:
192,192,148958,128,0,149040:0:0:0:0:
320,192,149040,128,8,149122:0:0:0:0:
192,192,149122,128,2,149205:0:0:0:0:
448,192,149122,1,0,0:0:0:0:
320,192,149205,128,8,149287:0:0:0:0:
64,192,149287,1,8,0:0:0:0:
192,192,149287,1,0,0:0:0:0:
448,192,149287,128,0,149617:0:0:0:0:
64,192,149452,128,2,149617:0:0:0:0:
192,192,149617,1,8,0:0:0:0:
320,192,149617,128,0,149782:0:0:0:0:
448,192,149699,1,8,0:0:0:0:
64,192,149782,1,2,0:0:0:0:
192,192,149782,128,0,149947:0:0:0:0:
320,192,149947,1,8,0:0:0:0:
448,192,149947,128,0,150111:0:0:0:0:
64,192,150029,1,8,0:0:0:0:
192,192,150111,128,2,150276:0:0:0:0:
320,192,150111,1,0,0:0:0:0:
64,192,150276,128,8,150441:0:0:0:0:
448,192,150276,1,0,0:0:0:0:
320,192,150359,1,8,0:0:0:0:
192,192,150441,1,2,0:0:0:0:
448,192,150441,128,0,150606:0:0:0:0:
64,192,150606,1,8,0:0:0:0:
192,192,150606,128,0,150936:0:0:0:0:
448,192,150688,1,8,0:0:0:0:
64,192,150771,1,2,0:0:0:0:
320,192,150771,128,0,150936:0:0:0:0:
64,192,150936,128,8,151101:0:0:0:0:
448,192,150936,1,0,0:0:0:0:
192,192,151018,1,8,0:0:0:0:
320,192,151101,1,2,0:0:0:0:
448,192,151101,128,0,151265:0:0:0:0:
64,192,151265,128,8,151595:0:0:0:0:
192,192,151265,1,0,0:0:0:0:
320,192,151348,1,8,0:0:0:0:
192,192,151430,128,2,151595:0:0:0:0:
448,192,151430,1,0,0:0:0:0:
320,192,151595,1,8,0:0:0:0:
448,192,151595,128,0,151760:0:0:0:0:
192,192,151677,1,8,0:0:0:0:
64,192,151760,1,2,0:0:0:0:
320,192,151760,128,0,151925:0:0:0:0:
192,192,151925,128,8,153243:0:0:0:0:
448,192,151925,1,0,0:0:0:0:
320,192,152007,1,8,0:0:0:0:
64,192,152090,1,2,0:0:0:0:
448,192,152090,1,0,0:0:0:0:
320,192,152254,1,8,0:0:0:0:
64,192,152337,1,8,0:0:0:0:
320,192,152419,1,2,0:0:0:0:
448,192,152419,1,0,0:0:0:0:
64,192,152584,1,8,0:0:0:0:
448,192,152666,1,8,0:0:0:0:
64,192,152749,1,2,0:0:0:0:
320,192,152749,1,0,0:0:0:0:
448,192,152914,1,8,0:0:0:0:
320,192,152996,1,8,0:0:0:0:
64,192,153079,1,2,0:0:0:0:
448,192,153079,1,0,0:0:0:0:
320,192,153243,128,8,154562:0:0:0:0:
448,192,153243,1,0,0:0:0:0:
64,192,153326,1,8,0:0:0:0:
192,192,153408,1,2,0:0:0:0:
448,192,153408,1,0,0:0:0:0:
64,192,153573,1,8,0:0:0:0:
192,192,153655,1,8,0:0:0:0:
64,192,153738,1,2,0:0:0:0:
448,192,153738,1,0,0:0:0:0:
448,192,153903,1,8,0:0:0:0:
192,192,153985,1,8,0:0:0:0:
64,192,154068,1,2,0:0:0:0:
448,192,154068,1,0,0:0:0:0:
192,192,154232,1,8,0:0:0:0:
64,192,154315,1,8,0:0:0:0:
192,192,154397,1,2,0:0:0:0:
448,192,154397,1,0,0:0:0:0:
64,192,154562,1,8,0:0:0:0:
192,192,154562,1,0,0:0:0:25:soft-hitfinish.wav
320,192,154672,1,2,0:0:0:0:
448,192,154672,1,0,0:0:0:0:
64,192,154782,1,2,0:0:0:0:
192,192,154782,1,0,0:0:0:0:
320,192,154892,1,8,0:0:0:0:
448,192,154892,1,0,0:0:0:0:
64,192,155002,1,2,0:0:0:0:
192,192,155002,1,0,0:0:0:0:
320,192,155111,1,2,0:0:0:0:
64,192,155221,128,8,155441:0:0:0:0:
448,192,155221,1,0,0:0:0:0:
192,192,155331,128,8,155551:0:0:0:0:
320,192,155441,128,8,155661:0:0:0:0:
64,192,155551,128,8,155771:0:0:0:0:
448,192,155551,1,0,0:0:0:0:
192,192,155661,128,8,155881:0:0:0:0:
320,192,155771,128,8,155881:0:0:0:0:
64,192,155881,1,2,0:0:0:0:
448,192,155881,128,0,156210:0:0:0:25:soft-hitfinish.wav
64,192,156210,1,2,0:0:0:0:
192,192,156210,1,0,0:0:0:0:
320,192,156293,1,2,0:0:0:0:
448,192,156293,1,0,0:0:0:0:
64,192,156375,1,2,0:0:0:0:
192,192,156375,1,0,0:0:0:0:
320,192,156458,1,2,0:0:0:0:
64,192,156540,128,8,156870:0:0:0:0:
448,192,156540,1,0,0:0:0:25:soft-hitfinish.wav
320,192,156870,1,8,0:0:0:0:
448,192,156870,1,0,0:0:0:0:
64,192,156952,1,8,0:0:0:0:
192,192,157035,1,8,0:0:0:0:
320,192,157035,1,0,0:0:0:0:
448,192,157117,1,8,0:0:0:0:
64,192,157199,128,4,157529:0:0:0:0:
192,192,157199,128,2,157529:0:0:0:0:
320,192,157199,1,0,0:0:0:0:
320,192,157529,1,0,0:0:0:0:
448,192,157529,1,0,0:0:0:0:
64,192,157639,1,0,0:0:0:0:
192,192,157639,128,0,157859:0:0:0:0:
320,192,157749,128,0,157859:0:0:0:0:
64,192,157859,128,2,158518:0:0:0:0:
448,192,157859,1,0,0:0:0:0:
192,192,158188,128,0,158518:0:0:0:0:
448,192,158188,1,0,0:0:0:0:
320,192,158518,128,2,158848:0:0:0:0:
448,192,158518,128,0,158848:0:0:0:0:
64,192,158848,1,0,0:0:0:0:
192,192,158848,1,0,0:0:0:0:
320,192,158958,128,0,159177:0:0:0:0:
448,192,158958,1,0,0:0:0:0:
192,192,159068,128,0,159177:0:0:0:0:
64,192,159177,1,2,0:0:0:0:
448,192,159177,128,0,159837:0:0:0:0:
320,192,159507,1,8,0:0:0:0:
64,192,159617,1,8,0:0:0:0:
192,192,159727,1,8,0:0:0:0:
64,192,159837,128,2,160166:0:0:0:0:
320,192,159837,128,0,160166:0:0:0:0:
192,192,160166,1,0,0:0:0:0:
448,192,160166,1,0,0:0:0:0:
64,192,160276,1,0,0:0:0:0:
320,192,160276,128,0,160496:0:0:0:0:
448,192,160386,128,0,160496:0:0:0:0:
64,192,160496,128,2,161155:0:0:0:0:
192,192,160496,1,0,0:0:0:0:
320,192,160826,128,0,161155:0:0:0:0:
448,192,160826,1,0,0:0:0:0:
192,192,161155,128,2,161485:0:0:0:0:
448,192,161155,128,0,161485:0:0:0:0:
64,192,161485,1,8,0:0:0:0:
320,192,161485,1,0,0:0:0:0:
192,192,161595,128,0,161815:0:0:0:0:
448,192,161595,1,0,0:0:0:0:
64,192,161705,128,0,161815:0:0:0:0:
320,192,161815,1,2,0:0:0:0:
448,192,161815,128,0,162144:0:0:0:0:
320,192,161980,1,0,0:0:0:0:
64,192,162144,1,8,0:0:0:0:
192,192,162144,1,0,0:0:0:0:
320,192,162254,1,8,0:0:0:0:
448,192,162254,1,0,0:0:0:0:
192,192,162364,1,8,0:0:0:0:
64,192,162474,128,2,162804:0:0:0:0:
320,192,162474,1,0,0:0:0:25:soft-hitfinish.wav
448,192,162474,128,0,162804:0:0:0:0:
192,192,162804,128,8,162914:0:0:0:0:
320,192,162804,128,0,162914:0:0:0:0:
64,192,162914,1,8,0:0:0:0:
448,192,162914,128,0,163133:0:0:0:0:
320,192,163024,128,8,163133:0:0:0:0:
64,192,163133,128,2,163463:0:0:0:0:
192,192,163133,128,0,163463:0:0:0:25:soft-hitfinish.wav
320,192,163463,128,8,163573:0:0:0:0:
448,192,163463,128,0,163573:0:0:0:0:
64,192,163573,1,8,0:0:0:0:
192,192,163573,128,0,163793:0:0:0:0:
320,192,163683,128,8,163793:0:0:0:0:
64,192,163793,128,2,164122:0:0:0:0:
448,192,163793,128,0,164122:0:0:0:25:soft-hitfinish.wav
192,192,164122,128,8,164232:0:0:0:0:
320,192,164122,128,0,164232:0:0:0:0:
64,192,164232,128,8,164452:0:0:0:0:
448,192,164232,1,0,0:0:0:0:
192,192,164342,128,8,164452:0:0:0:0:
320,192,164452,1,2,0:0:0:0:
448,192,164452,1,0,0:0:0:25:soft-hitfinish.wav
64,192,164562,1,8,0:0:0:0:
192,192,164562,128,0,164782:0:0:0:0:
320,192,164672,128,8,164782:0:0:0:0:
64,192,164782,1,2,0:0:0:0:
448,192,164782,1,0,0:0:0:25:soft-hitfinish.wav
192,192,164892,1,8,0:0:0:0:
320,192,164892,128,0,165111:0:0:0:0:
448,192,165002,128,8,165111:0:0:0:0:
64,192,165111,128,2,165441:0:0:0:0:
192,192,165111,128,0,165441:0:0:0:25:soft-hitfinish.wav
320,192,165441,128,8,165551:0:0:0:0:
448,192,165441,128,0,165551:0:0:0:0:
64,192,165551,1,8,0:0:0:0:
192,192,165551,128,0,165771:0:0:0:0:
320,192,165661,128,8,165771:0:0:0:0:
64,192,165771,128,2,166101:0:0:0:0:
448,192,165771,128,0,166101:0:0:0:25:soft-hitfinish.wav
192,192,166101,128,8,166210:0:0:0:0:
320,192,166101,128,0,166210:0:0:0:0:
64,192,166210,1,8,0:0:0:0:
448,192,166210,128,0,166430:0:0:0:0:
320,192,166320,128,8,166430:0:0:0:0:
64,192,166430,128,2,166760:0:0:0:0:
192,192,166430,128,0,166760:0:0:0:25:soft-hitfinish.wav
320,192,166760,128,8,166870:0:0:0:0:
448,192,166760,128,0,166870:0:0:0:0:
64,192,166870,1,8,0:0:0:0:
192,192,166870,128,0,167090:0:0:0:0:
320,192,166980,128,8,167090:0:0:0:0:
64,192,167090,128,2,167309:0:0:0:0:
448,192,167090,1,0,0:0:0:25:soft-hitfinish.wav
192,192,167199,128,0,167309:0:0:0:0:
320,192,167199,1,0,0:0:0:0:
448,192,167309,1,8,0:0:0:0:
192,192,167419,1,2,0:0:0:0:
320,192,167419,128,0,167749:0:0:0:25:soft-hitfinish.wav
64,192,167749,1,4,0:0:0:0:
192,192,167749,1,8,0:0:0:0:
448,192,167749,1,0,0:0:0:0:
192,192,167913,1,0,0:0:0:0:
448,192,167996,1,0,0:0:0:0:
192,192,168078,1,0,0:0:0:0:
448,192,168161,1,0,0:0:0:0:
64,192,168243,1,8,0:0:0:0:
320,192,168243,1,0,0:0:0:0:
320,192,168408,1,0,0:0:0:0:
64,192,168490,1,0,0:0:0:0:
320,192,168573,1,0,0:0:0:0:
64,192,168655,1,0,0:0:0:0:
192,192,168738,1,8,0:0:0:0:
448,192,168738,1,0,0:0:0:0:
448,192,168902,1,0,0:0:0:0:
192,192,168985,1,0,0:0:0:0:
448,192,169067,1,0,0:0:0:0:
192,192,169150,1,0,0:0:0:0:
64,192,169232,1,8,0:0:0:0:
320,192,169232,1,0,0:0:0:0:
64,192,169397,1,0,0:0:0:0:
320,192,169479,1,0,0:0:0:0:
64,192,169562,1,0,0:0:0:0:
320,192,169644,1,0,0:0:0:0:
64,192,169727,1,8,0:0:0:0:
192,192,169727,1,0,0:0:0:0:
192,192,169891,1,0,0:0:0:0:
64,192,169974,1,0,0:0:0:0:
320,192,170056,1,0,0:0:0:0:
192,192,170139,1,0,0:0:0:0:
320,192,170221,1,8,0:0:0:0:
448,192,170221,1,0,0:0:0:0:
320,192,170386,1,0,0:0:0:0:
448,192,170468,1,0,0:0:0:0:
192,192,170551,1,0,0:0:0:0:
320,192,170633,1,0,0:0:0:0:
64,192,170716,128,8,170880:0:0:0:0:
448,192,170716,128,0,170880:0:0:0:25:soft-hitfinish.wav
64,192,171045,128,8,171210:0:0:0:0:
192,192,171045,128,0,171210:0:0:0:25:soft-hitfinish.wav
64,192,171376,1,0,0:0:0:0:
320,192,171376,1,0,0:0:0:0:
448,192,171376,1,0,0:0:0:0:
64,192,171540,1,0,0:0:0:0:
320,192,171623,1,0,0:0:0:0:
64,192,171705,1,0,0:0:0:0:
320,192,171788,1,0,0:0:0:0:
64,192,171870,1,8,0:0:0:0:
448,192,171870,1,0,0:0:0:0:
448,192,172035,1,0,0:0:0:0:
64,192,172117,1,0,0:0:0:0:
448,192,172200,1,0,0:0:0:0:
64,192,172282,1,0,0:0:0:0:
192,192,172365,1,8,0:0:0:0:
320,192,172365,1,0,0:0:0:0:
320,192,172529,1,0,0:0:0:0:
192,192,172612,1,0,0:0:0:0:
320,192,172694,1,0,0:0:0:0:
192,192,172777,1,0,0:0:0:0:
320,192,172859,1,8,0:0:0:0:
448,192,172859,1,0,0:0:0:0:
320,192,173024,1,0,0:0:0:0:
192,192,173106,1,0,0:0:0:0:
320,192,173189,1,0,0:0:0:0:
192,192,173271,1,0,0:0:0:0:
64,192,173354,128,8,173683:0:0:0:0:
448,192,173354,1,0,0:0:0:0:
448,192,173518,1,0,0:0:0:0:
192,192,173683,1,8,0:0:0:0:
448,192,173683,128,0,174013:0:0:0:0:
192,192,173848,1,0,0:0:0:0:
192,192,174013,128,8,174343:0:0:0:0:
320,192,174013,1,0,0:0:0:0:
320,192,174178,1,0,0:0:0:0:
64,192,174343,1,8,0:0:0:0:
320,192,174343,128,0,174672:0:0:0:0:
64,192,174507,1,0,0:0:0:0:
64,192,174672,128,8,175002:0:0:0:0:
448,192,174672,1,0,0:0:0:0:
448,192,174892,1,8,0:0:0:0:
192,192,175002,1,8,0:0:0:0:
320,192,175002,1,0,0:0:0:0:
64,192,175112,1,8,0:0:0:0:
448,192,175112,1,0,0:0:0:0:
320,192,175222,1,8,0:0:0:0:
64,192,175332,1,2,0:0:0:0:
192,192,175332,1,0,0:0:0:25:soft-hitfinish.wav
448,192,175332,1,0,0:0:0:0:
64,192,175991,1,4,0:0:0:0:
320,192,175991,1,8,0:0:0:0:
448,192,175991,128,0,176321:0:0:0:0:
192,192,176156,128,0,176485:0:0:0:0:
64,192,176321,1,2,0:0:0:0:
320,192,176321,128,0,176650:0:0:0:0:
64,192,176485,1,0,0:0:0:0:
64,192,176650,128,8,176980:0:0:0:0:
448,192,176650,128,0,176815:0:0:0:0:
320,192,176815,128,8,177145:0:0:0:0:
192,192,176980,128,2,177310:0:0:0:0:
448,192,176980,1,0,0:0:0:0:
448,192,177145,1,0,0:0:0:0:
64,192,177310,128,8,177474:0:0:0:0:
320,192,177310,1,0,0:0:0:0:
192,192,177474,1,8,0:0:0:0:
448,192,177474,1,0,0:0:0:0:
64,192,177639,1,2,0:0:0:0:
448,192,177639,128,0,177804:0:0:0:0:
192,192,177804,1,0,0:0:0:0:
192,192,177969,128,8,178134:0:0:0:0:
448,192,177969,1,0,0:0:0:0:
64,192,178051,1,8,0:0:0:0:
320,192,178134,1,8,0:0:0:0:
448,192,178134,1,0,0:0:0:0:
192,192,178299,1,2,0:0:0:0:
320,192,178299,128,0,178463:0:0:0:0:
64,192,178463,1,0,0:0:0:0:
64,192,178628,128,2,178793:0:0:0:0:
320,192,178628,1,0,0:0:0:25:soft-hitfinish.wav
448,192,178628,1,0,0:0:0:0:
320,192,178793,1,8,0:0:0:0:
448,192,178793,1,0,0:0:0:0:
64,192,178958,1,2,0:0:0:0:
192,192,178958,128,0,179123:0:0:0:0:
64,192,179123,1,8,0:0:0:0:
448,192,179123,1,0,0:0:0:0:
192,192,179288,1,2,0:0:0:0:
320,192,179288,128,0,179452:0:0:0:0:
192,192,179452,1,8,0:0:0:0:
448,192,179452,1,0,0:0:0:0:
320,192,179617,1,2,0:0:0:0:
448,192,179617,128,0,179782:0:0:0:0:
64,192,179782,1,8,0:0:0:0:
320,192,179782,1,0,0:0:0:0:
64,192,179947,128,2,180112:0:0:0:0:
448,192,179947,1,0,0:0:0:0:
192,192,180112,1,8,0:0:0:0:
448,192,180112,1,0,0:0:0:0:
64,192,180277,1,2,0:0:0:0:
192,192,180277,128,0,180441:0:0:0:0:
64,192,180441,1,8,0:0:0:0:
320,192,180441,1,0,0:0:0:0:
192,192,180606,1,2,0:0:0:0:
320,192,180606,128,0,180771:0:0:0:0:
192,192,180771,1,8,0:0:0:0:
448,192,180771,1,0,0:0:0:0:
320,192,180936,1,8,0:0:0:0:
448,192,180936,128,0,181101:0:0:0:0:
64,192,181101,1,8,0:0:0:0:
320,192,181101,1,0,0:0:0:0:
64,192,181266,1,2,0:0:0:0:
192,192,181266,1,0,0:0:0:25:soft-hitfinish.wav
448,192,181266,1,0,0:0:0:0:
192,192,181430,1,8,0:0:0:0:
320,192,181430,1,0,0:0:0:0:
320,192,181595,1,8,0:0:0:0:
448,192,181595,1,0,0:0:0:0:
64,192,181760,1,2,0:0:0:0:
192,192,181760,1,0,0:0:0:25:soft-hitfinish.wav
448,192,181760,1,0,0:0:0:0:
192,192,181925,1,8,0:0:0:0:
320,192,181925,1,0,0:0:0:0:
320,192,182090,1,8,0:0:0:0:
448,192,182090,1,0,0:0:0:0:
64,192,182255,1,2,0:0:0:0:
192,192,182255,1,0,0:0:0:25:soft-hitfinish.wav
448,192,182255,1,0,0:0:0:0:
192,192,182419,1,8,0:0:0:0:
320,192,182419,1,0,0:0:0:0:
320,192,182584,1,2,0:0:0:0:
448,192,182584,1,0,0:0:0:0:
64,192,182667,1,2,0:0:0:0:
192,192,182667,1,0,0:0:0:0:
320,192,182749,1,2,0:0:0:0:
448,192,182749,1,0,0:0:0:0:
64,192,182832,1,2,0:0:0:0:
320,192,182914,1,2,0:0:0:0:
448,192,182914,1,0,0:0:0:0:
64,192,182996,1,2,0:0:0:0:
192,192,182996,1,0,0:0:0:0:
320,192,183079,1,2,0:0:0:0:
448,192,183079,1,0,0:0:0:0:
192,192,183161,1,2,0:0:0:0:
64,192,183244,1,2,0:0:0:0:
448,192,183244,1,0,0:0:0:0:
320,192,183326,1,0,0:0:0:0:
192,192,183408,1,0,0:0:0:0:
320,192,183491,1,0,0:0:0:0:
64,192,183573,128,8,183738:0:0:0:0:
448,192,183573,128,0,183656:0:0:0:0:
320,192,183656,128,0,183738:0:0:0:0:
192,192,183738,128,8,183821:0:0:0:0:
64,192,183821,128,0,183903:0:0:0:0:
192,192,183903,1,4,0:0:0:0:
320,192,183903,128,8,184810:0:0:0:0:
448,192,183903,128,2,184562:0:0:0:0:
64,192,184562,128,0,185222:0:0:0:0:
192,192,184810,128,0,185551:0:0:0:0:
448,192,185057,128,0,185386:0:0:0:0:
320,192,185222,128,0,185881:0:0:0:0:
64,192,185551,128,0,186211:0:0:0:0:
448,192,185881,128,0,186540:0:0:0:0:
192,192,186211,128,0,186870:0:0:0:0:
320,192,186540,128,0,187200:0:0:0:0:
64,192,187200,128,0,187694:0:0:0:0:
192,192,187447,128,0,188189:0:0:0:0:
448,192,187694,128,0,188518:0:0:0:0:
320,192,187859,128,0,188848:0:0:0:0:
64,192,188189,128,0,188518:0:0:0:0:
192,192,188518,128,0,189178:0:0:0:0:
448,192,188848,128,0,189507:0:0:0:0:
320,192,189178,128,0,190084:0:0:0:0:
64,192,189837,128,0,190332:0:0:0:0:
192,192,190084,128,0,190661:0:0:0:0:
448,192,190332,128,0,191156:0:0:0:0:
320,192,190496,128,0,190826:0:0:0:0:
64,192,190826,128,0,191485:0:0:0:0:
320,192,191156,128,0,191815:0:0:0:0:
448,192,191485,128,0,191815:0:0:0:0:
64,192,191815,128,0,192310:0:0:0:0:
448,192,192145,128,0,192804:0:0:0:0:
320,192,192474,128,0,193134:0:0:0:0:
64,192,192804,128,0,193628:0:0:0:0:
192,192,193134,128,0,193628:0:0:0:0:
448,192,193628,128,0,193793:0:0:0:0:
320,192,193711,128,0,193793:0:0:0:0:
64,192,193793,1,8,0:0:0:0:
192,192,193793,1,0,0:0:0:0:
320,192,193875,1,8,0:0:0:0:
448,192,193875,1,0,0:0:0:0:
64,192,193958,1,8,0:0:0:0:
192,192,193958,1,0,0:0:0:0:
448,192,194040,1,8,0:0:0:0:
192,192,194123,1,8,0:0:0:0:
320,192,194123,1,0,0:0:0:0:
64,192,194205,1,8,0:0:0:0:
320,192,194288,1,8,0:0:0:0:
448,192,194288,1,0,0:0:0:0:
192,192,194370,1,8,0:0:0:0:
64,192,194452,1,4,0:0:0:0:
320,192,194452,128,8,195112:0:0:0:0:
448,192,194452,128,0,195359:0:0:0:0:
64,192,195112,128,0,195771:0:0:0:0:
192,192,195359,128,0,196101:0:0:0:0:
448,192,195606,1,0,0:0:0:0:
320,192,195771,1,2,0:0:0:0:
448,192,195771,128,0,196430:0:0:0:25:soft-hitfinish.wav
64,192,196101,128,0,196760:0:0:0:0:
192,192,196430,1,2,0:0:0:0:
320,192,196430,128,0,197090:0:0:0:25:soft-hitfinish.wav
192,192,196760,128,0,197419:0:0:0:0:
64,192,197090,128,2,197749:0:0:0:0:
448,192,197090,1,0,0:0:0:25:soft-hitfinish.wav
320,192,197749,1,8,0:0:0:0:
448,192,197749,1,0,0:0:0:0:
64,192,197859,1,8,0:0:0:0:
192,192,197969,1,8,0:0:0:0:
320,192,197969,1,0,0:0:0:0:
448,192,198079,1,8,0:0:0:0:
64,192,198189,1,8,0:0:0:0:
192,192,198189,1,0,0:0:0:0:
320,192,198299,1,8,0:0:0:0:
448,192,198408,128,2,199068:0:0:0:0:
64,192,198738,128,0,199068:0:0:0:0:
192,192,199068,1,2,0:0:0:0:
320,192,199150,1,0,0:0:0:0:
64,192,199233,1,0,0:0:0:0:
192,192,199315,1,0,0:0:0:0:
320,192,199397,128,0,199562:0:0:0:0:
448,192,199397,128,0,199562:0:0:0:0:
192,192,199562,1,0,0:0:0:0:
64,192,199727,1,4,0:0:0:0:
320,192,199727,128,8,199892:0:0:0:0:
448,192,199727,128,0,199810:0:0:0:0:
192,192,199810,1,8,0:0:0:0:
64,192,199892,1,2,0:0:0:0:
448,192,199974,1,8,0:0:0:0:
64,192,200057,1,8,0:0:0:0:
320,192,200057,1,0,0:0:0:0:
192,192,200139,1,8,0:0:0:0:
320,192,200222,1,2,0:0:0:0:
448,192,200304,1,8,0:0:0:0:
64,192,200386,1,8,0:0:0:0:
192,192,200386,1,0,0:0:0:0:
320,192,200469,1,8,0:0:0:0:
192,192,200551,1,2,0:0:0:0:
64,192,200634,1,8,0:0:0:0:
320,192,200716,1,8,0:0:0:0:
448,192,200716,1,0,0:0:0:0:
64,192,200799,1,8,0:0:0:0:
192,192,200881,1,2,0:0:0:0:
320,192,200963,1,8,0:0:0:0:
64,192,201046,128,8,201211:0:0:0:0:
448,192,201046,128,0,201128:0:0:0:0:
320,192,201128,1,8,0:0:0:0:
192,192,201211,1,2,0:0:0:0:
64,192,201293,1,8,0:0:0:0:
192,192,201375,128,8,201458:0:0:0:0:
448,192,201375,128,0,201540:0:0:0:0:
320,192,201458,1,8,0:0:0:0:
64,192,201540,1,2,0:0:0:0:
192,192,201623,1,8,0:0:0:0:
320,192,201705,128,8,201870:0:0:0:0:
448,192,201705,128,0,201788:0:0:0:0:
64,192,201788,1,8,0:0:0:0:
192,192,201870,1,2,0:0:0:0:
448,192,201952,1,8,0:0:0:0:
192,192,202035,128,8,202200:0:0:0:0:
320,192,202035,128,0,202117:0:0:0:0:
64,192,202117,1,8,0:0:0:0:
448,192,202200,1,2,0:0:0:0:
320,192,202282,1,8,0:0:0:0:
64,192,202364,128,8,202529:0:0:0:0:
192,192,202364,128,0,202447:0:0:0:0:
448,192,202447,1,8,0:0:0:0:
320,192,202529,1,2,0:0:0:0:
192,192,202612,1,8,0:0:0:0:
64,192,202694,128,8,202859:0:0:0:0:
448,192,202694,128,0,202777:0:0:0:0:
320,192,202777,1,8,0:0:0:0:
448,192,202859,1,2,0:0:0:0:
192,192,202941,1,8,0:0:0:0:
320,192,203024,128,8,203106:0:0:0:0:
448,192,203024,128,0,203189:0:0:0:0:
192,192,203106,1,8,0:0:0:0:
64,192,203189,1,2,0:0:0:0:
320,192,203271,1,8,0:0:0:0:
64,192,203354,128,8,203436:0:0:0:0:
448,192,203354,128,0,203518:0:0:0:0:
192,192,203436,1,8,0:0:0:0:
320,192,203518,1,2,0:0:0:0:
448,192,203601,1,8,0:0:0:0:
192,192,203683,128,8,203766:0:0:0:0:
320,192,203683,128,0,203848:0:0:0:0:
64,192,203766,1,8,0:0:0:0:
448,192,203848,1,2,0:0:0:0:
320,192,203930,1,8,0:0:0:0:
64,192,204013,1,8,0:0:0:0:
192,192,204013,1,0,0:0:0:0:
320,192,204095,1,8,0:0:0:0:
448,192,204178,1,8,0:0:0:0:
192,192,204260,1,8,0:0:0:0:
64,192,204343,1,2,0:0:0:0:
448,192,204343,1,0,0:0:0:0:
320,192,204425,1,2,0:0:0:0:
64,192,204507,1,2,0:0:0:0:
448,192,204507,1,0,0:0:0:0:
192,192,204590,1,2,0:0:0:0:
64,192,204672,1,8,0:0:0:0:
448,192,204672,1,0,0:0:0:0:
320,192,204755,1,8,0:0:0:0:
64,192,204837,1,8,0:0:0:0:
448,192,204837,1,0,0:0:0:0:
192,192,204919,1,8,0:0:0:0:
320,192,205002,128,2,206156:0:0:0:0:
448,192,205002,1,0,0:0:0:0:
192,192,205084,1,8,0:0:0:0:
64,192,205167,1,8,0:0:0:0:
448,192,205249,1,8,0:0:0:0:
192,192,205332,1,2,0:0:0:0:
64,192,205414,1,8,0:0:0:0:
448,192,205496,1,8,0:0:0:0:
192,192,205579,1,8,0:0:0:0:
64,192,205661,1,2,0:0:0:0:
448,192,205744,1,8,0:0:0:0:
192,192,205826,1,8,0:0:0:0:
64,192,205908,1,8,0:0:0:0:
192,192,205991,1,2,0:0:0:0:
448,192,206073,1,8,0:0:0:0:
192,192,206156,128,8,206321:0:0:0:0:
64,192,206238,128,8,206321:0:0:0:0:
320,192,206321,1,2,0:0:0:0:
448,192,206321,1,0,0:0:0:0:
192,192,206403,1,8,0:0:0:0:
320,192,206485,1,8,0:0:0:0:
448,192,206485,1,0,0:0:0:0:
192,192,206568,1,8,0:0:0:0:
320,192,206650,1,2,0:0:0:0:
448,192,206650,1,0,0:0:0:0:
64,192,206733,1,8,0:0:0:0:
320,192,206815,1,8,0:0:0:0:
448,192,206815,1,0,0:0:0:0:
192,192,206897,1,8,0:0:0:0:
64,192,206980,1,8,0:0:0:0:
448,192,206980,1,0,0:0:0:0:
192,192,207062,1,8,0:0:0:0:
320,192,207062,1,0,0:0:0:0:
64,192,207145,1,8,0:0:0:0:
448,192,207145,1,0,0:0:0:0:
320,192,207227,1,8,0:0:0:0:
64,192,207310,1,8,0:0:0:0:
192,192,207310,1,0,0:0:0:0:
320,192,207392,1,8,0:0:0:0:
448,192,207392,1,0,0:0:0:0:
64,192,207474,1,8,0:0:0:0:
192,192,207474,1,0,0:0:0:0:
320,192,207557,1,8,0:0:0:0:
64,192,207639,1,4,0:0:0:0:
192,192,207639,1,8,0:0:0:0:
448,192,207639,128,0,207804:0:0:0:0:
64,192,207804,1,2,0:0:0:0:
320,192,207886,1,8,0:0:0:0:
192,192,207969,1,8,0:0:0:0:
448,192,207969,1,0,0:0:0:0:
64,192,208051,1,8,0:0:0:0:
448,192,208134,1,2,0:0:0:0:
320,192,208216,1,8,0:0:0:0:
64,192,208299,1,8,0:0:0:0:
448,192,208299,128,0,208381:0:0:0:0:
192,192,208381,1,8,0:0:0:0:
448,192,208463,1,2,0:0:0:0:
192,192,208546,128,8,208628:0:0:0:0:
320,192,208628,1,8,0:0:0:0:
448,192,208628,1,0,0:0:0:0:
64,192,208711,1,8,0:0:0:0:
320,192,208793,128,2,208875:0:0:0:0:
192,192,208875,1,8,0:0:0:0:
64,192,208958,128,8,209123:0:0:0:0:
448,192,208958,128,0,209040:0:0:0:0:
320,192,209040,1,8,0:0:0:0:
448,192,209123,1,2,0:0:0:0:
192,192,209205,1,8,0:0:0:0:
64,192,209288,128,8,209370:0:0:0:0:
448,192,209288,128,0,209452:0:0:0:0:
320,192,209370,1,8,0:0:0:0:
64,192,209452,1,2,0:0:0:0:
192,192,209535,1,8,0:0:0:0:
320,192,209617,128,8,209782:0:0:0:0:
448,192,209617,128,0,209700:0:0:0:0:
64,192,209700,1,8,0:0:0:0:
448,192,209782,1,2,0:0:0:0:
64,192,209864,1,8,0:0:0:0:
192,192,209947,128,8,210112:0:0:0:0:
320,192,209947,128,0,210029:0:0:0:0:
448,192,210029,1,8,0:0:0:0:
320,192,210112,1,2,0:0:0:0:
192,192,210194,1,8,0:0:0:0:
64,192,210277,128,8,210441:0:0:0:0:
448,192,210277,128,0,210359:0:0:0:0:
320,192,210359,1,8,0:0:0:0:
448,192,210441,1,2,0:0:0:0:
192,192,210524,1,8,0:0:0:0:
320,192,210606,1,8,0:0:0:0:
448,192,210606,1,0,0:0:0:0:
64,192,210689,1,8,0:0:0:0:
320,192,210771,1,2,0:0:0:0:
448,192,210854,1,8,0:0:0:0:
64,192,210936,128,8,211018:0:0:0:0:
192,192,210936,1,0,0:0:0:0:
448,192,211018,1,8,0:0:0:0:
64,192,211101,1,2,0:0:0:0:
320,192,211183,128,8,211266:0:0:0:0:
64,192,211266,1,8,0:0:0:0:
448,192,211266,1,0,0:0:0:0:
320,192,211348,1,8,0:0:0:0:
192,192,211430,128,2,211513:0:0:0:0:
448,192,211513,1,8,0:0:0:0:
64,192,211595,128,8,211678:0:0:0:0:
320,192,211595,128,0,211760:0:0:0:0:
192,192,211678,1,8,0:0:0:0:
448,192,211760,1,2,0:0:0:0:
320,192,211843,1,8,0:0:0:0:
64,192,211925,128,8,212007:0:0:0:0:
192,192,211925,128,0,212090:0:0:0:0:
448,192,212007,1,8,0:0:0:0:
320,192,212090,1,2,0:0:0:0:
64,192,212172,1,8,0:0:0:0:
192,192,212255,128,8,212337:0:0:0:0:
448,192,212255,128,0,212419:0:0:0:0:
320,192,212337,1,8,0:0:0:0:
64,192,212419,1,2,0:0:0:0:
448,192,212502,1,8,0:0:0:0:
64,192,212584,128,8,212749:0:0:0:0:
320,192,212584,128,0,212667:0:0:0:0:
448,192,212667,1,8,0:0:0:0:
320,192,212749,1,2,0:0:0:0:
448,192,212832,1,8,0:0:0:0:
64,192,212914,128,8,212996:0:0:0:0:
192,192,212914,128,0,213079:0:0:0:0:
320,192,212996,1,8,0:0:0:0:
64,192,213079,1,2,0:0:0:0:
320,192,213161,1,8,0:0:0:0:
64,192,213244,1,8,0:0:0:0:
448,192,213244,1,0,0:0:0:0:
320,192,213326,1,8,0:0:0:0:
192,192,213408,1,2,0:0:0:0:
64,192,213491,1,8,0:0:0:0:
320,192,213573,1,8,0:0:0:0:
448,192,213573,128,0,213656:0:0:0:0:
192,192,213656,1,8,0:0:0:0:
320,192,213738,1,2,0:0:0:0:
192,192,213821,128,8,213903:0:0:0:0:
64,192,213903,1,8,0:0:0:0:
448,192,213903,1,0,0:0:0:0:
192,192,213985,1,8,0:0:0:0:
320,192,214068,128,2,214150:0:0:0:0:
64,192,214150,1,8,0:0:0:0:
320,192,214233,128,8,214315:0:0:0:0:
448,192,214233,128,0,214397:0:0:0:0:
192,192,214315,1,8,0:0:0:0:
64,192,214397,1,2,0:0:0:0:
448,192,214480,1,8,0:0:0:0:
64,192,214562,128,8,214727:0:0:0:0:
320,192,214562,128,0,214645:0:0:0:0:
192,192,214645,1,8,0:0:0:0:
448,192,214727,1,2,0:0:0:0:
320,192,214810,1,8,0:0:0:0:
64,192,214892,128,8,214974:0:0:0:0:
192,192,214892,128,0,215057:0:0:0:0:
448,192,214974,1,8,0:0:0:0:
320,192,215057,1,2,0:0:0:0:
448,192,215139,1,8,0:0:0:0:
192,192,215222,128,8,215304:0:0:0:0:
320,192,215222,128,0,215386:0:0:0:0:
64,192,215304,1,8,0:0:0:0:
448,192,215386,1,2,0:0:0:0:
192,192,215469,1,8,0:0:0:0:
320,192,215551,128,8,215634:0:0:0:0:
448,192,215551,128,0,215716:0:0:0:0:
64,192,215634,1,8,0:0:0:0:
192,192,215716,1,2,0:0:0:0:
320,192,215799,1,8,0:0:0:0:
64,192,215881,128,8,215963:0:0:0:0:
448,192,215881,128,0,216046:0:0:0:0:
192,192,215963,1,8,0:0:0:0:
64,192,216046,1,2,0:0:0:0:
320,192,216128,1,8,0:0:0:0:
64,192,216211,128,8,216375:0:0:0:0:
192,192,216211,128,0,216293:0:0:0:0:
320,192,216293,1,8,0:0:0:0:
448,192,216375,1,2,0:0:0:0:
192,192,216458,1,8,0:0:0:0:
64,192,216540,128,8,216705:0:0:0:0:
448,192,216540,128,0,216623:0:0:0:0:
320,192,216623,1,8,0:0:0:0:
192,192,216705,1,2,0:0:0:0:
448,192,216788,1,8,0:0:0:0:
64,192,216870,128,8,216952:0:0:0:0:
192,192,216870,128,0,217035:0:0:0:0:
448,192,216952,1,8,0:0:0:0:
320,192,217035,1,2,0:0:0:0:
192,192,217117,1,8,0:0:0:0:
64,192,217200,1,8,0:0:0:0:
448,192,217200,1,0,0:0:0:0:
192,192,217282,1,8,0:0:0:0:
320,192,217364,1,2,0:0:0:0:
192,192,217447,1,8,0:0:0:0:
64,192,217529,1,8,0:0:0:0:
448,192,217529,1,0,0:0:0:0:
320,192,217612,1,8,0:0:0:0:
64,192,217694,1,2,0:0:0:0:
448,192,217694,1,0,0:0:0:0:
192,192,217777,1,8,0:0:0:0:
64,192,217859,1,8,0:0:0:0:
448,192,217859,1,0,0:0:0:0:
320,192,217941,1,8,0:0:0:0:
64,192,218024,1,8,0:0:0:0:
448,192,218024,1,0,0:0:0:0:
192,192,218106,1,8,0:0:0:0:
64,192,218189,1,4,0:0:0:0:
320,192,218189,128,2,218271:0:0:0:0:
448,192,218189,128,0,218271:0:0:0:0:
192,192,218271,1,8,0:0:0:0:
320,192,218354,1,8,0:0:0:0:
448,192,218354,1,0,0:0:0:0:
64,192,218518,128,2,218601:0:0:0:0:
192,192,218518,128,0,218601:0:0:0:0:
320,192,218601,1,8,0:0:0:0:
448,192,218601,1,0,0:0:0:0:
64,192,218683,1,8,0:0:0:0:
192,192,218683,1,0,0:0:0:0:
64,192,218848,128,2,218930:0:0:0:0:
448,192,218848,128,0,218930:0:0:0:0:
192,192,218930,1,8,0:0:0:0:
320,192,218930,1,0,0:0:0:0:
64,192,219013,1,8,0:0:0:0:
448,192,219013,1,0,0:0:0:0:
192,192,219178,128,2,219260:0:0:0:0:
320,192,219178,128,0,219260:0:0:0:0:
64,192,219260,1,8,0:0:0:0:
448,192,219260,1,0,0:0:0:0:
192,192,219343,1,8,0:0:0:0:
320,192,219343,1,0,0:0:0:0:
320,192,219507,128,2,219590:0:0:0:0:
448,192,219507,128,0,219590:0:0:0:0:
64,192,219590,1,8,0:0:0:0:
192,192,219590,1,0,0:0:0:0:
320,192,219672,1,8,0:0:0:0:
448,192,219672,1,0,0:0:0:0:
64,192,219837,128,2,219919:0:0:0:0:
192,192,219837,128,0,219919:0:0:0:0:
320,192,219919,1,8,0:0:0:0:
448,192,219919,1,0,0:0:0:0:
64,192,220002,1,8,0:0:0:0:
192,192,220002,1,0,0:0:0:0:
64,192,220167,128,2,220249:0:0:0:0:
448,192,220167,128,0,220249:0:0:0:0:
192,192,220249,1,8,0:0:0:0:
320,192,220249,1,0,0:0:0:0:
64,192,220332,1,8,0:0:0:0:
448,192,220332,1,0,0:0:0:0:
192,192,220496,128,2,220579:0:0:0:0:
320,192,220496,128,0,220579:0:0:0:0:
64,192,220579,1,8,0:0:0:0:
448,192,220579,1,0,0:0:0:0:
192,192,220661,1,8,0:0:0:0:
320,192,220661,1,0,0:0:0:0:
320,192,220826,128,2,220908:0:0:0:0:
448,192,220826,128,0,220908:0:0:0:0:
64,192,220908,1,8,0:0:0:0:
192,192,220908,1,0,0:0:0:0:
320,192,220991,1,8,0:0:0:0:
448,192,220991,1,0,0:0:0:0:
64,192,221156,128,2,221238:0:0:0:0:
192,192,221156,128,0,221238:0:0:0:0:
320,192,221238,1,8,0:0:0:0:
448,192,221238,1,0,0:0:0:0:
64,192,221321,1,8,0:0:0:0:
192,192,221321,1,0,0:0:0:0:
192,192,221485,128,2,221568:0:0:0:0:
448,192,221485,128,0,221568:0:0:0:0:
64,192,221568,1,8,0:0:0:0:
320,192,221568,1,0,0:0:0:0:
192,192,221650,1,8,0:0:0:0:
448,192,221650,1,0,0:0:0:0:
64,192,221815,128,2,221897:0:0:0:0:
320,192,221815,128,0,221897:0:0:0:0:
192,192,221897,1,8,0:0:0:0:
448,192,221897,1,0,0:0:0:0:
64,192,221980,1,8,0:0:0:0:
320,192,221980,1,0,0:0:0:0:
64,192,222145,128,2,222227:0:0:0:0:
448,192,222145,128,0,222227:0:0:0:0:
192,192,222227,1,8,0:0:0:0:
320,192,222227,1,0,0:0:0:0:
64,192,222310,1,8,0:0:0:0:
448,192,222310,1,0,0:0:0:0:
192,192,222474,128,2,222557:0:0:0:0:
320,192,222474,128,0,222557:0:0:0:0:
64,192,222557,1,8,0:0:0:0:
448,192,222557,1,0,0:0:0:0:
192,192,222639,1,8,0:0:0:0:
320,192,222639,1,0,0:0:0:0:
64,192,222804,128,2,222886:0:0:0:0:
192,192,222804,128,0,222886:0:0:0:0:
320,192,222886,1,8,0:0:0:0:
448,192,222886,1,0,0:0:0:0:
64,192,222969,1,8,0:0:0:0:
192,192,222969,1,0,0:0:0:0:
320,192,223134,128,2,223216:0:0:0:0:
448,192,223134,128,0,223216:0:0:0:0:
64,192,223216,1,8,0:0:0:0:
192,192,223216,1,0,0:0:0:0:
320,192,223299,1,8,0:0:0:0:
448,192,223299,1,0,0:0:0:0:
64,192,223463,128,2,223546:0:0:0:0:
192,192,223463,128,0,223628:0:0:0:0:
448,192,223546,1,8,0:0:0:0:
320,192,223628,1,8,0:0:0:0:
64,192,223711,1,8,0:0:0:0:
320,192,223793,1,2,0:0:0:0:
448,192,223793,1,0,0:0:0:0:
192,192,223875,1,8,0:0:0:0:
448,192,223958,1,8,0:0:0:0:
64,192,224040,1,8,0:0:0:0:
192,192,224123,1,2,0:0:0:0:
320,192,224123,128,0,224205:0:0:0:0:
64,192,224205,1,8,0:0:0:0:
320,192,224288,1,8,0:0:0:0:
448,192,224370,128,8,224452:0:0:0:0:
64,192,224452,1,2,0:0:0:0:
192,192,224452,1,0,0:0:0:0:
320,192,224535,1,8,0:0:0:0:
64,192,224617,128,8,224700:0:0:0:0:
320,192,224700,1,8,0:0:0:0:
192,192,224782,128,2,224864:0:0:0:0:
448,192,224782,128,0,224947:0:0:0:0:
64,192,224864,1,8,0:0:0:0:
320,192,224947,1,8,0:0:0:0:
192,192,225029,1,8,0:0:0:0:
64,192,225112,128,2,225277:0:0:0:0:
320,192,225112,128,0,225194:0:0:0:0:
448,192,225194,1,8,0:0:0:0:
320,192,225277,1,8,0:0:0:0:
448,192,225359,1,8,0:0:0:0:
64,192,225441,128,2,225524:0:0:0:0:
192,192,225441,128,0,225606:0:0:0:0:
320,192,225524,1,8,0:0:0:0:
448,192,225606,1,8,0:0:0:0:
64,192,225689,1,8,0:0:0:0:
192,192,225771,128,2,225854:0:0:0:0:
320,192,225771,128,0,225936:0:0:0:0:
448,192,225854,1,8,0:0:0:0:
192,192,225936,1,8,0:0:0:0:
64,192,226018,1,8,0:0:0:0:
320,192,226101,128,2,226183:0:0:0:0:
448,192,226101,128,0,226266:0:0:0:0:
192,192,226183,1,8,0:0:0:0:
64,192,226266,1,8,0:0:0:0:
320,192,226348,1,8,0:0:0:0:
64,192,226430,128,2,226513:0:0:0:0:
448,192,226430,128,0,226595:0:0:0:0:
192,192,226513,1,8,0:0:0:0:
320,192,226595,1,8,0:0:0:0:
448,192,226678,1,8,0:0:0:0:
64,192,226760,128,2,226925:0:0:0:0:
192,192,226760,128,0,226843:0:0:0:0:
448,192,226843,1,8,0:0:0:0:
320,192,226925,1,8,0:0:0:0:
192,192,227007,1,8,0:0:0:0:
64,192,227090,128,2,227255:0:0:0:0:
320,192,227090,128,0,227172:0:0:0:0:
448,192,227172,1,8,0:0:0:0:
320,192,227255,1,8,0:0:0:0:
64,192,227337,1,8,0:0:0:0:
192,192,227419,128,2,227584:0:0:0:0:
320,192,227419,128,0,227502:0:0:0:0:
448,192,227502,1,8,0:0:0:0:
64,192,227584,1,8,0:0:0:0:
320,192,227667,1,8,0:0:0:0:
192,192,227749,1,2,0:0:0:0:
448,192,227749,1,0,0:0:0:0:
320,192,227832,1,8,0:0:0:0:
64,192,227914,1,8,0:0:0:0:
320,192,227996,1,8,0:0:0:0:
192,192,228079,1,2,0:0:0:0:
448,192,228079,1,0,0:0:0:0:
320,192,228161,1,8,0:0:0:0:
64,192,228244,1,8,0:0:0:0:
448,192,228244,1,0,0:0:0:0:
192,192,228326,1,8,0:0:0:0:
64,192,228408,1,8,0:0:0:0:
448,192,228408,1,0,0:0:0:0:
320,192,228491,1,8,0:0:0:0:
64,192,228573,1,8,0:0:0:0:
448,192,228573,1,0,0:0:0:0:
192,192,228656,1,8,0:0:0:0:
64,192,228738,1,4,0:0:0:0:
320,192,228738,128,2,228821:0:0:0:0:
448,192,228738,128,0,228821:0:0:0:0:
192,192,228821,1,8,0:0:0:0:
320,192,228903,1,8,0:0:0:0:
448,192,228903,1,0,0:0:0:0:
64,192,229068,128,2,229150:0:0:0:0:
192,192,229068,128,0,229150:0:0:0:0:
320,192,229150,1,8,0:0:0:0:
448,192,229150,1,0,0:0:0:0:
64,192,229233,1,8,0:0:0:0:
192,192,229233,1,0,0:0:0:0:
64,192,229397,128,2,229480:0:0:0:0:
448,192,229397,128,0,229480:0:0:0:0:
192,192,229480,1,8,0:0:0:0:
320,192,229480,1,0,0:0:0:0:
64,192,229562,1,8,0:0:0:0:
448,192,229562,1,0,0:0:0:0:
192,192,229727,128,2,229810:0:0:0:0:
320,192,229727,128,0,229810:0:0:0:0:
64,192,229810,1,8,0:0:0:0:
448,192,229810,1,0,0:0:0:0:
192,192,229892,1,8,0:0:0:0:
320,192,229892,1,0,0:0:0:0:
320,192,230057,128,2,230139:0:0:0:0:
448,192,230057,128,0,230139:0:0:0:0:
64,192,230139,1,8,0:0:0:0:
192,192,230139,1,0,0:0:0:0:
320,192,230222,1,8,0:0:0:0:
448,192,230222,1,0,0:0:0:0:
64,192,230386,128,2,230469:0:0:0:0:
192,192,230386,128,0,230469:0:0:0:0:
320,192,230469,1,8,0:0:0:0:
448,192,230469,1,0,0:0:0:0:
64,192,230551,1,8,0:0:0:0:
192,192,230551,1,0,0:0:0:0:
64,192,230716,1,2,0:0:0:0:
448,192,230716,128,0,230799:0:0:0:0:
320,192,230799,1,8,0:0:0:0:
64,192,230881,128,8,230963:0:0:0:0:
192,192,230881,1,0,0:0:0:0:
448,192,230963,1,8,0:0:0:0:
192,192,231046,128,8,231128:0:0:0:0:
320,192,231046,1,0,0:0:0:0:
64,192,231128,1,8,0:0:0:0:
320,192,231211,128,8,231293:0:0:0:0:
448,192,231211,1,0,0:0:0:0:
192,192,231293,1,8,0:0:0:0:
64,192,231375,128,4,231705:0:0:0:0:
320,192,231375,1,2,0:0:0:0:
448,192,231375,128,0,231705:0:0:0:0:
192,192,231705,1,8,0:0:0:0:
320,192,231705,1,0,0:0:0:0:
64,192,231815,128,8,232035:0:0:0:0:
448,192,231815,128,0,231925:0:0:0:0:
192,192,231925,128,8,232035:0:0:0:0:
320,192,232035,128,2,232364:0:0:0:0:
448,192,232035,128,0,232364:0:0:0:0:
64,192,232364,1,8,0:0:0:0:
192,192,232364,1,0,0:0:0:0:
320,192,232474,128,8,232584:0:0:0:0:
448,192,232474,128,0,232694:0:0:0:0:
64,192,232584,128,8,232694:0:0:0:0:
192,192,232694,128,2,233024:0:0:0:0:
320,192,232694,128,0,233024:0:0:0:0:
64,192,233024,128,8,233244:0:0:0:0:
448,192,233024,128,0,233134:0:0:0:0:
192,192,233134,128,8,233354:0:0:0:0:
320,192,233244,128,8,233463:0:0:0:0:
64,192,233354,128,2,233573:0:0:0:0:
448,192,233354,128,0,233463:0:0:0:0:
192,192,233463,128,8,233683:0:0:0:0:
320,192,233573,128,8,233793:0:0:0:0:
64,192,233683,128,2,233903:0:0:0:0:
448,192,233683,128,0,233793:0:0:0:0:
192,192,233793,128,8,234013:0:0:0:0:
320,192,233903,128,8,234013:0:0:0:0:
64,192,234013,128,4,234343:0:0:0:0:
448,192,234013,128,2,234343:0:0:0:0:
192,192,234343,1,8,0:0:0:0:
320,192,234343,1,0,0:0:0:0:
64,192,234452,128,8,234562:0:0:0:0:
448,192,234452,128,0,234672:0:0:0:0:
320,192,234562,128,8,234672:0:0:0:0:
64,192,234672,128,2,235002:0:0:0:0:
192,192,234672,128,0,235002:0:0:0:0:
320,192,235002,1,8,0:0:0:0:
448,192,235002,1,0,0:0:0:0:
64,192,235112,128,8,235222:0:0:0:0:
192,192,235112,128,0,235332:0:0:0:0:
448,192,235222,128,8,235332:0:0:0:0:
64,192,235332,128,2,235661:0:0:0:0:
320,192,235332,128,4,235661:0:0:0:0:
192,192,235661,1,8,0:0:0:0:
448,192,235661,128,0,235881:0:0:0:0:
320,192,235771,128,8,235991:0:0:0:0:
192,192,235881,128,8,236101:0:0:0:0:
64,192,235991,128,2,236101:0:0:0:0:
448,192,235991,128,0,236211:0:0:0:0:
320,192,236101,128,8,236321:0:0:0:0:
192,192,236211,128,8,236430:0:0:0:0:
64,192,236321,128,2,236430:0:0:0:0:
448,192,236321,128,0,236540:0:0:0:0:
320,192,236430,128,8,236650:0:0:0:0:
192,192,236540,128,8,236650:0:0:0:0:
64,192,236650,128,14,239947:0:0:0:0:
448,192,236650,128,0,239947:0:0:0:25:soft-hitfinish.wav
