osu file format v14

[General]
AudioFilename: audio.mp3
AudioLeadIn: 0
PreviewTime: 183573
Countdown: 0
SampleSet: Soft
StackLeniency: 0.7
Mode: 3
LetterboxInBreaks: 0
SpecialStyle: 0
WidescreenStoryboard: 1

[Editor]
DistanceSpacing: 0.7
BeatDivisor: 3
GridSize: 32
TimelineZoom: 2.1

[Metadata]
Title:Ange du Blanc Pur
TitleUnicode:Ange du Blanc Pur
Artist:ke-ji feat. Nanahira
ArtistUnicode:ke-ji feat. ななひら
Creator:secXcscX
Version:Easy
Source:
Tags:japanese metal しらこいし shirakoishi rock jrock j-rock confetto colory starry 4th album CFCD-0009
BeatmapID:4133542
BeatmapSetID:1989721

[Difficulty]
HPDrainRate:7
CircleSize:4
OverallDifficulty:7
ApproachRate:5
SliderMultiplier:1.4
SliderTickRate:1

[Events]
//Background and Video events
0,0,"bg.jpg",0,0
//Break Periods
//Storyboard Layer 0 (Background)
//Storyboard Layer 1 (Fail)
//Storyboard Layer 2 (Pass)
//Storyboard Layer 3 (Foreground)
//Storyboard Layer 4 (Overlay)
//Storyboard Sound Samples
Sample,38191,0,"soft-hitfinish.wav",25
Sample,38850,0,"soft-hitfinish.wav",25
Sample,39509,0,"soft-hitfinish.wav",25
Sample,39839,0,"soft-hitfinish.wav",25
Sample,40828,0,"soft-hitfinish.wav",25
Sample,41487,0,"soft-hitfinish.wav",25
Sample,42147,0,"soft-hitfinish.wav",25
Sample,42476,0,"soft-hitfinish.wav",25
Sample,45773,0,"soft-hitfinish.wav",25
Sample,46102,0,"soft-hitfinish.wav",25
Sample,62585,0,"soft-hitfinish.wav",25
Sample,63574,0,"soft-hitfinish.wav",25
Sample,63903,0,"soft-hitfinish.wav",25
Sample,64563,0,"soft-hitfinish.wav",25
Sample,69672,0,"soft-hitfinish.wav",25
Sample,70002,0,"soft-hitfinish.wav",25
Sample,82365,0,"soft-hitfinish.wav",25
Sample,83354,0,"soft-hitfinish.wav",25
Sample,83683,0,"soft-hitfinish.wav",25
Sample,85332,0,"soft-hitfinish.wav",25
Sample,93244,0,"soft-hitfinish.wav",25
Sample,95881,0,"soft-hitfinish.wav",25
Sample,96375,0,"soft-hitfinish.wav",25
Sample,96870,0,"soft-hitfinish.wav",25
Sample,156540,0,"soft-hitfinish.wav",25
Sample,163133,0,"soft-hitfinish.wav",25
Sample,163793,0,"soft-hitfinish.wav",25
Sample,164452,0,"soft-hitfinish.wav",25
Sample,164782,0,"soft-hitfinish.wav",25
Sample,165771,0,"soft-hitfinish.wav",25
Sample,166430,0,"soft-hitfinish.wav",25
Sample,167090,0,"soft-hitfinish.wav",25
Sample,167419,0,"soft-hitfinish.wav",25
Sample,170716,0,"soft-hitfinish.wav",25
Sample,171045,0,"soft-hitfinish.wav",25
Sample,178628,0,"soft-hitfinish.wav",25
Sample,181266,0,"soft-hitfinish.wav",25
Sample,181760,0,"soft-hitfinish.wav",25
Sample,182255,0,"soft-hitfinish.wav",25

[TimingPoints]
2275,333.333333333333,4,2,1,22,1,0
2275,-99.009900990099,4,2,1,22,0,0
16274,372.670807453416,4,2,1,22,1,0
16274,-88.4955752212389,4,2,1,22,0,0
16646,483.870967741935,4,2,1,22,1,0
16646,-68.0272108843537,4,2,1,22,0,0
16887,545.454545454546,4,2,1,22,1,0
16887,-60.6060606060606,4,2,1,22,0,0
17159,416.666666666667,4,2,1,22,1,0
17159,-79.3650793650794,4,2,1,22,0,0
17367,600,4,2,1,22,1,0
17367,-54.9450549450549,4,2,1,22,0,0
17967,833.333333333333,4,2,1,22,1,0
17967,-39.6825396825397,4,2,1,22,0,0
18383,869.565217391304,4,2,1,22,1,0
18383,-38.0228136882129,4,2,1,22,0,0
19252,1016.94915254237,4,2,1,22,1,0
19252,-32.4675324675325,4,2,1,22,0,0
20268,1000,4,2,1,22,1,0
20268,-33.003300330033,4,2,1,22,0,0
24268,333.333333333333,4,2,1,22,1,0
24268,-99.009900990099,4,2,1,22,0,0
32257,329.67032967033,4,2,1,22,1,0
42806,329.67032967033,3,2,1,22,1,0
46432,329.67032967033,3,2,1,22,1,0
48410,329.67032967033,4,2,1,22,1,0
61596,329.67032967033,3,2,1,22,1,0
65552,329.67032967033,4,2,1,22,1,0
81376,329.67032967033,3,2,1,22,1,0
85332,329.67032967033,4,2,1,22,1,0
122255,329.67032967033,6,2,1,22,1,0
136101,329.67032967033,4,2,1,22,1,0
167749,329.67032967033,3,2,1,22,1,0
171376,329.67032967033,3,2,1,22,1,0
173354,329.67032967033,4,2,1,22,1,0

[HitObjects]
64,192,2274,128,4,2941:0:0:0:0:
320,192,2941,1,0,0:0:0:0:
192,192,3274,1,0,0:0:0:0:
64,192,3608,1,0,0:0:0:0:
448,192,3941,1,0,0:0:0:0:
192,192,4274,128,0,4941:0:0:0:0:
448,192,4941,1,0,0:0:0:0:
64,192,5274,1,0,0:0:0:0:
192,192,5608,1,0,0:0:0:0:
320,192,5941,1,0,0:0:0:0:
64,192,6274,128,0,6941:0:0:0:0:
448,192,6941,1,0,0:0:0:0:
192,192,7274,1,0,0:0:0:0:
320,192,7608,1,0,0:0:0:0:
64,192,7941,1,0,0:0:0:0:
448,192,8274,128,0,8941:0:0:0:0:
64,192,8941,1,0,0:0:0:0:
320,192,9274,1,0,0:0:0:0:
192,192,9608,1,0,0:0:0:0:
448,192,9941,1,0,0:0:0:0:
64,192,10274,128,0,10941:0:0:0:0:
448,192,10941,1,0,0:0:0:0:
320,192,11274,1,0,0:0:0:0:
192,192,11608,1,0,0:0:0:0:
64,192,11941,1,0,0:0:0:0:
448,192,12274,128,0,12941:0:0:0:0:
64,192,12941,1,0,0:0:0:0:
192,192,13274,1,0,0:0:0:0:
320,192,13608,1,0,0:0:0:0:
448,192,13941,1,0,0:0:0:0:
192,192,14274,128,0,14941:0:0:0:0:
448,192,14941,1,0,0:0:0:0:
320,192,15274,1,0,0:0:0:0:
192,192,15608,1,0,0:0:0:0:
64,192,15941,1,0,0:0:0:0:
320,192,16274,128,0,17159:0:0:0:0:
192,192,17159,128,0,18383:0:0:0:0:
64,192,18383,128,0,21768:0:0:0:0:
448,192,24268,1,0,0:0:0:0:
448,192,25184,1,0,0:0:0:0:
64,192,27601,1,0,0:0:0:0:
64,192,28517,1,0,0:0:0:0:
64,192,32257,1,4,0:0:0:0:
448,192,32257,1,2,0:0:0:0:
320,192,32586,128,0,32916:0:0:0:0:
192,192,32916,1,2,0:0:0:0:
320,192,33246,128,0,33575:0:0:0:0:
64,192,33575,1,2,0:0:0:0:
448,192,33575,1,0,0:0:0:0:
192,192,33905,128,0,34235:0:0:0:0:
320,192,34235,1,2,0:0:0:0:
192,192,34564,128,8,34894:0:0:0:0:
64,192,34894,1,2,0:0:0:0:
448,192,34894,1,0,0:0:0:0:
448,192,35224,128,0,35553:0:0:0:0:
192,192,35553,1,2,0:0:0:0:
320,192,35883,128,0,36213:0:0:0:0:
64,192,36213,1,2,0:0:0:0:
448,192,36213,1,0,0:0:0:0:
64,192,36542,128,8,36872:0:0:0:0:
320,192,36872,1,2,0:0:0:0:
192,192,37202,128,8,37531:0:0:0:0:
320,192,37531,1,2,0:0:0:0:
448,192,37531,1,0,0:0:0:25:soft-hitfinish.wav
64,192,37861,128,8,38191:0:0:0:0:
320,192,38191,1,2,0:0:0:0:
192,192,38520,128,8,38850:0:0:0:0:
448,192,38850,1,2,0:0:0:0:
320,192,39180,128,8,39509:0:0:0:0:
64,192,39509,128,2,39839:0:0:0:0:
448,192,39839,128,2,40169:0:0:0:0:
64,192,40169,1,2,0:0:0:0:
192,192,40169,1,0,0:0:0:25:soft-hitfinish.wav
448,192,40498,128,8,40828:0:0:0:0:
192,192,40828,1,2,0:0:0:0:
320,192,41158,128,8,41487:0:0:0:0:
64,192,41487,1,2,0:0:0:0:
192,192,41817,128,8,42147:0:0:0:0:
448,192,42147,128,2,42476:0:0:0:0:
64,192,42476,128,2,42806:0:0:0:0:
320,192,42806,1,4,0:0:0:0:
448,192,42806,1,8,0:0:0:0:
192,192,42970,1,0,0:0:0:0:
64,192,43135,1,0,0:0:0:0:
320,192,43300,128,8,43795:0:0:0:0:
64,192,43795,1,8,0:0:0:0:
448,192,43959,1,0,0:0:0:0:
320,192,44124,1,0,0:0:0:0:
192,192,44289,128,8,44784:0:0:0:0:
320,192,44784,1,8,0:0:0:0:
64,192,44948,1,0,0:0:0:0:
192,192,45113,1,0,0:0:0:0:
448,192,45278,128,8,45773:0:0:0:0:
320,192,45773,128,8,46102:0:0:0:0:
64,192,46102,128,8,46432:0:0:0:0:
320,192,46432,1,4,0:0:0:0:
448,192,46432,1,8,0:0:0:0:
192,192,46596,1,0,0:0:0:0:
64,192,46761,1,0,0:0:0:0:
320,192,46926,128,8,47421:0:0:0:0:
64,192,47421,1,8,0:0:0:0:
448,192,47585,1,0,0:0:0:0:
320,192,47750,1,0,0:0:0:0:
192,192,47915,128,8,48410:0:0:0:0:
448,192,48410,128,8,48739:0:0:0:0:
64,192,48739,128,8,49069:0:0:0:0:
192,192,49069,128,8,49399:0:0:0:0:
320,192,49399,128,8,49728:0:0:0:0:
448,192,49728,128,8,50058:0:0:0:0:
192,192,50058,128,8,50388:0:0:0:0:
64,192,50388,1,2,0:0:0:0:
448,192,50388,1,0,0:0:0:25:soft-hitfinish.wav
64,192,51047,1,4,0:0:0:0:
320,192,51047,1,8,0:0:0:0:
192,192,51377,1,2,0:0:0:0:
448,192,51541,1,8,0:0:0:0:
64,192,51871,1,8,0:0:0:0:
320,192,52036,1,2,0:0:0:0:
448,192,52201,1,8,0:0:0:0:
192,192,52530,1,8,0:0:0:0:
448,192,52695,1,2,0:0:0:0:
192,192,52860,1,8,0:0:0:0:
320,192,53190,1,8,0:0:0:0:
64,192,53355,1,2,0:0:0:0:
320,192,53519,1,8,0:0:0:0:
192,192,53849,1,8,0:0:0:0:
64,192,54014,1,2,0:0:0:0:
448,192,54179,1,8,0:0:0:0:
320,192,54508,1,8,0:0:0:0:
448,192,54673,1,2,0:0:0:0:
64,192,54838,1,8,0:0:0:0:
320,192,55168,1,8,0:0:0:0:
192,192,55333,1,2,0:0:0:0:
448,192,55497,1,8,0:0:0:0:
192,192,55827,1,8,0:0:0:0:
320,192,55992,1,2,0:0:0:0:
64,192,56157,1,8,0:0:0:0:
448,192,56486,1,8,0:0:0:0:
320,192,56651,1,2,0:0:0:0:
192,192,56816,1,8,0:0:0:0:
64,192,57146,1,8,0:0:0:0:
192,192,57311,1,2,0:0:0:0:
320,192,57475,1,8,0:0:0:0:
64,192,57805,1,8,0:0:0:0:
448,192,57970,1,2,0:0:0:0:
64,192,58135,1,8,0:0:0:0:
448,192,58464,1,8,0:0:0:0:
64,192,58629,1,2,0:0:0:0:
448,192,58794,1,8,0:0:0:0:
320,192,59124,1,8,0:0:0:0:
64,192,59289,1,2,0:0:0:0:
192,192,59453,1,8,0:0:0:0:
192,192,59783,1,8,0:0:0:0:
448,192,59948,1,2,0:0:0:0:
320,192,60113,1,8,0:0:0:0:
320,192,60442,1,8,0:0:0:0:
192,192,60607,1,2,0:0:0:0:
64,192,60772,1,8,0:0:0:0:
320,192,61102,1,8,0:0:0:0:
192,192,61267,128,2,61596:0:0:0:0:
64,192,61596,1,4,0:0:0:0:
448,192,61596,1,2,0:0:0:0:
448,192,61925,1,8,0:0:0:0:
192,192,62255,1,8,0:0:0:0:
192,192,62585,1,8,0:0:0:0:
448,192,62914,128,2,63244:0:0:0:0:
320,192,63244,128,8,63574:0:0:0:0:
64,192,63574,1,2,0:0:0:0:
64,192,63903,1,8,0:0:0:0:
320,192,64233,1,8,0:0:0:0:
320,192,64563,1,8,0:0:0:0:
64,192,64892,128,2,65222:0:0:0:0:
192,192,65222,128,8,65552:0:0:0:0:
320,192,65552,1,4,0:0:0:0:
448,192,65552,1,2,0:0:0:0:
64,192,65881,1,8,0:0:0:0:
192,192,66211,1,8,0:0:0:0:
448,192,66541,1,8,0:0:0:0:
320,192,66870,1,8,0:0:0:0:
192,192,67200,1,8,0:0:0:0:
64,192,67530,1,8,0:0:0:0:
320,192,67859,1,8,0:0:0:0:
192,192,68189,128,8,68519:0:0:0:0:
448,192,68519,128,8,68848:0:0:0:0:
64,192,68848,128,2,69178:0:0:0:0:
320,192,69178,128,2,69508:0:0:0:0:
64,192,69508,1,4,0:0:0:0:
448,192,69508,1,8,0:0:0:0:
320,192,69672,1,2,0:0:0:0:
192,192,69837,1,12,0:0:0:0:
64,192,70002,1,2,0:0:0:0:
320,192,70332,128,8,70826:0:0:0:0:
64,192,70826,1,4,0:0:0:0:
192,192,70826,1,8,0:0:0:0:
448,192,71156,1,2,0:0:0:0:
320,192,71321,1,8,0:0:0:0:
64,192,71650,1,8,0:0:0:0:
448,192,71815,1,2,0:0:0:0:
192,192,71980,1,8,0:0:0:0:
320,192,72310,1,8,0:0:0:0:
64,192,72475,1,2,0:0:0:0:
192,192,72639,1,8,0:0:0:0:
448,192,72969,1,8,0:0:0:0:
192,192,73134,1,2,0:0:0:0:
320,192,73299,1,8,0:0:0:0:
192,192,73628,1,8,0:0:0:0:
64,192,73793,1,2,0:0:0:0:
448,192,73958,1,8,0:0:0:0:
320,192,74288,1,8,0:0:0:0:
192,192,74453,1,2,0:0:0:0:
64,192,74617,1,8,0:0:0:0:
448,192,74947,1,8,0:0:0:0:
320,192,75112,1,2,0:0:0:0:
192,192,75277,1,8,0:0:0:0:
64,192,75606,1,8,0:0:0:0:
448,192,75771,1,2,0:0:0:0:
320,192,75936,1,8,0:0:0:0:
64,192,76266,1,8,0:0:0:0:
192,192,76431,1,2,0:0:0:0:
320,192,76595,1,8,0:0:0:0:
64,192,76925,1,8,0:0:0:0:
448,192,77090,1,2,0:0:0:0:
192,192,77255,1,8,0:0:0:0:
320,192,77584,1,8,0:0:0:0:
448,192,77749,1,2,0:0:0:0:
64,192,77914,1,8,0:0:0:0:
192,192,78244,1,8,0:0:0:0:
448,192,78409,1,2,0:0:0:0:
192,192,78573,1,8,0:0:0:0:
320,192,78903,1,8,0:0:0:0:
64,192,79068,1,2,0:0:0:0:
448,192,79233,1,8,0:0:0:0:
448,192,79562,1,8,0:0:0:0:
320,192,79727,1,2,0:0:0:0:
192,192,79892,1,8,0:0:0:0:
192,192,80222,1,8,0:0:0:0:
448,192,80387,1,2,0:0:0:0:
320,192,80552,1,8,0:0:0:0:
320,192,80881,1,8,0:0:0:0:
64,192,81046,128,2,81376:0:0:0:0:
320,192,81376,1,8,0:0:0:0:
448,192,81376,1,4,0:0:0:0:
448,192,81705,1,8,0:0:0:0:
192,192,82035,1,8,0:0:0:0:
192,192,82365,1,8,0:0:0:0:
448,192,82694,128,2,83024:0:0:0:0:
64,192,83024,128,8,83354:0:0:0:0:
320,192,83354,1,8,0:0:0:0:
320,192,83683,1,8,0:0:0:0:
64,192,84013,1,8,0:0:0:0:
64,192,84343,1,8,0:0:0:0:
448,192,84672,128,2,85002:0:0:0:0:
192,192,85002,128,8,85332:0:0:0:0:
320,192,85332,1,2,0:0:0:0:
64,192,85661,1,8,0:0:0:0:
448,192,85991,1,8,0:0:0:0:
192,192,86321,1,8,0:0:0:0:
320,192,86650,1,8,0:0:0:0:
64,192,86980,1,8,0:0:0:0:
192,192,87310,1,8,0:0:0:0:
320,192,87639,1,8,0:0:0:0:
448,192,87969,128,8,88299:0:0:0:0:
64,192,88299,128,8,88628:0:0:0:0:
192,192,88628,128,2,88958:0:0:0:0:
320,192,88958,128,2,89288:0:0:0:0:
64,192,89288,1,4,0:0:0:0:
448,192,89288,1,8,0:0:0:0:
192,192,89452,1,2,0:0:0:0:
448,192,89617,1,12,0:0:0:0:
192,192,89782,1,2,0:0:0:0:
320,192,90112,128,8,90606:0:0:0:0:
64,192,90606,1,4,0:0:0:0:
192,192,90606,1,8,0:0:0:0:
64,192,90936,1,2,0:0:0:0:
448,192,91266,1,8,0:0:0:0:
320,192,91430,1,8,0:0:0:0:
192,192,91595,1,2,0:0:0:0:
448,192,91925,1,8,0:0:0:0:
448,192,92255,1,2,0:0:0:0:
64,192,92584,1,8,0:0:0:0:
192,192,92749,1,8,0:0:0:0:
320,192,92914,1,2,0:0:0:0:
64,192,93244,1,2,0:0:0:0:
448,192,93408,1,8,0:0:0:0:
192,192,93573,128,2,93903:0:0:0:0:
320,192,93903,1,2,0:0:0:0:
64,192,94068,1,8,0:0:0:0:
448,192,94233,128,2,94562:0:0:0:0:
320,192,94562,1,2,0:0:0:0:
64,192,94727,1,8,0:0:0:0:
192,192,94892,128,2,95222:0:0:0:0:
448,192,95222,1,2,0:0:0:0:
64,192,95386,1,8,0:0:0:0:
320,192,95551,128,8,95881:0:0:0:0:
64,192,95881,1,2,0:0:0:0:
192,192,96046,1,8,0:0:0:0:
448,192,96211,1,8,0:0:0:0:
320,192,96375,1,2,0:0:0:0:
64,192,96705,1,8,0:0:0:0:
192,192,96870,1,2,0:0:0:0:
320,192,97035,1,8,0:0:0:0:
448,192,97200,128,2,97859:0:0:0:0:
192,192,97859,1,2,0:0:0:0:
320,192,98189,1,0,0:0:0:0:
64,192,98518,1,4,0:0:0:0:
448,192,98518,1,8,0:0:0:0:
192,192,98683,1,0,0:0:0:0:
64,192,98848,1,8,0:0:0:0:
320,192,99178,1,8,0:0:0:0:
448,192,99178,1,0,0:0:0:0:
64,192,99342,1,2,0:0:0:0:
320,192,99507,1,8,0:0:0:0:
64,192,99837,1,8,0:0:0:0:
192,192,99837,1,0,0:0:0:0:
448,192,100002,1,2,0:0:0:0:
192,192,100167,1,8,0:0:0:0:
64,192,100496,1,8,0:0:0:0:
320,192,100496,1,0,0:0:0:0:
448,192,100661,1,2,0:0:0:0:
64,192,100826,1,8,0:0:0:0:
192,192,101156,1,8,0:0:0:0:
448,192,101156,1,0,0:0:0:0:
64,192,101321,1,2,0:0:0:0:
448,192,101485,1,8,0:0:0:0:
64,192,101815,1,8,0:0:0:0:
320,192,101815,1,0,0:0:0:0:
192,192,101980,1,2,0:0:0:0:
64,192,102145,1,8,0:0:0:0:
320,192,102474,1,8,0:0:0:0:
448,192,102474,1,0,0:0:0:0:
64,192,102639,1,2,0:0:0:0:
320,192,102804,1,8,0:0:0:0:
192,192,103134,1,8,0:0:0:0:
448,192,103134,1,0,0:0:0:0:
64,192,103299,1,2,0:0:0:0:
192,192,103463,1,8,0:0:0:0:
320,192,103793,1,8,0:0:0:0:
448,192,103793,1,0,0:0:0:0:
64,192,103958,1,2,0:0:0:0:
448,192,104123,1,8,0:0:0:0:
64,192,104452,1,8,0:0:0:0:
192,192,104452,1,0,0:0:0:0:
448,192,104617,1,2,0:0:0:0:
192,192,104782,1,8,0:0:0:0:
320,192,105112,1,8,0:0:0:0:
448,192,105112,1,0,0:0:0:0:
64,192,105277,1,2,0:0:0:0:
320,192,105441,1,8,0:0:0:0:
64,192,105771,1,8,0:0:0:0:
448,192,105771,1,0,0:0:0:0:
192,192,105936,1,2,0:0:0:0:
64,192,106101,1,8,0:0:0:0:
320,192,106430,1,8,0:0:0:0:
448,192,106430,1,0,0:0:0:0:
64,192,106595,1,2,0:0:0:0:
448,192,106760,1,8,0:0:0:0:
192,192,107090,1,8,0:0:0:0:
320,192,107090,1,0,0:0:0:0:
64,192,107255,1,2,0:0:0:0:
320,192,107419,1,8,0:0:0:0:
64,192,107749,1,8,0:0:0:0:
448,192,107749,1,0,0:0:0:0:
192,192,107914,1,2,0:0:0:0:
448,192,108079,1,8,0:0:0:0:
64,192,108408,1,8,0:0:0:0:
320,192,108408,1,0,0:0:0:0:
192,192,108573,1,8,0:0:0:0:
320,192,108738,128,8,109068:0:0:0:0:
64,192,109068,1,4,0:0:0:0:
448,192,109068,1,8,0:0:0:0:
192,192,109233,1,2,0:0:0:0:
320,192,109397,1,8,0:0:0:0:
64,192,109727,1,8,0:0:0:0:
448,192,109727,1,0,0:0:0:0:
192,192,109892,1,2,0:0:0:0:
64,192,110057,1,8,0:0:0:0:
320,192,110386,1,8,0:0:0:0:
448,192,110386,1,0,0:0:0:0:
64,192,110551,1,2,0:0:0:0:
448,192,110716,1,8,0:0:0:0:
64,192,111046,1,8,0:0:0:0:
192,192,111046,1,0,0:0:0:0:
320,192,111211,1,2,0:0:0:0:
192,192,111375,1,8,0:0:0:0:
64,192,111705,1,8,0:0:0:0:
448,192,111705,1,0,0:0:0:0:
320,192,111870,1,2,0:0:0:0:
64,192,112035,1,8,0:0:0:0:
192,192,112364,1,8,0:0:0:0:
448,192,112364,1,0,0:0:0:0:
320,192,112529,1,2,0:0:0:0:
192,192,112694,1,8,0:0:0:0:
64,192,113024,1,8,0:0:0:0:
448,192,113024,1,0,0:0:0:0:
192,192,113189,1,2,0:0:0:0:
448,192,113353,1,8,0:0:0:0:
64,192,113683,1,8,0:0:0:0:
320,192,113683,1,0,0:0:0:0:
192,192,113848,1,2,0:0:0:0:
320,192,114013,1,8,0:0:0:0:
192,192,114342,1,8,0:0:0:0:
448,192,114342,1,0,0:0:0:0:
64,192,114507,1,2,0:0:0:0:
448,192,114672,1,8,0:0:0:0:
64,192,115002,1,8,0:0:0:0:
320,192,115002,1,0,0:0:0:0:
448,192,115167,1,2,0:0:0:0:
64,192,115332,1,8,0:0:0:0:
192,192,115661,1,8,0:0:0:0:
448,192,115661,1,0,0:0:0:0:
64,192,115826,1,2,0:0:0:0:
192,192,115991,1,8,0:0:0:0:
64,192,116321,1,8,0:0:0:0:
448,192,116321,1,0,0:0:0:0:
320,192,116485,1,2,0:0:0:0:
448,192,116650,1,8,0:0:0:0:
64,192,116980,1,8,0:0:0:0:
192,192,116980,1,0,0:0:0:0:
448,192,117145,1,2,0:0:0:0:
64,192,117310,1,8,0:0:0:0:
192,192,117639,1,8,0:0:0:0:
320,192,117639,1,0,0:0:0:0:
64,192,117804,1,2,0:0:0:0:
320,192,117969,1,8,0:0:0:0:
192,192,118299,1,8,0:0:0:0:
448,192,118299,1,0,0:0:0:0:
64,192,118463,1,2,0:0:0:0:
448,192,118628,1,8,0:0:0:0:
64,192,118958,1,8,0:0:0:0:
320,192,118958,1,0,0:0:0:0:
448,192,119123,1,8,0:0:0:0:
192,192,119288,128,8,119617:0:0:0:0:
320,192,119617,1,2,0:0:0:0:
448,192,119617,1,0,0:0:0:0:
64,192,119947,1,2,0:0:0:0:
448,192,119947,1,0,0:0:0:0:
192,192,120112,1,8,0:0:0:0:
320,192,120277,1,2,0:0:0:0:
64,192,120606,1,2,0:0:0:0:
448,192,120606,1,0,0:0:0:0:
320,192,120771,1,8,0:0:0:0:
192,192,120936,1,2,0:0:0:0:
64,192,121266,1,2,0:0:0:0:
448,192,121266,1,0,0:0:0:0:
192,192,121430,1,8,0:0:0:0:
320,192,121595,128,2,121925:0:0:0:0:
448,192,121925,128,8,122255:0:0:0:0:
64,192,122255,1,4,0:0:0:0:
192,192,122255,1,0,0:0:0:0:
448,192,124233,1,0,0:0:0:0:
64,192,126211,1,0,0:0:0:0:
192,192,128189,1,0,0:0:0:0:
320,192,130167,1,0,0:0:0:0:
64,192,132145,1,0,0:0:0:0:
192,192,134123,1,0,0:0:0:0:
320,192,136101,1,0,0:0:0:0:
448,192,138079,128,8,138408:0:0:0:0:
192,192,138408,128,10,138738:0:0:0:0:
64,192,138738,1,4,0:0:0:0:
448,192,138738,128,0,139232:0:0:0:0:
64,192,139562,1,0,0:0:0:0:
192,192,139727,1,0,0:0:0:0:
320,192,139892,1,8,0:0:0:0:
64,192,140057,128,8,140551:0:0:0:0:
448,192,140551,128,0,141046:0:0:0:0:
192,192,141046,128,0,141375:0:0:0:0:
320,192,141375,128,8,142035:0:0:0:0:
64,192,142035,1,2,0:0:0:0:
192,192,142364,1,8,0:0:0:0:
320,192,142694,1,8,0:0:0:0:
448,192,143024,1,0,0:0:0:0:
64,192,143353,128,2,143683:0:0:0:0:
320,192,143683,128,8,144013:0:0:0:0:
64,192,144013,128,4,144342:0:0:0:0:
448,192,144013,1,8,0:0:0:0:
320,192,144342,1,8,0:0:0:0:
192,192,144672,128,8,145002:0:0:0:0:
448,192,145002,1,8,0:0:0:0:
320,192,145331,128,8,145661:0:0:0:0:
64,192,145661,1,8,0:0:0:0:
448,192,145991,128,8,146320:0:0:0:0:
192,192,146320,1,8,0:0:0:0:
64,192,146650,128,8,146980:0:0:0:0:
448,192,146980,1,8,0:0:0:0:
192,192,147309,128,8,147639:0:0:0:0:
64,192,147639,1,8,0:0:0:0:
320,192,147969,128,8,148298:0:0:0:0:
192,192,148298,1,8,0:0:0:0:
448,192,148628,128,8,148958:0:0:0:0:
320,192,148958,1,8,0:0:0:0:
64,192,149287,1,8,0:0:0:0:
448,192,149452,1,2,0:0:0:0:
64,192,149617,1,8,0:0:0:0:
448,192,149782,1,2,0:0:0:0:
64,192,149947,1,8,0:0:0:0:
192,192,150276,1,8,0:0:0:0:
320,192,150606,1,8,0:0:0:0:
192,192,150771,1,2,0:0:0:0:
320,192,150936,1,8,0:0:0:0:
192,192,151101,1,2,0:0:0:0:
320,192,151265,1,8,0:0:0:0:
64,192,151595,1,8,0:0:0:0:
448,192,151925,1,8,0:0:0:0:
64,192,152090,1,2,0:0:0:0:
448,192,152254,1,8,0:0:0:0:
64,192,152419,1,2,0:0:0:0:
448,192,152584,1,8,0:0:0:0:
320,192,152914,1,8,0:0:0:0:
192,192,153243,1,8,0:0:0:0:
320,192,153408,1,2,0:0:0:0:
192,192,153573,1,8,0:0:0:0:
320,192,153738,1,2,0:0:0:0:
192,192,153903,1,8,0:0:0:0:
448,192,154232,128,8,154562:0:0:0:0:
64,192,154562,128,8,155881:0:0:0:0:
192,192,154562,1,0,0:0:0:25:soft-hitfinish.wav
320,192,155881,1,2,0:0:0:0:
448,192,155881,128,0,156540:0:0:0:25:soft-hitfinish.wav
192,192,156540,128,8,157199:0:0:0:0:
64,192,157199,1,4,0:0:0:0:
448,192,157199,1,2,0:0:0:0:
320,192,157529,128,0,157859:0:0:0:0:
64,192,157859,1,2,0:0:0:0:
320,192,158188,128,0,158518:0:0:0:0:
64,192,158518,1,2,0:0:0:0:
448,192,158518,1,0,0:0:0:0:
192,192,158848,128,0,159177:0:0:0:0:
448,192,159177,1,2,0:0:0:0:
192,192,159507,128,8,159837:0:0:0:0:
64,192,159837,1,2,0:0:0:0:
448,192,159837,1,0,0:0:0:0:
448,192,160166,128,0,160496:0:0:0:0:
192,192,160496,1,2,0:0:0:0:
320,192,160826,128,0,161155:0:0:0:0:
192,192,161155,1,2,0:0:0:0:
448,192,161155,1,0,0:0:0:0:
64,192,161485,128,8,161815:0:0:0:0:
320,192,161815,1,2,0:0:0:0:
192,192,162144,128,8,162474:0:0:0:0:
320,192,162474,1,2,0:0:0:0:
448,192,162474,1,0,0:0:0:25:soft-hitfinish.wav
64,192,162804,128,8,163133:0:0:0:0:
320,192,163133,1,2,0:0:0:0:
192,192,163463,128,8,163793:0:0:0:0:
448,192,163793,1,2,0:0:0:0:
320,192,164122,128,8,164452:0:0:0:0:
64,192,164452,128,2,164782:0:0:0:0:
448,192,164782,128,2,165111:0:0:0:0:
64,192,165111,1,2,0:0:0:0:
192,192,165111,1,0,0:0:0:25:soft-hitfinish.wav
448,192,165441,128,8,165771:0:0:0:0:
192,192,165771,1,2,0:0:0:0:
320,192,166101,128,8,166430:0:0:0:0:
64,192,166430,1,2,0:0:0:0:
192,192,166760,128,8,167090:0:0:0:0:
448,192,167090,128,2,167419:0:0:0:0:
64,192,167419,128,2,167749:0:0:0:0:
320,192,167749,1,4,0:0:0:0:
448,192,167749,1,8,0:0:0:0:
192,192,167913,1,0,0:0:0:0:
448,192,168078,1,0,0:0:0:0:
192,192,168243,128,8,168738:0:0:0:0:
64,192,168738,1,8,0:0:0:0:
448,192,168902,1,0,0:0:0:0:
64,192,169067,1,0,0:0:0:0:
448,192,169232,128,8,169727:0:0:0:0:
320,192,169727,1,8,0:0:0:0:
64,192,169891,1,0,0:0:0:0:
320,192,170056,1,0,0:0:0:0:
64,192,170221,128,8,170716:0:0:0:0:
448,192,170716,128,8,171045:0:0:0:0:
192,192,171045,128,8,171375:0:0:0:0:
448,192,171375,1,12,0:0:0:0:
64,192,171376,1,0,0:0:0:0:
320,192,171540,1,0,0:0:0:0:
192,192,171705,1,0,0:0:0:0:
320,192,171870,128,8,172365:0:0:0:0:
64,192,172365,1,8,0:0:0:0:
448,192,172529,1,0,0:0:0:0:
64,192,172694,1,0,0:0:0:0:
448,192,172859,128,8,173354:0:0:0:0:
192,192,173354,128,8,173683:0:0:0:0:
64,192,173683,128,8,174013:0:0:0:0:
320,192,174013,128,8,174343:0:0:0:0:
448,192,174343,128,8,174672:0:0:0:0:
64,192,174672,128,8,175002:0:0:0:0:
192,192,175002,128,8,175332:0:0:0:0:
64,192,175332,1,2,0:0:0:0:
448,192,175332,1,0,0:0:0:25:soft-hitfinish.wav
320,192,175991,1,4,0:0:0:0:
448,192,175991,1,8,0:0:0:0:
448,192,176321,1,2,0:0:0:0:
64,192,176650,1,8,0:0:0:0:
192,192,176815,1,8,0:0:0:0:
320,192,176980,1,2,0:0:0:0:
64,192,177310,1,8,0:0:0:0:
64,192,177639,1,2,0:0:0:0:
448,192,177969,1,8,0:0:0:0:
320,192,178134,1,8,0:0:0:0:
192,192,178299,1,2,0:0:0:0:
448,192,178628,1,2,0:0:0:0:
64,192,178793,1,8,0:0:0:0:
320,192,178958,128,2,179288:0:0:0:0:
192,192,179288,1,2,0:0:0:0:
448,192,179452,1,8,0:0:0:0:
64,192,179617,128,2,179947:0:0:0:0:
320,192,179947,1,2,0:0:0:0:
192,192,180112,1,8,0:0:0:0:
448,192,180277,128,2,180606:0:0:0:0:
64,192,180606,1,2,0:0:0:0:
320,192,180771,1,8,0:0:0:0:
192,192,180936,128,8,181266:0:0:0:0:
448,192,181266,1,2,0:0:0:0:
320,192,181430,1,8,0:0:0:0:
64,192,181595,1,8,0:0:0:0:
192,192,181760,1,2,0:0:0:0:
448,192,182090,1,8,0:0:0:0:
320,192,182255,1,2,0:0:0:0:
192,192,182419,1,8,0:0:0:0:
64,192,182584,128,2,183244:0:0:0:0:
320,192,183244,128,2,183573:0:0:0:0:
192,192,183573,128,8,183903:0:0:0:0:
64,192,183903,128,12,185222:0:0:0:0:
448,192,183903,1,2,0:0:0:0:
320,192,184562,1,0,0:0:0:0:
448,192,185222,128,0,186540:0:0:0:0:
192,192,185881,1,0,0:0:0:0:
320,192,186540,128,0,187859:0:0:0:0:
64,192,187200,1,0,0:0:0:0:
192,192,187859,128,0,189178:0:0:0:0:
448,192,188518,1,0,0:0:0:0:
64,192,189178,128,0,190496:0:0:0:0:
320,192,189837,1,0,0:0:0:0:
320,192,190496,128,0,191815:0:0:0:0:
192,192,191156,1,0,0:0:0:0:
192,192,191815,128,0,193134:0:0:0:0:
448,192,192474,1,0,0:0:0:0:
64,192,193134,128,0,193793:0:0:0:0:
320,192,193793,128,8,194452:0:0:0:0:
64,192,194452,128,4,195771:0:0:0:0:
448,192,194452,1,8,0:0:0:0:
192,192,195112,1,0,0:0:0:0:
320,192,195771,1,2,0:0:0:0:
448,192,195771,128,0,196430:0:0:0:25:soft-hitfinish.wav
192,192,196430,1,2,0:0:0:0:
320,192,196430,128,0,197090:0:0:0:25:soft-hitfinish.wav
64,192,197090,1,2,0:0:0:0:
192,192,197090,128,0,197749:0:0:0:25:soft-hitfinish.wav
448,192,197749,1,8,0:0:0:0:
320,192,197969,1,8,0:0:0:0:
192,192,198189,1,8,0:0:0:0:
64,192,198408,128,2,199068:0:0:0:0:
448,192,198408,1,0,0:0:0:25:soft-hitfinish.wav
320,192,199068,128,2,199397:0:0:0:0:
448,192,199068,1,0,0:0:0:25:soft-hitfinish.wav
192,192,199397,1,0,0:0:0:0:
64,192,199727,1,4,0:0:0:0:
448,192,199727,1,8,0:0:0:0:
320,192,199892,1,2,0:0:0:0:
192,192,200057,1,8,0:0:0:0:
64,192,200386,1,8,0:0:0:0:
448,192,200386,1,0,0:0:0:0:
320,192,200551,1,2,0:0:0:0:
64,192,200716,1,8,0:0:0:0:
192,192,201046,1,8,0:0:0:0:
448,192,201046,1,0,0:0:0:0:
320,192,201211,1,2,0:0:0:0:
192,192,201375,1,8,0:0:0:0:
64,192,201705,1,8,0:0:0:0:
448,192,201705,1,0,0:0:0:0:
320,192,201870,1,2,0:0:0:0:
448,192,202035,1,8,0:0:0:0:
64,192,202364,1,8,0:0:0:0:
192,192,202364,1,0,0:0:0:0:
448,192,202529,1,2,0:0:0:0:
192,192,202694,1,8,0:0:0:0:
320,192,203024,1,8,0:0:0:0:
448,192,203024,1,0,0:0:0:0:
64,192,203189,1,2,0:0:0:0:
320,192,203354,1,8,0:0:0:0:
192,192,203683,1,8,0:0:0:0:
448,192,203683,1,0,0:0:0:0:
64,192,203848,1,2,0:0:0:0:
448,192,204013,1,8,0:0:0:0:
64,192,204343,1,2,0:0:0:0:
320,192,204343,1,0,0:0:0:0:
448,192,204507,1,2,0:0:0:0:
192,192,204672,128,8,205002:0:0:0:0:
320,192,205002,1,2,0:0:0:0:
448,192,205002,1,0,0:0:0:0:
64,192,205332,1,2,0:0:0:0:
448,192,205332,1,0,0:0:0:0:
320,192,205496,1,8,0:0:0:0:
192,192,205661,1,2,0:0:0:0:
64,192,205991,1,2,0:0:0:0:
448,192,205991,1,0,0:0:0:0:
192,192,206156,1,8,0:0:0:0:
320,192,206321,1,2,0:0:0:0:
64,192,206650,1,2,0:0:0:0:
448,192,206650,1,0,0:0:0:0:
320,192,206815,1,8,0:0:0:0:
192,192,206980,128,8,207310:0:0:0:0:
64,192,207310,128,8,207639:0:0:0:0:
320,192,207639,1,4,0:0:0:0:
448,192,207639,1,8,0:0:0:0:
192,192,207804,1,2,0:0:0:0:
64,192,207969,1,8,0:0:0:0:
448,192,208134,1,2,0:0:0:0:
320,192,208299,128,8,208628:0:0:0:0:
192,192,208628,128,8,208958:0:0:0:0:
64,192,208958,1,8,0:0:0:0:
448,192,208958,1,0,0:0:0:0:
320,192,209123,1,2,0:0:0:0:
192,192,209288,1,8,0:0:0:0:
64,192,209452,1,2,0:0:0:0:
320,192,209617,128,8,209947:0:0:0:0:
448,192,209947,128,8,210277:0:0:0:0:
64,192,210277,1,8,0:0:0:0:
192,192,210277,1,0,0:0:0:0:
320,192,210441,1,2,0:0:0:0:
448,192,210606,1,8,0:0:0:0:
64,192,210771,1,2,0:0:0:0:
192,192,210936,128,8,211266:0:0:0:0:
320,192,211266,128,8,211595:0:0:0:0:
64,192,211595,1,8,0:0:0:0:
448,192,211595,1,0,0:0:0:0:
192,192,211760,1,2,0:0:0:0:
320,192,211925,1,8,0:0:0:0:
448,192,212090,1,2,0:0:0:0:
192,192,212255,128,8,212584:0:0:0:0:
64,192,212584,128,8,212914:0:0:0:0:
320,192,212914,1,8,0:0:0:0:
448,192,212914,1,0,0:0:0:0:
192,192,213079,1,2,0:0:0:0:
448,192,213244,1,8,0:0:0:0:
64,192,213408,1,2,0:0:0:0:
320,192,213573,128,8,213903:0:0:0:0:
192,192,213903,128,8,214233:0:0:0:0:
64,192,214233,1,8,0:0:0:0:
448,192,214233,1,0,0:0:0:0:
320,192,214397,1,2,0:0:0:0:
192,192,214562,1,8,0:0:0:0:
64,192,214727,1,2,0:0:0:0:
320,192,214892,128,8,215222:0:0:0:0:
448,192,215222,128,8,215551:0:0:0:0:
64,192,215551,1,8,0:0:0:0:
192,192,215551,1,0,0:0:0:0:
320,192,215716,1,2,0:0:0:0:
64,192,215881,1,8,0:0:0:0:
448,192,216046,1,2,0:0:0:0:
192,192,216211,128,8,216540:0:0:0:0:
320,192,216540,128,8,216870:0:0:0:0:
64,192,216870,1,8,0:0:0:0:
448,192,216870,1,0,0:0:0:0:
192,192,217035,1,2,0:0:0:0:
320,192,217200,1,8,0:0:0:0:
448,192,217364,1,2,0:0:0:0:
192,192,217529,128,8,217859:0:0:0:0:
320,192,217859,128,8,218189:0:0:0:0:
64,192,218189,1,4,0:0:0:0:
448,192,218189,1,2,0:0:0:0:
64,192,218518,1,2,0:0:0:0:
448,192,218518,1,0,0:0:0:0:
192,192,218848,1,2,0:0:0:0:
320,192,218848,1,0,0:0:0:0:
192,192,219178,1,2,0:0:0:0:
320,192,219178,1,0,0:0:0:0:
64,192,219507,1,2,0:0:0:0:
192,192,219507,1,0,0:0:0:0:
64,192,219837,1,2,0:0:0:0:
192,192,219837,1,0,0:0:0:0:
320,192,220167,1,2,0:0:0:0:
448,192,220167,1,0,0:0:0:0:
320,192,220496,1,2,0:0:0:0:
448,192,220496,1,0,0:0:0:0:
64,192,220826,1,2,0:0:0:0:
448,192,220826,1,0,0:0:0:0:
64,192,221156,1,2,0:0:0:0:
448,192,221156,1,0,0:0:0:0:
192,192,221485,1,2,0:0:0:0:
320,192,221485,1,0,0:0:0:0:
192,192,221815,1,2,0:0:0:0:
320,192,221815,1,0,0:0:0:0:
64,192,222145,1,2,0:0:0:0:
192,192,222145,1,0,0:0:0:0:
64,192,222474,1,2,0:0:0:0:
192,192,222474,1,0,0:0:0:0:
320,192,222804,1,2,0:0:0:0:
448,192,222804,1,0,0:0:0:0:
320,192,223134,1,2,0:0:0:0:
448,192,223134,1,0,0:0:0:0:
64,192,223463,1,2,0:0:0:0:
448,192,223463,1,0,0:0:0:0:
192,192,223628,1,8,0:0:0:0:
320,192,223793,1,2,0:0:0:0:
448,192,223958,1,8,0:0:0:0:
192,192,224123,128,2,224452:0:0:0:0:
320,192,224452,128,2,224782:0:0:0:0:
64,192,224782,1,2,0:0:0:0:
192,192,224782,1,0,0:0:0:0:
448,192,224947,1,8,0:0:0:0:
320,192,225112,1,2,0:0:0:0:
192,192,225277,1,8,0:0:0:0:
448,192,225441,128,2,225771:0:0:0:0:
320,192,225771,128,2,226101:0:0:0:0:
64,192,226101,1,2,0:0:0:0:
192,192,226101,1,0,0:0:0:0:
448,192,226266,1,8,0:0:0:0:
320,192,226430,1,2,0:0:0:0:
192,192,226595,1,8,0:0:0:0:
448,192,226760,128,2,227090:0:0:0:0:
64,192,227090,128,2,227419:0:0:0:0:
320,192,227419,1,2,0:0:0:0:
448,192,227419,1,0,0:0:0:0:
192,192,227584,1,8,0:0:0:0:
448,192,227749,1,2,0:0:0:0:
320,192,227914,1,8,0:0:0:0:
64,192,228079,128,2,228408:0:0:0:0:
448,192,228408,128,8,228738:0:0:0:0:
64,192,228738,1,4,0:0:0:0:
192,192,228738,1,2,0:0:0:0:
64,192,229068,1,2,0:0:0:0:
192,192,229068,1,0,0:0:0:0:
320,192,229397,1,2,0:0:0:0:
448,192,229397,1,0,0:0:0:0:
320,192,229727,1,2,0:0:0:0:
448,192,229727,1,0,0:0:0:0:
64,192,230057,1,2,0:0:0:0:
448,192,230057,1,0,0:0:0:0:
64,192,230386,1,2,0:0:0:0:
448,192,230386,1,0,0:0:0:0:
192,192,230716,1,2,0:0:0:0:
320,192,230716,1,0,0:0:0:0:
192,192,231046,1,8,0:0:0:0:
320,192,231046,1,0,0:0:0:0:
64,192,231375,128,4,232035:0:0:0:0:
448,192,231375,1,2,0:0:0:0:
448,192,231705,1,8,0:0:0:0:
320,192,232035,1,2,0:0:0:0:
320,192,232364,1,8,0:0:0:0:
64,192,232694,1,2,0:0:0:0:
448,192,232694,128,0,233354:0:0:0:0:
64,192,233024,1,8,0:0:0:0:
192,192,233354,1,2,0:0:0:0:
192,192,233683,1,2,0:0:0:0:
64,192,234013,128,4,234672:0:0:0:0:
448,192,234013,1,2,0:0:0:0:
448,192,234343,1,8,0:0:0:0:
192,192,234672,1,2,0:0:0:0:
192,192,235002,1,8,0:0:0:0:
64,192,235332,1,2,0:0:0:0:
448,192,235332,128,4,235991:0:0:0:0:
64,192,235661,1,8,0:0:0:0:
320,192,235991,1,2,0:0:0:0:
320,192,236321,1,2,0:0:0:0:
64,192,236650,128,14,239947:0:0:0:0:
448,192,236650,1,0,0:0:0:25:soft-hitfinish.wav
