osu file format v14

[General]
AudioFilename: audio.mp3
AudioLeadIn: 0
PreviewTime: 97940
Countdown: 0
SampleSet: None
StackLeniency: 0.2
Mode: 0
LetterboxInBreaks: 1
WidescreenStoryboard: 1

[Editor]
DistanceSpacing: 1.6
BeatDivisor: 4
GridSize: 4
TimelineZoom: 1.4

[Metadata]
Title:Ange du Blanc Pur
TitleUnicode:Ange du Blanc Pur
Artist:ke-ji feat. Nanahira
ArtistUnicode:ke-ji feat. ななひら
Creator:Supicha
Version:ok this is Supic
Source:
Tags:colory starry utaite confetto pop death stream
BeatmapID:1964104
BeatmapSetID:847341

[Difficulty]
HPDrainRate:6
CircleSize:4
OverallDifficulty:9
ApproachRate:9.5
SliderMultiplier:1.72
SliderTickRate:1

[Events]
//Background and Video events
0,0,"Background.jpg",0,0
//Break Periods
//Storyboard Layer 0 (Background)
//Storyboard Layer 1 (Fail)
//Storyboard Layer 2 (Pass)
//Storyboard Layer 3 (Foreground)
//Storyboard Sound Samples

[TimingPoints]
2001,333.333333333333,4,2,1,30,1,0
2001,-200,4,2,1,30,0,0
18500,666.666666666667,4,2,1,5,1,0
18500,-200,4,2,1,5,0,0
22000,333.333333333333,4,2,1,30,1,0
32008,329.67032967033,4,2,1,50,1,0
32008,-100,4,2,1,50,0,0
37282,-100,4,2,1,50,0,1
42557,-100,4,2,1,50,0,0
46183,329.67032967033,4,2,1,50,1,0
50798,329.67032967033,4,2,1,50,1,0
50798,-100,4,2,1,50,0,0
61347,-133.333333333333,4,2,1,50,0,0
70248,-200,4,2,1,50,0,0
70495,-200,4,2,1,5,0,0
70578,-100,4,2,1,50,0,0
81127,-133.333333333333,4,2,1,50,0,0
90028,-66.6666666666667,4,2,1,50,0,0
90358,-100,4,2,1,50,0,0
91924,-100,4,2,1,5,0,0
92006,-100,4,2,1,50,0,0
92254,-100,4,2,1,5,0,0
92336,-100,4,2,1,50,0,0
92583,-100,4,2,1,5,0,0
92666,-100,4,2,1,50,0,0
92913,-100,4,2,1,5,0,0
92995,-100,4,2,1,50,0,0
98270,-80,4,2,1,70,0,1
108160,-80,4,2,1,70,0,0
108819,-80,4,2,1,70,0,1
118710,-80,4,2,1,70,0,0
119369,-80,4,2,1,70,0,1
122006,-133.333333333333,4,2,1,35,0,0
138490,329.67032967033,4,2,1,50,1,0
138490,-200,4,2,1,50,0,0
143764,-80,4,2,1,70,0,1
156951,-100,4,2,1,70,0,0
162226,-100,4,2,1,70,0,1
167500,-100,4,2,1,60,0,0
171127,329.67032967033,4,2,1,50,1,0
175742,329.67032967033,4,2,1,50,1,0
175742,-100,4,2,1,50,0,0
183324,-66.6666666666667,4,2,1,50,0,0
183654,-200,4,2,1,25,0,0
194203,-200,4,2,1,45,0,0
199148,-200,4,2,5,45,0,0
199478,-80,4,2,1,70,0,1
206731,-80,4,2,1,70,0,0
207390,-66.6666666666667,4,2,1,80,0,1
217280,-66.6666666666667,4,2,1,80,0,0
217610,-100,4,2,1,80,0,0
217939,-66.6666666666667,4,2,1,80,0,1
231126,-100,4,2,1,70,0,0
236401,-200,4,2,1,70,0,0
236483,-200,4,2,1,5,0,0

[HitObjects]
50,58,90358,6,0,P|115:99|283:61,1,258
458,33,91017,2,0,L|410:241,1,172
386,358,91512,1,0,0:0:0:0:
59,331,91677,6,0,P|102:306|193:329,1,129
207,312,92006,6,0,P|164:287|73:310,1,129
60,287,92336,6,0,P|103:262|194:285,1,129
208,268,92665,6,0,P|165:243|74:266,1,129
58,251,92995,5,0,0:0:0:0:
478,42,93160,1,0,0:0:0:0:
40,28,93325,5,0,0:0:0:0:
485,149,93490,1,0,0:0:0:0:
35,334,93655,5,0,0:0:0:0:
372,24,93819,1,0,0:0:0:0:
39,185,93984,5,0,0:0:0:0:
482,332,94149,1,0,0:0:0:0:
198,18,94314,5,0,0:0:0:0:
315,331,94479,1,0,0:0:0:0:
299,17,94644,5,0,0:0:0:0:
211,328,94808,1,0,0:0:0:0:
107,32,94973,5,0,0:0:0:0:
407,275,95138,1,0,0:0:0:0:
395,29,95303,5,0,0:0:0:0:
114,285,95468,1,0,0:0:0:0:
455,105,95633,5,0,0:0:0:0:
354,130,95798,1,0,0:0:0:0:
254,157,95962,1,0,0:0:0:0:
437,133,96127,5,0,0:0:0:0:
336,158,96292,1,0,0:0:0:0:
236,185,96456,1,0,0:0:0:0:
421,159,96622,5,0,0:0:0:0:
320,184,96787,1,0,0:0:0:0:
220,211,96951,1,0,0:0:0:0:
213,253,97034,1,0,0:0:0:0:
193,291,97116,1,0,0:0:0:0:
159,318,97199,1,0,0:0:0:0:
117,327,97281,1,0,0:0:0:0:
77,310,97363,1,0,0:0:0:0:
46,279,97446,1,0,0:0:0:0:
44,236,97528,1,0,0:0:0:0:
58,195,97611,2,0,L|1:174,3,43
191,117,97940,2,0,L|240:128,3,43
109,63,98270,5,0,0:0:0:0:
161,71,98352,1,0,0:0:0:0:
214,64,98435,1,0,0:0:0:0:
261,38,98517,1,0,0:0:0:0:
309,13,98600,1,0,0:0:0:0:
309,66,98682,1,0,0:0:0:0:
327,117,98765,1,0,0:0:0:0:
358,159,98847,1,0,0:0:0:0:
407,180,98929,1,0,0:0:0:0:
458,162,99012,1,0,0:0:0:0:
482,114,99094,1,0,0:0:0:0:
463,63,99177,1,0,0:0:0:0:
411,48,99259,1,0,0:0:0:0:
366,78,99341,1,0,0:0:0:0:
340,125,99424,1,0,0:0:0:0:
294,152,99506,1,0,0:0:0:0:
240,141,99589,5,0,0:0:0:0:
37,346,99754,1,0,0:0:0:0:
86,121,99918,5,0,0:0:0:0:
202,354,100083,1,0,0:0:0:0:
203,69,100248,5,0,0:0:0:0:
108,294,100413,1,0,0:0:0:0:
129,33,100578,5,0,0:0:0:0:
262,265,100743,1,0,0:0:0:0:
337,34,100907,5,0,0:0:0:0:
326,87,100990,1,0,0:0:0:0:
327,140,101072,1,0,0:0:0:0:
349,189,101155,1,0,0:0:0:0:
382,231,101237,1,0,0:0:0:0:
398,281,101319,1,0,0:0:0:0:
383,333,101402,1,0,0:0:0:0:
340,364,101484,1,0,0:0:0:0:
285,366,101567,1,0,0:0:0:0:
239,337,101649,1,0,0:0:0:0:
223,285,101732,1,0,0:0:0:0:
252,240,101814,1,0,0:0:0:0:
299,216,101896,1,0,0:0:0:0:
351,230,101979,1,0,0:0:0:0:
404,233,102061,1,0,0:0:0:0:
447,200,102144,1,0,0:0:0:0:
460,148,102226,1,0,0:0:0:0:
437,99,102308,1,0,0:0:0:0:
399,60,102391,1,0,0:0:0:0:
346,49,102473,1,0,0:0:0:0:
291,65,102556,1,0,0:0:0:0:
245,92,102638,1,0,0:0:0:0:
207,130,102721,1,0,0:0:0:0:
185,178,102803,1,0,0:0:0:0:
106,261,102885,1,0,0:0:0:0:
25,188,102968,1,0,0:0:0:0:
48,83,103050,1,0,0:0:0:0:
132,15,103133,1,0,0:0:0:0:
238,14,103215,1,0,0:0:0:0:
321,83,103298,1,0,0:0:0:0:
308,189,103380,1,0,0:0:0:0:
234,266,103462,1,0,0:0:0:0:
157,342,103545,5,0,0:0:0:0:
215,334,103627,1,0,0:0:0:0:
274,341,103710,1,0,0:0:0:0:
326,367,103792,1,0,0:0:0:0:
384,369,103874,1,0,0:0:0:0:
439,346,103957,1,0,0:0:0:0:
472,297,104039,1,0,0:0:0:0:
469,237,104122,1,0,0:0:0:0:
432,190,104204,1,0,0:0:0:0:
381,158,104287,1,0,0:0:0:0:
322,159,104369,1,0,0:0:0:0:
273,192,104451,1,0,0:0:0:0:
234,237,104534,1,0,0:0:0:0:
181,264,104616,1,0,0:0:0:0:
121,266,104699,1,0,0:0:0:0:
70,235,104781,1,0,0:0:0:0:
53,178,104863,5,0,0:0:0:0:
66,119,104946,1,0,0:0:0:0:
105,75,105028,1,0,0:0:0:0:
159,51,105111,1,0,0:0:0:0:
214,71,105193,1,0,0:0:0:0:
247,120,105276,1,0,0:0:0:0:
261,177,105358,1,0,0:0:0:0:
284,230,105440,1,0,0:0:0:0:
320,277,105523,1,0,0:0:0:0:
374,299,105605,1,0,0:0:0:0:
432,285,105688,1,0,0:0:0:0:
476,246,105770,1,0,0:0:0:0:
492,189,105852,1,0,0:0:0:0:
470,133,105935,1,0,0:0:0:0:
426,93,106017,1,0,0:0:0:0:
366,88,106100,1,0,0:0:0:0:
318,122,106182,5,0,0:0:0:0:
286,172,106265,1,0,0:0:0:0:
295,230,106347,1,0,0:0:0:0:
332,275,106429,1,0,0:0:0:0:
386,299,106512,1,0,0:0:0:0:
442,283,106594,1,0,0:0:0:0:
476,246,106677,1,0,0:0:0:0:
492,189,106759,1,0,0:0:0:0:
470,133,106841,1,0,0:0:0:0:
426,93,106924,1,0,0:0:0:0:
366,88,107006,1,0,0:0:0:0:
318,122,107089,1,0,0:0:0:0:
286,172,107171,1,0,0:0:0:0:
255,222,107254,1,0,0:0:0:0:
211,261,107336,1,0,0:0:0:0:
152,269,107418,1,0,0:0:0:0:
121,257,107501,5,0,0:0:0:0:
98,234,107583,1,0,0:0:0:0:
95,201,107666,1,0,0:0:0:0:
106,171,107748,1,0,0:0:0:0:
133,153,107830,1,0,0:0:0:0:
165,155,107913,1,0,0:0:0:0:
188,177,107995,1,0,0:0:0:0:
201,206,108078,1,0,0:0:0:0:
233,307,108160,5,0,0:0:0:0:
339,290,108243,1,0,0:0:0:0:
396,200,108325,1,0,0:0:0:0:
371,95,108407,1,0,0:0:0:0:
280,34,108490,1,0,0:0:0:0:
177,63,108572,1,0,0:0:0:0:
114,151,108655,1,0,0:0:0:0:
142,254,108737,1,0,0:0:0:0:
233,307,108819,5,0,0:0:0:0:
294,326,108902,1,0,0:0:0:0:
358,322,108984,1,0,0:0:0:0:
419,300,109067,1,0,0:0:0:0:
464,254,109149,1,0,0:0:0:0:
483,192,109232,1,0,0:0:0:0:
474,128,109314,1,0,0:0:0:0:
449,68,109396,1,0,0:0:0:0:
401,23,109479,1,0,0:0:0:0:
353,66,109561,1,0,0:0:0:0:
289,79,109644,1,0,0:0:0:0:
232,49,109726,1,0,0:0:0:0:
173,21,109808,1,0,0:0:0:0:
108,25,109891,1,0,0:0:0:0:
49,50,109973,1,0,0:0:0:0:
15,105,110056,1,0,0:0:0:0:
26,168,110138,5,0,0:0:0:0:
457,275,110303,1,0,0:0:0:0:
45,273,110468,5,0,0:0:0:0:
457,96,110633,1,0,0:0:0:0:
123,104,110798,5,0,0:0:0:0:
381,362,110962,1,0,0:0:0:0:
37,350,111127,5,0,0:0:0:0:
439,182,111292,1,0,0:0:0:0:
102,188,111457,5,0,0:0:0:0:
142,237,111539,1,0,0:0:0:0:
203,258,111622,1,0,0:0:0:0:
266,245,111704,1,0,0:0:0:0:
314,201,111787,1,0,0:0:0:0:
375,181,111869,1,0,0:0:0:0:
439,182,111951,1,0,0:0:0:0:
483,229,112034,1,0,0:0:0:0:
492,292,112116,1,0,0:0:0:0:
462,349,112199,1,0,0:0:0:0:
403,376,112281,1,0,0:0:0:0:
340,360,112363,1,0,0:0:0:0:
305,305,112446,1,0,0:0:0:0:
320,242,112528,1,0,0:0:0:0:
371,202,112611,1,0,0:0:0:0:
433,189,112693,1,0,0:0:0:0:
492,165,112776,5,0,0:0:0:0:
504,102,112858,1,0,0:0:0:0:
467,49,112940,1,0,0:0:0:0:
403,33,113023,1,0,0:0:0:0:
345,60,113105,1,0,0:0:0:0:
307,112,113188,1,0,0:0:0:0:
273,166,113270,1,0,0:0:0:0:
247,224,113352,1,0,0:0:0:0:
209,277,113435,1,0,0:0:0:0:
146,292,113517,1,0,0:0:0:0:
84,271,113600,1,0,0:0:0:0:
55,213,113682,1,0,0:0:0:0:
74,150,113765,1,0,0:0:0:0:
125,111,113847,1,0,0:0:0:0:
189,111,113929,1,0,0:0:0:0:
233,158,114012,1,0,0:0:0:0:
268,211,114094,5,0,0:0:0:0:
301,238,114177,1,0,0:0:0:0:
343,239,114259,1,0,0:0:0:0:
379,216,114341,1,0,0:0:0:0:
388,173,114424,1,0,0:0:0:0:
370,133,114506,1,0,0:0:0:0:
330,114,114589,1,0,0:0:0:0:
289,128,114671,1,0,0:0:0:0:
263,163,114754,5,0,0:0:0:0:
226,202,114836,1,0,0:0:0:0:
173,212,114918,1,0,0:0:0:0:
125,186,115001,1,0,0:0:0:0:
106,135,115083,1,0,0:0:0:0:
124,84,115166,1,0,0:0:0:0:
172,62,115248,1,0,0:0:0:0:
224,70,115330,1,0,0:0:0:0:
249,117,115413,5,0,0:0:0:0:
283,171,115495,1,0,0:0:0:0:
346,185,115578,1,0,0:0:0:0:
401,153,115660,1,0,0:0:0:0:
424,92,115743,1,0,0:0:0:0:
398,33,115825,1,0,0:0:0:0:
337,12,115907,1,0,0:0:0:0:
273,26,115990,1,0,0:0:0:0:
250,86,116072,5,0,0:0:0:0:
215,153,116155,1,0,0:0:0:0:
147,184,116237,1,0,0:0:0:0:
75,160,116319,1,0,0:0:0:0:
32,93,116402,1,0,0:0:0:0:
72,30,116484,1,0,0:0:0:0:
141,0,116567,1,0,0:0:0:0:
213,18,116649,1,0,0:0:0:0:
250,86,116732,5,0,0:0:0:0:
300,141,116814,1,0,0:0:0:0:
370,166,116896,1,0,0:0:0:0:
442,143,116979,1,0,0:0:0:0:
467,72,117061,1,0,0:0:0:0:
413,18,117144,1,0,0:0:0:0:
338,26,117226,1,0,0:0:0:0:
304,95,117308,1,0,0:0:0:0:
308,170,117391,1,0,0:0:0:0:
299,244,117473,1,0,0:0:0:0:
244,297,117556,1,0,0:0:0:0:
171,314,117638,1,0,0:0:0:0:
95,306,117721,1,0,0:0:0:0:
46,249,117803,1,0,0:0:0:0:
47,174,117885,1,0,0:0:0:0:
106,127,117968,1,0,0:0:0:0:
180,126,118050,5,0,0:0:0:0:
231,181,118133,1,0,0:0:0:0:
251,252,118215,1,0,0:0:0:0:
302,307,118298,1,0,0:0:0:0:
374,324,118380,1,0,0:0:0:0:
441,292,118462,1,0,0:0:0:0:
463,219,118545,1,0,0:0:0:0:
446,145,118627,1,0,0:0:0:0:
370,111,118710,5,0,0:0:0:0:
330,128,118792,1,0,0:0:0:0:
287,124,118874,1,0,0:0:0:0:
254,95,118957,1,0,0:0:0:0:
249,52,119039,1,0,0:0:0:0:
275,17,119122,1,0,0:0:0:0:
316,6,119204,1,0,0:0:0:0:
354,25,119287,1,0,0:0:0:0:
369,64,119369,5,0,0:0:0:0:
422,133,119452,1,0,0:0:0:0:
410,218,119534,1,0,0:0:0:0:
342,270,119616,1,0,0:0:0:0:
257,259,119699,1,0,0:0:0:0:
205,191,119781,1,0,0:0:0:0:
216,105,119863,1,0,0:0:0:0:
284,53,119946,1,0,0:0:0:0:
369,64,120028,5,0,0:0:0:0:
422,133,120111,1,0,0:0:0:0:
410,218,120193,1,0,0:0:0:0:
342,270,120275,1,0,0:0:0:0:
257,259,120358,1,0,0:0:0:0:
205,191,120440,1,0,0:0:0:0:
216,105,120522,1,0,0:0:0:0:
284,53,120605,1,0,0:0:0:0:
319,130,120687,5,0,0:0:0:0:
361,230,120770,1,0,0:0:0:0:
319,329,120852,1,0,0:0:0:0:
220,370,120935,1,0,0:0:0:0:
121,329,121017,1,0,0:0:0:0:
80,230,121100,1,0,0:0:0:0:
121,130,121182,1,0,0:0:0:0:
220,89,121264,1,0,0:0:0:0:
319,130,121347,5,0,0:0:0:0:
361,230,121430,1,0,0:0:0:0:
319,329,121512,1,0,0:0:0:0:
220,370,121595,1,0,0:0:0:0:
121,329,121677,1,0,0:0:0:0:
80,230,121760,1,0,0:0:0:0:
121,130,121842,1,0,0:0:0:0:
220,89,121924,1,0,0:0:0:0:
319,130,122006,5,0,0:0:0:0:
