osu file format v14

[General]
AudioFilename: audio.mp3
AudioLeadIn: 0
PreviewTime: 97940
Countdown: 0
SampleSet: None
StackLeniency: 1
Mode: 0
LetterboxInBreaks: 1
WidescreenStoryboard: 1

[Editor]
DistanceSpacing: 0.1
BeatDivisor: 16
GridSize: 4
TimelineZoom: 6.099996

[Metadata]
Title:Ange du Blanc Pur
TitleUnicode:Ange du Blanc Pur
Artist:ke-ji feat. Nanahira
ArtistUnicode:ke-ji feat. ななひら
Creator:Supicha
Version:INVISIBLE SEVEN-TWO-SEVEN
Source:
Tags:colory starry utaite confetto pop death stream
BeatmapID:2189550
BeatmapSetID:847341

[Difficulty]
HPDrainRate:6
CircleSize:3
OverallDifficulty:10
ApproachRate:10
SliderMultiplier:1.72
SliderTickRate:1

[Events]
//Background and Video events
0,0,"Background.jpg",0,0
//Break Periods
//Storyboard Layer 0 (Background)
//Storyboard Layer 1 (Fail)
//Storyboard Layer 2 (Pass)
//Storyboard Layer 3 (Foreground)
//Storyboard Layer 4 (Overlay)
//Storyboard Sound Samples

[TimingPoints]
2001,333.333333333333,4,2,1,30,1,0
2001,-200,4,2,1,30,0,0
18500,666.666666666667,4,2,1,5,1,0
18500,-200,4,2,1,5,0,0
22000,333.333333333333,4,2,1,30,1,0
32008,329.67032967033,4,2,1,50,1,0
32008,-100,4,2,1,50,0,0
37282,-100,4,2,1,50,0,1
42557,-100,4,2,1,50,0,0
46183,329.67032967033,4,2,1,50,1,0
50798,329.67032967033,4,2,1,50,1,0
50798,-100,4,2,1,50,0,0
61347,-133.333333333333,4,2,1,50,0,0
70248,-200,4,2,1,50,0,0
70495,-200,4,2,1,5,0,0
70578,-100,4,2,1,50,0,0
81127,-133.333333333333,4,2,1,50,0,0
90028,-66.6666666666667,4,2,1,50,0,0
90358,-100,4,2,1,50,0,0
97940,-66.6666666666667,4,2,5,50,0,0
98270,-80,4,2,1,70,0,1
108160,-80,4,2,1,70,0,0
108819,-80,4,2,1,70,0,1
118710,-80,4,2,1,70,0,0
119369,-80,4,2,1,70,0,1
122006,-133.333333333333,4,2,1,35,0,0
138490,329.67032967033,4,2,1,50,1,0
138490,-200,4,2,1,50,0,0
143764,-80,4,2,1,70,0,1
156951,-100,4,2,1,70,0,0
162226,-100,4,2,1,70,0,1
167500,-100,4,2,1,60,0,0
171127,329.67032967033,4,2,1,50,1,0
175742,329.67032967033,4,2,1,50,1,0
175742,-100,4,2,1,50,0,0
183324,-66.6666666666667,4,2,1,50,0,0
183654,-200,4,2,1,25,0,0
194203,-200,4,2,1,45,0,0
199148,-200,4,2,5,45,0,0
199478,-80,4,2,1,70,0,1
206731,-80,4,2,1,70,0,0
207390,-66.6666666666667,4,2,1,80,0,1
217280,-66.6666666666667,4,2,1,80,0,0
217610,-100,4,2,1,80,0,0
217939,-66.6666666666667,4,2,1,80,0,1
231126,-100,4,2,1,70,0,0
236401,-200,4,2,1,70,0,0
236483,-200,4,2,1,5,0,0

[HitObjects]
423,328,98270,5,0,0:0:0:0:
256,192,98291,12,0,98291,0:0:0:0:
143,99,98352,5,0,0:0:0:0:
256,192,98373,12,0,98373,0:0:0:0:
423,328,98435,5,0,0:0:0:0:
256,192,98455,12,0,98455,0:0:0:0:
147,103,98517,5,0,0:0:0:0:
256,192,98538,12,0,98538,0:0:0:0:
423,328,98600,5,0,0:0:0:0:
256,192,98620,12,0,98620,0:0:0:0:
151,107,98682,5,0,0:0:0:0:
256,192,98703,12,0,98703,0:0:0:0:
423,328,98765,5,0,0:0:0:0:
256,192,98785,12,0,98785,0:0:0:0:
155,111,98847,5,0,0:0:0:0:
256,192,98868,12,0,98868,0:0:0:0:
423,328,98929,5,0,0:0:0:0:
256,192,98950,12,0,98950,0:0:0:0:
159,115,99012,5,0,0:0:0:0:
256,192,99032,12,0,99032,0:0:0:0:
423,328,99094,5,0,0:0:0:0:
256,192,99115,12,0,99115,0:0:0:0:
163,119,99176,5,0,0:0:0:0:
256,192,99197,12,0,99197,0:0:0:0:
423,328,99259,5,0,0:0:0:0:
256,192,99280,12,0,99280,0:0:0:0:
167,123,99341,5,0,0:0:0:0:
256,192,99362,12,0,99362,0:0:0:0:
423,328,99424,5,0,0:0:0:0:
256,192,99444,12,0,99444,0:0:0:0:
173,130,99506,5,0,0:0:0:0:
256,192,99527,12,0,99527,0:0:0:0:
423,328,99589,5,0,0:0:0:0:
256,192,99609,12,0,99609,0:0:0:0:
177,134,99671,5,0,0:0:0:0:
256,192,99692,12,0,99692,0:0:0:0:
423,328,99754,5,0,0:0:0:0:
256,192,99774,12,0,99774,0:0:0:0:
181,138,99836,5,0,0:0:0:0:
256,192,99857,12,0,99857,0:0:0:0:
423,328,99918,5,0,0:0:0:0:
256,192,99939,12,0,99939,0:0:0:0:
185,142,100001,5,0,0:0:0:0:
256,192,100021,12,0,100021,0:0:0:0:
423,328,100083,5,0,0:0:0:0:
256,192,100104,12,0,100104,0:0:0:0:
189,146,100165,5,0,0:0:0:0:
256,192,100186,12,0,100186,0:0:0:0:
423,328,100248,5,0,0:0:0:0:
256,192,100269,12,0,100269,0:0:0:0:
193,150,100330,5,0,0:0:0:0:
256,192,100351,12,0,100351,0:0:0:0:
423,328,100413,5,0,0:0:0:0:
256,192,100433,12,0,100433,0:0:0:0:
197,154,100495,5,0,0:0:0:0:
256,192,100516,12,0,100516,0:0:0:0:
423,328,100578,5,0,0:0:0:0:
256,192,100598,12,0,100598,0:0:0:0:
201,158,100660,5,0,0:0:0:0:
256,192,100681,12,0,100681,0:0:0:0:
423,328,100743,5,0,0:0:0:0:
256,192,100763,12,0,100763,0:0:0:0:
205,162,100825,5,0,0:0:0:0:
256,192,100846,12,0,100846,0:0:0:0:
423,328,100907,5,0,0:0:0:0:
256,192,100928,12,0,100928,0:0:0:0:
209,166,100990,5,0,0:0:0:0:
256,192,101010,12,0,101010,0:0:0:0:
423,328,101072,5,0,0:0:0:0:
256,192,101093,12,0,101093,0:0:0:0:
213,170,101154,5,0,0:0:0:0:
256,192,101175,12,0,101175,0:0:0:0:
423,328,101237,5,0,0:0:0:0:
256,192,101258,12,0,101258,0:0:0:0:
218,177,101319,5,0,0:0:0:0:
256,192,101340,12,0,101340,0:0:0:0:
423,328,101402,5,0,0:0:0:0:
256,192,101423,12,0,101423,0:0:0:0:
222,181,101484,5,0,0:0:0:0:
256,192,101505,12,0,101505,0:0:0:0:
423,328,101567,5,0,0:0:0:0:
256,192,101587,12,0,101587,0:0:0:0:
226,185,101649,5,0,0:0:0:0:
256,192,101670,12,0,101670,0:0:0:0:
423,328,101732,5,0,0:0:0:0:
256,192,101752,12,0,101752,0:0:0:0:
230,189,101814,5,0,0:0:0:0:
256,192,101835,12,0,101835,0:0:0:0:
423,328,101896,5,0,0:0:0:0:
256,192,101917,12,0,101917,0:0:0:0:
234,193,101979,5,0,0:0:0:0:
256,192,101999,12,0,101999,0:0:0:0:
423,328,102061,5,0,0:0:0:0:
256,192,102082,12,0,102082,0:0:0:0:
238,197,102144,5,0,0:0:0:0:
256,192,102164,12,0,102164,0:0:0:0:
423,328,102226,5,0,0:0:0:0:
256,192,102247,12,0,102247,0:0:0:0:
242,201,102308,5,0,0:0:0:0:
256,192,102329,12,0,102329,0:0:0:0:
423,328,102391,5,0,0:0:0:0:
256,192,102412,12,0,102412,0:0:0:0:
246,205,102473,5,0,0:0:0:0:
256,192,102494,12,0,102494,0:0:0:0:
423,328,102556,5,0,0:0:0:0:
256,192,102576,12,0,102576,0:0:0:0:
250,209,102638,5,0,0:0:0:0:
256,192,102659,12,0,102659,0:0:0:0:
423,328,102721,5,0,0:0:0:0:
256,192,102741,12,0,102741,0:0:0:0:
254,213,102803,5,0,0:0:0:0:
256,192,102824,12,0,102824,0:0:0:0:
423,328,102885,5,0,0:0:0:0:
256,192,102906,12,0,102906,0:0:0:0:
258,217,102968,5,0,0:0:0:0:
256,192,102988,12,0,102988,0:0:0:0:
423,328,103050,5,0,0:0:0:0:
256,192,103071,12,0,103071,0:0:0:0:
262,221,103133,5,0,0:0:0:0:
256,192,103153,12,0,103153,0:0:0:0:
423,328,103215,5,0,0:0:0:0:
256,192,103236,12,0,103236,0:0:0:0:
268,228,103297,5,0,0:0:0:0:
256,192,103318,12,0,103318,0:0:0:0:
423,328,103380,5,0,0:0:0:0:
256,192,103401,12,0,103401,0:0:0:0:
272,232,103462,5,0,0:0:0:0:
256,192,103483,12,0,103483,0:0:0:0:
423,328,103545,5,0,0:0:0:0:
256,192,103565,12,0,103565,0:0:0:0:
276,236,103627,5,0,0:0:0:0:
256,192,103648,12,0,103648,0:0:0:0:
423,328,103710,5,0,0:0:0:0:
256,192,103730,12,0,103730,0:0:0:0:
280,240,103792,5,0,0:0:0:0:
256,192,103813,12,0,103813,0:0:0:0:
423,328,103874,5,0,0:0:0:0:
256,192,103895,12,0,103895,0:0:0:0:
284,244,103957,5,0,0:0:0:0:
256,192,103977,12,0,103977,0:0:0:0:
423,328,104039,5,0,0:0:0:0:
256,192,104060,12,0,104060,0:0:0:0:
288,248,104122,5,0,0:0:0:0:
256,192,104142,12,0,104142,0:0:0:0:
423,328,104204,5,0,0:0:0:0:
256,192,104225,12,0,104225,0:0:0:0:
292,252,104286,5,0,0:0:0:0:
256,192,104307,12,0,104307,0:0:0:0:
423,328,104369,5,0,0:0:0:0:
256,192,104390,12,0,104390,0:0:0:0:
296,256,104451,5,0,0:0:0:0:
256,192,104472,12,0,104472,0:0:0:0:
423,328,104534,5,0,0:0:0:0:
256,192,104554,12,0,104554,0:0:0:0:
300,260,104616,5,0,0:0:0:0:
256,192,104637,12,0,104637,0:0:0:0:
423,328,104699,5,0,0:0:0:0:
256,192,104719,12,0,104719,0:0:0:0:
304,264,104781,5,0,0:0:0:0:
256,192,104802,12,0,104802,0:0:0:0:
423,328,104863,5,0,0:0:0:0:
256,192,104884,12,0,104884,0:0:0:0:
308,268,104946,5,0,0:0:0:0:
256,192,104966,12,0,104966,0:0:0:0:
423,328,105028,5,0,0:0:0:0:
256,192,105049,12,0,105049,0:0:0:0:
312,272,105111,5,0,0:0:0:0:
256,192,105131,12,0,105131,0:0:0:0:
423,328,105193,5,0,0:0:0:0:
256,192,105214,12,0,105214,0:0:0:0:
316,276,105275,5,0,0:0:0:0:
256,192,105296,12,0,105296,0:0:0:0:
423,328,105358,5,0,0:0:0:0:
256,192,105379,12,0,105379,0:0:0:0:
320,280,105440,5,0,0:0:0:0:
256,192,105461,12,0,105461,0:0:0:0:
423,328,105523,5,0,0:0:0:0:
256,192,105543,12,0,105543,0:0:0:0:
320,280,105605,5,0,0:0:0:0:
256,192,105626,12,0,105626,0:0:0:0:
423,328,105688,5,0,0:0:0:0:
256,192,105708,12,0,105708,0:0:0:0:
324,284,105770,5,0,0:0:0:0:
256,192,105791,12,0,105791,0:0:0:0:
423,328,105852,5,0,0:0:0:0:
256,192,105873,12,0,105873,0:0:0:0:
328,288,105935,5,0,0:0:0:0:
256,192,105955,12,0,105955,0:0:0:0:
423,328,106017,5,0,0:0:0:0:
256,192,106038,12,0,106038,0:0:0:0:
332,292,106100,5,0,0:0:0:0:
256,192,106120,12,0,106120,0:0:0:0:
423,328,106182,5,0,0:0:0:0:
256,192,106203,12,0,106203,0:0:0:0:
336,296,106264,5,0,0:0:0:0:
256,192,106285,12,0,106285,0:0:0:0:
423,328,106347,5,0,0:0:0:0:
256,192,106368,12,0,106368,0:0:0:0:
340,300,106429,5,0,0:0:0:0:
256,192,106450,12,0,106450,0:0:0:0:
423,328,106512,5,0,0:0:0:0:
256,192,106532,12,0,106532,0:0:0:0:
344,305,106594,5,0,0:0:0:0:
256,192,106615,12,0,106615,0:0:0:0:
423,328,106677,5,0,0:0:0:0:
256,192,106697,12,0,106697,0:0:0:0:
348,310,106759,5,0,0:0:0:0:
256,192,106780,12,0,106780,0:0:0:0:
423,328,106841,5,0,0:0:0:0:
256,192,106862,12,0,106862,0:0:0:0:
352,315,106924,5,0,0:0:0:0:
256,192,106944,12,0,106944,0:0:0:0:
423,328,107006,5,0,0:0:0:0:
256,192,107027,12,0,107027,0:0:0:0:
356,320,107089,5,0,0:0:0:0:
256,192,107109,12,0,107109,0:0:0:0:
423,328,107171,5,0,0:0:0:0:
256,192,107192,12,0,107192,0:0:0:0:
359,325,107253,5,0,0:0:0:0:
256,192,107274,12,0,107274,0:0:0:0:
423,328,107336,5,0,0:0:0:0:
256,192,107357,12,0,107357,0:0:0:0:
362,330,107418,5,0,0:0:0:0:
256,192,107439,12,0,107439,0:0:0:0:
423,328,107501,5,0,0:0:0:0:
256,192,107521,12,0,107521,0:0:0:0:
371,335,107583,5,0,0:0:0:0:
256,192,107604,12,0,107604,0:0:0:0:
423,328,107666,5,0,0:0:0:0:
256,192,107686,12,0,107686,0:0:0:0:
380,347,107748,5,0,0:0:0:0:
256,192,107769,12,0,107769,0:0:0:0:
423,328,107830,5,0,0:0:0:0:
256,192,107851,12,0,107851,0:0:0:0:
380,347,107913,5,0,0:0:0:0:
256,192,107933,12,0,107933,0:0:0:0:
423,328,107995,5,0,0:0:0:0:
256,192,108016,12,0,108016,0:0:0:0:
380,347,108078,5,0,0:0:0:0:
256,192,108098,12,0,108098,0:0:0:0:
423,328,108160,5,0,0:0:0:0:
256,192,108181,12,0,108181,0:0:0:0:
423,328,108819,5,0,0:0:0:0:
256,192,108840,12,0,108840,0:0:0:0:
143,99,108901,5,0,0:0:0:0:
256,192,108923,12,0,108923,0:0:0:0:
423,328,108984,5,0,0:0:0:0:
256,192,109005,12,0,109005,0:0:0:0:
147,103,109066,5,0,0:0:0:0:
256,192,109087,12,0,109087,0:0:0:0:
423,328,109149,5,0,0:0:0:0:
256,192,109170,12,0,109170,0:0:0:0:
151,107,109231,5,0,0:0:0:0:
256,192,109252,12,0,109252,0:0:0:0:
423,328,109314,5,0,0:0:0:0:
256,192,109335,12,0,109335,0:0:0:0:
155,111,109396,5,0,0:0:0:0:
256,192,109417,12,0,109417,0:0:0:0:
423,328,109478,5,0,0:0:0:0:
256,192,109499,12,0,109499,0:0:0:0:
159,115,109561,5,0,0:0:0:0:
256,192,109582,12,0,109582,0:0:0:0:
423,328,109643,5,0,0:0:0:0:
256,192,109664,12,0,109664,0:0:0:0:
163,119,109725,5,0,0:0:0:0:
256,192,109747,12,0,109747,0:0:0:0:
423,328,109808,5,0,0:0:0:0:
256,192,109829,12,0,109829,0:0:0:0:
167,123,109890,5,0,0:0:0:0:
256,192,109912,12,0,109912,0:0:0:0:
423,328,109973,5,0,0:0:0:0:
256,192,109994,12,0,109994,0:0:0:0:
173,130,110055,5,0,0:0:0:0:
256,192,110076,12,0,110076,0:0:0:0:
423,328,110138,5,0,0:0:0:0:
256,192,110159,12,0,110159,0:0:0:0:
177,134,110220,5,0,0:0:0:0:
256,192,110241,12,0,110241,0:0:0:0:
423,328,110303,5,0,0:0:0:0:
256,192,110324,12,0,110324,0:0:0:0:
181,138,110385,5,0,0:0:0:0:
256,192,110406,12,0,110406,0:0:0:0:
423,328,110467,5,0,0:0:0:0:
256,192,110488,12,0,110488,0:0:0:0:
185,142,110550,5,0,0:0:0:0:
256,192,110571,12,0,110571,0:0:0:0:
423,328,110632,5,0,0:0:0:0:
256,192,110653,12,0,110653,0:0:0:0:
189,146,110714,5,0,0:0:0:0:
256,192,110736,12,0,110736,0:0:0:0:
423,328,110797,5,0,0:0:0:0:
256,192,110818,12,0,110818,0:0:0:0:
193,150,110879,5,0,0:0:0:0:
256,192,110901,12,0,110901,0:0:0:0:
423,328,110962,5,0,0:0:0:0:
256,192,110983,12,0,110983,0:0:0:0:
197,154,111044,5,0,0:0:0:0:
256,192,111065,12,0,111065,0:0:0:0:
423,328,111127,5,0,0:0:0:0:
256,192,111148,12,0,111148,0:0:0:0:
201,158,111209,5,0,0:0:0:0:
256,192,111230,12,0,111230,0:0:0:0:
423,328,111292,5,0,0:0:0:0:
256,192,111313,12,0,111313,0:0:0:0:
205,162,111374,5,0,0:0:0:0:
256,192,111395,12,0,111395,0:0:0:0:
423,328,111456,5,0,0:0:0:0:
256,192,111477,12,0,111477,0:0:0:0:
209,166,111539,5,0,0:0:0:0:
256,192,111560,12,0,111560,0:0:0:0:
423,328,111621,5,0,0:0:0:0:
256,192,111642,12,0,111642,0:0:0:0:
213,170,111703,5,0,0:0:0:0:
256,192,111725,12,0,111725,0:0:0:0:
423,328,111786,5,0,0:0:0:0:
256,192,111807,12,0,111807,0:0:0:0:
218,177,111868,5,0,0:0:0:0:
256,192,111890,12,0,111890,0:0:0:0:
423,328,111951,5,0,0:0:0:0:
256,192,111972,12,0,111972,0:0:0:0:
222,181,112033,5,0,0:0:0:0:
256,192,112054,12,0,112054,0:0:0:0:
423,328,112116,5,0,0:0:0:0:
256,192,112137,12,0,112137,0:0:0:0:
226,185,112198,5,0,0:0:0:0:
256,192,112219,12,0,112219,0:0:0:0:
423,328,112281,5,0,0:0:0:0:
256,192,112302,12,0,112302,0:0:0:0:
230,189,112363,5,0,0:0:0:0:
256,192,112384,12,0,112384,0:0:0:0:
423,328,112445,5,0,0:0:0:0:
256,192,112466,12,0,112466,0:0:0:0:
234,193,112528,5,0,0:0:0:0:
256,192,112549,12,0,112549,0:0:0:0:
423,328,112610,5,0,0:0:0:0:
256,192,112631,12,0,112631,0:0:0:0:
238,197,112693,5,0,0:0:0:0:
256,192,112714,12,0,112714,0:0:0:0:
423,328,112775,5,0,0:0:0:0:
256,192,112796,12,0,112796,0:0:0:0:
242,201,112857,5,0,0:0:0:0:
256,192,112879,12,0,112879,0:0:0:0:
423,328,112940,5,0,0:0:0:0:
256,192,112961,12,0,112961,0:0:0:0:
246,205,113022,5,0,0:0:0:0:
256,192,113043,12,0,113043,0:0:0:0:
423,328,113105,5,0,0:0:0:0:
256,192,113126,12,0,113126,0:0:0:0:
250,209,113187,5,0,0:0:0:0:
256,192,113208,12,0,113208,0:0:0:0:
423,328,113270,5,0,0:0:0:0:
256,192,113291,12,0,113291,0:0:0:0:
254,213,113352,5,0,0:0:0:0:
256,192,113373,12,0,113373,0:0:0:0:
423,328,113434,5,0,0:0:0:0:
256,192,113455,12,0,113455,0:0:0:0:
258,217,113517,5,0,0:0:0:0:
256,192,113538,12,0,113538,0:0:0:0:
423,328,113599,5,0,0:0:0:0:
256,192,113620,12,0,113620,0:0:0:0:
262,221,113682,5,0,0:0:0:0:
256,192,113703,12,0,113703,0:0:0:0:
423,328,113764,5,0,0:0:0:0:
256,192,113785,12,0,113785,0:0:0:0:
268,228,113846,5,0,0:0:0:0:
256,192,113868,12,0,113868,0:0:0:0:
423,328,113929,5,0,0:0:0:0:
256,192,113950,12,0,113950,0:0:0:0:
272,232,114011,5,0,0:0:0:0:
256,192,114032,12,0,114032,0:0:0:0:
423,328,114094,5,0,0:0:0:0:
256,192,114115,12,0,114115,0:0:0:0:
276,236,114176,5,0,0:0:0:0:
256,192,114197,12,0,114197,0:0:0:0:
423,328,114259,5,0,0:0:0:0:
256,192,114280,12,0,114280,0:0:0:0:
280,240,114341,5,0,0:0:0:0:
256,192,114362,12,0,114362,0:0:0:0:
423,328,114423,5,0,0:0:0:0:
256,192,114444,12,0,114444,0:0:0:0:
284,244,114506,5,0,0:0:0:0:
256,192,114527,12,0,114527,0:0:0:0:
423,328,114588,5,0,0:0:0:0:
256,192,114609,12,0,114609,0:0:0:0:
288,248,114671,5,0,0:0:0:0:
256,192,114692,12,0,114692,0:0:0:0:
423,328,114753,5,0,0:0:0:0:
256,192,114774,12,0,114774,0:0:0:0:
292,252,114835,5,0,0:0:0:0:
256,192,114857,12,0,114857,0:0:0:0:
423,328,114918,5,0,0:0:0:0:
256,192,114939,12,0,114939,0:0:0:0:
296,256,115000,5,0,0:0:0:0:
256,192,115021,12,0,115021,0:0:0:0:
423,328,115083,5,0,0:0:0:0:
256,192,115104,12,0,115104,0:0:0:0:
300,260,115165,5,0,0:0:0:0:
256,192,115186,12,0,115186,0:0:0:0:
423,328,115248,5,0,0:0:0:0:
256,192,115269,12,0,115269,0:0:0:0:
304,264,115330,5,0,0:0:0:0:
256,192,115351,12,0,115351,0:0:0:0:
423,328,115412,5,0,0:0:0:0:
256,192,115433,12,0,115433,0:0:0:0:
308,268,115495,5,0,0:0:0:0:
256,192,115516,12,0,115516,0:0:0:0:
423,328,115577,5,0,0:0:0:0:
256,192,115598,12,0,115598,0:0:0:0:
312,272,115660,5,0,0:0:0:0:
256,192,115681,12,0,115681,0:0:0:0:
423,328,115742,5,0,0:0:0:0:
256,192,115763,12,0,115763,0:0:0:0:
316,276,115824,5,0,0:0:0:0:
256,192,115846,12,0,115846,0:0:0:0:
423,328,115907,5,0,0:0:0:0:
256,192,115928,12,0,115928,0:0:0:0:
320,280,115989,5,0,0:0:0:0:
256,192,116010,12,0,116010,0:0:0:0:
423,328,116072,5,0,0:0:0:0:
256,192,116093,12,0,116093,0:0:0:0:
320,280,116154,5,0,0:0:0:0:
256,192,116175,12,0,116175,0:0:0:0:
423,328,116237,5,0,0:0:0:0:
256,192,116258,12,0,116258,0:0:0:0:
324,284,116319,5,0,0:0:0:0:
256,192,116340,12,0,116340,0:0:0:0:
423,328,116401,5,0,0:0:0:0:
256,192,116423,12,0,116423,0:0:0:0:
328,288,116484,5,0,0:0:0:0:
256,192,116505,12,0,116505,0:0:0:0:
423,328,116566,5,0,0:0:0:0:
256,192,116587,12,0,116587,0:0:0:0:
332,292,116649,5,0,0:0:0:0:
256,192,116670,12,0,116670,0:0:0:0:
423,328,116731,5,0,0:0:0:0:
256,192,116752,12,0,116752,0:0:0:0:
336,296,116813,5,0,0:0:0:0:
256,192,116835,12,0,116835,0:0:0:0:
423,328,116896,5,0,0:0:0:0:
256,192,116917,12,0,116917,0:0:0:0:
340,300,116978,5,0,0:0:0:0:
256,192,116999,12,0,116999,0:0:0:0:
423,328,117061,5,0,0:0:0:0:
256,192,117082,12,0,117082,0:0:0:0:
344,305,117143,5,0,0:0:0:0:
256,192,117164,12,0,117164,0:0:0:0:
423,328,117226,5,0,0:0:0:0:
256,192,117247,12,0,117247,0:0:0:0:
348,310,117308,5,0,0:0:0:0:
256,192,117329,12,0,117329,0:0:0:0:
423,328,117390,5,0,0:0:0:0:
256,192,117412,12,0,117412,0:0:0:0:
352,315,117473,5,0,0:0:0:0:
256,192,117494,12,0,117494,0:0:0:0:
423,328,117555,5,0,0:0:0:0:
256,192,117576,12,0,117576,0:0:0:0:
356,320,117638,5,0,0:0:0:0:
256,192,117659,12,0,117659,0:0:0:0:
423,328,117720,5,0,0:0:0:0:
256,192,117741,12,0,117741,0:0:0:0:
359,325,117802,5,0,0:0:0:0:
256,192,117824,12,0,117824,0:0:0:0:
423,328,117885,5,0,0:0:0:0:
256,192,117906,12,0,117906,0:0:0:0:
362,330,117967,5,0,0:0:0:0:
256,192,117988,12,0,117988,0:0:0:0:
423,328,118050,5,0,0:0:0:0:
256,192,118071,12,0,118071,0:0:0:0:
371,335,118132,5,0,0:0:0:0:
256,192,118153,12,0,118153,0:0:0:0:
423,328,118215,5,0,0:0:0:0:
256,192,118236,12,0,118236,0:0:0:0:
380,347,118297,5,0,0:0:0:0:
256,192,118318,12,0,118318,0:0:0:0:
423,328,118379,5,0,0:0:0:0:
256,192,118401,12,0,118401,0:0:0:0:
380,347,118462,5,0,0:0:0:0:
256,192,118483,12,0,118483,0:0:0:0:
423,328,118544,5,0,0:0:0:0:
256,192,118565,12,0,118565,0:0:0:0:
380,347,118627,5,0,0:0:0:0:
256,192,118648,12,0,118648,0:0:0:0:
423,328,118709,5,0,0:0:0:0:
256,192,118730,12,0,118730,0:0:0:0:
245,159,119368,5,0,0:0:0:0:
256,192,119390,12,0,119390,0:0:0:0:
143,99,119451,5,0,0:0:0:0:
256,192,119472,12,0,119472,0:0:0:0:
245,159,119533,5,0,0:0:0:0:
256,192,119554,12,0,119554,0:0:0:0:
147,103,119616,5,0,0:0:0:0:
256,192,119637,12,0,119637,0:0:0:0:
245,159,119698,5,0,0:0:0:0:
256,192,119719,12,0,119719,0:0:0:0:
151,107,119781,5,0,0:0:0:0:
256,192,119802,12,0,119802,0:0:0:0:
245,159,119863,5,0,0:0:0:0:
256,192,119884,12,0,119884,0:0:0:0:
155,111,119946,5,0,0:0:0:0:
256,192,119966,12,0,119966,0:0:0:0:
245,159,120027,5,0,0:0:0:0:
256,192,120049,12,0,120049,0:0:0:0:
159,115,120111,5,0,0:0:0:0:
256,192,120131,12,0,120131,0:0:0:0:
245,159,120192,5,0,0:0:0:0:
256,192,120214,12,0,120214,0:0:0:0:
163,119,120275,5,0,0:0:0:0:
256,192,120296,12,0,120296,0:0:0:0:
245,159,120357,5,0,0:0:0:0:
256,192,120379,12,0,120379,0:0:0:0:
167,123,120440,5,0,0:0:0:0:
256,192,120461,12,0,120461,0:0:0:0:
245,159,120522,5,0,0:0:0:0:
256,192,120543,12,0,120543,0:0:0:0:
173,130,120605,5,0,0:0:0:0:
256,192,120626,12,0,120626,0:0:0:0:
245,159,120687,5,0,0:0:0:0:
256,192,120708,12,0,120708,0:0:0:0:
177,134,120770,5,0,0:0:0:0:
256,192,120791,12,0,120791,0:0:0:0:
245,159,120852,5,0,0:0:0:0:
256,192,120873,12,0,120873,0:0:0:0:
181,138,120935,5,0,0:0:0:0:
256,192,120955,12,0,120955,0:0:0:0:
245,159,121016,5,0,0:0:0:0:
256,192,121038,12,0,121038,0:0:0:0:
185,142,121100,5,0,0:0:0:0:
256,192,121120,12,0,121120,0:0:0:0:
245,159,121181,5,0,0:0:0:0:
256,192,121203,12,0,121203,0:0:0:0:
189,146,121264,5,0,0:0:0:0:
256,192,121285,12,0,121285,0:0:0:0:
245,159,121346,5,0,0:0:0:0:
256,192,121368,12,0,121368,0:0:0:0:
193,150,121429,5,0,0:0:0:0:
256,192,121450,12,0,121450,0:0:0:0:
245,159,121511,5,0,0:0:0:0:
256,192,121532,12,0,121532,0:0:0:0:
197,154,121594,5,0,0:0:0:0:
256,192,121615,12,0,121615,0:0:0:0:
245,159,121676,5,0,0:0:0:0:
256,192,121697,12,0,121697,0:0:0:0:
201,158,121759,5,0,0:0:0:0:
256,192,121780,12,0,121780,0:0:0:0:
245,159,121841,5,0,0:0:0:0:
256,192,121862,12,0,121862,0:0:0:0:
205,162,121924,5,0,0:0:0:0:
256,192,121944,12,0,121944,0:0:0:0:
245,159,122006,5,0,0:0:0:0:
256,192,122027,12,0,122027,0:0:0:0:
